  0
SECTION
  2
HEADER
  9
$ACADVER
  1
AC1014
  9
$ACADMAINTVER
 70
     9
  9
$DWGCODEPAGE
  3
ANSI_1252
  9
$INSBASE
 10
0.0
 20
0.0
 30
0.0
  9
$EXTMIN
 10
-41.91377565690146
 20
-367.3452326150585
 30
0.0
  9
$EXTMAX
 10
483.0862243430988
 20
375.1547673849419
 30
0.0
  9
$LIMMIN
 10
0.0
 20
0.0
  9
$LIMMAX
 10
12.0
 20
9.0
  9
$ORTHOMODE
 70
     0
  9
$REGENMODE
 70
     1
  9
$FILLMODE
 70
     1
  9
$QTEXTMODE
 70
     0
  9
$MIRRTEXT
 70
     1
  9
$DRAGMODE
 70
     2
  9
$LTSCALE
 40
1.0
  9
$OSMODE
 70
    37
  9
$ATTMODE
 70
     1
  9
$TEXTSIZE
 40
0.2
  9
$TRACEWID
 40
0.05
  9
$TEXTSTYLE
  7
STANDARD
  9
$CLAYER
  8
0
  9
$CELTYPE
  6
BYLAYER
  9
$CECOLOR
 62
   256
  9
$CELTSCALE
 40
1.0
  9
$DELOBJ
 70
     1
  9
$DISPSILH
 70
     0
  9
$DIMSCALE
 40
1.0
  9
$DIMASZ
 40
0.18
  9
$DIMEXO
 40
0.0625
  9
$DIMDLI
 40
0.38
  9
$DIMRND
 40
0.0
  9
$DIMDLE
 40
0.0
  9
$DIMEXE
 40
0.18
  9
$DIMTP
 40
0.0
  9
$DIMTM
 40
0.0
  9
$DIMTXT
 40
0.18
  9
$DIMCEN
 40
0.09
  9
$DIMTSZ
 40
0.0
  9
$DIMTOL
 70
     0
  9
$DIMLIM
 70
     0
  9
$DIMTIH
 70
     1
  9
$DIMTOH
 70
     1
  9
$DIMSE1
 70
     0
  9
$DIMSE2
 70
     0
  9
$DIMTAD
 70
     0
  9
$DIMZIN
 70
     0
  9
$DIMBLK
  1

  9
$DIMASO
 70
     1
  9
$DIMSHO
 70
     1
  9
$DIMPOST
  1

  9
$DIMAPOST
  1

  9
$DIMALT
 70
     0
  9
$DIMALTD
 70
     2
  9
$DIMALTF
 40
25.4
  9
$DIMLFAC
 40
1.0
  9
$DIMTOFL
 70
     0
  9
$DIMTVP
 40
0.0
  9
$DIMTIX
 70
     0
  9
$DIMSOXD
 70
     0
  9
$DIMSAH
 70
     0
  9
$DIMBLK1
  1

  9
$DIMBLK2
  1

  9
$DIMSTYLE
  2
STANDARD
  9
$DIMCLRD
 70
     0
  9
$DIMCLRE
 70
     0
  9
$DIMCLRT
 70
     0
  9
$DIMTFAC
 40
1.0
  9
$DIMGAP
 40
0.09
  9
$DIMJUST
 70
     0
  9
$DIMSD1
 70
     0
  9
$DIMSD2
 70
     0
  9
$DIMTOLJ
 70
     1
  9
$DIMTZIN
 70
     0
  9
$DIMALTZ
 70
     0
  9
$DIMALTTZ
 70
     0
  9
$DIMFIT
 70
     3
  9
$DIMUPT
 70
     0
  9
$DIMUNIT
 70
     2
  9
$DIMDEC
 70
     4
  9
$DIMTDEC
 70
     4
  9
$DIMALTU
 70
     2
  9
$DIMALTTD
 70
     2
  9
$DIMTXSTY
  7
STANDARD
  9
$DIMAUNIT
 70
     0
  9
$LUNITS
 70
     2
  9
$LUPREC
 70
     4
  9
$SKETCHINC
 40
0.1
  9
$FILLETRAD
 40
0.5
  9
$AUNITS
 70
     0
  9
$AUPREC
 70
     0
  9
$MENU
  1
.
  9
$ELEVATION
 40
0.0
  9
$PELEVATION
 40
0.0
  9
$THICKNESS
 40
0.0
  9
$LIMCHECK
 70
     0
  9
$CHAMFERA
 40
0.5
  9
$CHAMFERB
 40
0.5
  9
$CHAMFERC
 40
1.0
  9
$CHAMFERD
 40
0.0
  9
$SKPOLY
 70
     0
  9
$TDCREATE
 40
2455250.260848032
  9
$TDUPDATE
 40
2455250.260848044
  9
$TDINDWG
 40
0.0000000116
  9
$TDUSRTIMER
 40
0.0000000116
  9
$USRTIMER
 70
     1
  9
$ANGBASE
 50
0.0
  9
$ANGDIR
 70
     0
  9
$PDMODE
 70
     0
  9
$PDSIZE
 40
0.0
  9
$PLINEWID
 40
0.0
  9
$COORDS
 70
     1
  9
$SPLFRAME
 70
     0
  9
$SPLINETYPE
 70
     6
  9
$SPLINESEGS
 70
     8
  9
$ATTDIA
 70
     0
  9
$ATTREQ
 70
     1
  9
$HANDLING
 70
     1
  9
$HANDSEED
  5
422
  9
$SURFTAB1
 70
     6
  9
$SURFTAB2
 70
     6
  9
$SURFTYPE
 70
     6
  9
$SURFU
 70
     6
  9
$SURFV
 70
     6
  9
$UCSNAME
  2

  9
$UCSORG
 10
0.0
 20
0.0
 30
0.0
  9
$UCSXDIR
 10
1.0
 20
0.0
 30
0.0
  9
$UCSYDIR
 10
0.0
 20
1.0
 30
0.0
  9
$PUCSNAME
  2

  9
$PUCSORG
 10
0.0
 20
0.0
 30
0.0
  9
$PUCSXDIR
 10
1.0
 20
0.0
 30
0.0
  9
$PUCSYDIR
 10
0.0
 20
1.0
 30
0.0
  9
$USERI1
 70
     0
  9
$USERI2
 70
     0
  9
$USERI3
 70
     0
  9
$USERI4
 70
     0
  9
$USERI5
 70
     0
  9
$USERR1
 40
13.2
  9
$USERR2
 40
0.0
  9
$USERR3
 40
0.0
  9
$USERR4
 40
0.0
  9
$USERR5
 40
0.0
  9
$WORLDVIEW
 70
     1
  9
$SHADEDGE
 70
     3
  9
$SHADEDIF
 70
    70
  9
$TILEMODE
 70
     1
  9
$MAXACTVP
 70
    64
  9
$PINSBASE
 10
0.0
 20
0.0
 30
0.0
  9
$PLIMCHECK
 70
     0
  9
$PEXTMIN
 10
1.00000000000000E+20
 20
1.00000000000000E+20
 30
1.00000000000000E+20
  9
$PEXTMAX
 10
-1.00000000000000E+20
 20
-1.00000000000000E+20
 30
-1.00000000000000E+20
  9
$PLIMMIN
 10
0.0
 20
0.0
  9
$PLIMMAX
 10
12.0
 20
9.0
  9
$UNITMODE
 70
     0
  9
$VISRETAIN
 70
     1
  9
$PLINEGEN
 70
     0
  9
$PSLTSCALE
 70
     1
  9
$TREEDEPTH
 70
  3020
  9
$PICKSTYLE
 70
     1
  9
$CMLSTYLE
  2
STANDARD
  9
$CMLJUST
 70
     0
  9
$CMLSCALE
 40
1.0
  9
$PROXYGRAPHICS
 70
     1
  9
$MEASUREMENT
 70
     1
  0
ENDSEC
  0
SECTION
  2
CLASSES
  0
CLASS
  1
ACDBDICTIONARYWDFLT
  2
AcDbDictionaryWithDefault
  3
ObjectDBX Classes
 90
        0
280
     0
281
     0
  0
CLASS
  1
TABLESTYLE
  2
AcDbTableStyle
  3
ObjectDBX Classes
 90
     2047
280
     0
281
     0
  0
CLASS
  1
DICTIONARYVAR
  2
AcDbDictionaryVar
  3
ObjectDBX Classes
 90
        0
280
     0
281
     0
  0
CLASS
  1

  2
exOdDbCircle
  3

 90
        0
280
     0
281
     1
  0
CLASS
  1
XRECORD
  2
AcDbXrecord
  3
AutoCAD 2000
 90
        0
280
     0
281
     0
  0
CLASS
  1
LWPOLYLINE
  2
AcDbPolyline
  3
AutoCAD 2000
 90
        0
280
     0
281
     1
  0
CLASS
  1
HATCH
  2
AcDbHatch
  3
AutoCAD 2000
 90
        0
280
     0
281
     1
  0
CLASS
  1
ACDBPLACEHOLDER
  2
AcDbPlaceHolder
  3
ObjectDBX Classes
 90
        0
280
     0
281
     0
  0
CLASS
  1
LAYOUT
  2
AcDbLayout
  3
ObjectDBX Classes
 90
        0
280
     0
281
     0
  0
ENDSEC
  0
SECTION
  2
TABLES
  0
TABLE
  2
VPORT
  5
8
330
0
100
AcDbSymbolTable
 70
     2
  0
VPORT
  5
29
102
{ACAD_XDICTIONARY
360
420
102
}
330
8
100
AcDbSymbolTableRecord
100
AcDbViewportTableRecord
  2
*ACTIVE
 70
     0
 10
0.0
 20
0.0
 11
1.0
 21
1.0
 12
220.5862243430987
 22
3.90476738494172
 13
0.0
 23
0.0
 14
0.5
 24
0.5
 15
0.5
 25
0.5
 16
0.0
 26
0.0
 36
1.0
 17
0.0
 27
0.0
 37
0.0
 40
816.7500000000006
 41
1.60267857142857
 42
50.0
 43
0.0
 44
0.0
 50
0.0
 51
0.0
 71
     0
 72
   100
 73
     1
 74
     3
 75
     0
 76
     0
 77
     0
 78
     0
  0
ENDTAB
  0
TABLE
  2
LTYPE
  5
5
330
0
100
AcDbSymbolTable
 70
     8
  0
LTYPE
  5
14
330
5
100
AcDbSymbolTableRecord
100
AcDbLinetypeTableRecord
  2
BYBLOCK
 70
     0
  3

 72
    65
 73
     0
 40
0.0
  0
LTYPE
  5
15
330
5
100
AcDbSymbolTableRecord
100
AcDbLinetypeTableRecord
  2
BYLAYER
 70
     0
  3

 72
    65
 73
     0
 40
0.0
  0
LTYPE
  5
16
330
5
100
AcDbSymbolTableRecord
100
AcDbLinetypeTableRecord
  2
CONTINUOUS
 70
     0
  3
Solid line
 72
    65
 73
     0
 40
0.0
  0
LTYPE
  5
2E
330
5
100
AcDbSymbolTableRecord
100
AcDbLinetypeTableRecord
  2
DASHED
 70
     0
  3
Dashed
 72
    65
 73
     2
 40
15.0
 49
7.0
 74
     0
 49
-8.0
 74
     0
  0
LTYPE
  5
2F
330
5
100
AcDbSymbolTableRecord
100
AcDbLinetypeTableRecord
  2
DOTTED
 70
     0
  3
Dotted
 72
    65
 73
     2
 40
1.0
 49
0.0
 74
     0
 49
-1.0
 74
     0
  0
LTYPE
  5
30
330
5
100
AcDbSymbolTableRecord
100
AcDbLinetypeTableRecord
  2
DOT_CENTER
 70
     0
  3
Dot_Center
 72
    65
 73
     4
 40
14.0
 49
12.0
 74
     0
 49
-1.0
 74
     0
 49
0.0
 74
     0
 49
-1.0
 74
     0
  0
LTYPE
  5
31
330
5
100
AcDbSymbolTableRecord
100
AcDbLinetypeTableRecord
  2
LONG_DASHED
 70
     0
  3
Long_Dashed
 72
    65
 73
     2
 40
15.0
 49
10.0
 74
     0
 49
-5.0
 74
     0
  0
LTYPE
  5
32
330
5
100
AcDbSymbolTableRecord
100
AcDbLinetypeTableRecord
  2
DASH_CENTER
 70
     0
  3
Dash_Center
 72
    65
 73
     4
 40
14.0
 49
11.0
 74
     0
 49
-1.0
 74
     0
 49
1.0
 74
     0
 49
-1.0
 74
     0
  0
LTYPE
  5
33
330
5
100
AcDbSymbolTableRecord
100
AcDbLinetypeTableRecord
  2
PHANTOM
 70
     0
  3
Phantom
 72
    65
 73
     6
 40
13.0
 49
10.0
 74
     0
 49
-1.0
 74
     0
 49
0.0
 74
     0
 49
-1.0
 74
     0
 49
0.0
 74
     0
 49
-1.0
 74
     0
  0
LTYPE
  5
34
330
5
100
AcDbSymbolTableRecord
100
AcDbLinetypeTableRecord
  2
CENTER_DASH_DASH
 70
     0
  3
Center_Dash_Dash
 72
    65
 73
     6
 40
14.0
 49
9.0
 74
     0
 49
-1.0
 74
     0
 49
1.0
 74
     0
 49
-1.0
 74
     0
 49
1.0
 74
     0
 49
-1.0
 74
     0
  0
ENDTAB
  0
TABLE
  2
LAYER
  5
2
330
0
100
AcDbSymbolTable
 70
    10
  0
LAYER
  5
10
330
2
100
AcDbSymbolTableRecord
100
AcDbLayerTableRecord
  2
0
 70
     0
 62
     7
  6
CONTINUOUS
  0
LAYER
  5
35
330
2
100
AcDbSymbolTableRecord
100
AcDbLayerTableRecord
  2
1
 70
     0
 62
     7
  6
CONTINUOUS
  0
LAYER
  5
36
330
2
100
AcDbSymbolTableRecord
100
AcDbLayerTableRecord
  2
BREIT-VOLL-LINIE
 70
     0
 62
     7
  6
CONTINUOUS
  0
LAYER
  5
37
330
2
100
AcDbSymbolTableRecord
100
AcDbLayerTableRecord
  2
MK
 70
     0
 62
     7
  6
CONTINUOUS
  0
LAYER
  5
38
330
2
100
AcDbSymbolTableRecord
100
AcDbLayerTableRecord
  2
MN
 70
     0
 62
     7
  6
CONTINUOUS
  0
LAYER
  5
39
330
2
100
AcDbSymbolTableRecord
100
AcDbLayerTableRecord
  2
VB
 70
     0
 62
     7
  6
CONTINUOUS
  0
LAYER
  5
3A
330
2
100
AcDbSymbolTableRecord
100
AcDbLayerTableRecord
  2
Z1
 70
     0
 62
     7
  6
CONTINUOUS
  0
LAYER
  5
3B
330
2
100
AcDbSymbolTableRecord
100
AcDbLayerTableRecord
  2
Z2
 70
     0
 62
     7
  6
CONTINUOUS
  0
LAYER
  5
3C
330
2
100
AcDbSymbolTableRecord
100
AcDbLayerTableRecord
  2
Z4
 70
     0
 62
     7
  6
CONTINUOUS
  0
LAYER
  5
3D
330
2
100
AcDbSymbolTableRecord
100
AcDbLayerTableRecord
  2
Z5
 70
     0
 62
     7
  6
CONTINUOUS
  0
ENDTAB
  0
TABLE
  2
STYLE
  5
3
330
0
100
AcDbSymbolTable
 70
    10
  0
STYLE
  5
11
330
3
100
AcDbSymbolTableRecord
100
AcDbTextStyleTableRecord
  2
STANDARD
 70
     0
 40
0.0
 41
1.0
 50
0.0
 71
     0
 42
0.2
  3
txt
  4

  0
STYLE
  5
D9
330
3
100
AcDbSymbolTableRecord
100
AcDbTextStyleTableRecord
  2
CONVERTER_1
 70
     0
 40
0.0
 41
0.72
 50
0.0
 71
     0
 42
0.2
  3
txt.shx
  4

  0
STYLE
  5
DB
330
3
100
AcDbSymbolTableRecord
100
AcDbTextStyleTableRecord
  2
CONVERTER_2
 70
     0
 40
0.0
 41
0.63
 50
0.0
 71
     0
 42
0.2
  3
txt.shx
  4

  0
STYLE
  5
EA
330
3
100
AcDbSymbolTableRecord
100
AcDbTextStyleTableRecord
  2
CONVERTER_3
 70
     0
 40
0.0
 41
0.8415
 50
0.0
 71
     0
 42
0.2
  3
txt.shx
  4

  0
STYLE
  5
EC
330
3
100
AcDbSymbolTableRecord
100
AcDbTextStyleTableRecord
  2
CONVERTER_4
 70
     0
 40
0.0
 41
0.585
 50
0.0
 71
     0
 42
0.2
  3
txt.shx
  4

  0
STYLE
  5
F5
330
3
100
AcDbSymbolTableRecord
100
AcDbTextStyleTableRecord
  2
CONVERTER_5
 70
     0
 40
0.0
 41
0.675
 50
0.0
 71
     0
 42
0.2
  3
txt.shx
  4

  0
STYLE
  5
107
330
3
100
AcDbSymbolTableRecord
100
AcDbTextStyleTableRecord
  2
CONVERTER_6
 70
     0
 40
0.0
 41
0.9
 50
0.0
 71
     0
 42
0.2
  3
txt.shx
  4

  0
STYLE
  5
10A
330
3
100
AcDbSymbolTableRecord
100
AcDbTextStyleTableRecord
  2
CONVERTER_7
 70
     0
 40
0.0
 41
0.7425
 50
0.0
 71
     0
 42
0.2
  3
txt.shx
  4

  0
STYLE
  5
121
330
3
100
AcDbSymbolTableRecord
100
AcDbTextStyleTableRecord
  2
CONVERTER_8
 70
     0
 40
0.0
 41
0.7125
 50
0.0
 71
     0
 42
0.2
  3
complex.shx
  4

  0
STYLE
  5
123
330
3
100
AcDbSymbolTableRecord
100
AcDbTextStyleTableRecord
  2
CONVERTER_9
 70
     0
 40
0.0
 41
0.76
 50
0.0
 71
     0
 42
0.2
  3
complex.shx
  4

  0
ENDTAB
  0
TABLE
  2
VIEW
  5
6
330
0
100
AcDbSymbolTable
 70
     0
  0
ENDTAB
  0
TABLE
  2
UCS
  5
7
330
0
100
AcDbSymbolTable
 70
     0
  0
ENDTAB
  0
TABLE
  2
APPID
  5
9
330
0
100
AcDbSymbolTable
 70
     1
  0
APPID
  5
12
330
9
100
AcDbSymbolTableRecord
100
AcDbRegAppTableRecord
  2
ACAD
 70
     0
  0
ENDTAB
  0
TABLE
  2
DIMSTYLE
  5
A
330
0
100
AcDbSymbolTable
 70
    42
  0
DIMSTYLE
105
27
330
A
100
AcDbSymbolTableRecord
100
AcDbDimStyleTableRecord
  2
STANDARD
 70
     0
  3

  4

  5

  6

  7

 40
1.0
 41
0.18
 42
0.0625
 43
0.38
 44
0.18
 45
0.0
 46
0.0
 47
0.0
 48
0.0
140
0.18
141
0.09
142
0.0
143
25.4
144
1.0
145
0.0
146
1.0
147
0.09
 71
     0
 72
     0
 73
     1
 74
     1
 75
     0
 76
     0
 77
     0
 78
     0
170
     0
171
     2
172
     0
173
     0
174
     0
175
     0
176
     0
177
     0
178
     0
270
     2
271
     4
272
     4
273
     2
274
     2
340
11
275
     0
280
     0
281
     0
282
     0
283
     1
284
     0
285
     0
286
     0
287
     3
288
     0
  0
DIMSTYLE
105
216
102
{ACAD_REACTORS
330
217
102
}
330
A
100
AcDbSymbolTableRecord
100
AcDbDimStyleTableRecord
  2
ME10_DIM_0
 70
     0
  3

  4

  5

  6

  7

 40
1.0
 41
8.75
 42
0.0
 43
0.38
 44
2.0
 45
0.0
 46
0.0
 47
0.0
 48
0.0
140
8.75
141
0.09
142
0.0
143
25.4
144
1.0
145
0.0
146
1.0
147
0.625
 71
     0
 72
     0
 73
     0
 74
     0
 75
     0
 76
     0
 77
     1
 78
     8
170
     0
171
     2
172
     1
173
     1
174
     0
175
     0
176
     3
177
     3
178
     2
270
     2
271
     2
272
     4
273
     2
274
     2
340
D9
275
     0
280
     0
281
     0
282
     0
283
     1
284
     0
285
     0
286
     0
287
     3
288
     0
  0
DIMSTYLE
105
221
102
{ACAD_REACTORS
330
222
102
}
330
A
100
AcDbSymbolTableRecord
100
AcDbDimStyleTableRecord
  2
ME10_DIM_1
 70
     0
  3

  4

  5

  6

  7

 40
1.0
 41
8.75
 42
0.0
 43
0.38
 44
2.5
 45
0.0
 46
0.0
 47
0.0
 48
0.0
140
8.75
141
0.09
142
0.0
143
25.4
144
1.0
145
0.0
146
1.0
147
0.625
 71
     0
 72
     0
 73
     0
 74
     0
 75
     0
 76
     0
 77
     1
 78
     8
170
     0
171
     2
172
     1
173
     1
174
     0
175
     0
176
     3
177
     3
178
     2
270
     2
271
     2
272
     4
273
     2
274
     2
340
DB
275
     0
280
     0
281
     0
282
     0
283
     1
284
     0
285
     0
286
     0
287
     3
288
     0
  0
DIMSTYLE
105
22C
102
{ACAD_REACTORS
330
22D
102
}
330
A
100
AcDbSymbolTableRecord
100
AcDbDimStyleTableRecord
  2
ME10_DIM_2
 70
     0
  3

  4

  5

  6

  7

 40
1.0
 41
8.75
 42
0.0
 43
0.38
 44
2.5
 45
0.0
 46
0.0
 47
0.0
 48
0.0
140
8.75
141
0.09
142
0.0
143
25.4
144
1.0
145
0.0
146
1.0
147
0.625
 71
     0
 72
     0
 73
     0
 74
     0
 75
     0
 76
     0
 77
     1
 78
     8
170
     0
171
     2
172
     1
173
     1
174
     0
175
     0
176
     3
177
     3
178
     2
270
     2
271
     2
272
     4
273
     2
274
     2
340
DB
275
     0
280
     0
281
     0
282
     0
283
     1
284
     0
285
     0
286
     0
287
     3
288
     0
  0
DIMSTYLE
105
239
102
{ACAD_REACTORS
330
23A
102
}
330
A
100
AcDbSymbolTableRecord
100
AcDbDimStyleTableRecord
  2
ME10_DIM_3
 70
     0
  3

  4

  5

  6

  7

 40
1.0
 41
8.75
 42
0.0
 43
0.38
 44
2.5
 45
0.0
 46
0.0
 47
0.0
 48
0.0
140
8.75
141
0.09
142
0.0
143
25.4
144
1.0
145
0.0
146
1.0
147
0.625
 71
     0
 72
     0
 73
     0
 74
     0
 75
     0
 76
     0
 77
     1
 78
     8
170
     0
171
     2
172
     1
173
     1
174
     0
175
     0
176
     3
177
     3
178
     2
270
     2
271
     2
272
     4
273
     2
274
     2
340
DB
275
     0
280
     0
281
     0
282
     0
283
     1
284
     0
285
     0
286
     0
287
     3
288
     0
  0
DIMSTYLE
105
246
102
{ACAD_REACTORS
330
247
102
}
330
A
100
AcDbSymbolTableRecord
100
AcDbDimStyleTableRecord
  2
ME10_DIM_4
 70
     0
  3

  4

  5

  6

  7

 40
1.0
 41
8.75
 42
0.0
 43
0.38
 44
2.5
 45
0.0
 46
0.0
 47
0.0
 48
0.0
140
8.75
141
0.09
142
0.0
143
25.4
144
1.0
145
0.0
146
1.0
147
0.625
 71
     0
 72
     0
 73
     0
 74
     0
 75
     0
 76
     0
 77
     1
 78
     8
170
     0
171
     2
172
     1
173
     1
174
     0
175
     0
176
     3
177
     3
178
     2
270
     2
271
     2
272
     4
273
     2
274
     2
340
DB
275
     0
280
     0
281
     0
282
     0
283
     1
284
     0
285
     0
286
     0
287
     3
288
     0
  0
DIMSTYLE
105
253
102
{ACAD_REACTORS
330
254
102
}
330
A
100
AcDbSymbolTableRecord
100
AcDbDimStyleTableRecord
  2
ME10_DIM_5
 70
     0
  3

  4

  5

  6

  7

 40
1.0
 41
8.75
 42
0.0
 43
0.38
 44
2.5
 45
0.0
 46
0.0
 47
0.0
 48
0.0
140
8.75
141
0.09
142
0.0
143
25.4
144
1.0
145
0.0
146
1.0
147
0.625
 71
     0
 72
     0
 73
     0
 74
     0
 75
     0
 76
     0
 77
     1
 78
     8
170
     0
171
     2
172
     1
173
     1
174
     0
175
     0
176
     3
177
     3
178
     2
270
     2
271
     2
272
     4
273
     2
274
     2
340
DB
275
     0
280
     0
281
     0
282
     0
283
     1
284
     0
285
     0
286
     0
287
     3
288
     0
  0
DIMSTYLE
105
25E
102
{ACAD_REACTORS
330
25F
102
}
330
A
100
AcDbSymbolTableRecord
100
AcDbDimStyleTableRecord
  2
ME10_DIM_6
 70
     0
  3

  4

  5

  6

  7

 40
1.0
 41
8.75
 42
0.0
 43
0.38
 44
2.0
 45
0.0
 46
0.0
 47
0.0
 48
0.0
140
8.75
141
0.09
142
0.0
143
25.4
144
1.0
145
0.0
146
1.0
147
0.625
 71
     0
 72
     0
 73
     0
 74
     0
 75
     0
 76
     0
 77
     1
 78
     8
170
     0
171
     2
172
     1
173
     1
174
     0
175
     0
176
     3
177
     3
178
     2
270
     2
271
     2
272
     4
273
     2
274
     2
340
D9
275
     0
280
     0
281
     0
282
     0
283
     1
284
     0
285
     0
286
     0
287
     3
288
     0
  0
DIMSTYLE
105
269
102
{ACAD_REACTORS
330
26A
102
}
330
A
100
AcDbSymbolTableRecord
100
AcDbDimStyleTableRecord
  2
ME10_DIM_7
 70
     0
  3

  4

  5

  6

  7

 40
1.0
 41
8.75
 42
0.0
 43
0.38
 44
2.0
 45
0.0
 46
0.0
 47
0.0
 48
0.0
140
8.75
141
0.09
142
0.0
143
25.4
144
1.0
145
0.0
146
1.0
147
0.625
 71
     0
 72
     0
 73
     0
 74
     0
 75
     0
 76
     0
 77
     1
 78
     8
170
     0
171
     2
172
     1
173
     1
174
     0
175
     0
176
     3
177
     3
178
     2
270
     2
271
     2
272
     4
273
     2
274
     2
340
D9
275
     0
280
     0
281
     0
282
     0
283
     1
284
     0
285
     0
286
     0
287
     3
288
     0
  0
DIMSTYLE
105
274
102
{ACAD_REACTORS
330
275
102
}
330
A
100
AcDbSymbolTableRecord
100
AcDbDimStyleTableRecord
  2
ME10_DIM_8
 70
     0
  3

  4

  5

  6

  7

 40
1.0
 41
8.75
 42
0.0
 43
0.38
 44
2.0
 45
0.0
 46
0.0
 47
0.0
 48
0.0
140
8.75
141
0.09
142
0.0
143
25.4
144
1.0
145
0.0
146
1.0
147
0.625
 71
     0
 72
     0
 73
     0
 74
     0
 75
     0
 76
     0
 77
     1
 78
     8
170
     0
171
     2
172
     1
173
     1
174
     0
175
     0
176
     3
177
     3
178
     2
270
     2
271
     2
272
     4
273
     2
274
     2
340
D9
275
     0
280
     0
281
     0
282
     0
283
     1
284
     0
285
     0
286
     0
287
     3
288
     0
  0
DIMSTYLE
105
27F
102
{ACAD_REACTORS
330
280
102
}
330
A
100
AcDbSymbolTableRecord
100
AcDbDimStyleTableRecord
  2
ME10_DIM_9
 70
     0
  3

  4

  5

  6

  7

 40
1.0
 41
8.75
 42
0.0
 43
0.38
 44
2.0
 45
0.0
 46
0.0
 47
0.0
 48
0.0
140
8.75
141
0.09
142
0.0
143
25.4
144
1.0
145
0.0
146
1.0
147
0.625
 71
     0
 72
     0
 73
     0
 74
     0
 75
     0
 76
     0
 77
     1
 78
     8
170
     0
171
     2
172
     1
173
     1
174
     0
175
     0
176
     3
177
     3
178
     2
270
     2
271
     2
272
     4
273
     2
274
     2
340
D9
275
     0
280
     0
281
     0
282
     0
283
     1
284
     0
285
     0
286
     0
287
     3
288
     0
  0
DIMSTYLE
105
28C
102
{ACAD_REACTORS
330
28D
102
}
330
A
100
AcDbSymbolTableRecord
100
AcDbDimStyleTableRecord
  2
ME10_DIM_10
 70
     0
  3

  4

  5

  6

  7

 40
1.0
 41
8.75
 42
0.0
 43
0.38
 44
2.0
 45
0.0
 46
0.0
 47
0.0
 48
0.0
140
8.75
141
0.09
142
0.0
143
25.4
144
1.0
145
0.0
146
1.0
147
0.625
 71
     0
 72
     0
 73
     0
 74
     0
 75
     0
 76
     0
 77
     1
 78
     8
170
     0
171
     2
172
     1
173
     1
174
     0
175
     0
176
     3
177
     3
178
     2
270
     2
271
     2
272
     4
273
     2
274
     2
340
D9
275
     0
280
     0
281
     0
282
     0
283
     1
284
     0
285
     0
286
     0
287
     3
288
     0
  0
DIMSTYLE
105
297
102
{ACAD_REACTORS
330
298
102
}
330
A
100
AcDbSymbolTableRecord
100
AcDbDimStyleTableRecord
  2
ME10_DIM_11
 70
     0
  3

  4

  5

  6

  7

 40
1.0
 41
8.75
 42
0.0
 43
0.38
 44
2.0
 45
0.0
 46
0.0
 47
0.0
 48
0.0
140
8.75
141
0.09
142
0.0
143
25.4
144
1.0
145
0.0
146
1.0
147
0.625
 71
     0
 72
     0
 73
     0
 74
     0
 75
     0
 76
     0
 77
     1
 78
     8
170
     0
171
     2
172
     1
173
     1
174
     0
175
     0
176
     3
177
     3
178
     2
270
     2
271
     2
272
     4
273
     2
274
     2
340
D9
275
     0
280
     0
281
     0
282
     0
283
     1
284
     0
285
     0
286
     0
287
     3
288
     0
  0
DIMSTYLE
105
2A2
102
{ACAD_REACTORS
330
2A3
102
}
330
A
100
AcDbSymbolTableRecord
100
AcDbDimStyleTableRecord
  2
ME10_DIM_12
 70
     0
  3

  4

  5

  6

  7

 40
1.0
 41
8.75
 42
0.0
 43
0.38
 44
2.0
 45
0.0
 46
0.0
 47
0.0
 48
0.0
140
8.75
141
0.09
142
0.0
143
25.4
144
1.0
145
0.0
146
1.0
147
0.625
 71
     0
 72
     0
 73
     0
 74
     0
 75
     0
 76
     0
 77
     1
 78
     8
170
     0
171
     2
172
     1
173
     1
174
     0
175
     0
176
     3
177
     3
178
     2
270
     2
271
     2
272
     4
273
     2
274
     2
340
D9
275
     0
280
     0
281
     0
282
     0
283
     1
284
     0
285
     0
286
     0
287
     3
288
     0
  0
DIMSTYLE
105
2AD
102
{ACAD_REACTORS
330
2AE
102
}
330
A
100
AcDbSymbolTableRecord
100
AcDbDimStyleTableRecord
  2
ME10_DIM_13
 70
     0
  3

  4

  5

  6

  7

 40
1.0
 41
8.75
 42
0.0
 43
0.38
 44
2.0
 45
0.0
 46
0.0
 47
0.0
 48
0.0
140
8.75
141
0.09
142
0.0
143
25.4
144
1.0
145
0.0
146
1.0
147
0.625
 71
     0
 72
     0
 73
     0
 74
     0
 75
     0
 76
     0
 77
     1
 78
     8
170
     0
171
     2
172
     1
173
     1
174
     0
175
     0
176
     3
177
     3
178
     2
270
     2
271
     2
272
     4
273
     2
274
     2
340
D9
275
     0
280
     0
281
     0
282
     0
283
     1
284
     0
285
     0
286
     0
287
     3
288
     0
  0
DIMSTYLE
105
2B8
102
{ACAD_REACTORS
330
2B9
102
}
330
A
100
AcDbSymbolTableRecord
100
AcDbDimStyleTableRecord
  2
ME10_DIM_14
 70
     0
  3

  4

  5

  6

  7

 40
1.0
 41
8.75
 42
0.0
 43
0.38
 44
2.0
 45
0.0
 46
0.0
 47
0.0
 48
0.0
140
8.75
141
0.09
142
0.0
143
25.4
144
1.0
145
0.0
146
1.0
147
0.625
 71
     0
 72
     0
 73
     0
 74
     0
 75
     0
 76
     0
 77
     1
 78
     8
170
     0
171
     2
172
     1
173
     1
174
     0
175
     0
176
     3
177
     3
178
     2
270
     2
271
     2
272
     4
273
     2
274
     2
340
D9
275
     0
280
     0
281
     0
282
     0
283
     1
284
     0
285
     0
286
     0
287
     3
288
     0
  0
DIMSTYLE
105
2C5
102
{ACAD_REACTORS
330
2C6
102
}
330
A
100
AcDbSymbolTableRecord
100
AcDbDimStyleTableRecord
  2
ME10_DIM_15
 70
     0
  3
<>
  4

  5

  6

  7

 40
1.0
 41
8.75
 42
0.0
 43
0.38
 44
2.0
 45
0.0
 46
0.0
 47
0.0
 48
0.0
140
8.75
141
0.09
142
0.0
143
25.4
144
1.0
145
0.0
146
0.71428571428571
147
0.625
 71
     1
 72
     0
 73
     0
 74
     0
 75
     0
 76
     0
 77
     1
 78
     8
170
     0
171
     2
172
     1
173
     1
174
     0
175
     0
176
     3
177
     3
178
     2
270
     2
271
     2
272
     0
273
     2
274
     2
340
D9
275
     0
280
     0
281
     0
282
     0
283
     1
284
     0
285
     0
286
     0
287
     3
288
     0
  0
DIMSTYLE
105
2D0
102
{ACAD_REACTORS
330
2D1
102
}
330
A
100
AcDbSymbolTableRecord
100
AcDbDimStyleTableRecord
  2
ME10_DIM_16
 70
     0
  3

  4

  5

  6

  7

 40
1.0
 41
8.75
 42
0.0
 43
0.38
 44
2.0
 45
0.0
 46
0.0
 47
0.0
 48
0.0
140
8.75
141
0.09
142
0.0
143
25.4
144
1.0
145
0.0
146
1.0
147
0.625
 71
     0
 72
     0
 73
     0
 74
     0
 75
     0
 76
     0
 77
     1
 78
     8
170
     0
171
     2
172
     1
173
     1
174
     0
175
     0
176
     3
177
     3
178
     2
270
     2
271
     2
272
     4
273
     2
274
     2
340
D9
275
     0
280
     0
281
     0
282
     0
283
     1
284
     0
285
     0
286
     0
287
     3
288
     0
  0
DIMSTYLE
105
2DB
102
{ACAD_REACTORS
330
2DC
102
}
330
A
100
AcDbSymbolTableRecord
100
AcDbDimStyleTableRecord
  2
ME10_DIM_17
 70
     0
  3

  4

  5

  6

  7

 40
1.0
 41
8.75
 42
0.0
 43
0.38
 44
2.0
 45
0.0
 46
0.0
 47
0.0
 48
0.0
140
8.75
141
0.09
142
0.0
143
25.4
144
1.0
145
0.0
146
1.0
147
0.625
 71
     0
 72
     0
 73
     0
 74
     0
 75
     0
 76
     0
 77
     1
 78
     8
170
     0
171
     2
172
     1
173
     1
174
     0
175
     0
176
     3
177
     3
178
     2
270
     2
271
     2
272
     4
273
     2
274
     2
340
D9
275
     0
280
     0
281
     0
282
     0
283
     1
284
     0
285
     0
286
     0
287
     3
288
     0
  0
DIMSTYLE
105
2E8
102
{ACAD_REACTORS
330
2E9
102
}
330
A
100
AcDbSymbolTableRecord
100
AcDbDimStyleTableRecord
  2
ME10_DIM_18
 70
     0
  3

  4

  5

  6

  7

 40
1.0
 41
8.75
 42
0.0
 43
0.38
 44
2.0
 45
0.0
 46
0.0
 47
0.0
 48
0.0
140
8.75
141
0.09
142
0.0
143
25.4
144
1.0
145
0.0
146
1.0
147
0.625
 71
     0
 72
     0
 73
     0
 74
     0
 75
     0
 76
     0
 77
     1
 78
     8
170
     0
171
     2
172
     1
173
     1
174
     0
175
     0
176
     3
177
     3
178
     2
270
     2
271
     2
272
     4
273
     2
274
     2
340
D9
275
     0
280
     0
281
     0
282
     0
283
     1
284
     0
285
     0
286
     0
287
     3
288
     0
  0
DIMSTYLE
105
2F5
102
{ACAD_REACTORS
330
2F6
102
}
330
A
100
AcDbSymbolTableRecord
100
AcDbDimStyleTableRecord
  2
ME10_DIM_19
 70
     0
  3

  4

  5

  6

  7

 40
1.0
 41
8.75
 42
0.0
 43
0.38
 44
2.0
 45
0.0
 46
0.0
 47
0.0
 48
0.0
140
8.75
141
0.09
142
0.0
143
25.4
144
1.0
145
0.0
146
1.0
147
0.625
 71
     0
 72
     0
 73
     0
 74
     0
 75
     0
 76
     0
 77
     1
 78
     8
170
     0
171
     2
172
     1
173
     1
174
     0
175
     0
176
     3
177
     3
178
     2
270
     2
271
     2
272
     4
273
     2
274
     2
340
D9
275
     0
280
     0
281
     0
282
     0
283
     1
284
     0
285
     0
286
     0
287
     3
288
     0
  0
DIMSTYLE
105
300
102
{ACAD_REACTORS
330
301
102
}
330
A
100
AcDbSymbolTableRecord
100
AcDbDimStyleTableRecord
  2
ME10_DIM_20
 70
     0
  3

  4

  5

  6

  7

 40
1.0
 41
8.75
 42
0.0
 43
0.38
 44
2.0
 45
0.0
 46
0.0
 47
0.0
 48
0.0
140
8.75
141
0.09
142
0.0
143
25.4
144
1.0
145
0.0
146
1.0
147
0.625
 71
     0
 72
     0
 73
     0
 74
     0
 75
     0
 76
     0
 77
     1
 78
     8
170
     0
171
     2
172
     1
173
     1
174
     0
175
     0
176
     3
177
     3
178
     2
270
     2
271
     2
272
     4
273
     2
274
     2
340
D9
275
     0
280
     0
281
     0
282
     0
283
     1
284
     0
285
     0
286
     0
287
     3
288
     0
  0
DIMSTYLE
105
30D
102
{ACAD_REACTORS
330
30E
102
}
330
A
100
AcDbSymbolTableRecord
100
AcDbDimStyleTableRecord
  2
ME10_DIM_21
 70
     0
  3

  4

  5

  6

  7

 40
1.0
 41
8.75
 42
0.0
 43
0.38
 44
2.0
 45
0.0
 46
0.0
 47
0.0
 48
0.0
140
8.75
141
0.09
142
0.0
143
25.4
144
1.0
145
0.0
146
1.0
147
0.625
 71
     0
 72
     0
 73
     0
 74
     0
 75
     0
 76
     0
 77
     1
 78
     8
170
     0
171
     2
172
     1
173
     1
174
     0
175
     0
176
     3
177
     3
178
     2
270
     2
271
     2
272
     4
273
     2
274
     2
340
D9
275
     0
280
     0
281
     0
282
     0
283
     1
284
     0
285
     0
286
     0
287
     3
288
     0
  0
DIMSTYLE
105
31A
102
{ACAD_REACTORS
330
31B
102
}
330
A
100
AcDbSymbolTableRecord
100
AcDbDimStyleTableRecord
  2
ME10_DIM_22
 70
     0
  3

  4

  5

  6

  7

 40
1.0
 41
8.75
 42
0.0
 43
0.38
 44
2.0
 45
0.0
 46
0.0
 47
0.0
 48
0.0
140
8.75
141
0.09
142
0.0
143
25.4
144
1.0
145
0.0
146
1.0
147
0.625
 71
     0
 72
     0
 73
     0
 74
     0
 75
     0
 76
     0
 77
     1
 78
     8
170
     0
171
     2
172
     1
173
     1
174
     0
175
     0
176
     3
177
     3
178
     2
270
     2
271
     2
272
     4
273
     2
274
     2
340
D9
275
     0
280
     0
281
     0
282
     0
283
     1
284
     0
285
     0
286
     0
287
     3
288
     0
  0
DIMSTYLE
105
327
102
{ACAD_REACTORS
330
328
102
}
330
A
100
AcDbSymbolTableRecord
100
AcDbDimStyleTableRecord
  2
ME10_DIM_23
 70
     0
  3

  4

  5

  6

  7

 40
1.0
 41
8.75
 42
0.0
 43
0.38
 44
2.0
 45
0.0
 46
0.0
 47
0.0
 48
0.0
140
8.75
141
0.09
142
0.0
143
25.4
144
1.0
145
0.0
146
1.0
147
0.625
 71
     0
 72
     0
 73
     0
 74
     0
 75
     0
 76
     0
 77
     1
 78
     8
170
     0
171
     2
172
     1
173
     1
174
     0
175
     0
176
     3
177
     3
178
     2
270
     2
271
     2
272
     4
273
     2
274
     2
340
D9
275
     0
280
     0
281
     0
282
     0
283
     1
284
     0
285
     0
286
     0
287
     3
288
     0
  0
DIMSTYLE
105
334
102
{ACAD_REACTORS
330
335
102
}
330
A
100
AcDbSymbolTableRecord
100
AcDbDimStyleTableRecord
  2
ME10_DIM_24
 70
     0
  3

  4

  5

  6

  7

 40
1.0
 41
8.75
 42
0.0
 43
0.38
 44
2.0
 45
0.0
 46
0.0
 47
0.0
 48
0.0
140
8.75
141
0.09
142
0.0
143
25.4
144
1.0
145
0.0
146
1.0
147
0.625
 71
     0
 72
     0
 73
     0
 74
     0
 75
     0
 76
     0
 77
     1
 78
     8
170
     0
171
     2
172
     1
173
     1
174
     0
175
     0
176
     3
177
     3
178
     2
270
     2
271
     2
272
     4
273
     2
274
     2
340
D9
275
     0
280
     0
281
     0
282
     0
283
     1
284
     0
285
     0
286
     0
287
     3
288
     0
  0
DIMSTYLE
105
341
102
{ACAD_REACTORS
330
342
102
}
330
A
100
AcDbSymbolTableRecord
100
AcDbDimStyleTableRecord
  2
ME10_DIM_25
 70
     0
  3

  4

  5

  6

  7

 40
1.0
 41
8.75
 42
0.0
 43
0.38
 44
2.0
 45
0.0
 46
0.0
 47
0.0
 48
0.0
140
8.75
141
0.09
142
0.0
143
25.4
144
1.0
145
0.0
146
1.0
147
0.625
 71
     0
 72
     0
 73
     0
 74
     0
 75
     0
 76
     0
 77
     1
 78
     8
170
     0
171
     2
172
     1
173
     1
174
     0
175
     0
176
     3
177
     3
178
     2
270
     2
271
     2
272
     4
273
     2
274
     2
340
D9
275
     0
280
     0
281
     0
282
     0
283
     1
284
     0
285
     0
286
     0
287
     3
288
     0
  0
DIMSTYLE
105
34E
102
{ACAD_REACTORS
330
34F
102
}
330
A
100
AcDbSymbolTableRecord
100
AcDbDimStyleTableRecord
  2
ME10_DIM_26
 70
     0
  3

  4

  5

  6

  7

 40
1.0
 41
8.75
 42
0.0
 43
0.38
 44
2.0
 45
0.0
 46
0.0
 47
0.0
 48
0.0
140
8.75
141
0.09
142
0.0
143
25.4
144
1.0
145
0.0
146
1.0
147
0.625
 71
     0
 72
     0
 73
     0
 74
     0
 75
     0
 76
     0
 77
     1
 78
     8
170
     0
171
     2
172
     1
173
     1
174
     0
175
     0
176
     3
177
     3
178
     2
270
     2
271
     2
272
     4
273
     2
274
     2
340
D9
275
     0
280
     0
281
     0
282
     0
283
     1
284
     0
285
     0
286
     0
287
     3
288
     0
  0
DIMSTYLE
105
35B
102
{ACAD_REACTORS
330
35C
102
}
330
A
100
AcDbSymbolTableRecord
100
AcDbDimStyleTableRecord
  2
ME10_DIM_27
 70
     0
  3

  4

  5

  6

  7

 40
1.0
 41
8.75
 42
0.0
 43
0.38
 44
2.0
 45
0.0
 46
0.0
 47
0.0
 48
0.0
140
8.75
141
0.09
142
0.0
143
25.4
144
1.0
145
0.0
146
1.0
147
0.625
 71
     0
 72
     0
 73
     0
 74
     0
 75
     0
 76
     0
 77
     1
 78
     8
170
     0
171
     2
172
     1
173
     1
174
     0
175
     0
176
     3
177
     3
178
     2
270
     2
271
     2
272
     4
273
     2
274
     2
340
D9
275
     0
280
     0
281
     0
282
     0
283
     1
284
     0
285
     0
286
     0
287
     3
288
     0
  0
DIMSTYLE
105
368
102
{ACAD_REACTORS
330
369
102
}
330
A
100
AcDbSymbolTableRecord
100
AcDbDimStyleTableRecord
  2
ME10_DIM_28
 70
     0
  3

  4

  5

  6

  7

 40
1.0
 41
8.75
 42
0.0
 43
0.38
 44
2.0
 45
0.0
 46
0.0
 47
0.0
 48
0.0
140
8.75
141
0.09
142
0.0
143
25.4
144
1.0
145
0.0
146
1.0
147
0.625
 71
     0
 72
     0
 73
     0
 74
     0
 75
     0
 76
     0
 77
     1
 78
     8
170
     0
171
     2
172
     1
173
     1
174
     0
175
     0
176
     3
177
     3
178
     2
270
     2
271
     2
272
     4
273
     2
274
     2
340
D9
275
     0
280
     0
281
     0
282
     0
283
     1
284
     0
285
     0
286
     0
287
     3
288
     0
  0
DIMSTYLE
105
375
102
{ACAD_REACTORS
330
376
102
}
330
A
100
AcDbSymbolTableRecord
100
AcDbDimStyleTableRecord
  2
ME10_DIM_29
 70
     0
  3

  4

  5

  6

  7

 40
1.0
 41
8.75
 42
0.0
 43
0.38
 44
2.0
 45
0.0
 46
0.0
 47
0.0
 48
0.0
140
8.75
141
0.09
142
0.0
143
25.4
144
1.0
145
0.0
146
1.0
147
0.625
 71
     0
 72
     0
 73
     0
 74
     0
 75
     0
 76
     0
 77
     1
 78
     8
170
     0
171
     2
172
     1
173
     1
174
     0
175
     0
176
     3
177
     3
178
     2
270
     2
271
     2
272
     4
273
     2
274
     2
340
D9
275
     0
280
     0
281
     0
282
     0
283
     1
284
     0
285
     0
286
     0
287
     3
288
     0
  0
DIMSTYLE
105
382
102
{ACAD_REACTORS
330
383
102
}
330
A
100
AcDbSymbolTableRecord
100
AcDbDimStyleTableRecord
  2
ME10_DIM_30
 70
     0
  3

  4

  5

  6

  7

 40
1.0
 41
8.75
 42
0.0
 43
0.38
 44
2.0
 45
0.0
 46
0.0
 47
0.0
 48
0.0
140
8.75
141
0.09
142
0.0
143
25.4
144
1.0
145
0.0
146
1.0
147
0.625
 71
     0
 72
     0
 73
     0
 74
     0
 75
     0
 76
     0
 77
     1
 78
     8
170
     0
171
     2
172
     1
173
     1
174
     0
175
     0
176
     3
177
     3
178
     2
270
     2
271
     2
272
     4
273
     2
274
     2
340
D9
275
     0
280
     0
281
     0
282
     0
283
     1
284
     0
285
     0
286
     0
287
     3
288
     0
  0
DIMSTYLE
105
38F
102
{ACAD_REACTORS
330
390
102
}
330
A
100
AcDbSymbolTableRecord
100
AcDbDimStyleTableRecord
  2
ME10_DIM_31
 70
     0
  3

  4

  5

  6

  7

 40
1.0
 41
8.75
 42
0.0
 43
0.38
 44
2.0
 45
0.0
 46
0.0
 47
0.0
 48
0.0
140
8.75
141
0.09
142
0.0
143
25.4
144
1.0
145
0.0
146
1.0
147
0.625
 71
     0
 72
     0
 73
     0
 74
     0
 75
     0
 76
     0
 77
     1
 78
     8
170
     0
171
     2
172
     1
173
     1
174
     0
175
     0
176
     3
177
     3
178
     2
270
     2
271
     2
272
     4
273
     2
274
     2
340
D9
275
     0
280
     0
281
     0
282
     0
283
     1
284
     0
285
     0
286
     0
287
     3
288
     0
  0
DIMSTYLE
105
39C
102
{ACAD_REACTORS
330
39D
102
}
330
A
100
AcDbSymbolTableRecord
100
AcDbDimStyleTableRecord
  2
ME10_DIM_32
 70
     0
  3

  4

  5

  6

  7

 40
1.0
 41
8.75
 42
0.0
 43
0.38
 44
2.0
 45
0.0
 46
0.0
 47
0.0
 48
0.0
140
8.75
141
0.09
142
0.0
143
25.4
144
1.0
145
0.0
146
1.0
147
0.625
 71
     0
 72
     0
 73
     0
 74
     0
 75
     0
 76
     0
 77
     1
 78
     8
170
     0
171
     2
172
     1
173
     1
174
     0
175
     0
176
     3
177
     3
178
     2
270
     2
271
     2
272
     4
273
     2
274
     2
340
D9
275
     0
280
     0
281
     0
282
     0
283
     1
284
     0
285
     0
286
     0
287
     3
288
     0
  0
DIMSTYLE
105
3A9
102
{ACAD_REACTORS
330
3AA
102
}
330
A
100
AcDbSymbolTableRecord
100
AcDbDimStyleTableRecord
  2
ME10_DIM_33
 70
     0
  3

  4

  5

  6

  7

 40
1.0
 41
8.75
 42
0.0
 43
0.38
 44
2.0
 45
0.0
 46
0.0
 47
0.0
 48
0.0
140
8.75
141
0.09
142
0.0
143
25.4
144
1.0
145
0.0
146
1.0
147
0.625
 71
     0
 72
     0
 73
     0
 74
     0
 75
     0
 76
     0
 77
     1
 78
     8
170
     0
171
     2
172
     1
173
     1
174
     0
175
     0
176
     3
177
     3
178
     2
270
     2
271
     2
272
     4
273
     2
274
     2
340
D9
275
     0
280
     0
281
     0
282
     0
283
     1
284
     0
285
     0
286
     0
287
     3
288
     0
  0
DIMSTYLE
105
3B6
102
{ACAD_REACTORS
330
3B7
102
}
330
A
100
AcDbSymbolTableRecord
100
AcDbDimStyleTableRecord
  2
ME10_DIM_34
 70
     0
  3

  4

  5

  6

  7

 40
1.0
 41
8.75
 42
0.0
 43
0.38
 44
2.0
 45
0.0
 46
0.0
 47
0.0
 48
0.0
140
8.75
141
0.09
142
0.0
143
25.4
144
1.0
145
0.0
146
1.0
147
0.625
 71
     0
 72
     0
 73
     0
 74
     0
 75
     0
 76
     0
 77
     1
 78
     8
170
     0
171
     2
172
     1
173
     1
174
     0
175
     0
176
     3
177
     3
178
     2
270
     2
271
     2
272
     4
273
     2
274
     2
340
D9
275
     0
280
     0
281
     0
282
     0
283
     1
284
     0
285
     0
286
     0
287
     3
288
     0
  0
DIMSTYLE
105
3C3
102
{ACAD_REACTORS
330
3C4
102
}
330
A
100
AcDbSymbolTableRecord
100
AcDbDimStyleTableRecord
  2
ME10_DIM_35
 70
     0
  3

  4

  5

  6

  7

 40
1.0
 41
8.75
 42
0.0
 43
0.38
 44
2.0
 45
0.0
 46
0.0
 47
0.0
 48
0.0
140
8.75
141
0.09
142
0.0
143
25.4
144
1.0
145
0.0
146
1.0
147
0.625
 71
     0
 72
     0
 73
     0
 74
     0
 75
     0
 76
     0
 77
     1
 78
     8
170
     0
171
     2
172
     1
173
     1
174
     0
175
     0
176
     3
177
     3
178
     2
270
     2
271
     2
272
     4
273
     2
274
     2
340
D9
275
     0
280
     0
281
     0
282
     0
283
     1
284
     0
285
     0
286
     0
287
     3
288
     0
  0
DIMSTYLE
105
3D0
102
{ACAD_REACTORS
330
3D1
102
}
330
A
100
AcDbSymbolTableRecord
100
AcDbDimStyleTableRecord
  2
ME10_DIM_36
 70
     0
  3

  4

  5

  6

  7

 40
1.0
 41
8.75
 42
0.0
 43
0.38
 44
2.0
 45
0.0
 46
0.0
 47
0.0
 48
0.0
140
8.75
141
0.09
142
0.0
143
25.4
144
1.0
145
0.0
146
1.0
147
0.625
 71
     0
 72
     0
 73
     0
 74
     0
 75
     0
 76
     0
 77
     1
 78
     8
170
     0
171
     2
172
     1
173
     1
174
     0
175
     0
176
     3
177
     3
178
     2
270
     2
271
     2
272
     4
273
     2
274
     2
340
D9
275
     0
280
     0
281
     0
282
     0
283
     1
284
     0
285
     0
286
     0
287
     3
288
     0
  0
DIMSTYLE
105
3DD
102
{ACAD_REACTORS
330
3DE
102
}
330
A
100
AcDbSymbolTableRecord
100
AcDbDimStyleTableRecord
  2
ME10_DIM_37
 70
     0
  3

  4

  5

  6

  7

 40
1.0
 41
8.75
 42
0.0
 43
0.38
 44
2.0
 45
0.0
 46
0.0
 47
0.0
 48
0.0
140
8.75
141
0.09
142
0.0
143
25.4
144
1.0
145
0.0
146
1.0
147
0.625
 71
     0
 72
     0
 73
     0
 74
     0
 75
     0
 76
     0
 77
     1
 78
     8
170
     0
171
     2
172
     1
173
     1
174
     0
175
     0
176
     3
177
     3
178
     2
270
     2
271
     2
272
     4
273
     2
274
     2
340
D9
275
     0
280
     0
281
     0
282
     0
283
     1
284
     0
285
     0
286
     0
287
     3
288
     0
  0
DIMSTYLE
105
3E8
102
{ACAD_REACTORS
330
3E9
102
}
330
A
100
AcDbSymbolTableRecord
100
AcDbDimStyleTableRecord
  2
ME10_DIM_38
 70
     0
  3

  4

  5

  6

  7

 40
1.0
 41
8.75
 42
0.0
 43
0.38
 44
2.0
 45
0.0
 46
0.0
 47
0.0
 48
0.0
140
8.75
141
0.09
142
0.0
143
25.4
144
1.0
145
0.0
146
1.0
147
0.625
 71
     0
 72
     0
 73
     0
 74
     0
 75
     0
 76
     0
 77
     1
 78
     8
170
     0
171
     2
172
     1
173
     1
174
     0
175
     0
176
     3
177
     3
178
     2
270
     2
271
     2
272
     4
273
     2
274
     2
340
D9
275
     0
280
     0
281
     0
282
     0
283
     1
284
     0
285
     0
286
     0
287
     3
288
     0
  0
DIMSTYLE
105
3F3
102
{ACAD_REACTORS
330
3F4
102
}
330
A
100
AcDbSymbolTableRecord
100
AcDbDimStyleTableRecord
  2
ME10_DIM_39
 70
     0
  3

  4

  5

  6

  7

 40
1.0
 41
8.75
 42
0.0
 43
0.38
 44
2.0
 45
0.0
 46
0.0
 47
0.0
 48
0.0
140
8.75
141
0.09
142
0.0
143
25.4
144
1.0
145
0.0
146
1.0
147
0.625
 71
     0
 72
     0
 73
     0
 74
     0
 75
     0
 76
     0
 77
     1
 78
     8
170
     0
171
     2
172
     1
173
     1
174
     0
175
     0
176
     3
177
     3
178
     2
270
     2
271
     2
272
     4
273
     2
274
     2
340
D9
275
     0
280
     0
281
     0
282
     0
283
     1
284
     0
285
     0
286
     0
287
     3
288
     0
  0
DIMSTYLE
105
3FE
102
{ACAD_REACTORS
330
3FF
102
}
330
A
100
AcDbSymbolTableRecord
100
AcDbDimStyleTableRecord
  2
ME10_DIM_40
 70
     0
  3

  4

  5

  6

  7

 40
1.0
 41
8.75
 42
0.0
 43
0.38
 44
2.0
 45
0.0
 46
0.0
 47
0.0
 48
0.0
140
8.75
141
0.09
142
0.0
143
25.4
144
1.0
145
0.0
146
1.0
147
0.625
 71
     0
 72
     0
 73
     0
 74
     0
 75
     0
 76
     0
 77
     1
 78
     8
170
     0
171
     2
172
     1
173
     1
174
     0
175
     0
176
     3
177
     3
178
     2
270
     2
271
     2
272
     4
273
     2
274
     2
340
D9
275
     0
280
     0
281
     0
282
     0
283
     1
284
     0
285
     0
286
     0
287
     3
288
     0
  0
ENDTAB
  0
TABLE
  2
BLOCK_RECORD
  5
1
330
0
100
AcDbSymbolTable
 70
    44
  0
BLOCK_RECORD
  5
1F
330
1
100
AcDbSymbolTableRecord
100
AcDbBlockTableRecord
  2
*MODEL_SPACE
  0
BLOCK_RECORD
  5
1B
330
1
100
AcDbSymbolTableRecord
100
AcDbBlockTableRecord
  2
*PAPER_SPACE
  0
BLOCK_RECORD
  5
3E
330
1
100
AcDbSymbolTableRecord
100
AcDbBlockTableRecord
  2
_SCHRIFTFELD
  0
BLOCK_RECORD
  5
41
330
1
100
AcDbSymbolTableRecord
100
AcDbBlockTableRecord
  2
_RAHMEN
  0
BLOCK_RECORD
  5
20B
330
1
100
AcDbSymbolTableRecord
100
AcDbBlockTableRecord
  2
*D03
  0
BLOCK_RECORD
  5
218
330
1
100
AcDbSymbolTableRecord
100
AcDbBlockTableRecord
  2
*D14
  0
BLOCK_RECORD
  5
223
330
1
100
AcDbSymbolTableRecord
100
AcDbBlockTableRecord
  2
*D25
  0
BLOCK_RECORD
  5
22E
330
1
100
AcDbSymbolTableRecord
100
AcDbBlockTableRecord
  2
*D36
  0
BLOCK_RECORD
  5
23B
330
1
100
AcDbSymbolTableRecord
100
AcDbBlockTableRecord
  2
*D47
  0
BLOCK_RECORD
  5
248
330
1
100
AcDbSymbolTableRecord
100
AcDbBlockTableRecord
  2
*D58
  0
BLOCK_RECORD
  5
255
330
1
100
AcDbSymbolTableRecord
100
AcDbBlockTableRecord
  2
*D69
  0
BLOCK_RECORD
  5
260
330
1
100
AcDbSymbolTableRecord
100
AcDbBlockTableRecord
  2
*D710
  0
BLOCK_RECORD
  5
26B
330
1
100
AcDbSymbolTableRecord
100
AcDbBlockTableRecord
  2
*D811
  0
BLOCK_RECORD
  5
276
330
1
100
AcDbSymbolTableRecord
100
AcDbBlockTableRecord
  2
*D912
  0
BLOCK_RECORD
  5
281
330
1
100
AcDbSymbolTableRecord
100
AcDbBlockTableRecord
  2
*D1013
  0
BLOCK_RECORD
  5
28E
330
1
100
AcDbSymbolTableRecord
100
AcDbBlockTableRecord
  2
*D1114
  0
BLOCK_RECORD
  5
299
330
1
100
AcDbSymbolTableRecord
100
AcDbBlockTableRecord
  2
*D1215
  0
BLOCK_RECORD
  5
2A4
330
1
100
AcDbSymbolTableRecord
100
AcDbBlockTableRecord
  2
*D1316
  0
BLOCK_RECORD
  5
2AF
330
1
100
AcDbSymbolTableRecord
100
AcDbBlockTableRecord
  2
*D1417
  0
BLOCK_RECORD
  5
2BA
330
1
100
AcDbSymbolTableRecord
100
AcDbBlockTableRecord
  2
*D1518
  0
BLOCK_RECORD
  5
2C7
330
1
100
AcDbSymbolTableRecord
100
AcDbBlockTableRecord
  2
*D1619
  0
BLOCK_RECORD
  5
2D2
330
1
100
AcDbSymbolTableRecord
100
AcDbBlockTableRecord
  2
*D1720
  0
BLOCK_RECORD
  5
2DD
330
1
100
AcDbSymbolTableRecord
100
AcDbBlockTableRecord
  2
*D1821
  0
BLOCK_RECORD
  5
2EA
330
1
100
AcDbSymbolTableRecord
100
AcDbBlockTableRecord
  2
*D1922
  0
BLOCK_RECORD
  5
2F7
330
1
100
AcDbSymbolTableRecord
100
AcDbBlockTableRecord
  2
*D2023
  0
BLOCK_RECORD
  5
302
330
1
100
AcDbSymbolTableRecord
100
AcDbBlockTableRecord
  2
*D2124
  0
BLOCK_RECORD
  5
30F
330
1
100
AcDbSymbolTableRecord
100
AcDbBlockTableRecord
  2
*D2225
  0
BLOCK_RECORD
  5
31C
330
1
100
AcDbSymbolTableRecord
100
AcDbBlockTableRecord
  2
*D2326
  0
BLOCK_RECORD
  5
329
330
1
100
AcDbSymbolTableRecord
100
AcDbBlockTableRecord
  2
*D2427
  0
BLOCK_RECORD
  5
336
330
1
100
AcDbSymbolTableRecord
100
AcDbBlockTableRecord
  2
*D2528
  0
BLOCK_RECORD
  5
343
330
1
100
AcDbSymbolTableRecord
100
AcDbBlockTableRecord
  2
*D2629
  0
BLOCK_RECORD
  5
350
330
1
100
AcDbSymbolTableRecord
100
AcDbBlockTableRecord
  2
*D2730
  0
BLOCK_RECORD
  5
35D
330
1
100
AcDbSymbolTableRecord
100
AcDbBlockTableRecord
  2
*D2831
  0
BLOCK_RECORD
  5
36A
330
1
100
AcDbSymbolTableRecord
100
AcDbBlockTableRecord
  2
*D2932
  0
BLOCK_RECORD
  5
377
330
1
100
AcDbSymbolTableRecord
100
AcDbBlockTableRecord
  2
*D3033
  0
BLOCK_RECORD
  5
384
330
1
100
AcDbSymbolTableRecord
100
AcDbBlockTableRecord
  2
*D3134
  0
BLOCK_RECORD
  5
391
330
1
100
AcDbSymbolTableRecord
100
AcDbBlockTableRecord
  2
*D3235
  0
BLOCK_RECORD
  5
39E
330
1
100
AcDbSymbolTableRecord
100
AcDbBlockTableRecord
  2
*D3336
  0
BLOCK_RECORD
  5
3AB
330
1
100
AcDbSymbolTableRecord
100
AcDbBlockTableRecord
  2
*D3437
  0
BLOCK_RECORD
  5
3B8
330
1
100
AcDbSymbolTableRecord
100
AcDbBlockTableRecord
  2
*D3538
  0
BLOCK_RECORD
  5
3C5
330
1
100
AcDbSymbolTableRecord
100
AcDbBlockTableRecord
  2
*D3639
  0
BLOCK_RECORD
  5
3D2
330
1
100
AcDbSymbolTableRecord
100
AcDbBlockTableRecord
  2
*D3740
  0
BLOCK_RECORD
  5
3DF
330
1
100
AcDbSymbolTableRecord
100
AcDbBlockTableRecord
  2
*D3841
  0
BLOCK_RECORD
  5
3EA
330
1
100
AcDbSymbolTableRecord
100
AcDbBlockTableRecord
  2
*D3942
  0
BLOCK_RECORD
  5
3F5
330
1
100
AcDbSymbolTableRecord
100
AcDbBlockTableRecord
  2
*D4043
  0
ENDTAB
  0
ENDSEC
  0
SECTION
  2
BLOCKS
  0
BLOCK
  5
20
330
1F
100
AcDbEntity
  8
0
100
AcDbBlockBegin
  2
*MODEL_SPACE
 70
     0
 71
     0
 10
0.0
 20
0.0
 30
0.0
  3
*MODEL_SPACE
  1

  0
ENDBLK
  5
21
330
1F
100
AcDbEntity
  8
0
100
AcDbBlockEnd
  0
BLOCK
  5
1C
330
1B
100
AcDbEntity
 67
     1
  8
0
100
AcDbBlockBegin
  2
*PAPER_SPACE
 70
     0
 71
     0
 10
0.0
 20
0.0
 30
0.0
  3
*PAPER_SPACE
  1

  0
ENDBLK
  5
1D
330
1B
100
AcDbEntity
 67
     1
  8
0
100
AcDbBlockEnd
  0
BLOCK
  5
3F
330
3E
100
AcDbEntity
  8
0
100
AcDbBlockBegin
  2
_SCHRIFTFELD
 70
     0
 71
     0
 10
186.2344897372395
 20
-140.7880930460233
 30
0.0
  3
_SCHRIFTFELD
  1

  0
POINT
  5
46
330
3E
100
AcDbEntity
  8
1
 62
     3
 60
     1
100
AcDbPoint
 10
124.4059042250037
 20
-118.7795814679893
 30
0.0
  0
POINT
  5
47
330
3E
100
AcDbEntity
  8
1
 62
     3
 60
     1
100
AcDbPoint
 10
125.3585142946345
 20
-120.4455930460235
 30
0.0
  0
POINT
  5
48
330
3E
100
AcDbEntity
  8
1
 62
     3
 60
     1
100
AcDbPoint
 10
125.6872518167758
 20
-120.257623959862
 30
0.0
  0
POINT
  5
49
330
3E
100
AcDbEntity
  8
1
 62
     3
 60
     1
100
AcDbPoint
 10
122.6412930998125
 20
-120.6870930460233
 30
0.0
  0
POINT
  5
4A
330
3E
100
AcDbEntity
  8
1
 62
     3
 60
     1
100
AcDbPoint
 10
132.7298495175795
 20
-119.2486524209348
 30
0.0
  0
POINT
  5
4B
330
3E
100
AcDbEntity
  8
1
 62
     3
 60
     1
100
AcDbPoint
 10
129.9666519732919
 20
-117.2410718917296
 30
0.0
  0
POINT
  5
4C
330
3E
100
AcDbEntity
  8
1
 62
     3
 60
     1
100
AcDbPoint
 10
131.8173129133954
 20
-120.5046513047017
 30
0.0
  0
POINT
  5
4D
330
3E
100
AcDbEntity
  8
1
 62
     3
 60
     1
100
AcDbPoint
 10
119.9970529823993
 20
-111.9167297727553
 30
0.0
  0
POINT
  5
4E
330
3E
100
AcDbEntity
  8
1
 62
     3
 60
     1
100
AcDbPoint
 10
130.2019897372393
 20
-119.3310503207517
 30
0.0
  0
POINT
  5
4F
330
3E
100
AcDbEntity
  8
1
 62
     3
 60
     1
100
AcDbPoint
 10
119.5069897372393
 20
-122.5155930460235
 30
0.0
  0
POINT
  5
50
330
3E
100
AcDbEntity
  8
1
 62
     3
 60
     1
100
AcDbPoint
 10
132.9619897372394
 20
-120.6966425196903
 30
0.0
  0
POINT
  5
51
330
3E
100
AcDbEntity
  8
1
 62
     3
 60
     1
100
AcDbPoint
 10
132.9619897372394
 20
-122.5155930460235
 30
0.0
  0
POINT
  5
52
330
3E
100
AcDbEntity
  8
1
 62
     3
 60
     1
100
AcDbPoint
 10
131.68303789773
 20
-109.0605930460234
 30
0.0
  0
POINT
  5
53
330
3E
100
AcDbEntity
  8
1
 62
     3
 60
     1
100
AcDbPoint
 10
127.5640458784395
 20
-119.8619300495823
 30
0.0
  0
POINT
  5
54
330
3E
100
AcDbEntity
  8
1
 62
     3
 60
     1
100
AcDbPoint
 10
121.2059599277968
 20
-117.4834812456854
 30
0.0
  0
POINT
  5
55
330
3E
100
AcDbEntity
  8
1
 62
     3
 60
     1
100
AcDbPoint
 10
121.2674571867988
 20
-119.6691096183604
 30
0.0
  0
POINT
  5
56
330
3E
100
AcDbEntity
  8
1
 62
     3
 60
     1
100
AcDbPoint
 10
122.0248782399959
 20
-120.3746217286305
 30
0.0
  0
POINT
  5
57
330
3E
100
AcDbEntity
  8
1
 62
     3
 60
     1
100
AcDbPoint
 10
122.3489641746639
 20
-120.7012760948534
 30
0.0
  0
POINT
  5
58
330
3E
100
AcDbEntity
  8
1
 62
     3
 60
     1
100
AcDbPoint
 10
121.7911003770221
 20
-120.1568655509478
 30
0.0
  0
POINT
  5
59
330
3E
100
AcDbEntity
  8
1
 62
     3
 60
     1
100
AcDbPoint
 10
126.9663194308308
 20
-119.2419746418448
 30
0.0
  0
POINT
  5
5A
330
3E
100
AcDbEntity
  8
1
 62
     3
 60
     1
100
AcDbPoint
 10
127.8993783791775
 20
-118.440458645875
 30
0.0
  0
POINT
  5
5B
330
3E
100
AcDbEntity
  8
1
 62
     3
 60
     1
100
AcDbPoint
 10
119.3344897372394
 20
-122.6880930460234
 30
0.0
  0
POINT
  5
5C
330
3E
100
AcDbEntity
  8
1
 62
     3
 60
     1
100
AcDbPoint
 10
133.1344897372394
 20
-110.2680930460232
 30
0.0
  0
POINT
  5
5D
330
3E
100
AcDbEntity
  8
1
 62
     3
 60
     1
100
AcDbPoint
 10
119.5069897372393
 20
-120.6870930460233
 30
0.0
  0
POINT
  5
5E
330
3E
100
AcDbEntity
  8
1
 62
     3
 60
     1
100
AcDbPoint
 10
128.6494897372394
 20
-120.6870930460233
 30
0.0
  0
POINT
  5
5F
330
3E
100
AcDbEntity
  8
1
 62
     3
 60
     1
100
AcDbPoint
 10
120.3012318504606
 20
-111.4980634781663
 30
0.0
  0
POINT
  5
60
330
3E
100
AcDbEntity
  8
1
 62
     3
 60
     1
100
AcDbPoint
 10
129.5002443755977
 20
-117.8830268767662
 30
0.0
  0
POINT
  5
61
330
3E
100
AcDbEntity
  8
1
 62
     3
 60
     1
100
AcDbPoint
 10
119.8519897372393
 20
-120.6870930460233
 30
0.0
  0
POINT
  5
62
330
3E
100
AcDbEntity
  8
1
 62
     3
 60
     1
100
AcDbPoint
 10
123.8083762334571
 20
-119.8245930460233
 30
0.0
  0
POINT
  5
63
330
3E
100
AcDbEntity
  8
1
 62
     3
 60
     1
100
AcDbPoint
 10
124.7864376132766
 20
-119.4450930460234
 30
0.0
  0
POINT
  5
64
330
3E
100
AcDbEntity
  8
1
 62
     3
 60
     1
100
AcDbPoint
 10
123.4532941553731
 20
-120.4455930460235
 30
0.0
  0
POINT
  5
65
330
3E
100
AcDbEntity
  8
1
 62
     3
 60
     1
100
AcDbPoint
 10
124.0253708367309
 20
-119.4450930460234
 30
0.0
  0
POINT
  5
66
330
3E
100
AcDbEntity
  8
1
 62
     3
 60
     1
100
AcDbPoint
 10
125.0034322165502
 20
-119.8245930460233
 30
0.0
  0
POINT
  5
67
330
3E
100
AcDbEntity
  8
1
 62
     3
 60
     1
100
AcDbPoint
 10
123.1245566332317
 20
-120.257623959862
 30
0.0
  0
POINT
  5
68
330
3E
100
AcDbEntity
  8
1
 62
     3
 60
     1
100
AcDbPoint
 10
124.4059042250037
 20
-118.0166861496979
 30
0.0
  0
POINT
  5
69
330
3E
100
AcDbEntity
  8
1
 62
     3
 60
     1
100
AcDbPoint
 10
122.4969897372394
 20
-120.9630930460232
 30
0.0
  0
POINT
  5
6A
330
3E
100
AcDbEntity
  8
1
 62
     3
 60
     1
100
AcDbPoint
 10
132.2634419198854
 20
-119.8906074059711
 30
0.0
  0
POINT
  5
6B
330
3E
100
AcDbEntity
  8
1
 62
     3
 60
     1
100
AcDbPoint
 10
132.1214917814568
 20
-120.0859850101127
 30
0.0
  0
POINT
  5
6C
330
3E
100
AcDbEntity
  8
1
 62
     3
 60
     1
100
AcDbPoint
 10
128.6494897372393
 20
-118.2030930460235
 30
0.0
  0
POINT
  5
6D
330
3E
100
AcDbEntity
  8
1
 62
     3
 60
     1
100
AcDbPoint
 10
119.5069897372393
 20
-120.9630930460232
 30
0.0
  0
POINT
  5
6E
330
3E
100
AcDbEntity
  8
1
 62
     3
 60
     1
100
AcDbPoint
 10
132.9619897372394
 20
-120.9630930460232
 30
0.0
  0
POINT
  5
6F
330
3E
100
AcDbEntity
  8
1
 62
     3
 60
     1
100
AcDbPoint
 10
132.9619897372394
 20
-110.3395448855326
 30
0.0
  0
POINT
  5
70
330
3E
100
AcDbEntity
  8
1
 62
     3
 60
     1
100
AcDbPoint
 10
119.5069897372393
 20
-109.0605930460234
 30
0.0
  0
POINT
  5
71
330
3E
100
AcDbEntity
  8
1
 62
     3
 60
     1
100
AcDbPoint
 10
133.1344897372394
 20
-122.6880930460234
 30
0.0
  0
POINT
  5
72
330
3E
100
AcDbEntity
  8
1
 62
     3
 60
     1
100
AcDbPoint
 10
131.7544897372393
 20
-108.8880930460235
 30
0.0
  0
POINT
  5
73
330
3E
100
AcDbEntity
  8
1
 62
     3
 60
     1
100
AcDbPoint
 10
119.3344897372394
 20
-108.8880930460235
 30
0.0
  0
POINT
  5
74
330
3E
100
AcDbEntity
  8
1
 62
     3
 60
     1
100
AcDbPoint
 10
127.9090458784409
 20
-120.0320972512317
 30
0.0
  0
POINT
  5
75
330
3E
100
AcDbEntity
  8
1
 62
     3
 60
     1
100
AcDbPoint
 10
127.6167751392314
 20
-118.6775909202834
 30
0.0
  0
POINT
  5
76
330
3E
100
AcDbEntity
  8
1
 62
     3
 60
     1
100
AcDbPoint
 10
122.0576995078682
 20
-119.4243904589019
 30
0.0
  0
POINT
  5
77
330
3E
100
AcDbEntity
  8
1
 62
     3
 60
     1
100
AcDbPoint
 10
121.3869577483061
 20
-120.6972893717913
 30
0.0
  0
POINT
  5
78
330
3E
100
AcDbEntity
  8
1
 62
     3
 60
     1
100
AcDbPoint
 10
120.0559599277967
 20
-120.9807506804655
 30
0.0
  0
LINE
  5
79
330
3E
100
AcDbEntity
  8
Z4
  6
CONTINUOUS
 62
     6
100
AcDbLine
 10
36.23448973723953
 20
-107.7880930460233
 30
0.0
 11
186.2344897372395
 21
-107.7880930460233
 31
0.0
  0
LINE
  5
7A
330
3E
100
AcDbEntity
  8
Z4
  6
CONTINUOUS
 62
     6
100
AcDbLine
 10
36.23448973723953
 20
-107.7880930460233
 30
0.0
 11
36.23448973723953
 21
-123.7880930460233
 31
0.0
  0
LINE
  5
7B
102
{ACAD_REACTORS
330
110
330
110
102
}
330
3E
100
AcDbEntity
  8
1
  6
CONTINUOUS
 62
     5
100
AcDbLine
 10
119.3344897372394
 20
-122.6880930460234
 30
0.0
 11
119.3344897372394
 21
-108.8880930460235
 31
0.0
  0
LINE
  5
7C
102
{ACAD_REACTORS
330
110
330
110
102
}
330
3E
100
AcDbEntity
  8
1
  6
CONTINUOUS
 62
     5
100
AcDbLine
 10
119.3344897372394
 20
-108.8880930460235
 30
0.0
 11
131.7544897372393
 21
-108.8880930460235
 31
0.0
  0
LINE
  5
7D
102
{ACAD_REACTORS
330
110
330
110
102
}
330
3E
100
AcDbEntity
  8
1
  6
CONTINUOUS
 62
     5
100
AcDbLine
 10
131.7544897372393
 20
-108.8880930460235
 30
0.0
 11
133.1344897372394
 21
-110.2680930460232
 31
0.0
  0
LINE
  5
7E
102
{ACAD_REACTORS
330
110
330
110
102
}
330
3E
100
AcDbEntity
  8
1
  6
CONTINUOUS
 62
     5
100
AcDbLine
 10
133.1344897372394
 20
-110.2680930460232
 30
0.0
 11
133.1344897372394
 21
-122.6880930460234
 31
0.0
  0
LINE
  5
7F
102
{ACAD_REACTORS
330
110
330
110
102
}
330
3E
100
AcDbEntity
  8
1
  6
CONTINUOUS
 62
     5
100
AcDbLine
 10
133.1344897372394
 20
-122.6880930460234
 30
0.0
 11
119.3344897372394
 21
-122.6880930460234
 31
0.0
  0
LINE
  5
80
102
{ACAD_REACTORS
330
110
330
110
102
}
330
3E
100
AcDbEntity
  8
1
  6
CONTINUOUS
 62
     5
100
AcDbLine
 10
119.5069897372393
 20
-109.0605930460234
 30
0.0
 11
131.68303789773
 21
-109.0605930460234
 31
0.0
  0
LINE
  5
81
102
{ACAD_REACTORS
330
110
330
110
102
}
330
3E
100
AcDbEntity
  8
1
  6
CONTINUOUS
 62
     5
100
AcDbLine
 10
131.68303789773
 20
-109.0605930460234
 30
0.0
 11
132.9619897372394
 21
-110.3395448855326
 31
0.0
  0
LINE
  5
82
102
{ACAD_REACTORS
330
110
330
110
102
}
330
3E
100
AcDbEntity
  8
1
  6
CONTINUOUS
 62
     5
100
AcDbLine
 10
132.9619897372394
 20
-110.3395448855326
 30
0.0
 11
132.9619897372394
 21
-120.6966425196903
 31
0.0
  0
LINE
  5
83
102
{ACAD_REACTORS
330
110
330
110
102
}
330
3E
100
AcDbEntity
  8
1
  6
CONTINUOUS
 62
     5
100
AcDbLine
 10
132.9619897372394
 20
-122.5155930460235
 30
0.0
 11
119.5069897372393
 21
-122.5155930460235
 31
0.0
  0
LINE
  5
84
102
{ACAD_REACTORS
330
110
330
110
102
}
330
3E
100
AcDbEntity
  8
1
  6
CONTINUOUS
 62
     5
100
AcDbLine
 10
119.5069897372393
 20
-122.5155930460235
 30
0.0
 11
119.5069897372393
 21
-120.9630930460232
 31
0.0
  0
LINE
  5
85
102
{ACAD_REACTORS
330
110
330
110
102
}
330
3E
100
AcDbEntity
  8
1
  6
CONTINUOUS
 62
     5
100
AcDbLine
 10
128.6494897372393
 20
-118.2030930460235
 30
0.0
 11
128.6494897372394
 21
-120.6870930460233
 31
0.0
  0
LINE
  5
86
102
{ACAD_REACTORS
330
110
330
110
102
}
330
3E
100
AcDbEntity
  8
1
  6
CONTINUOUS
 62
     5
100
AcDbLine
 10
130.2019897372393
 20
-119.3310503207517
 30
0.0
 11
130.2019897372397
 21
-120.6966425196904
 31
0.0
  0
LINE
  5
87
102
{ACAD_REACTORS
330
110
330
110
102
}
330
3E
100
AcDbEntity
  8
1
  6
CONTINUOUS
 62
     5
100
AcDbLine
 10
128.6494897372393
 20
-118.2030930460235
 30
0.0
 11
119.9970529823993
 21
-111.9167297727553
 31
0.0
  0
LINE
  5
88
102
{ACAD_REACTORS
330
110
330
110
102
}
330
3E
100
AcDbEntity
  8
1
  6
CONTINUOUS
 62
     5
100
AcDbLine
 10
120.3012318504606
 20
-111.4980634781663
 30
0.0
 11
119.9970529823993
 21
-111.9167297727553
 31
0.0
  0
LINE
  5
89
102
{ACAD_REACTORS
330
110
330
110
102
}
330
3E
100
AcDbEntity
  8
1
  6
CONTINUOUS
 62
     5
100
AcDbLine
 10
130.2019897372393
 20
-119.3310503207517
 30
0.0
 11
131.8173129133954
 21
-120.5046513047017
 31
0.0
  0
LINE
  5
8A
102
{ACAD_REACTORS
330
110
330
110
102
}
330
3E
100
AcDbEntity
  8
1
  6
CONTINUOUS
 62
     5
100
AcDbLine
 10
132.1214917814568
 20
-120.0859850101127
 30
0.0
 11
120.3012318504606
 21
-111.4980634781663
 31
0.0
  0
LINE
  5
8B
102
{ACAD_REACTORS
330
111
330
111
102
}
330
3E
100
AcDbEntity
  8
1
  6
CONTINUOUS
 62
     5
100
AcDbLine
 10
129.9666519732919
 20
-117.2410718917296
 30
0.0
 11
129.5002443755977
 21
-117.8830268767662
 31
0.0
  0
LINE
  5
8C
102
{ACAD_REACTORS
330
111
330
111
102
}
330
3E
100
AcDbEntity
  8
1
  6
CONTINUOUS
 62
     5
100
AcDbLine
 10
129.5002443755977
 20
-117.8830268767662
 30
0.0
 11
132.2634419198854
 21
-119.8906074059711
 31
0.0
  0
LINE
  5
8D
102
{ACAD_REACTORS
330
111
330
111
102
}
330
3E
100
AcDbEntity
  8
1
  6
CONTINUOUS
 62
     5
100
AcDbLine
 10
132.2634419198854
 20
-119.8906074059711
 30
0.0
 11
132.7298495175795
 21
-119.2486524209348
 31
0.0
  0
LINE
  5
8E
102
{ACAD_REACTORS
330
111
330
111
102
}
330
3E
100
AcDbEntity
  8
1
  6
CONTINUOUS
 62
     5
100
AcDbLine
 10
132.7298495175795
 20
-119.2486524209348
 30
0.0
 11
129.9666519732919
 21
-117.2410718917296
 31
0.0
  0
LINE
  5
8F
102
{ACAD_REACTORS
330
110
330
110
102
}
330
3E
100
AcDbEntity
  8
1
  6
CONTINUOUS
 62
     5
100
AcDbLine
 10
132.1214917814568
 20
-120.0859850101127
 30
0.0
 11
131.8173129133954
 21
-120.5046513047017
 31
0.0
  0
LINE
  5
90
102
{ACAD_REACTORS
330
110
330
110
102
}
330
3E
100
AcDbEntity
  8
1
  6
CONTINUOUS
 62
     5
100
AcDbLine
 10
132.9619897372394
 20
-120.6966425196903
 30
0.0
 11
130.2019897372397
 21
-120.6966425196904
 31
0.0
  0
LINE
  5
91
102
{ACAD_REACTORS
330
110
330
110
102
}
330
3E
100
AcDbEntity
  8
1
  6
CONTINUOUS
 62
     5
100
AcDbLine
 10
132.9619897372394
 20
-120.9630930460232
 30
0.0
 11
122.4969897372394
 21
-120.9630930460232
 31
0.0
  0
LINE
  5
92
102
{ACAD_REACTORS
330
110
330
110
102
}
330
3E
100
AcDbEntity
  8
1
  6
CONTINUOUS
 62
     5
100
AcDbLine
 10
132.9619897372394
 20
-120.9630930460232
 30
0.0
 11
132.9619897372394
 21
-122.5155930460235
 31
0.0
  0
LINE
  5
93
102
{ACAD_REACTORS
330
110
330
110
102
}
330
3E
100
AcDbEntity
  8
1
  6
CONTINUOUS
 62
     5
100
AcDbLine
 10
122.4969897372394
 20
-120.9630930460232
 30
0.0
 11
122.6412930998125
 21
-120.6870930460233
 31
0.0
  0
LINE
  5
94
102
{ACAD_REACTORS
330
110
330
110
102
}
330
3E
100
AcDbEntity
  8
1
  6
CONTINUOUS
 62
     5
100
AcDbLine
 10
122.6412930998125
 20
-120.6870930460233
 30
0.0
 11
128.6494897372394
 21
-120.6870930460233
 31
0.0
  0
LINE
  5
95
102
{ACAD_REACTORS
330
110
330
110
102
}
330
3E
100
AcDbEntity
  8
1
  6
CONTINUOUS
 62
     5
100
AcDbLine
 10
119.5069897372393
 20
-120.6870930460233
 30
0.0
 11
119.8519897372393
 21
-120.6870930460233
 31
0.0
  0
LINE
  5
96
102
{ACAD_REACTORS
330
110
330
110
102
}
330
3E
100
AcDbEntity
  8
1
  6
CONTINUOUS
 62
     5
100
AcDbLine
 10
119.5069897372393
 20
-120.6870930460233
 30
0.0
 11
119.5069897372393
 21
-109.0605930460234
 31
0.0
  0
LINE
  5
97
102
{ACAD_REACTORS
330
110
330
110
102
}
330
3E
100
AcDbEntity
  8
1
  6
CONTINUOUS
 62
     5
100
AcDbLine
 10
119.8519897372393
 20
-120.6870930460233
 30
0.0
 11
119.7830192960137
 21
-120.9630930460235
 31
0.0
  0
LINE
  5
98
102
{ACAD_REACTORS
330
110
330
110
102
}
330
3E
100
AcDbEntity
  8
1
  6
CONTINUOUS
 62
     5
100
AcDbLine
 10
119.5069897372393
 20
-120.9630930460232
 30
0.0
 11
119.7830192960137
 21
-120.9630930460235
 31
0.0
  0
LINE
  5
99
330
3E
100
AcDbEntity
  8
1
  6
CONTINUOUS
 62
     5
100
AcDbLine
 10
126.7926642812755
 20
-119.3960650641964
 30
0.0
 11
126.9663194308304
 21
-119.0552476433439
 31
0.0
  0
LINE
  5
9A
330
3E
100
AcDbEntity
  8
1
  6
CONTINUOUS
 62
     5
100
AcDbLine
 10
127.5640458784396
 20
-119.3960650641964
 30
0.0
 11
126.7926642812755
 21
-119.3960650641964
 31
0.0
  0
LINE
  5
9B
330
3E
100
AcDbEntity
  8
1
  6
CONTINUOUS
 62
     5
100
AcDbLine
 10
127.5640458784396
 20
-119.3960650641964
 30
0.0
 11
127.5640458784395
 21
-119.8619300495823
 31
0.0
  0
LINE
  5
9C
330
3E
100
AcDbEntity
  8
1
  6
CONTINUOUS
 62
     5
100
AcDbLine
 10
126.9663194308304
 20
-119.0552476433439
 30
0.0
 11
127.9090458784409
 21
-119.0552476433439
 31
0.0
  0
LINE
  5
9D
330
3E
100
AcDbEntity
  8
1
  6
CONTINUOUS
 62
     5
100
AcDbLine
 10
127.9090458784409
 20
-119.0552476433439
 30
0.0
 11
127.9090458784409
 21
-120.0320972512317
 31
0.0
  0
LINE
  5
9E
330
3E
100
AcDbEntity
  8
1
  6
CONTINUOUS
 62
     5
100
AcDbLine
 10
123.1245566332317
 20
-120.257623959862
 30
0.0
 11
124.4059042250037
 21
-118.0166861496979
 31
0.0
  0
LINE
  5
9F
330
3E
100
AcDbEntity
  8
1
  6
CONTINUOUS
 62
     5
100
AcDbLine
 10
124.4059042250037
 20
-118.0166861496979
 30
0.0
 11
125.6872518167758
 21
-120.257623959862
 31
0.0
  0
LINE
  5
A0
330
3E
100
AcDbEntity
  8
1
  6
CONTINUOUS
 62
     5
100
AcDbLine
 10
125.6872518167758
 20
-120.257623959862
 30
0.0
 11
125.3585142946345
 21
-120.4455930460235
 31
0.0
  0
LINE
  5
A1
330
3E
100
AcDbEntity
  8
1
  6
CONTINUOUS
 62
     5
100
AcDbLine
 10
125.3585142946345
 20
-120.4455930460235
 30
0.0
 11
125.0034322165502
 21
-119.8245930460233
 31
0.0
  0
LINE
  5
A2
330
3E
100
AcDbEntity
  8
1
  6
CONTINUOUS
 62
     5
100
AcDbLine
 10
125.0034322165502
 20
-119.8245930460233
 30
0.0
 11
123.8083762334571
 21
-119.8245930460233
 31
0.0
  0
LINE
  5
A3
330
3E
100
AcDbEntity
  8
1
  6
CONTINUOUS
 62
     5
100
AcDbLine
 10
123.8083762334571
 20
-119.8245930460233
 30
0.0
 11
123.4532941553731
 21
-120.4455930460235
 31
0.0
  0
LINE
  5
A4
330
3E
100
AcDbEntity
  8
1
  6
CONTINUOUS
 62
     5
100
AcDbLine
 10
123.4532941553731
 20
-120.4455930460235
 30
0.0
 11
123.1245566332317
 21
-120.257623959862
 31
0.0
  0
LINE
  5
A5
330
3E
100
AcDbEntity
  8
1
  6
CONTINUOUS
 62
     5
100
AcDbLine
 10
124.0253708367309
 20
-119.4450930460234
 30
0.0
 11
124.4059042250037
 21
-118.7795814679893
 31
0.0
  0
LINE
  5
A6
330
3E
100
AcDbEntity
  8
1
  6
CONTINUOUS
 62
     5
100
AcDbLine
 10
124.0253708367309
 20
-119.4450930460234
 30
0.0
 11
124.7864376132766
 21
-119.4450930460234
 31
0.0
  0
LINE
  5
A7
330
3E
100
AcDbEntity
  8
1
  6
CONTINUOUS
 62
     5
100
AcDbLine
 10
124.4059042250037
 20
-118.7795814679893
 30
0.0
 11
124.7864376132766
 21
-119.4450930460234
 31
0.0
  0
LINE
  5
A8
330
3E
100
AcDbEntity
  8
1
  6
CONTINUOUS
 62
     5
100
AcDbLine
 10
127.6167751392314
 20
-118.6775909202834
 30
0.0
 11
127.8993783791775
 21
-118.440458645875
 31
0.0
  0
LINE
  5
A9
102
{ACAD_REACTORS
330
10F
330
10F
102
}
330
3E
100
AcDbEntity
  8
1
  6
CONTINUOUS
 62
     5
100
AcDbLine
 10
120.1684508218687
 20
-120.5305942625541
 30
0.0
 11
120.0559599277967
 21
-120.9807506804655
 31
0.0
  0
LINE
  5
AA
102
{ACAD_REACTORS
330
10F
330
10F
102
}
330
3E
100
AcDbEntity
  8
1
  6
CONTINUOUS
 62
     5
100
AcDbLine
 10
122.2434690337236
 20
-118.117861607793
 30
0.0
 11
122.3559599277965
 21
-117.6677051898818
 31
0.0
  0
LINE
  5
AB
102
{ACAD_REACTORS
330
10F
330
10F
102
}
330
3E
100
AcDbEntity
  8
1
  6
CONTINUOUS
 62
     5
100
AcDbLine
 10
120.5115496136536
 20
-118.7918068058834
 30
0.0
 11
122.0576995078682
 21
-119.4243904589019
 31
0.0
  0
LINE
  5
AC
102
{ACAD_REACTORS
330
10F
330
10F
102
}
330
3E
100
AcDbEntity
  8
1
  6
CONTINUOUS
 62
     5
100
AcDbLine
 10
120.3542203477236
 20
-119.2240654114449
 30
0.0
 11
121.9003702419384
 21
-119.8566490644636
 31
0.0
  0
LINE
  5
AD
330
3E
100
AcDbEntity
  8
Z1
  6
CONTINUOUS
 62
     7
100
AcDbLine
 10
6.23448973723953
 20
-89.78809304602333
 30
0.0
 11
186.2344897372395
 21
-89.78809304602333
 31
0.0
  0
LINE
  5
AE
330
3E
100
AcDbEntity
  8
Z4
  6
CONTINUOUS
 62
     6
100
AcDbLine
 10
6.23448973723953
 20
-123.7880930460233
 30
0.0
 11
186.2344897372395
 21
-123.7880930460233
 31
0.0
  0
LINE
  5
AF
330
3E
100
AcDbEntity
  8
Z4
  6
CONTINUOUS
 62
     6
100
AcDbLine
 10
25.23448973723953
 20
-123.7880930460233
 30
0.0
 11
25.23448973723953
 21
-140.7880930460233
 31
0.0
  0
LINE
  5
B0
330
3E
100
AcDbEntity
  8
Z4
  6
CONTINUOUS
 62
     6
100
AcDbLine
 10
137.2344897372395
 20
-123.7880930460233
 30
0.0
 11
137.2344897372395
 21
-140.7880930460233
 31
0.0
  0
LINE
  5
B1
330
3E
100
AcDbEntity
  8
Z4
  6
CONTINUOUS
 62
     6
100
AcDbLine
 10
76.23448973723953
 20
-89.78809304602333
 30
0.0
 11
76.23448973723953
 21
-123.7880930460233
 31
0.0
  0
LINE
  5
B2
330
3E
100
AcDbEntity
  8
Z4
  6
CONTINUOUS
 62
     6
100
AcDbLine
 10
118.2344897372395
 20
-107.7880930460233
 30
0.0
 11
118.2344897372395
 21
-123.7880930460233
 31
0.0
  0
LINE
  5
B3
330
3E
100
AcDbEntity
  8
Z4
  6
CONTINUOUS
 62
     6
100
AcDbLine
 10
90.23448973723953
 20
-107.7880930460233
 30
0.0
 11
90.23448973723953
 21
-123.7880930460233
 31
0.0
  0
LINE
  5
B4
330
3E
100
AcDbEntity
  8
Z4
  6
CONTINUOUS
 62
     6
100
AcDbLine
 10
104.2344897372395
 20
-107.7880930460233
 30
0.0
 11
104.2344897372395
 21
-123.7880930460233
 31
0.0
  0
LINE
  5
B5
330
3E
100
AcDbEntity
  8
Z4
  6
CONTINUOUS
 62
     6
100
AcDbLine
 10
86.23448973723953
 20
-89.78809304602333
 30
0.0
 11
86.23448973723953
 21
-107.7880930460233
 31
0.0
  0
LINE
  5
B6
330
3E
100
AcDbEntity
  8
Z4
  6
CONTINUOUS
 62
     6
100
AcDbLine
 10
96.23448973723953
 20
-89.78809304602333
 30
0.0
 11
96.23448973723953
 21
-107.7880930460233
 31
0.0
  0
LINE
  5
B7
330
3E
100
AcDbEntity
  8
Z4
  6
CONTINUOUS
 62
     6
100
AcDbLine
 10
156.2344897372395
 20
-89.78809304602333
 30
0.0
 11
156.2344897372395
 21
-107.7880930460233
 31
0.0
  0
LINE
  5
B8
330
3E
100
AcDbEntity
  8
Z4
  6
CONTINUOUS
 62
     6
100
AcDbLine
 10
171.2344897372395
 20
-89.78809304602333
 30
0.0
 11
171.2344897372395
 21
-107.7880930460233
 31
0.0
  0
LINE
  5
B9
330
3E
100
AcDbEntity
  8
Z4
  6
CONTINUOUS
 62
     6
100
AcDbLine
 10
6.23448973723953
 20
-107.7880930460233
 30
0.0
 11
36.23448973723953
 21
-107.7880930460233
 31
0.0
  0
LINE
  5
BA
330
3E
100
AcDbEntity
  8
Z4
  6
CONTINUOUS
 62
     6
100
AcDbLine
 10
76.23448973723953
 20
-103.2880930460233
 30
0.0
 11
186.2344897372395
 21
-103.2880930460233
 31
0.0
  0
LINE
  5
BB
330
3E
100
AcDbEntity
  8
Z1
  6
CONTINUOUS
 62
     7
100
AcDbLine
 10
76.23448973723953
 20
-98.78809304602333
 30
0.0
 11
186.2344897372395
 21
-98.78809304602333
 31
0.0
  0
LINE
  5
BC
330
3E
100
AcDbEntity
  8
Z1
  6
CONTINUOUS
 62
     7
100
AcDbLine
 10
76.23448973723953
 20
-94.28809304602333
 30
0.0
 11
186.2344897372395
 21
-94.28809304602333
 31
0.0
  0
LINE
  5
BD
330
3E
100
AcDbEntity
  8
Z1
  6
CONTINUOUS
 62
     7
100
AcDbLine
 10
137.2344897372395
 20
-132.2880930460233
 30
0.0
 11
186.2344897372395
 21
-132.2880930460233
 31
0.0
  0
LINE
  5
BE
330
3E
100
AcDbEntity
  8
Z1
  6
CONTINUOUS
 62
     7
100
AcDbLine
 10
137.2344897372395
 20
-136.5380930460233
 30
0.0
 11
186.2344897372395
 21
-136.5380930460233
 31
0.0
  0
LINE
  5
BF
330
3E
100
AcDbEntity
  8
Z1
  6
CONTINUOUS
 62
     7
100
AcDbLine
 10
76.23448973723953
 20
-115.7880930460233
 30
0.0
 11
118.2344897372395
 21
-115.7880930460233
 31
0.0
  0
LINE
  5
C0
330
3E
100
AcDbEntity
  8
Z1
  6
CONTINUOUS
 62
     7
100
AcDbLine
 10
76.23448973723953
 20
-119.7880930460233
 30
0.0
 11
118.2344897372395
 21
-119.7880930460233
 31
0.0
  0
LINE
  5
C1
330
3E
100
AcDbEntity
  8
Z1
  6
CONTINUOUS
 62
     6
100
AcDbLine
 10
76.23448973723953
 20
-111.7880930460233
 30
0.0
 11
118.2344897372395
 21
-111.7880930460233
 31
0.0
  0
ARC
  5
C2
330
3E
100
AcDbEntity
  8
1
  6
CONTINUOUS
 62
     5
100
AcDbCircle
 10
126.9663194308308
 20
-119.2419746418448
 30
0.0
 40
0.861174554753237
100
AcDbArc
 50
40.94733722364102
 51
-46.04582666014606
  0
ARC
  5
C3
330
3E
100
AcDbEntity
  8
1
  6
CONTINUOUS
 62
     5
100
AcDbCircle
 10
126.9663194308308
 20
-119.2419746418448
 30
0.0
 40
1.230051581392157
100
AcDbArc
 50
40.66322727574627
 51
-39.96721488601295
  0
ARC
  5
C4
102
{ACAD_REACTORS
330
10F
330
10F
102
}
330
3E
100
AcDbEntity
  8
1
  6
CONTINUOUS
 62
     5
100
AcDbCircle
 10
121.7911003770221
 20
-120.1568655509478
 30
0.0
 40
0.3194837118470598
100
AcDbArc
 50
-42.96783873651545
 51
69.9999999999885
  0
ARC
  5
C5
102
{ACAD_REACTORS
330
10F
330
10F
102
}
330
3E
100
AcDbEntity
  8
1
  6
CONTINUOUS
 62
     5
100
AcDbCircle
 10
121.7911003770221
 20
-120.1568655509478
 30
0.0
 40
0.7794837118470931
100
AcDbArc
 50
-44.3007399699334
 51
70.00000000000112
  0
ARC
  5
C6
102
{ACAD_REACTORS
330
10F
330
10F
102
}
330
3E
100
AcDbEntity
  8
1
  6
CONTINUOUS
 62
     5
100
AcDbCircle
 10
121.2674571867988
 20
-119.6691096183604
 30
0.0
 40
1.03510095621915
100
AcDbArc
 50
-83.37052171981331
 51
-42.96783873659688
  0
ARC
  5
C7
102
{ACAD_REACTORS
330
10F
330
10F
102
}
330
3E
100
AcDbEntity
  8
1
  6
CONTINUOUS
 62
     5
100
AcDbCircle
 10
121.2674571867988
 20
-119.6691096183604
 30
0.0
 40
1.495000000000105
100
AcDbArc
 50
-88.38828777060564
 51
-43.66275951287634
  0
ARC
  5
C8
102
{ACAD_REACTORS
330
10F
330
10F
102
}
330
3E
100
AcDbEntity
  8
1
  6
CONTINUOUS
 62
     5
100
AcDbCircle
 10
121.2059599277968
 20
-117.4834812456854
 30
0.0
 40
3.218900881116787
100
AcDbArc
 50
-108.8031547052741
 51
-86.7765755411959
  0
ARC
  5
C9
102
{ACAD_REACTORS
330
10F
330
10F
102
}
330
3E
100
AcDbEntity
  8
1
  6
CONTINUOUS
 62
     5
100
AcDbCircle
 10
121.2059599277968
 20
-117.4834812456854
 30
0.0
 40
3.681493378976443
100
AcDbArc
 50
-108.2023110609168
 51
-88.38828777059101
  0
ARC
  5
CA
102
{ACAD_REACTORS
330
10F
330
10F
102
}
330
3E
100
AcDbEntity
  8
1
  6
CONTINUOUS
 62
     5
100
AcDbCircle
 10
121.2059599277968
 20
-121.1649746246617
 30
0.0
 40
3.218900881116356
100
AcDbArc
 50
71.19684529474756
 51
93.22342445883406
  0
ARC
  5
CB
102
{ACAD_REACTORS
330
10F
330
10F
102
}
330
3E
100
AcDbEntity
  8
1
  6
CONTINUOUS
 62
     5
100
AcDbCircle
 10
121.2059599277968
 20
-121.1649746246617
 30
0.0
 40
3.68149337897612
100
AcDbArc
 50
71.79768893908786
 51
91.61171222943217
  0
ARC
  5
CC
102
{ACAD_REACTORS
330
10F
330
10F
102
}
330
3E
100
AcDbEntity
  8
1
  6
CONTINUOUS
 62
     5
100
AcDbCircle
 10
121.1444626687944
 20
-118.9793462519867
 30
0.0
 40
1.035100956219398
100
AcDbArc
 50
96.62947828025715
 51
137.0321612634546
  0
ARC
  5
CD
102
{ACAD_REACTORS
330
10F
330
10F
102
}
330
3E
100
AcDbEntity
  8
1
  6
CONTINUOUS
 62
     5
100
AcDbCircle
 10
120.6208194785695
 20
-118.4915903193993
 30
0.0
 40
0.3194837118474766
100
AcDbArc
 50
137.0321612634567
 51
-109.9999999999506
  0
ARC
  5
CE
102
{ACAD_REACTORS
330
10F
330
10F
102
}
330
3E
100
AcDbEntity
  8
1
  6
CONTINUOUS
 62
     5
100
AcDbCircle
 10
121.1444626687944
 20
-118.9793462519867
 30
0.0
 40
1.495000000000236
100
AcDbArc
 50
91.61171222943617
 51
136.3372404871656
  0
ARC
  5
CF
102
{ACAD_REACTORS
330
10F
330
10F
102
}
330
3E
100
AcDbEntity
  8
1
  6
CONTINUOUS
 62
     5
100
AcDbCircle
 10
120.6208194785695
 20
-118.4915903193993
 30
0.0
 40
0.7794837118472338
100
AcDbArc
 50
135.6992600300665
 51
-109.9999999999936
  0
XLINE
  5
D0
330
3E
100
AcDbEntity
  8
1
  6
DOT_CENTER
 62
     3
 60
     1
100
AcDbXline
 10
126.9663194308308
 20
-119.2419746418448
 30
0.0
 11
0.7585527001158178
 21
0.651611695066166
 31
0.0
  0
XLINE
  5
D1
330
3E
100
AcDbEntity
  8
1
  6
DOT_CENTER
 62
     3
 60
     1
100
AcDbXline
 10
121.7911003770221
 20
-120.1568655509478
 30
0.0
 11
0.342020143325682
 21
0.9396926207859037
 31
0.0
  0
XLINE
  5
D2
330
3E
100
AcDbEntity
  8
1
  6
DOT_CENTER
 62
     3
 60
     1
100
AcDbXline
 10
121.2674571867988
 20
-119.6691096183604
 30
0.0
 11
0.7234160453956451
 21
-0.6904123588581871
 31
0.0
  0
XLINE
  5
D3
330
3E
100
AcDbEntity
  8
1
  6
DOT_CENTER
 62
     3
 60
     1
100
AcDbXline
 10
121.2059599277968
 20
-117.4834812456854
 30
0.0
 11
0.05622969678011738
 21
-0.9984178590149598
 31
0.0
  0
XLINE
  5
D4
330
3E
100
AcDbEntity
  8
1
  6
DOT_CENTER
 62
     3
 60
     1
100
AcDbXline
 10
126.9663194308308
 20
-119.2419746418448
 30
0.0
 11
0.7664121260197058
 21
-0.6423491675794051
 31
0.0
  0
XLINE
  5
D5
330
3E
100
AcDbEntity
  8
1
  6
DOT_CENTER
 62
     3
 60
     1
100
AcDbXline
 10
126.9663194308308
 20
-119.2419746418448
 30
0.0
 11
0.7553122706777714
 21
0.6553650690749311
 31
0.0
  0
XLINE
  5
D6
330
3E
100
AcDbEntity
  8
1
  6
DOT_CENTER
 62
     3
 60
     1
100
AcDbXline
 10
126.9663194308308
 20
-119.2419746418448
 30
0.0
 11
0.6940828015755927
 21
-0.7198951760895307
 31
0.0
  0
XLINE
  5
D7
330
3E
100
AcDbEntity
  8
1
  6
DOT_CENTER
 62
     3
 60
     1
100
AcDbXline
 10
121.2674571867988
 20
-119.6691096183604
 30
0.0
 11
0.7317364056593275
 21
-0.6815877292269632
 31
0.0
  0
XLINE
  5
D8
330
3E
100
AcDbEntity
  8
1
  6
DOT_CENTER
 62
     3
 60
     1
100
AcDbXline
 10
121.2059599277968
 20
-117.4834812456854
 30
0.0
 11
-0.3123732359719131
 21
-0.9499594525285989
 31
0.0
  0
MTEXT
  5
DA
330
3E
100
AcDbEntity
  8
1
 62
     7
100
AcDbMText
 10
91.23448973723953
 20
-97.78809304602328
 30
0.0
 40
2.2
 41
0.0
 71
     8
 72
     1
  1
 
  7
CONVERTER_1
1001
ACAD
1000
MTEXTBEGIN
1070
    44
1040
1.32052821128451
1000
MTEXTEND
  0
MTEXT
  5
DC
330
3E
100
AcDbEntity
  8
1
 62
     7
100
AcDbMText
 10
125.6606523081196
 20
-92.91701554129622
 30
0.0
 40
2.0
 41
0.0
 71
     8
 72
     1
  1
 
  7
CONVERTER_2
1001
ACAD
1000
MTEXTBEGIN
1070
    44
1040
1.32052821128451
1000
MTEXTEND
  0
MTEXT
  5
DD
330
3E
100
AcDbEntity
  8
1
 62
     7
100
AcDbMText
 10
125.6606523081196
 20
-97.41701554129645
 30
0.0
 40
2.0
 41
0.0
 71
     8
 72
     1
  1
 
  7
CONVERTER_2
1001
ACAD
1000
MTEXTBEGIN
1070
    44
1040
1.32052821128451
1000
MTEXTEND
  0
MTEXT
  5
DE
330
3E
100
AcDbEntity
  8
1
 62
     7
100
AcDbMText
 10
125.6606523081196
 20
-101.9170155412965
 30
0.0
 40
2.0
 41
0.0
 71
     8
 72
     1
  1
 
  7
CONVERTER_2
1001
ACAD
1000
MTEXTBEGIN
1070
    44
1040
1.32052821128451
1000
MTEXTEND
  0
MTEXT
  5
DF
330
3E
100
AcDbEntity
  8
1
 62
     7
100
AcDbMText
 10
91.23448973723953
 20
-93.28809304602328
 30
0.0
 40
2.2
 41
0.0
 71
     8
 72
     1
  1
 
  7
CONVERTER_1
1001
ACAD
1000
MTEXTBEGIN
1070
    44
1040
1.32052821128451
1000
MTEXTEND
  0
MTEXT
  5
E0
330
3E
100
AcDbEntity
  8
1
 62
     7
100
AcDbMText
 10
178.7344897372395
 20
-93.28809304602333
 30
0.0
 40
2.2
 41
0.0
 71
     8
 72
     1
  1
 
  7
CONVERTER_2
1001
ACAD
1000
MTEXTBEGIN
1070
    44
1040
1.32052821128451
1000
MTEXTEND
  0
MTEXT
  5
E1
330
3E
100
AcDbEntity
  8
1
 62
     7
100
AcDbMText
 10
178.7344897372395
 20
-97.78809304602328
 30
0.0
 40
2.2
 41
0.0
 71
     8
 72
     1
  1
 
  7
CONVERTER_2
1001
ACAD
1000
MTEXTBEGIN
1070
    44
1040
1.32052821128451
1000
MTEXTEND
  0
MTEXT
  5
E2
330
3E
100
AcDbEntity
  8
1
 62
     7
100
AcDbMText
 10
178.7344897372395
 20
-102.2880930460233
 30
0.0
 40
2.2
 41
0.0
 71
     8
 72
     1
  1
 
  7
CONVERTER_2
1001
ACAD
1000
MTEXTBEGIN
1070
    44
1040
1.32052821128451
1000
MTEXTEND
  0
MTEXT
  5
E3
330
3E
100
AcDbEntity
  8
1
 62
     7
100
AcDbMText
 10
163.7344897372395
 20
-93.28809304602333
 30
0.0
 40
2.2
 41
0.0
 71
     8
 72
     1
  1
 
  7
CONVERTER_2
1001
ACAD
1000
MTEXTBEGIN
1070
    44
1040
1.32052821128451
1000
MTEXTEND
  0
MTEXT
  5
E4
330
3E
100
AcDbEntity
  8
1
 62
     7
100
AcDbMText
 10
163.7344897372395
 20
-97.78809304602328
 30
0.0
 40
2.2
 41
0.0
 71
     8
 72
     1
  1
 
  7
CONVERTER_2
1001
ACAD
1000
MTEXTBEGIN
1070
    44
1040
1.32052821128451
1000
MTEXTEND
  0
MTEXT
  5
E5
330
3E
100
AcDbEntity
  8
1
 62
     7
100
AcDbMText
 10
163.7344897372395
 20
-102.2880930460233
 30
0.0
 40
2.2
 41
0.0
 71
     8
 72
     1
  1
 
  7
CONVERTER_2
1001
ACAD
1000
MTEXTBEGIN
1070
    44
1040
1.32052821128451
1000
MTEXTEND
  0
MTEXT
  5
E6
330
3E
100
AcDbEntity
  8
1
 62
     7
100
AcDbMText
 10
91.23448973723953
 20
-102.2880930460233
 30
0.0
 40
2.2
 41
0.0
 71
     8
 72
     1
  1
 
  7
CONVERTER_1
1001
ACAD
1000
MTEXTBEGIN
1070
    44
1040
1.32052821128451
1000
MTEXTEND
  0
MTEXT
  5
E7
330
3E
100
AcDbEntity
  8
1
 62
     7
100
AcDbMText
 10
81.23448973723953
 20
-93.28809304602333
 30
0.0
 40
2.2
 41
0.0
 71
     8
 72
     1
  1
 
  7
CONVERTER_1
1001
ACAD
1000
MTEXTBEGIN
1070
    44
1040
1.32052821128451
1000
MTEXTEND
  0
MTEXT
  5
E8
330
3E
100
AcDbEntity
  8
1
 62
     7
100
AcDbMText
 10
81.23448973723953
 20
-97.78809304602328
 30
0.0
 40
2.2
 41
0.0
 71
     8
 72
     1
  1
 
  7
CONVERTER_1
1001
ACAD
1000
MTEXTBEGIN
1070
    44
1040
1.32052821128451
1000
MTEXTEND
  0
MTEXT
  5
E9
330
3E
100
AcDbEntity
  8
1
 62
     7
100
AcDbMText
 10
81.23448973723953
 20
-102.2880930460233
 30
0.0
 40
2.2
 41
0.0
 71
     8
 72
     1
  1
 
  7
CONVERTER_1
1001
ACAD
1000
MTEXTBEGIN
1070
    44
1040
1.32052821128451
1000
MTEXTEND
  0
MTEXT
  5
EB
330
3E
100
AcDbEntity
  8
1
 62
     7
100
AcDbMText
 10
3.20620990896259
 20
-130.8736574176344
 30
0.0
 40
2.0
 41
0.0
 71
     5
 72
     1
  1
0018733
  7
CONVERTER_3
 11
0.0
 21
1.0
 31
0.0
1001
ACAD
1000
MTEXTBEGIN
1070
    44
1040
1.32052821128451
1000
MTEXTEND
  0
TEXT
  5
ED
330
3E
100
AcDbEntity
  8
1
 62
     6
100
AcDbText
 10
150.7344897372395
 20
-130.7880930460233
 30
0.0
 40
5.0
  1
K1.7476S...
 41
0.585
  7
CONVERTER_4
100
AcDbText
  0
MTEXT
  5
EE
330
3E
100
AcDbEntity
  8
1
 62
     7
100
AcDbMText
 10
3.20620990896259
 20
-104.5736574176344
 30
0.0
 40
2.0
 41
0.0
 71
     5
 72
     1
  1
 
  7
CONVERTER_3
 11
0.0
 21
1.0
 31
0.0
1001
ACAD
1000
MTEXTBEGIN
1070
    44
1040
1.32052821128451
1000
MTEXTEND
  0
MTEXT
  5
EF
330
3E
100
AcDbEntity
  8
1
 62
     7
100
AcDbMText
 10
111.7344897372395
 20
-114.7880930460233
 30
0.0
 40
2.2
 41
0.0
 71
     8
 72
     1
  1
JUNG
  7
CONVERTER_2
1001
ACAD
1000
MTEXTBEGIN
1070
    44
1040
1.32052821128451
1000
MTEXTEND
  0
MTEXT
  5
F0
330
3E
100
AcDbEntity
  8
1
 62
     7
100
AcDbMText
 10
97.23448973723953
 20
-115.0380930460233
 30
0.0
 40
2.2
 41
0.0
 71
     8
 72
     1
  1
20.07.2009
  7
CONVERTER_2
1001
ACAD
1000
MTEXTBEGIN
1070
    44
1040
1.32052821128451
1000
MTEXTEND
  0
MTEXT
  5
F1
330
3E
100
AcDbEntity
  8
1
 62
     7
100
AcDbMText
 10
111.7344897372395
 20
-118.7880930460233
 30
0.0
 40
2.2
 41
0.0
 71
     8
 72
     1
  1
 
  7
CONVERTER_2
1001
ACAD
1000
MTEXTBEGIN
1070
    44
1040
1.32052821128451
1000
MTEXTEND
  0
MTEXT
  5
F2
330
3E
100
AcDbEntity
  8
1
 62
     7
100
AcDbMText
 10
97.23448973723953
 20
-119.0380930460233
 30
0.0
 40
2.2
 41
0.0
 71
     8
 72
     1
  1
 
  7
CONVERTER_2
1001
ACAD
1000
MTEXTBEGIN
1070
    44
1040
1.32052821128451
1000
MTEXTEND
  0
MTEXT
  5
F3
330
3E
100
AcDbEntity
  8
1
 62
     7
100
AcDbMText
 10
171.2344897372395
 20
-138.7880930460233
 30
0.0
 40
2.0
 41
0.0
 71
     5
 72
     1
  1
 
  7
CONVERTER_3
1001
ACAD
1000
MTEXTBEGIN
1070
    44
1040
1.32052821128451
1000
MTEXTEND
  0
MTEXT
  5
F4
330
3E
100
AcDbEntity
  8
1
 62
     7
100
AcDbMText
 10
166.4344897372399
 20
-134.2880930460233
 30
0.0
 40
2.0
 41
0.0
 71
     5
 72
     1
  1
 
  7
CONVERTER_3
1001
ACAD
1000
MTEXTBEGIN
1070
    44
1040
1.32052821128451
1000
MTEXTEND
  0
MTEXT
  5
F6
330
3E
100
AcDbEntity
  8
1
 62
     2
100
AcDbMText
 10
81.23448973723953
 20
-138.244614785154
 30
0.0
 40
3.5
 41
0.0
 71
     8
 72
     1
  1
Schloss mit "Classroom-Funktion"
  7
CONVERTER_5
1001
ACAD
1000
MTEXTBEGIN
1070
    44
1040
1.32052821128451
1000
MTEXTEND
  0
MTEXT
  5
F7
330
3E
100
AcDbEntity
  8
1
 62
     6
100
AcDbMText
 10
81.23448973723953
 20
-132.3141800025448
 30
0.0
 40
5.0
 41
0.0
 71
     8
 72
     1
  1
Anschlussmasse mit 280er Stulp
  7
CONVERTER_1
1001
ACAD
1000
MTEXTBEGIN
1070
    44
1040
1.32052821128451
1000
MTEXTEND
  0
MTEXT
  5
F8
330
3E
100
AcDbEntity
  8
1
 62
     7
100
AcDbMText
 10
3.20620990896248
 20
-75.07365741763442
 30
0.0
 40
2.0
 41
0.0
 71
     5
 72
     1
  1
 
  7
CONVERTER_3
 11
0.0
 21
1.0
 31
0.0
1001
ACAD
1000
MTEXTBEGIN
1070
    44
1040
1.32052821128451
1000
MTEXTEND
  0
TEXT
  5
F9
330
3E
100
AcDbEntity
  8
Z2
 62
     7
100
AcDbText
 10
77.23448973723953
 20
-114.7880930460233
 30
0.0
 40
2.0
  1
Gezeichn.
 41
0.72
  7
CONVERTER_1
100
AcDbText
  0
TEXT
  5
FA
330
3E
100
AcDbEntity
  8
Z2
 62
     7
100
AcDbText
 10
77.23448973723953
 20
-118.7880930460233
 30
0.0
 40
2.0
  1
Geprüft
 41
0.72
  7
CONVERTER_1
100
AcDbText
  0
TEXT
  5
FB
330
3E
100
AcDbEntity
  8
Z2
 62
     7
100
AcDbText
 10
77.23448973723953
 20
-122.7880930460233
 30
0.0
 40
2.0
  1
Normgepr.
 41
0.72
  7
CONVERTER_1
100
AcDbText
  0
MTEXT
  5
FC
330
3E
100
AcDbEntity
  8
Z2
 62
     7
100
AcDbMText
 10
97.23448973723953
 20
-109.7880930460233
 30
0.0
 40
2.0
 41
0.0
 71
     5
 72
     1
  1
Datum
  7
CONVERTER_3
1001
ACAD
1000
MTEXTBEGIN
1070
    44
1040
0.60024009603842
1000
MTEXTEND
  0
MTEXT
  5
FD
330
3E
100
AcDbEntity
  8
Z2
 62
     7
100
AcDbMText
 10
111.2344897372395
 20
-109.7880930460233
 30
0.0
 40
2.0
 41
0.0
 71
     5
 72
     1
  1
Name
  7
CONVERTER_3
1001
ACAD
1000
MTEXTBEGIN
1070
    44
1040
0.60024009603842
1000
MTEXTEND
  0
MTEXT
  5
FE
330
3E
100
AcDbEntity
  8
Z2
 62
     7
100
AcDbMText
 10
81.23448973723953
 20
-105.2880930460233
 30
0.0
 40
2.0
 41
0.0
 71
     5
 72
     1
  1
Index
  7
CONVERTER_3
1001
ACAD
1000
MTEXTBEGIN
1070
    44
1040
0.60024009603842
1000
MTEXTEND
  0
MTEXT
  5
FF
330
3E
100
AcDbEntity
  8
Z2
 62
     7
100
AcDbMText
 10
91.23448973723953
 20
-105.3880930460235
 30
0.0
 40
1.26
 41
0.0
 71
     8
 72
     1
  1
Buchstabe
  7
CONVERTER_3
1001
ACAD
1000
MTEXTBEGIN
1070
    44
1040
0.60024009603842
1000
MTEXTEND
  0
MTEXT
  5
100
330
3E
100
AcDbEntity
  8
Z2
 62
     7
100
AcDbMText
 10
91.23448973723953
 20
-107.0880930460235
 30
0.0
 40
1.26
 41
0.0
 71
     8
 72
     1
  1
kommt vor
  7
CONVERTER_3
1001
ACAD
1000
MTEXTBEGIN
1070
    44
1040
0.60024009603842
1000
MTEXTEND
  0
MTEXT
  5
101
330
3E
100
AcDbEntity
  8
Z2
 62
     7
100
AcDbMText
 10
125.2344897372394
 20
-106.2880930460233
 30
0.0
 40
2.0
 41
0.0
 71
     8
 72
     1
  1
Änderung
  7
CONVERTER_3
1001
ACAD
1000
MTEXTBEGIN
1070
    44
1040
0.60024009603842
1000
MTEXTEND
  0
MTEXT
  5
102
330
3E
100
AcDbEntity
  8
Z2
 62
     7
100
AcDbMText
 10
163.2344897372395
 20
-106.2880930460233
 30
0.0
 40
2.0
 41
0.0
 71
     8
 72
     1
  1
Datum
  7
CONVERTER_3
1001
ACAD
1000
MTEXTBEGIN
1070
    44
1040
0.60024009603842
1000
MTEXTEND
  0
MTEXT
  5
103
330
3E
100
AcDbEntity
  8
Z2
 62
     7
100
AcDbMText
 10
178.2344897372395
 20
-106.2880930460233
 30
0.0
 40
2.0
 41
0.0
 71
     8
 72
     1
  1
Name
  7
CONVERTER_3
1001
ACAD
1000
MTEXTBEGIN
1070
    44
1040
0.60024009603842
1000
MTEXTEND
  0
TEXT
  5
104
330
3E
100
AcDbEntity
  8
Z2
 62
     7
100
AcDbText
 10
138.7344897372395
 20
-135.2880930460233
 30
0.0
 40
2.0
  1
Ersatz für
 41
0.8415
  7
CONVERTER_3
100
AcDbText
  0
TEXT
  5
105
330
3E
100
AcDbEntity
  8
Z2
 62
     7
100
AcDbText
 10
138.7344897372395
 20
-139.7880930460233
 30
0.0
 40
2.0
  1
Ersetzt durch
 41
0.8415
  7
CONVERTER_3
100
AcDbText
  0
TEXT
  5
106
330
3E
100
AcDbEntity
  8
Z5
 62
     6
100
AcDbText
 10
135.7344897372395
 20
-119.7880930460233
 30
0.0
 40
3.5
  1
Schulte-Schlagbaum AG
 41
0.675
  7
CONVERTER_5
100
AcDbText
  0
TEXT
  5
108
330
3E
100
AcDbEntity
  8
Z2
 62
     3
100
AcDbText
 10
7.23448973723953
 20
-112.6880930460234
 30
0.0
 40
1.5
  1
ohne unsere Zustimmung
 41
0.9
  7
CONVERTER_6
100
AcDbText
  0
TEXT
  5
109
330
3E
100
AcDbEntity
  8
Z2
 62
     3
100
AcDbText
 10
7.23448973723953
 20
-119.5880930460235
 30
0.0
 40
1.5
  1
Übernommen werden.
 41
0.9
  7
CONVERTER_6
100
AcDbText
  0
TEXT
  5
10B
330
3E
100
AcDbEntity
  8
Z2
 62
     7
100
AcDbText
 10
7.23448973723953
 20
-122.5880930460235
 30
0.0
 40
1.8
  1
Schulte-Schlagbaum AG
 41
0.7425
  7
CONVERTER_7
100
AcDbText
  0
TEXT
  5
10C
330
3E
100
AcDbEntity
  8
Z2
 62
     3
100
AcDbText
 10
7.23448973723953
 20
-114.9880930460233
 30
0.0
 40
1.5
  1
weder vervielfältigt noch
 41
0.9
  7
CONVERTER_6
100
AcDbText
  0
TEXT
  5
10D
330
3E
100
AcDbEntity
  8
Z2
 62
     3
100
AcDbText
 10
7.23448973723953
 20
-117.2880930460233
 30
0.0
 40
1.5
  1
in andere Unterlagen
 41
0.9
  7
CONVERTER_6
100
AcDbText
  0
TEXT
  5
10E
330
3E
100
AcDbEntity
  8
Z2
 62
     3
100
AcDbText
 10
7.23448973723953
 20
-110.3880930460235
 30
0.0
 40
1.5
  1
Diese Zeichnung darf
 41
0.9
  7
CONVERTER_6
100
AcDbText
  0
HATCH
  5
10F
330
3E
100
AcDbEntity
  8
1
  6
CONTINUOUS
 62
     3
100
AcDbHatch
 10
0.0
 20
0.0
 30
0.0
210
0.0
220
0.0
230
1.0
  2
_USER
 70
     0
 71
     1
 91
        1
 92
        1
 93
       16
 72
     2
 10
121.7911003770221
 20
-120.1568655509478
 40
0.7794837118470931
 50
315.6992600300666
 51
430.0000000000011
 73
     1
 72
     1
 10
122.0576995078682
 20
-119.4243904589019
 11
120.5115496136536
 21
-118.7918068058834
 72
     2
 10
120.6208194785695
 20
-118.4915903193993
 40
0.3194837118474766
 50
109.9999999999506
 51
222.9678387365434
 73
     0
 72
     2
 10
121.1444626687944
 20
-118.9793462519867
 40
1.035100956219398
 50
222.9678387365454
 51
263.3705217197428
 73
     0
 72
     2
 10
121.2059599277968
 20
-121.1649746246617
 40
3.218900881116356
 50
266.7765755411659
 51
288.8031547052524
 73
     0
 72
     1
 10
122.2434690337236
 20
-118.117861607793
 11
122.3559599277965
 21
-117.6677051898818
 72
     2
 10
121.2059599277968
 20
-121.1649746246617
 40
3.68149337897612
 50
71.79768893908786
 51
91.61171222943217
 73
     1
 72
     2
 10
121.1444626687944
 20
-118.9793462519867
 40
1.495000000000236
 50
91.61171222943617
 51
136.3372404871656
 73
     1
 72
     2
 10
120.6208194785695
 20
-118.4915903193993
 40
0.7794837118472338
 50
135.6992600300665
 51
250.0000000000064
 73
     1
 72
     1
 10
120.3542203477236
 20
-119.2240654114449
 11
121.9003702419384
 21
-119.8566490644636
 72
     2
 10
121.7911003770221
 20
-120.1568655509478
 40
0.3194837118470598
 50
290.0000000000115
 51
402.9678387365154
 73
     0
 72
     2
 10
121.2674571867988
 20
-119.6691096183604
 40
1.03510095621915
 50
42.96783873659688
 51
83.37052171981331
 73
     0
 72
     2
 10
121.2059599277968
 20
-117.4834812456854
 40
3.218900881116787
 50
86.7765755411959
 51
108.8031547052741
 73
     0
 72
     1
 10
120.1684508218687
 20
-120.5305942625541
 11
120.0559599277967
 21
-120.9807506804655
 72
     2
 10
121.2059599277968
 20
-117.4834812456854
 40
3.681493378976443
 50
251.7976889390832
 51
271.611712229409
 73
     1
 72
     2
 10
121.2674571867988
 20
-119.6691096183604
 40
1.495000000000105
 50
271.6117122293943
 51
316.3372404871236
 73
     1
 97
       16
330
C5
330
AB
330
CD
330
CC
330
CA
330
AA
330
CB
330
CE
330
CF
330
AC
330
C4
330
C6
330
C8
330
A9
330
C9
330
C7
 75
     1
 76
     0
 52
45.0
 41
0.1
 77
     0
 78
     1
 53
45.0
 43
0.0
 44
0.0
 45
-0.0707106781186548
 46
0.0707106781186548
 79
     0
 98
        1
 10
0.0
 20
0.0
  0
HATCH
  5
110
330
3E
100
AcDbEntity
  8
1
  6
CONTINUOUS
 62
     3
100
AcDbHatch
 10
0.0
 20
0.0
 30
0.0
210
0.0
220
0.0
230
1.0
  2
_USER
 70
     0
 71
     1
 91
        2
 92
        1
 93
        5
 72
     1
 10
133.1344897372394
 20
-110.2680930460232
 11
133.1344897372394
 21
-122.6880930460234
 72
     1
 10
133.1344897372394
 20
-122.6880930460234
 11
119.3344897372394
 21
-122.6880930460234
 72
     1
 10
119.3344897372394
 20
-122.6880930460234
 11
119.3344897372394
 21
-108.8880930460235
 72
     1
 10
119.3344897372394
 20
-108.8880930460235
 11
131.7544897372393
 21
-108.8880930460235
 72
     1
 10
131.7544897372393
 20
-108.8880930460235
 11
133.1344897372394
 21
-110.2680930460232
 97
        5
330
7C
330
7B
330
7F
330
7E
330
7D
 92
       16
 93
       21
 72
     1
 10
119.5069897372393
 20
-109.0605930460234
 11
131.68303789773
 21
-109.0605930460234
 72
     1
 10
131.68303789773
 20
-109.0605930460234
 11
132.9619897372394
 21
-110.3395448855326
 72
     1
 10
132.9619897372394
 20
-110.3395448855326
 11
132.9619897372394
 21
-120.6966425196903
 72
     1
 10
132.9619897372394
 20
-120.6966425196903
 11
130.2019897372397
 21
-120.6966425196904
 72
     1
 10
130.2019897372397
 20
-120.6966425196904
 11
130.2019897372393
 21
-119.3310503207517
 72
     1
 10
130.2019897372393
 20
-119.3310503207517
 11
131.8173129133954
 21
-120.5046513047017
 72
     1
 10
131.8173129133954
 20
-120.5046513047017
 11
132.1214917814568
 21
-120.0859850101127
 72
     1
 10
132.1214917814568
 20
-120.0859850101127
 11
120.3012318504606
 21
-111.4980634781663
 72
     1
 10
120.3012318504606
 20
-111.4980634781663
 11
119.9970529823993
 21
-111.9167297727553
 72
     1
 10
119.9970529823993
 20
-111.9167297727553
 11
128.6494897372393
 21
-118.2030930460235
 72
     1
 10
128.6494897372393
 20
-118.2030930460235
 11
128.6494897372394
 21
-120.6870930460233
 72
     1
 10
128.6494897372394
 20
-120.6870930460233
 11
122.6412930998125
 21
-120.6870930460233
 72
     1
 10
122.6412930998125
 20
-120.6870930460233
 11
122.4969897372394
 21
-120.9630930460232
 72
     1
 10
122.4969897372394
 20
-120.9630930460232
 11
132.9619897372394
 21
-120.9630930460232
 72
     1
 10
132.9619897372394
 20
-120.9630930460232
 11
132.9619897372394
 21
-122.5155930460235
 72
     1
 10
132.9619897372394
 20
-122.5155930460235
 11
119.5069897372393
 21
-122.5155930460235
 72
     1
 10
119.5069897372393
 20
-122.5155930460235
 11
119.5069897372393
 21
-120.9630930460232
 72
     1
 10
119.5069897372393
 20
-120.9630930460232
 11
119.7830192960137
 21
-120.9630930460235
 72
     1
 10
119.7830192960137
 20
-120.9630930460235
 11
119.8519897372393
 21
-120.6870930460233
 72
     1
 10
119.8519897372393
 20
-120.6870930460233
 11
119.5069897372393
 21
-120.6870930460233
 72
     1
 10
119.5069897372393
 20
-120.6870930460233
 11
119.5069897372393
 21
-109.0605930460234
 97
       21
330
80
330
81
330
82
330
90
330
86
330
89
330
8F
330
8A
330
88
330
87
330
85
330
94
330
93
330
91
330
92
330
83
330
84
330
98
330
97
330
95
330
96
 75
     1
 76
     0
 52
45.0
 41
0.1
 77
     0
 78
     1
 53
45.0
 43
0.0
 44
0.0
 45
-0.0707106781186548
 46
0.0707106781186548
 79
     0
 98
        1
 10
0.0
 20
0.0
  0
HATCH
  5
111
330
3E
100
AcDbEntity
  8
1
  6
CONTINUOUS
 62
     3
100
AcDbHatch
 10
0.0
 20
0.0
 30
0.0
210
0.0
220
0.0
230
1.0
  2
_USER
 70
     0
 71
     1
 91
        1
 92
        1
 93
        4
 72
     1
 10
132.7298495175795
 20
-119.2486524209348
 11
129.9666519732919
 21
-117.2410718917296
 72
     1
 10
129.9666519732919
 20
-117.2410718917296
 11
129.5002443755977
 21
-117.8830268767662
 72
     1
 10
129.5002443755977
 20
-117.8830268767662
 11
132.2634419198854
 21
-119.8906074059711
 72
     1
 10
132.2634419198854
 20
-119.8906074059711
 11
132.7298495175795
 21
-119.2486524209348
 97
        4
330
8E
330
8B
330
8C
330
8D
 75
     1
 76
     0
 52
45.0
 41
0.1
 77
     0
 78
     1
 53
45.0
 43
0.0
 44
0.0
 45
-0.0707106781186548
 46
0.0707106781186548
 79
     0
 98
        1
 10
0.0
 20
0.0
  0
ENDBLK
  5
40
330
3E
100
AcDbEntity
  8
0
100
AcDbBlockEnd
  0
BLOCK
  5
43
330
41
100
AcDbEntity
  8
0
100
AcDbBlockBegin
  2
_RAHMEN
 70
     0
 71
     0
 10
88.23448973723941
 20
1.56190695397652
 30
0.0
  3
_RAHMEN
  1

  0
INSERT
  5
42
330
41
100
AcDbEntity
  8
1
100
AcDbBlockReference
  2
_SCHRIFTFELD
 10
186.2344897372395
 20
-140.7880930460233
 30
0.0
  0
POINT
  5
112
330
41
100
AcDbEntity
  8
1
 62
     3
 60
     1
100
AcDbPoint
 10
149.2344897372394
 20
-132.2880930460233
 30
0.0
  0
POINT
  5
113
330
41
100
AcDbEntity
  8
1
 62
     3
 60
     1
100
AcDbPoint
 10
149.2344897372394
 20
-123.7880930460233
 30
0.0
  0
POINT
  5
114
330
41
100
AcDbEntity
  8
1
 62
     3
 60
     1
100
AcDbPoint
 10
143.2344897372394
 20
-132.2880930460233
 30
0.0
  0
POINT
  5
115
330
41
100
AcDbEntity
  8
1
 62
     3
 60
     1
100
AcDbPoint
 10
143.2344897372394
 20
-123.7880930460233
 30
0.0
  0
LINE
  5
116
330
41
100
AcDbEntity
  8
Z4
  6
CONTINUOUS
 62
     6
100
AcDbLine
 10
6.23448973723941
 20
-140.7880930460233
 30
0.0
 11
186.2344897372395
 21
-140.7880930460233
 31
0.0
  0
LINE
  5
117
330
41
100
AcDbEntity
  8
Z4
  6
CONTINUOUS
 62
     6
100
AcDbLine
 10
186.2344897372395
 20
143.9119069539768
 30
0.0
 11
6.23448973723941
 21
143.9119069539769
 31
0.0
  0
LINE
  5
118
330
41
100
AcDbEntity
  8
Z4
  6
CONTINUOUS
 62
     6
100
AcDbLine
 10
186.2344897372395
 20
-140.7880930460233
 30
0.0
 11
186.2344897372395
 21
143.9119069539768
 31
0.0
  0
LINE
  5
119
330
41
100
AcDbEntity
  8
Z4
  6
CONTINUOUS
 62
     6
100
AcDbLine
 10
6.23448973723941
 20
143.9119069539769
 30
0.0
 11
6.23448973723941
 21
-140.7880930460233
 31
0.0
  0
LINE
  5
11A
330
41
100
AcDbEntity
  8
Z1
  6
CONTINUOUS
 62
     7
100
AcDbLine
 10
-16.76551026276059
 20
150.0619069539768
 30
0.0
 11
-16.76551026276059
 21
-146.9380930460234
 31
0.0
  0
LINE
  5
11B
330
41
100
AcDbEntity
  8
Z1
  6
CONTINUOUS
 62
     7
100
AcDbLine
 10
-16.76551026276059
 20
1.56190695397674
 30
0.0
 11
3.23448973723941
 21
1.56190695397674
 31
0.0
  0
LINE
  5
11C
330
41
100
AcDbEntity
  8
Z1
  6
CONTINUOUS
 62
     7
100
AcDbLine
 10
193.2344897372395
 20
150.0619069539768
 30
0.0
 11
-16.76551026276059
 21
150.0619069539768
 31
0.0
  0
LINE
  5
11D
330
41
100
AcDbEntity
  8
Z1
  6
CONTINUOUS
 62
     7
100
AcDbLine
 10
193.2344897372395
 20
-146.9380930460234
 30
0.0
 11
193.2344897372395
 21
150.0619069539768
 31
0.0
  0
LINE
  5
11E
330
41
100
AcDbEntity
  8
Z1
  6
CONTINUOUS
 62
     7
100
AcDbLine
 10
-16.76551026276059
 20
-146.9380930460234
 30
0.0
 11
193.2344897372395
 21
-146.9380930460234
 31
0.0
  0
LINE
  5
11F
330
41
100
AcDbEntity
  8
1
  6
CONTINUOUS
 62
     6
100
AcDbLine
 10
143.2344897372394
 20
-123.7880930460233
 30
0.0
 11
143.2344897372394
 21
-132.2880930460233
 31
0.0
  0
LINE
  5
120
330
41
100
AcDbEntity
  8
1
  6
CONTINUOUS
 62
     6
100
AcDbLine
 10
149.2344897372394
 20
-123.7880930460233
 30
0.0
 11
149.2344897372394
 21
-132.2880930460233
 31
0.0
  0
MTEXT
  5
122
330
41
100
AcDbEntity
  8
1
 62
     6
100
AcDbMText
 10
4.99383284838732
 20
-99.37331629651857
 30
0.0
 40
3.8
 41
0.0
 71
     4
 72
     1
  1
   Zeichnung wird bei\PÄnderung nicht ausgetauscht.
  7
CONVERTER_8
1001
ACAD
1000
MTEXTBEGIN
1070
    44
1040
1.08043217286915
1000
MTEXTEND
  0
MTEXT
  5
124
330
41
100
AcDbEntity
  8
1
 62
     6
100
AcDbMText
 10
1.36914013944443
 20
69.13588495008469
 30
0.0
 40
5.0
 41
0.0
 71
     5
 72
     1
  1
Technische Änderungen vorbehalten.
  7
CONVERTER_9
 11
6.123031769111886E-17
 21
1.0
 31
0.0
1001
ACAD
1000
MTEXTBEGIN
1070
    44
1040
1.32052821128451
1000
MTEXTEND
  0
MTEXT
  5
125
330
41
100
AcDbEntity
  8
1
 62
     6
100
AcDbMText
 10
140.2344897372394
 20
-130.7880930460233
 30
0.0
 40
5.0
 41
0.0
 71
     8
 72
     1
  1
K
  7
CONVERTER_4
1001
ACAD
1000
MTEXTBEGIN
1070
    44
1040
1.02040816326531
1000
MTEXTEND
  0
MTEXT
  5
126
330
41
100
AcDbEntity
  8
1
 62
     6
100
AcDbMText
 10
146.2344897372394
 20
-130.7880930460233
 30
0.0
 40
5.0
 41
0.0
 71
     8
 72
     1
  1
E
  7
CONVERTER_4
1001
ACAD
1000
MTEXTBEGIN
1070
    44
1040
1.02040816326531
1000
MTEXTEND
  0
ENDBLK
  5
44
330
41
100
AcDbEntity
  8
0
100
AcDbBlockEnd
  0
BLOCK
  5
214
330
20B
100
AcDbEntity
  8
0
100
AcDbBlockBegin
  2
*D03
 70
     1
 71
     0
 10
0.0
 20
0.0
 30
0.0
  3
*D03
  1

  0
LINE
  5
20C
330
20B
100
AcDbEntity
  8
1
  6
CONTINUOUS
 62
     3
100
AcDbLine
 10
46.79962704675126
 20
208.296792756518
 30
0.0
 11
68.48960375190276
 21
208.296792756518
 31
0.0
  0
LINE
  5
20D
330
20B
100
AcDbEntity
  8
1
  6
CONTINUOUS
 62
     3
100
AcDbLine
 10
68.48960375190276
 20
208.296792756518
 30
0.0
 11
78.48960375190275
 21
208.296792756518
 31
0.0
  0
LINE
  5
20E
330
20B
100
AcDbEntity
  8
1
  6
CONTINUOUS
 62
     3
100
AcDbLine
 10
78.48960375190275
 20
208.296792756518
 30
0.0
 11
95.98960375190275
 21
208.296792756518
 31
0.0
  0
LINE
  5
20F
330
20B
100
AcDbEntity
  8
1
  6
CONTINUOUS
 62
     3
100
AcDbLine
 10
78.48960375190275
 20
269.342895
 30
0.0
 11
78.48960375190275
 21
206.296792756518
 31
0.0
  0
LINE
  5
210
330
20B
100
AcDbEntity
  8
1
  6
CONTINUOUS
 62
     3
100
AcDbLine
 10
68.48960375190276
 20
193.842895
 30
0.0
 11
68.48960375190276
 21
210.296792756518
 31
0.0
  0
SOLID
  5
211
330
20B
100
AcDbEntity
  8
1
 62
     3
100
AcDbTrace
 10
59.73960375190276
 20
207.1448334026283
 30
0.0
 11
59.73960375190276
 21
209.4487521104077
 31
0.0
 12
68.48960375190276
 22
208.296792756518
 32
0.0
 13
68.48960375190276
 23
208.296792756518
 33
0.0
  0
SOLID
  5
212
330
20B
100
AcDbEntity
  8
1
 62
     3
100
AcDbTrace
 10
87.23960375190275
 20
209.4487521104077
 30
0.0
 11
87.23960375190275
 21
207.1448334026283
 31
0.0
 12
78.48960375190275
 22
208.296792756518
 32
0.0
 13
78.48960375190275
 23
208.296792756518
 33
0.0
  0
MTEXT
  5
213
330
20B
100
AcDbEntity
  8
1
 62
     2
100
AcDbMText
 10
46.79962704675126
 20
210.796792756518
 30
0.0
 40
8.75
 41
0.0
 71
     7
 72
     1
  1
10
  7
CONVERTER_1
 11
0.9999999999970621
 21
2.424068405545307E-6
 31
0.0
1001
ACAD
1000
MTEXTBEGIN
1070
    44
1040
0.60024009603842
1000
MTEXTEND
  0
ENDBLK
  5
215
330
20B
100
AcDbEntity
  8
0
100
AcDbBlockEnd
  0
BLOCK
  5
21F
330
218
100
AcDbEntity
  8
0
100
AcDbBlockBegin
  2
*D14
 70
     1
 71
     0
 10
0.0
 20
0.0
 30
0.0
  3
*D14
  1

  0
LINE
  5
219
330
218
100
AcDbEntity
  8
1
  6
CONTINUOUS
 62
     3
100
AcDbLine
 10
431.005596814948
 20
269.3428950000001
 30
0.0
 11
431.005596814948
 21
233.842895
 31
0.0
  0
LINE
  5
21A
330
218
100
AcDbEntity
  8
1
  6
CONTINUOUS
 62
     3
100
AcDbLine
 10
389.6333711892661
 20
233.842895
 30
0.0
 11
433.505596814948
 21
233.842895
 31
0.0
  0
LINE
  5
21B
330
218
100
AcDbEntity
  8
1
  6
CONTINUOUS
 62
     3
100
AcDbLine
 10
387.6333711892661
 20
269.3428950000001
 30
0.0
 11
433.505596814948
 21
269.3428950000001
 31
0.0
  0
SOLID
  5
21C
330
218
100
AcDbEntity
  8
1
 62
     3
100
AcDbTrace
 10
432.1575561688377
 20
260.5928950000001
 30
0.0
 11
429.8536374610583
 21
260.5928950000001
 31
0.0
 12
431.005596814948
 22
269.3428950000001
 32
0.0
 13
431.005596814948
 23
269.3428950000001
 33
0.0
  0
SOLID
  5
21D
330
218
100
AcDbEntity
  8
1
 62
     3
100
AcDbTrace
 10
429.8536374610583
 20
242.592895
 30
0.0
 11
432.1575561688377
 21
242.592895
 31
0.0
 12
431.005596814948
 22
233.842895
 32
0.0
 13
431.005596814948
 23
233.842895
 33
0.0
  0
MTEXT
  5
21E
330
218
100
AcDbEntity
  8
1
 62
     2
100
AcDbMText
 10
427.630596814948
 20
244.700824239528
 30
0.0
 40
8.75
 41
0.0
 71
     7
 72
     1
  1
35,5
  7
CONVERTER_2
 11
0.0
 21
1.0
 31
0.0
1001
ACAD
1000
MTEXTBEGIN
1070
    44
1040
0.60024009603842
1000
MTEXTEND
  0
ENDBLK
  5
220
330
218
100
AcDbEntity
  8
0
100
AcDbBlockEnd
  0
BLOCK
  5
22A
330
223
100
AcDbEntity
  8
0
100
AcDbBlockBegin
  2
*D25
 70
     1
 71
     0
 10
0.0
 20
0.0
 30
0.0
  3
*D25
  1

  0
LINE
  5
224
330
223
100
AcDbEntity
  8
1
  6
CONTINUOUS
 62
     3
100
AcDbLine
 10
431.005596814948
 20
-10.65710500000002
 30
0.0
 11
431.005596814948
 21
24.84289500000002
 31
0.0
  0
LINE
  5
225
330
223
100
AcDbEntity
  8
1
  6
CONTINUOUS
 62
     3
100
AcDbLine
 10
389.6333711892661
 20
24.84289500000002
 30
0.0
 11
433.505596814948
 21
24.84289500000002
 31
0.0
  0
LINE
  5
226
330
223
100
AcDbEntity
  8
1
  6
CONTINUOUS
 62
     3
100
AcDbLine
 10
387.6333711892661
 20
-10.65710500000002
 30
0.0
 11
433.505596814948
 21
-10.65710500000002
 31
0.0
  0
SOLID
  5
227
330
223
100
AcDbEntity
  8
1
 62
     3
100
AcDbTrace
 10
429.8536374610583
 20
-1.90710500000002
 30
0.0
 11
432.1575561688377
 21
-1.90710500000002
 31
0.0
 12
431.005596814948
 22
-10.65710500000002
 32
0.0
 13
431.005596814948
 23
-10.65710500000002
 33
0.0
  0
SOLID
  5
228
330
223
100
AcDbEntity
  8
1
 62
     3
100
AcDbTrace
 10
432.1575561688377
 20
16.09289500000002
 30
0.0
 11
429.8536374610583
 21
16.09289500000002
 31
0.0
 12
431.005596814948
 22
24.84289500000002
 32
0.0
 13
431.005596814948
 23
24.84289500000002
 33
0.0
  0
MTEXT
  5
229
330
223
100
AcDbEntity
  8
1
 62
     2
100
AcDbMText
 10
427.630596814948
 20
-1.81441885471604
 30
0.0
 40
8.75
 41
0.0
 71
     7
 72
     1
  1
35,5
  7
CONVERTER_2
 11
0.0
 21
1.0
 31
0.0
1001
ACAD
1000
MTEXTBEGIN
1070
    44
1040
0.60024009603842
1000
MTEXTEND
  0
ENDBLK
  5
22B
330
223
100
AcDbEntity
  8
0
100
AcDbBlockEnd
  0
BLOCK
  5
237
330
22E
100
AcDbEntity
  8
0
100
AcDbBlockBegin
  2
*D36
 70
     1
 71
     0
 10
0.0
 20
0.0
 30
0.0
  3
*D36
  1

  0
LINE
  5
22F
330
22E
100
AcDbEntity
  8
1
  6
CONTINUOUS
 62
     3
100
AcDbLine
 10
358.1333711892663
 20
246.247699239528
 30
0.0
 11
375.6333711892663
 21
246.247699239528
 31
0.0
  0
LINE
  5
230
330
22E
100
AcDbEntity
  8
1
  6
CONTINUOUS
 62
     3
100
AcDbLine
 10
375.6333711892663
 20
246.247699239528
 30
0.0
 11
384.6333711892663
 21
246.247699239528
 31
0.0
  0
LINE
  5
231
330
22E
100
AcDbEntity
  8
1
  6
CONTINUOUS
 62
     3
100
AcDbLine
 10
384.6333711892663
 20
246.247699239528
 30
0.0
 11
402.1333711892663
 21
246.247699239528
 31
0.0
  0
LINE
  5
232
330
22E
100
AcDbEntity
  8
1
  6
CONTINUOUS
 62
     3
100
AcDbLine
 10
384.6333711892663
 20
239.8428950000001
 30
0.0
 11
384.6333711892663
 21
248.747699239528
 31
0.0
  0
LINE
  5
233
330
22E
100
AcDbEntity
  8
1
  6
CONTINUOUS
 62
     3
100
AcDbLine
 10
375.6333711892663
 20
257.3428950000001
 30
0.0
 11
375.6333711892663
 21
243.747699239528
 31
0.0
  0
SOLID
  5
234
330
22E
100
AcDbEntity
  8
1
 62
     3
100
AcDbTrace
 10
366.8833711892663
 20
245.0957398856383
 30
0.0
 11
366.8833711892663
 21
247.3996585934177
 31
0.0
 12
375.6333711892663
 22
246.247699239528
 32
0.0
 13
375.6333711892663
 23
246.247699239528
 33
0.0
  0
SOLID
  5
235
330
22E
100
AcDbEntity
  8
1
 62
     3
100
AcDbTrace
 10
393.3833711892663
 20
247.3996585934177
 30
0.0
 11
393.3833711892663
 21
245.0957398856383
 31
0.0
 12
384.6333711892663
 22
246.247699239528
 32
0.0
 13
384.6333711892663
 23
246.247699239528
 33
0.0
  0
MTEXT
  5
236
330
22E
100
AcDbEntity
  8
1
 62
     2
100
AcDbMText
 10
361.092089156772
 20
248.747699239528
 30
0.0
 40
8.75
 41
0.0
 71
     7
 72
     1
  1
9
  7
CONVERTER_2
 11
0.9999999999970621
 21
2.424068405545307E-6
 31
0.0
1001
ACAD
1000
MTEXTBEGIN
1070
    44
1040
0.60024009603842
1000
MTEXTEND
  0
ENDBLK
  5
238
330
22E
100
AcDbEntity
  8
0
100
AcDbBlockEnd
  0
BLOCK
  5
244
330
23B
100
AcDbEntity
  8
0
100
AcDbBlockBegin
  2
*D47
 70
     1
 71
     0
 10
0.0
 20
0.0
 30
0.0
  3
*D47
  1

  0
LINE
  5
23C
330
23B
100
AcDbEntity
  8
1
  6
CONTINUOUS
 62
     3
100
AcDbLine
 10
417.1333711892662
 20
288.166827940422
 30
0.0
 11
399.6333711892662
 21
288.166827940422
 31
0.0
  0
LINE
  5
23D
330
23B
100
AcDbEntity
  8
1
  6
CONTINUOUS
 62
     3
100
AcDbLine
 10
399.6333711892662
 20
288.166827940422
 30
0.0
 11
390.6333711892663
 21
288.166827940422
 31
0.0
  0
LINE
  5
23E
330
23B
100
AcDbEntity
  8
1
  6
CONTINUOUS
 62
     3
100
AcDbLine
 10
390.6333711892663
 20
288.166827940422
 30
0.0
 11
373.1333711892663
 21
288.166827940422
 31
0.0
  0
LINE
  5
23F
330
23B
100
AcDbEntity
  8
1
  6
CONTINUOUS
 62
     3
100
AcDbLine
 10
390.6333711892663
 20
263.9928950000001
 30
0.0
 11
390.6333711892663
 21
290.666827940422
 31
0.0
  0
LINE
  5
240
330
23B
100
AcDbEntity
  8
1
  6
CONTINUOUS
 62
     3
100
AcDbLine
 10
399.6333711892662
 20
257.3428950000001
 30
0.0
 11
399.6333711892662
 21
290.666827940422
 31
0.0
  0
SOLID
  5
241
330
23B
100
AcDbEntity
  8
1
 62
     3
100
AcDbTrace
 10
408.3833711892662
 20
289.3187872943117
 30
0.0
 11
408.3833711892662
 21
287.0148685865323
 31
0.0
 12
399.6333711892662
 22
288.166827940422
 32
0.0
 13
399.6333711892662
 23
288.166827940422
 33
0.0
  0
SOLID
  5
242
330
23B
100
AcDbEntity
  8
1
 62
     3
100
AcDbTrace
 10
381.8833711892663
 20
287.0148685865323
 30
0.0
 11
381.8833711892663
 21
289.3187872943117
 31
0.0
 12
390.6333711892663
 22
288.166827940422
 32
0.0
 13
390.6333711892663
 23
288.166827940422
 33
0.0
  0
MTEXT
  5
243
330
23B
100
AcDbEntity
  8
1
 62
     2
100
AcDbMText
 10
393.0121596354341
 20
290.666827940422
 30
0.0
 40
8.75
 41
0.0
 71
     7
 72
     1
  1
9
  7
CONVERTER_2
 11
0.9999999999970621
 21
2.424068405545307E-6
 31
0.0
1001
ACAD
1000
MTEXTBEGIN
1070
    44
1040
0.60024009603842
1000
MTEXTEND
  0
ENDBLK
  5
245
330
23B
100
AcDbEntity
  8
0
100
AcDbBlockEnd
  0
BLOCK
  5
251
330
248
100
AcDbEntity
  8
0
100
AcDbBlockBegin
  2
*D58
 70
     1
 71
     0
 10
0.0
 20
0.0
 30
0.0
  3
*D58
  1

  0
LINE
  5
249
330
248
100
AcDbEntity
  8
1
  6
CONTINUOUS
 62
     3
100
AcDbLine
 10
238.7882962205233
 20
-37.87749570569488
 30
0.0
 11
256.2882962205233
 21
-37.87749570569488
 31
0.0
  0
LINE
  5
24A
330
248
100
AcDbEntity
  8
1
  6
CONTINUOUS
 62
     3
100
AcDbLine
 10
256.2882962205233
 20
-37.87749570569488
 30
0.0
 11
276.2882962205233
 21
-37.87749570569488
 31
0.0
  0
LINE
  5
24B
330
248
100
AcDbEntity
  8
1
  6
CONTINUOUS
 62
     3
100
AcDbLine
 10
276.2882962205233
 20
-37.87749570569488
 30
0.0
 11
293.7882962205233
 21
-37.87749570569488
 31
0.0
  0
LINE
  5
24C
330
248
100
AcDbEntity
  8
1
  6
CONTINUOUS
 62
     3
100
AcDbLine
 10
276.2882962205233
 20
-0.65710499999998
 30
0.0
 11
276.2882962205233
 21
-40.37749570569488
 31
0.0
  0
LINE
  5
24D
330
248
100
AcDbEntity
  8
1
  6
CONTINUOUS
 62
     3
100
AcDbLine
 10
256.2882962205233
 20
-0.65710499999998
 30
0.0
 11
256.2882962205233
 21
-40.37749570569488
 31
0.0
  0
SOLID
  5
24E
330
248
100
AcDbEntity
  8
1
 62
     3
100
AcDbTrace
 10
247.5382962205233
 20
-39.02945505958459
 30
0.0
 11
247.5382962205233
 21
-36.72553635180517
 31
0.0
 12
256.2882962205233
 22
-37.87749570569488
 32
0.0
 13
256.2882962205233
 23
-37.87749570569488
 33
0.0
  0
SOLID
  5
24F
330
248
100
AcDbEntity
  8
1
 62
     3
100
AcDbTrace
 10
285.0382962205233
 20
-36.72553635180517
 30
0.0
 11
285.0382962205233
 21
-39.0294550595846
 31
0.0
 12
276.2882962205233
 22
-37.87749570569488
 32
0.0
 13
276.2882962205233
 23
-37.87749570569488
 33
0.0
  0
MTEXT
  5
250
330
248
100
AcDbEntity
  8
1
 62
     2
100
AcDbMText
 10
260.70088984233
 20
-35.37749570569488
 30
0.0
 40
8.75
 41
0.0
 71
     7
 72
     1
  1
20
  7
CONVERTER_2
 11
0.9999999999970621
 21
2.424068405545307E-6
 31
0.0
1001
ACAD
1000
MTEXTBEGIN
1070
    44
1040
0.60024009603842
1000
MTEXTEND
  0
ENDBLK
  5
252
330
248
100
AcDbEntity
  8
0
100
AcDbBlockEnd
  0
BLOCK
  5
25C
330
255
100
AcDbEntity
  8
0
100
AcDbBlockBegin
  2
*D69
 70
     1
 71
     0
 10
0.0
 20
0.0
 30
0.0
  3
*D69
  1

  0
LINE
  5
256
330
255
100
AcDbEntity
  8
1
  6
CONTINUOUS
 62
     3
100
AcDbLine
 10
78.48960375190276
 20
-37.87749570569488
 30
0.0
 11
133.4896037519027
 21
-37.87749570569488
 31
0.0
  0
LINE
  5
257
330
255
100
AcDbEntity
  8
1
  6
CONTINUOUS
 62
     3
100
AcDbLine
 10
133.4896037519027
 20
46.84289500000001
 30
0.0
 11
133.4896037519027
 21
-39.87749570569488
 31
0.0
  0
LINE
  5
258
330
255
100
AcDbEntity
  8
1
  6
CONTINUOUS
 62
     3
100
AcDbLine
 10
78.48960375190276
 20
-10.657105
 30
0.0
 11
78.48960375190276
 21
-39.87749570569488
 31
0.0
  0
SOLID
  5
259
330
255
100
AcDbEntity
  8
1
 62
     3
100
AcDbTrace
 10
87.23960375190276
 20
-36.72553635180517
 30
0.0
 11
87.23960375190276
 21
-39.0294550595846
 31
0.0
 12
78.48960375190276
 22
-37.87749570569488
 32
0.0
 13
78.48960375190276
 23
-37.87749570569488
 33
0.0
  0
SOLID
  5
25A
330
255
100
AcDbEntity
  8
1
 62
     3
100
AcDbTrace
 10
124.7396037519027
 20
-39.02945505958459
 30
0.0
 11
124.7396037519027
 21
-36.72553635180517
 31
0.0
 12
133.4896037519027
 22
-37.87749570569488
 32
0.0
 13
133.4896037519027
 23
-37.87749570569488
 33
0.0
  0
MTEXT
  5
25B
330
255
100
AcDbEntity
  8
1
 62
     2
100
AcDbMText
 10
85.212465158794
 20
-35.37749570569488
 30
0.0
 40
8.75
 41
0.0
 71
     7
 72
     1
  1
Dornmaß
  7
CONVERTER_1
 11
0.9999999999970621
 21
2.424068405545307E-6
 31
0.0
1001
ACAD
1000
MTEXTBEGIN
1070
    44
1040
0.60024009603842
1000
MTEXTEND
  0
ENDBLK
  5
25D
330
255
100
AcDbEntity
  8
0
100
AcDbBlockEnd
  0
BLOCK
  5
267
330
260
100
AcDbEntity
  8
0
100
AcDbBlockBegin
  2
*D710
 70
     1
 71
     0
 10
0.0
 20
0.0
 30
0.0
  3
*D710
  1

  0
LINE
  5
261
330
260
100
AcDbEntity
  8
1
  6
CONTINUOUS
 62
     3
100
AcDbLine
 10
133.4896037519027
 20
-37.87749570569488
 30
0.0
 11
165.4896037519027
 21
-37.87749570569488
 31
0.0
  0
LINE
  5
262
330
260
100
AcDbEntity
  8
1
  6
CONTINUOUS
 62
     3
100
AcDbLine
 10
165.4896037519027
 20
54.84289500000003
 30
0.0
 11
165.4896037519027
 21
-39.87749570569488
 31
0.0
  0
LINE
  5
263
330
260
100
AcDbEntity
  8
1
  6
CONTINUOUS
 62
     3
100
AcDbLine
 10
133.4896037519027
 20
46.84289500000001
 30
0.0
 11
133.4896037519027
 21
-39.87749570569488
 31
0.0
  0
SOLID
  5
264
330
260
100
AcDbEntity
  8
1
 62
     3
100
AcDbTrace
 10
142.2396037519027
 20
-36.72553635180517
 30
0.0
 11
142.2396037519027
 21
-39.0294550595846
 31
0.0
 12
133.4896037519027
 22
-37.87749570569488
 32
0.0
 13
133.4896037519027
 23
-37.87749570569488
 33
0.0
  0
SOLID
  5
265
330
260
100
AcDbEntity
  8
1
 62
     3
100
AcDbTrace
 10
156.7396037519027
 20
-39.02945505958459
 30
0.0
 11
156.7396037519027
 21
-36.72553635180517
 31
0.0
 12
165.4896037519027
 22
-37.87749570569488
 32
0.0
 13
165.4896037519027
 23
-37.87749570569488
 33
0.0
  0
MTEXT
  5
266
330
260
100
AcDbEntity
  8
1
 62
     2
100
AcDbMText
 10
144.2396037519027
 20
-35.37749570569488
 30
0.0
 40
8.75
 41
0.0
 71
     7
 72
     1
  1
32
  7
CONVERTER_1
 11
0.9999999999970621
 21
2.424068405545307E-6
 31
0.0
1001
ACAD
1000
MTEXTBEGIN
1070
    44
1040
0.60024009603842
1000
MTEXTEND
  0
ENDBLK
  5
268
330
260
100
AcDbEntity
  8
0
100
AcDbBlockEnd
  0
BLOCK
  5
272
330
26B
100
AcDbEntity
  8
0
100
AcDbBlockBegin
  2
*D811
 70
     1
 71
     0
 10
0.0
 20
0.0
 30
0.0
  3
*D811
  1

  0
LINE
  5
26C
330
26B
100
AcDbEntity
  8
1
  6
CONTINUOUS
 62
     3
100
AcDbLine
 10
202.0111710717158
 20
46.84289500000001
 30
0.0
 11
202.0111710717158
 21
76.84289500000001
 31
0.0
  0
LINE
  5
26D
330
26B
100
AcDbEntity
  8
1
  6
CONTINUOUS
 62
     3
100
AcDbLine
 10
157.4896037519028
 20
46.84289500000001
 30
0.0
 11
204.0111710717158
 21
46.84289500000001
 31
0.0
  0
LINE
  5
26E
330
26B
100
AcDbEntity
  8
1
  6
CONTINUOUS
 62
     3
100
AcDbLine
 10
144.6025642421088
 20
76.84289500000001
 30
0.0
 11
204.0111710717158
 21
76.84289500000001
 31
0.0
  0
SOLID
  5
26F
330
26B
100
AcDbEntity
  8
1
 62
     3
100
AcDbTrace
 10
200.8592117178261
 20
55.59289500000001
 30
0.0
 11
203.1631304256055
 21
55.59289500000001
 31
0.0
 12
202.0111710717158
 22
46.84289500000001
 32
0.0
 13
202.0111710717158
 23
46.84289500000001
 33
0.0
  0
SOLID
  5
270
330
26B
100
AcDbEntity
  8
1
 62
     3
100
AcDbTrace
 10
203.1631304256055
 20
68.09289500000001
 30
0.0
 11
200.8592117178261
 21
68.09289500000001
 31
0.0
 12
202.0111710717158
 22
76.84289500000001
 32
0.0
 13
202.0111710717158
 23
76.84289500000001
 33
0.0
  0
MTEXT
  5
271
330
26B
100
AcDbEntity
  8
1
 62
     2
100
AcDbMText
 10
199.5111710717158
 20
57.70651619448213
 30
0.0
 40
8.75
 41
0.0
 71
     7
 72
     1
  1
30
  7
CONVERTER_1
 11
0.0
 21
1.0
 31
0.0
1001
ACAD
1000
MTEXTBEGIN
1070
    44
1040
0.60024009603842
1000
MTEXTEND
  0
ENDBLK
  5
273
330
26B
100
AcDbEntity
  8
0
100
AcDbBlockEnd
  0
BLOCK
  5
27D
330
276
100
AcDbEntity
  8
0
100
AcDbBlockBegin
  2
*D912
 70
     1
 71
     0
 10
0.0
 20
0.0
 30
0.0
  3
*D912
  1

  0
LINE
  5
277
330
276
100
AcDbEntity
  8
1
  6
CONTINUOUS
 62
     3
100
AcDbLine
 10
202.0111710717158
 20
76.842895
 30
0.0
 11
202.0111710717158
 21
148.842895
 31
0.0
  0
LINE
  5
278
330
276
100
AcDbEntity
  8
1
  6
CONTINUOUS
 62
     3
100
AcDbLine
 10
144.6025642421088
 20
76.842895
 30
0.0
 11
204.0111710717158
 21
76.842895
 31
0.0
  0
LINE
  5
279
330
276
100
AcDbEntity
  8
1
  6
CONTINUOUS
 62
     3
100
AcDbLine
 10
161.4896037519028
 20
148.842895
 30
0.0
 11
204.0111710717158
 21
148.842895
 31
0.0
  0
SOLID
  5
27A
330
276
100
AcDbEntity
  8
1
 62
     3
100
AcDbTrace
 10
200.8592117178261
 20
85.592895
 30
0.0
 11
203.1631304256055
 21
85.592895
 31
0.0
 12
202.0111710717158
 22
76.842895
 32
0.0
 13
202.0111710717158
 23
76.842895
 33
0.0
  0
SOLID
  5
27B
330
276
100
AcDbEntity
  8
1
 62
     3
100
AcDbTrace
 10
203.1631304256055
 20
140.092895
 30
0.0
 11
200.8592117178261
 21
140.092895
 31
0.0
 12
202.0111710717158
 22
148.842895
 32
0.0
 13
202.0111710717158
 23
148.842895
 33
0.0
  0
MTEXT
  5
27C
330
276
100
AcDbEntity
  8
1
 62
     2
100
AcDbMText
 10
199.5111710717158
 20
104.548710833932
 30
0.0
 40
8.75
 41
0.0
 71
     7
 72
     1
  1
72
  7
CONVERTER_1
 11
0.0
 21
1.0
 31
0.0
1001
ACAD
1000
MTEXTBEGIN
1070
    44
1040
0.60024009603842
1000
MTEXTEND
  0
ENDBLK
  5
27E
330
276
100
AcDbEntity
  8
0
100
AcDbBlockEnd
  0
BLOCK
  5
28A
330
281
100
AcDbEntity
  8
0
100
AcDbBlockBegin
  2
*D1013
 70
     1
 71
     0
 10
0.0
 20
0.0
 30
0.0
  3
*D1013
  1

  0
LINE
  5
282
330
281
100
AcDbEntity
  8
1
  6
CONTINUOUS
 62
     3
100
AcDbLine
 10
186.5557836047597
 20
127.342895
 30
0.0
 11
186.5557836047597
 21
148.842895
 31
0.0
  0
LINE
  5
283
330
281
100
AcDbEntity
  8
1
  6
CONTINUOUS
 62
     3
100
AcDbLine
 10
186.5557836047597
 20
127.342895
 30
0.0
 11
186.5557836047597
 21
109.842895
 31
0.0
  0
LINE
  5
284
330
281
100
AcDbEntity
  8
1
  6
CONTINUOUS
 62
     3
100
AcDbLine
 10
186.5557836047597
 20
148.842895
 30
0.0
 11
186.5557836047597
 21
166.342895
 31
0.0
  0
LINE
  5
285
330
281
100
AcDbEntity
  8
1
  6
CONTINUOUS
 62
     3
100
AcDbLine
 10
138.0753297764817
 20
127.342895
 30
0.0
 11
188.5557836047597
 21
127.342895
 31
0.0
  0
LINE
  5
286
330
281
100
AcDbEntity
  8
1
  6
CONTINUOUS
 62
     3
100
AcDbLine
 10
161.4896037519027
 20
148.842895
 30
0.0
 11
188.5557836047597
 21
148.842895
 31
0.0
  0
SOLID
  5
287
330
281
100
AcDbEntity
  8
1
 62
     3
100
AcDbTrace
 10
187.7077429586494
 20
118.592895
 30
0.0
 11
185.40382425087
 21
118.592895
 31
0.0
 12
186.5557836047597
 22
127.342895
 32
0.0
 13
186.5557836047597
 23
127.342895
 33
0.0
  0
SOLID
  5
288
330
281
100
AcDbEntity
  8
1
 62
     3
100
AcDbTrace
 10
185.40382425087
 20
157.592895
 30
0.0
 11
187.7077429586494
 21
157.592895
 31
0.0
 12
186.5557836047597
 22
148.842895
 32
0.0
 13
186.5557836047597
 23
148.842895
 33
0.0
  0
MTEXT
  5
289
330
281
100
AcDbEntity
  8
1
 62
     2
100
AcDbMText
 10
183.1807836047597
 20
129.454497781814
 30
0.0
 40
8.75
 41
0.0
 71
     7
 72
     1
  1
21,5
  7
CONVERTER_1
 11
0.0
 21
1.0
 31
0.0
1001
ACAD
1000
MTEXTBEGIN
1070
    44
1040
0.60024009603842
1000
MTEXTEND
  0
ENDBLK
  5
28B
330
281
100
AcDbEntity
  8
0
100
AcDbBlockEnd
  0
BLOCK
  5
295
330
28E
100
AcDbEntity
  8
0
100
AcDbBlockBegin
  2
*D1114
 70
     1
 71
     0
 10
0.0
 20
0.0
 30
0.0
  3
*D1114
  1

  0
LINE
  5
28F
330
28E
100
AcDbEntity
  8
1
  6
CONTINUOUS
 62
     3
100
AcDbLine
 10
186.5365174854688
 20
148.842895
 30
0.0
 11
186.5365174854688
 21
194.842895
 31
0.0
  0
LINE
  5
290
330
28E
100
AcDbEntity
  8
1
  6
CONTINUOUS
 62
     3
100
AcDbLine
 10
161.4896037519028
 20
148.842895
 30
0.0
 11
188.5365174854688
 21
148.842895
 31
0.0
  0
LINE
  5
291
330
28E
100
AcDbEntity
  8
1
  6
CONTINUOUS
 62
     3
100
AcDbLine
 10
142.4896037519028
 20
194.842895
 30
0.0
 11
188.5365174854688
 21
194.842895
 31
0.0
  0
SOLID
  5
292
330
28E
100
AcDbEntity
  8
1
 62
     3
100
AcDbTrace
 10
185.3845581315791
 20
157.592895
 30
0.0
 11
187.6884768393585
 21
157.592895
 31
0.0
 12
186.5365174854688
 22
148.842895
 32
0.0
 13
186.5365174854688
 23
148.842895
 33
0.0
  0
SOLID
  5
293
330
28E
100
AcDbEntity
  8
1
 62
     3
100
AcDbTrace
 10
187.6884768393585
 20
186.092895
 30
0.0
 11
185.3845581315791
 21
186.092895
 31
0.0
 12
186.5365174854688
 22
194.842895
 32
0.0
 13
186.5365174854688
 23
194.842895
 33
0.0
  0
MTEXT
  5
294
330
28E
100
AcDbEntity
  8
1
 62
     2
100
AcDbMText
 10
184.0365174854688
 20
166.447325178919
 30
0.0
 40
8.75
 41
0.0
 71
     7
 72
     1
  1
46
  7
CONVERTER_1
 11
0.0
 21
1.0
 31
0.0
1001
ACAD
1000
MTEXTBEGIN
1070
    44
1040
0.60024009603842
1000
MTEXTEND
  0
ENDBLK
  5
296
330
28E
100
AcDbEntity
  8
0
100
AcDbBlockEnd
  0
BLOCK
  5
2A0
330
299
100
AcDbEntity
  8
0
100
AcDbBlockBegin
  2
*D1215
 70
     1
 71
     0
 10
0.0
 20
0.0
 30
0.0
  3
*D1215
  1

  0
LINE
  5
29A
330
299
100
AcDbEntity
  8
1
  6
CONTINUOUS
 62
     3
100
AcDbLine
 10
36.58984096763837
 20
-10.65710500000002
 30
0.0
 11
36.58984096763837
 21
46.84289500000003
 31
0.0
  0
LINE
  5
29B
330
299
100
AcDbEntity
  8
1
  6
CONTINUOUS
 62
     3
100
AcDbLine
 10
81.48960375190276
 20
46.84289500000002
 30
0.0
 11
34.58984096763837
 21
46.84289500000002
 31
0.0
  0
LINE
  5
29C
330
299
100
AcDbEntity
  8
1
  6
CONTINUOUS
 62
     3
100
AcDbLine
 10
78.48960375190276
 20
-10.65710500000002
 30
0.0
 11
34.58984096763837
 21
-10.65710500000002
 31
0.0
  0
SOLID
  5
29D
330
299
100
AcDbEntity
  8
1
 62
     3
100
AcDbTrace
 10
35.43788161374865
 20
-1.90710500000002
 30
0.0
 11
37.74180032152808
 21
-1.90710500000002
 31
0.0
 12
36.58984096763837
 22
-10.65710500000002
 32
0.0
 13
36.58984096763837
 23
-10.65710500000002
 33
0.0
  0
SOLID
  5
29E
330
299
100
AcDbEntity
  8
1
 62
     3
100
AcDbTrace
 10
37.74180032152808
 20
38.09289500000002
 30
0.0
 11
35.43788161374865
 21
38.09289500000002
 31
0.0
 12
36.58984096763837
 22
46.84289500000002
 32
0.0
 13
36.58984096763837
 23
46.84289500000002
 33
0.0
  0
MTEXT
  5
29F
330
299
100
AcDbEntity
  8
1
 62
     2
100
AcDbMText
 10
33.21484096763837
 20
7.66399805629472
 30
0.0
 40
8.75
 41
0.0
 71
     7
 72
     1
  1
57,5
  7
CONVERTER_1
 11
0.0
 21
1.0
 31
0.0
1001
ACAD
1000
MTEXTBEGIN
1070
    44
1040
0.60024009603842
1000
MTEXTEND
  0
ENDBLK
  5
2A1
330
299
100
AcDbEntity
  8
0
100
AcDbBlockEnd
  0
BLOCK
  5
2AB
330
2A4
100
AcDbEntity
  8
0
100
AcDbBlockBegin
  2
*D1316
 70
     1
 71
     0
 10
0.0
 20
0.0
 30
0.0
  3
*D1316
  1

  0
LINE
  5
2A5
330
2A4
100
AcDbEntity
  8
1
  6
CONTINUOUS
 62
     3
100
AcDbLine
 10
36.58984096763837
 20
161.842895
 30
0.0
 11
36.58984096763837
 21
193.842895
 31
0.0
  0
LINE
  5
2A6
330
2A4
100
AcDbEntity
  8
1
  6
CONTINUOUS
 62
     3
100
AcDbLine
 10
68.48960375190276
 20
193.842895
 30
0.0
 11
34.58984096763837
 21
193.842895
 31
0.0
  0
LINE
  5
2A7
330
2A4
100
AcDbEntity
  8
1
  6
CONTINUOUS
 62
     3
100
AcDbLine
 10
68.48960375190276
 20
161.842895
 30
0.0
 11
34.58984096763837
 21
161.842895
 31
0.0
  0
SOLID
  5
2A8
330
2A4
100
AcDbEntity
  8
1
 62
     3
100
AcDbTrace
 10
35.43788161374865
 20
170.592895
 30
0.0
 11
37.74180032152808
 21
170.592895
 31
0.0
 12
36.58984096763837
 22
161.842895
 32
0.0
 13
36.58984096763837
 23
161.842895
 33
0.0
  0
SOLID
  5
2A9
330
2A4
100
AcDbEntity
  8
1
 62
     3
100
AcDbTrace
 10
37.74180032152808
 20
185.092895
 30
0.0
 11
35.43788161374865
 21
185.092895
 31
0.0
 12
36.58984096763837
 22
193.842895
 32
0.0
 13
36.58984096763837
 23
193.842895
 33
0.0
  0
MTEXT
  5
2AA
330
2A4
100
AcDbEntity
  8
1
 62
     2
100
AcDbMText
 10
34.08984096763837
 20
172.592895
 30
0.0
 40
8.75
 41
0.0
 71
     7
 72
     1
  1
32
  7
CONVERTER_1
 11
0.0
 21
1.0
 31
0.0
1001
ACAD
1000
MTEXTBEGIN
1070
    44
1040
0.60024009603842
1000
MTEXTEND
  0
ENDBLK
  5
2AC
330
2A4
100
AcDbEntity
  8
0
100
AcDbBlockEnd
  0
BLOCK
  5
2B6
330
2AF
100
AcDbEntity
  8
0
100
AcDbBlockBegin
  2
*D1417
 70
     1
 71
     0
 10
0.0
 20
0.0
 30
0.0
  3
*D1417
  1

  0
LINE
  5
2B0
330
2AF
100
AcDbEntity
  8
1
  6
CONTINUOUS
 62
     3
100
AcDbLine
 10
36.61071250568995
 20
46.84289499999998
 30
0.0
 11
36.61071250568995
 21
161.8428949999999
 31
0.0
  0
LINE
  5
2B1
330
2AF
100
AcDbEntity
  8
1
  6
CONTINUOUS
 62
     3
100
AcDbLine
 10
68.48960375190276
 20
161.8428949999999
 30
0.0
 11
34.61071250568995
 21
161.8428949999999
 31
0.0
  0
LINE
  5
2B2
330
2AF
100
AcDbEntity
  8
1
  6
CONTINUOUS
 62
     3
100
AcDbLine
 10
81.48960375190275
 20
46.84289499999998
 30
0.0
 11
34.61071250568995
 21
46.84289499999998
 31
0.0
  0
SOLID
  5
2B3
330
2AF
100
AcDbEntity
  8
1
 62
     3
100
AcDbTrace
 10
35.45875315180023
 20
55.59289499999998
 30
0.0
 11
37.76267185957966
 21
55.59289499999998
 31
0.0
 12
36.61071250568995
 22
46.84289499999998
 32
0.0
 13
36.61071250568995
 23
46.84289499999998
 33
0.0
  0
SOLID
  5
2B4
330
2AF
100
AcDbEntity
  8
1
 62
     3
100
AcDbTrace
 10
37.76267185957966
 20
153.0928949999999
 30
0.0
 11
35.45875315180023
 21
153.0928949999999
 31
0.0
 12
36.61071250568995
 22
161.8428949999999
 32
0.0
 13
36.61071250568995
 23
161.8428949999999
 33
0.0
  0
MTEXT
  5
2B5
330
2AF
100
AcDbEntity
  8
1
 62
     2
100
AcDbMText
 10
34.11071250568995
 20
98.833971727473
 30
0.0
 40
8.75
 41
0.0
 71
     7
 72
     1
  1
115
  7
CONVERTER_1
 11
0.0
 21
1.0
 31
0.0
1001
ACAD
1000
MTEXTBEGIN
1070
    44
1040
0.60024009603842
1000
MTEXTEND
  0
ENDBLK
  5
2B7
330
2AF
100
AcDbEntity
  8
0
100
AcDbBlockEnd
  0
BLOCK
  5
2C3
330
2BA
100
AcDbEntity
  8
0
100
AcDbBlockBegin
  2
*D1518
 70
     1
 71
     0
 10
0.0
 20
0.0
 30
0.0
  3
*D1518
  1

  0
LINE
  5
2BB
330
2BA
100
AcDbEntity
  8
1
  6
CONTINUOUS
 62
     3
100
AcDbLine
 10
137.9896037519028
 20
170.451502987868
 30
0.0
 11
155.4896037519028
 21
170.451502987868
 31
0.0
  0
LINE
  5
2BC
330
2BA
100
AcDbEntity
  8
1
  6
CONTINUOUS
 62
     3
100
AcDbLine
 10
128.9896037519027
 20
170.451502987868
 30
0.0
 11
137.9896037519028
 21
170.451502987868
 31
0.0
  0
LINE
  5
2BD
330
2BA
100
AcDbEntity
  8
1
  6
CONTINUOUS
 62
     3
100
AcDbLine
 10
111.4896037519027
 20
170.451502987868
 30
0.0
 11
128.9896037519027
 21
170.451502987868
 31
0.0
  0
LINE
  5
2BE
330
2BA
100
AcDbEntity
  8
1
  6
CONTINUOUS
 62
     3
100
AcDbLine
 10
128.9896037519027
 20
153.342895
 30
0.0
 11
128.9896037519027
 21
172.451502987868
 31
0.0
  0
LINE
  5
2BF
330
2BA
100
AcDbEntity
  8
1
  6
CONTINUOUS
 62
     3
100
AcDbLine
 10
137.9896037519028
 20
153.342895
 30
0.0
 11
137.9896037519028
 21
172.451502987868
 31
0.0
  0
SOLID
  5
2C0
330
2BA
100
AcDbEntity
  8
1
 62
     3
100
AcDbTrace
 10
120.2396037519027
 20
169.2995436339783
 30
0.0
 11
120.2396037519027
 21
171.6034623417577
 31
0.0
 12
128.9896037519027
 22
170.451502987868
 32
0.0
 13
128.9896037519027
 23
170.451502987868
 33
0.0
  0
SOLID
  5
2C1
330
2BA
100
AcDbEntity
  8
1
 62
     3
100
AcDbTrace
 10
146.7396037519028
 20
171.6034623417577
 30
0.0
 11
146.7396037519028
 21
169.2995436339783
 31
0.0
 12
137.9896037519028
 22
170.451502987868
 32
0.0
 13
137.9896037519028
 23
170.451502987868
 33
0.0
  0
MTEXT
  5
2C2
330
2BA
100
AcDbEntity
  8
1
 62
     2
100
AcDbMText
 10
122.7537074644872
 20
172.9514682024864
 30
0.0
 40
8.75
 41
0.0
 71
     7
 72
     1
  1
\C2;\C2;\C2;9\C7;\H6.25;
  7
CONVERTER_1
 11
0.9999999999970621
 21
2.424068405545307E-6
 31
0.0
1001
ACAD
1000
MTEXTBEGIN
1070
    44
1040
0.60024009603842
1000
MTEXTEND
  0
ENDBLK
  5
2C4
330
2BA
100
AcDbEntity
  8
0
100
AcDbBlockEnd
  0
BLOCK
  5
2CE
330
2C7
100
AcDbEntity
  8
0
100
AcDbBlockBegin
  2
*D1619
 70
     1
 71
     0
 10
0.0
 20
0.0
 30
0.0
  3
*D1619
  1

  0
LINE
  5
2C8
330
2C7
100
AcDbEntity
  8
1
  6
CONTINUOUS
 62
     3
100
AcDbLine
 10
114.4896037519027
 20
91.39109202911402
 30
0.0
 11
152.4896037519027
 21
91.39109202911402
 31
0.0
  0
LINE
  5
2C9
330
2C7
100
AcDbEntity
  8
1
  6
CONTINUOUS
 62
     3
100
AcDbLine
 10
152.4896037519027
 20
77.84289500000003
 30
0.0
 11
152.4896037519027
 21
93.39109202911402
 31
0.0
  0
LINE
  5
2CA
330
2C7
100
AcDbEntity
  8
1
  6
CONTINUOUS
 62
     3
100
AcDbLine
 10
114.4896037519027
 20
77.84289500000003
 30
0.0
 11
114.4896037519027
 21
93.39109202911402
 31
0.0
  0
SOLID
  5
2CB
330
2C7
100
AcDbEntity
  8
1
 62
     3
100
AcDbTrace
 10
123.2396037519027
 20
92.54305138300373
 30
0.0
 11
123.2396037519027
 21
90.23913267522431
 31
0.0
 12
114.4896037519027
 22
91.39109202911402
 32
0.0
 13
114.4896037519027
 23
91.39109202911402
 33
0.0
  0
SOLID
  5
2CC
330
2C7
100
AcDbEntity
  8
1
 62
     3
100
AcDbTrace
 10
143.7396037519027
 20
90.23913267522431
 30
0.0
 11
143.7396037519027
 21
92.54305138300373
 31
0.0
 12
152.4896037519027
 22
91.39109202911402
 32
0.0
 13
152.4896037519027
 23
91.39109202911402
 33
0.0
  0
MTEXT
  5
2CD
330
2C7
100
AcDbEntity
  8
1
 62
     2
100
AcDbMText
 10
128.2396037519027
 20
93.89109202911402
 30
0.0
 40
8.75
 41
0.0
 71
     7
 72
     1
  1
38
  7
CONVERTER_1
 11
0.9999999999970621
 21
2.424068405545307E-6
 31
0.0
1001
ACAD
1000
MTEXTBEGIN
1070
    44
1040
0.60024009603842
1000
MTEXTEND
  0
ENDBLK
  5
2CF
330
2C7
100
AcDbEntity
  8
0
100
AcDbBlockEnd
  0
BLOCK
  5
2D9
330
2D2
100
AcDbEntity
  8
0
100
AcDbBlockBegin
  2
*D1720
 70
     1
 71
     0
 10
0.0
 20
0.0
 30
0.0
  3
*D1720
  1

  0
LINE
  5
2D3
330
2D2
100
AcDbEntity
  8
1
  6
CONTINUOUS
 62
     3
100
AcDbLine
 10
216.6493568965437
 20
46.84289500000001
 30
0.0
 11
216.6493568965437
 21
211.842895
 31
0.0
  0
LINE
  5
2D4
330
2D2
100
AcDbEntity
  8
1
  6
CONTINUOUS
 62
     3
100
AcDbLine
 10
157.4896037519027
 20
46.84289500000001
 30
0.0
 11
218.6493568965437
 21
46.84289500000001
 31
0.0
  0
LINE
  5
2D5
330
2D2
100
AcDbEntity
  8
1
  6
CONTINUOUS
 62
     3
100
AcDbLine
 10
157.4896037519027
 20
211.842895
 30
0.0
 11
218.6493568965437
 21
211.842895
 31
0.0
  0
SOLID
  5
2D6
330
2D2
100
AcDbEntity
  8
1
 62
     3
100
AcDbTrace
 10
215.497397542654
 20
55.59289500000001
 30
0.0
 11
217.8013162504334
 21
55.59289500000001
 31
0.0
 12
216.6493568965437
 22
46.84289500000001
 32
0.0
 13
216.6493568965437
 23
46.84289500000001
 33
0.0
  0
SOLID
  5
2D7
330
2D2
100
AcDbEntity
  8
1
 62
     3
100
AcDbTrace
 10
217.8013162504334
 20
203.092895
 30
0.0
 11
215.497397542654
 21
203.092895
 31
0.0
 12
216.6493568965437
 22
211.842895
 32
0.0
 13
216.6493568965437
 23
211.842895
 33
0.0
  0
MTEXT
  5
2D8
330
2D2
100
AcDbEntity
  8
1
 62
     2
100
AcDbMText
 10
214.1493568965437
 20
118.341598300888
 30
0.0
 40
8.75
 41
0.0
 71
     7
 72
     1
  1
165
  7
CONVERTER_1
 11
0.0
 21
1.0
 31
0.0
1001
ACAD
1000
MTEXTBEGIN
1070
    44
1040
0.60024009603842
1000
MTEXTEND
  0
ENDBLK
  5
2DA
330
2D2
100
AcDbEntity
  8
0
100
AcDbBlockEnd
  0
BLOCK
  5
2E6
330
2DD
100
AcDbEntity
  8
0
100
AcDbBlockBegin
  2
*D1821
 70
     1
 71
     0
 10
0.0
 20
0.0
 30
0.0
  3
*D1821
  1

  0
LINE
  5
2DE
330
2DD
100
AcDbEntity
  8
1
  6
CONTINUOUS
 62
     3
100
AcDbLine
 10
186.9547513661788
 20
68.84289500000001
 30
0.0
 11
186.9547513661788
 21
76.84289500000001
 31
0.0
  0
LINE
  5
2DF
330
2DD
100
AcDbEntity
  8
1
  6
CONTINUOUS
 62
     3
100
AcDbLine
 10
186.9547513661788
 20
68.84289500000001
 30
0.0
 11
186.9547513661788
 21
51.34289500000001
 31
0.0
  0
LINE
  5
2E0
330
2DD
100
AcDbEntity
  8
1
  6
CONTINUOUS
 62
     3
100
AcDbLine
 10
186.9547513661788
 20
76.84289500000001
 30
0.0
 11
186.9547513661788
 21
94.34289500000001
 31
0.0
  0
LINE
  5
2E1
330
2DD
100
AcDbEntity
  8
1
  6
CONTINUOUS
 62
     3
100
AcDbLine
 10
161.4896037519028
 20
68.84289500000001
 30
0.0
 11
188.9547513661788
 21
68.84289500000001
 31
0.0
  0
LINE
  5
2E2
330
2DD
100
AcDbEntity
  8
1
  6
CONTINUOUS
 62
     3
100
AcDbLine
 10
144.6025642421088
 20
76.84289500000001
 30
0.0
 11
188.9547513661788
 21
76.84289500000001
 31
0.0
  0
SOLID
  5
2E3
330
2DD
100
AcDbEntity
  8
1
 62
     3
100
AcDbTrace
 10
188.1067107200685
 20
60.09289500000001
 30
0.0
 11
185.8027920122891
 21
60.09289500000001
 31
0.0
 12
186.9547513661788
 22
68.84289500000001
 32
0.0
 13
186.9547513661788
 23
68.84289500000001
 33
0.0
  0
SOLID
  5
2E4
330
2DD
100
AcDbEntity
  8
1
 62
     3
100
AcDbTrace
 10
185.8027920122891
 20
85.59289500000001
 30
0.0
 11
188.1067107200685
 21
85.59289500000001
 31
0.0
 12
186.9547513661788
 22
76.84289500000001
 32
0.0
 13
186.9547513661788
 23
76.84289500000001
 33
0.0
  0
MTEXT
  5
2E5
330
2DD
100
AcDbEntity
  8
1
 62
     2
100
AcDbMText
 10
184.4547513661788
 20
70.26677851044292
 30
0.0
 40
8.75
 41
0.0
 71
     7
 72
     1
  1
8
  7
CONVERTER_1
 11
0.0
 21
1.0
 31
0.0
1001
ACAD
1000
MTEXTBEGIN
1070
    44
1040
0.60024009603842
1000
MTEXTEND
  0
ENDBLK
  5
2E7
330
2DD
100
AcDbEntity
  8
0
100
AcDbBlockEnd
  0
BLOCK
  5
2F3
330
2EA
100
AcDbEntity
  8
0
100
AcDbBlockBegin
  2
*D1922
 70
     1
 71
     0
 10
0.0
 20
0.0
 30
0.0
  3
*D1922
  1

  0
LINE
  5
2EB
330
2EA
100
AcDbEntity
  8
1
  6
CONTINUOUS
 62
     3
100
AcDbLine
 10
56.31614456001235
 20
161.842895
 30
0.0
 11
56.31614456001235
 21
179.342895
 31
0.0
  0
LINE
  5
2EC
330
2EA
100
AcDbEntity
  8
1
  6
CONTINUOUS
 62
     3
100
AcDbLine
 10
56.31614456001235
 20
139.342895
 30
0.0
 11
56.31614456001235
 21
121.842895
 31
0.0
  0
LINE
  5
2ED
330
2EA
100
AcDbEntity
  8
1
  6
CONTINUOUS
 62
     3
100
AcDbLine
 10
56.31614456001235
 20
139.342895
 30
0.0
 11
56.31614456001235
 21
161.842895
 31
0.0
  0
LINE
  5
2EE
330
2EA
100
AcDbEntity
  8
1
  6
CONTINUOUS
 62
     3
100
AcDbLine
 10
68.48960375190276
 20
161.842895
 30
0.0
 11
54.31614456001235
 21
161.842895
 31
0.0
  0
LINE
  5
2EF
330
2EA
100
AcDbEntity
  8
1
  6
CONTINUOUS
 62
     3
100
AcDbLine
 10
67.98960375190275
 20
139.342895
 30
0.0
 11
54.31614456001235
 21
139.342895
 31
0.0
  0
SOLID
  5
2F0
330
2EA
100
AcDbEntity
  8
1
 62
     3
100
AcDbTrace
 10
55.16418520612263
 20
170.592895
 30
0.0
 11
57.46810391390206
 21
170.592895
 31
0.0
 12
56.31614456001235
 22
161.842895
 32
0.0
 13
56.31614456001235
 23
161.842895
 33
0.0
  0
SOLID
  5
2F1
330
2EA
100
AcDbEntity
  8
1
 62
     3
100
AcDbTrace
 10
57.46810391390206
 20
130.592895
 30
0.0
 11
55.16418520612263
 21
130.592895
 31
0.0
 12
56.31614456001235
 22
139.342895
 32
0.0
 13
56.31614456001235
 23
139.342895
 33
0.0
  0
MTEXT
  5
2F2
330
2EA
100
AcDbEntity
  8
1
 62
     2
100
AcDbMText
 10
52.94114456001235
 20
140.544989019713
 30
0.0
 40
8.75
 41
0.0
 71
     7
 72
     1
  1
22,5
  7
CONVERTER_1
 11
0.0
 21
1.0
 31
0.0
1001
ACAD
1000
MTEXTBEGIN
1070
    44
1040
0.60024009603842
1000
MTEXTEND
  0
ENDBLK
  5
2F4
330
2EA
100
AcDbEntity
  8
0
100
AcDbBlockEnd
  0
BLOCK
  5
2FE
330
2F7
100
AcDbEntity
  8
0
100
AcDbBlockBegin
  2
*D2023
 70
     1
 71
     0
 10
0.0
 20
0.0
 30
0.0
  3
*D2023
  1

  0
LINE
  5
2F8
330
2F7
100
AcDbEntity
  8
1
  6
CONTINUOUS
 62
     3
100
AcDbLine
 10
446.335842473082
 20
269.3428950000001
 30
0.0
 11
446.335842473082
 21
-10.65710500000012
 31
0.0
  0
LINE
  5
2F9
330
2F7
100
AcDbEntity
  8
1
  6
CONTINUOUS
 62
     3
100
AcDbLine
 10
405.6722833231571
 20
-10.657105
 30
0.0
 11
448.335842473082
 21
-10.657105
 31
0.0
  0
LINE
  5
2FA
330
2F7
100
AcDbEntity
  8
1
  6
CONTINUOUS
 62
     3
100
AcDbLine
 10
411.6526703524452
 20
269.3428950000001
 30
0.0
 11
448.335842473082
 21
269.3428950000001
 31
0.0
  0
SOLID
  5
2FB
330
2F7
100
AcDbEntity
  8
1
 62
     3
100
AcDbTrace
 10
447.4878018269717
 20
260.5928950000001
 30
0.0
 11
445.1838831191923
 21
260.5928950000001
 31
0.0
 12
446.335842473082
 22
269.3428950000001
 32
0.0
 13
446.335842473082
 23
269.3428950000001
 33
0.0
  0
SOLID
  5
2FC
330
2F7
100
AcDbEntity
  8
1
 62
     3
100
AcDbTrace
 10
445.1838831191923
 20
-1.90710500000009
 30
0.0
 11
447.4878018269717
 21
-1.90710500000009
 31
0.0
 12
446.335842473082
 22
-10.65710500000009
 32
0.0
 13
446.335842473082
 23
-10.65710500000009
 33
0.0
  0
MTEXT
  5
2FD
330
2F7
100
AcDbEntity
  8
1
 62
     2
100
AcDbMText
 10
443.835842473082
 20
135.50221711977
 30
0.0
 40
8.75
 41
0.0
 71
     7
 72
     1
  1
280
  7
CONVERTER_1
 11
0.0
 21
1.0
 31
0.0
1001
ACAD
1000
MTEXTBEGIN
1070
    44
1040
0.60024009603842
1000
MTEXTEND
  0
ENDBLK
  5
2FF
330
2F7
100
AcDbEntity
  8
0
100
AcDbBlockEnd
  0
BLOCK
  5
30B
330
302
100
AcDbEntity
  8
0
100
AcDbBlockBegin
  2
*D2124
 70
     1
 71
     0
 10
0.0
 20
0.0
 30
0.0
  3
*D2124
  1

  0
LINE
  5
303
330
302
100
AcDbEntity
  8
1
  6
CONTINUOUS
 62
     3
100
AcDbLine
 10
414.031192832026
 20
286.8428950000001
 30
0.0
 11
414.031192832026
 21
269.3428950000001
 31
0.0
  0
LINE
  5
304
330
302
100
AcDbEntity
  8
1
  6
CONTINUOUS
 62
     3
100
AcDbLine
 10
414.031192832026
 20
269.3428950000001
 30
0.0
 11
414.031192832026
 21
256.3428950000001
 31
0.0
  0
LINE
  5
305
330
302
100
AcDbEntity
  8
1
  6
CONTINUOUS
 62
     3
100
AcDbLine
 10
414.031192832026
 20
256.3428950000001
 30
0.0
 11
414.031192832026
 21
238.8428950000001
 31
0.0
  0
LINE
  5
306
330
302
100
AcDbEntity
  8
1
  6
CONTINUOUS
 62
     3
100
AcDbLine
 10
398.9833711892664
 20
256.3428950000001
 30
0.0
 11
416.031192832026
 21
256.3428950000001
 31
0.0
  0
LINE
  5
307
330
302
100
AcDbEntity
  8
1
  6
CONTINUOUS
 62
     3
100
AcDbLine
 10
387.6333711892663
 20
269.3428950000001
 30
0.0
 11
416.031192832026
 21
269.3428950000001
 31
0.0
  0
SOLID
  5
308
330
302
100
AcDbEntity
  8
1
 62
     3
100
AcDbTrace
 10
412.8792334781363
 20
278.0928950000001
 30
0.0
 11
415.1831521859157
 21
278.0928950000001
 31
0.0
 12
414.031192832026
 22
269.3428950000001
 32
0.0
 13
414.031192832026
 23
269.3428950000001
 33
0.0
  0
SOLID
  5
309
330
302
100
AcDbEntity
  8
1
 62
     3
100
AcDbTrace
 10
415.1831521859157
 20
247.5928950000001
 30
0.0
 11
412.8792334781363
 21
247.5928950000001
 31
0.0
 12
414.031192832026
 22
256.3428950000001
 32
0.0
 13
414.031192832026
 23
256.3428950000001
 33
0.0
  0
MTEXT
  5
30A
330
302
100
AcDbEntity
  8
1
 62
     2
100
AcDbMText
 10
411.531192832026
 20
258.4214604575381
 30
0.0
 40
8.75
 41
0.0
 71
     7
 72
     1
  1
13
  7
CONVERTER_1
 11
0.0
 21
1.0
 31
0.0
1001
ACAD
1000
MTEXTBEGIN
1070
    44
1040
0.60024009603842
1000
MTEXTEND
  0
ENDBLK
  5
30C
330
302
100
AcDbEntity
  8
0
100
AcDbBlockEnd
  0
BLOCK
  5
318
330
30F
100
AcDbEntity
  8
0
100
AcDbBlockBegin
  2
*D2225
 70
     1
 71
     0
 10
0.0
 20
0.0
 30
0.0
  3
*D2225
  1

  0
LINE
  5
310
330
30F
100
AcDbEntity
  8
1
  6
CONTINUOUS
 62
     3
100
AcDbLine
 10
414.031192832026
 20
-28.15710500000002
 30
0.0
 11
414.031192832026
 21
-10.65710500000002
 31
0.0
  0
LINE
  5
311
330
30F
100
AcDbEntity
  8
1
  6
CONTINUOUS
 62
     3
100
AcDbLine
 10
414.031192832026
 20
-10.65710500000002
 30
0.0
 11
414.031192832026
 21
2.34289499999998
 31
0.0
  0
LINE
  5
312
330
30F
100
AcDbEntity
  8
1
  6
CONTINUOUS
 62
     3
100
AcDbLine
 10
414.031192832026
 20
2.34289499999998
 30
0.0
 11
414.031192832026
 21
19.84289499999998
 31
0.0
  0
LINE
  5
313
330
30F
100
AcDbEntity
  8
1
  6
CONTINUOUS
 62
     3
100
AcDbLine
 10
398.2833711892666
 20
2.34289499999998
 30
0.0
 11
416.031192832026
 21
2.34289499999998
 31
0.0
  0
LINE
  5
314
330
30F
100
AcDbEntity
  8
1
  6
CONTINUOUS
 62
     3
100
AcDbLine
 10
405.6722833231572
 20
-10.65710500000002
 30
0.0
 11
416.031192832026
 21
-10.65710500000002
 31
0.0
  0
SOLID
  5
315
330
30F
100
AcDbEntity
  8
1
 62
     3
100
AcDbTrace
 10
415.1831521859157
 20
-19.40710500000002
 30
0.0
 11
412.8792334781363
 21
-19.40710500000002
 31
0.0
 12
414.031192832026
 22
-10.65710500000002
 32
0.0
 13
414.031192832026
 23
-10.65710500000002
 33
0.0
  0
SOLID
  5
316
330
30F
100
AcDbEntity
  8
1
 62
     3
100
AcDbTrace
 10
412.8792334781363
 20
11.09289499999998
 30
0.0
 11
415.1831521859157
 21
11.09289499999998
 31
0.0
 12
414.031192832026
 22
2.34289499999998
 32
0.0
 13
414.031192832026
 23
2.34289499999998
 33
0.0
  0
MTEXT
  5
317
330
30F
100
AcDbEntity
  8
1
 62
     2
100
AcDbMText
 10
411.531192832026
 20
-7.9064793544405
 30
0.0
 40
8.75
 41
0.0
 71
     7
 72
     1
  1
13
  7
CONVERTER_1
 11
0.0
 21
1.0
 31
0.0
1001
ACAD
1000
MTEXTBEGIN
1070
    44
1040
0.60024009603842
1000
MTEXTEND
  0
ENDBLK
  5
319
330
30F
100
AcDbEntity
  8
0
100
AcDbBlockEnd
  0
BLOCK
  5
325
330
31C
100
AcDbEntity
  8
0
100
AcDbBlockBegin
  2
*D2326
 70
     1
 71
     0
 10
0.0
 20
0.0
 30
0.0
  3
*D2326
  1

  0
LINE
  5
31D
330
31C
100
AcDbEntity
  8
1
  6
CONTINUOUS
 62
     3
100
AcDbLine
 10
393.6333711892662
 20
202.630580352148
 30
0.0
 11
411.1333711892662
 21
202.630580352148
 31
0.0
  0
LINE
  5
31E
330
31C
100
AcDbEntity
  8
1
  6
CONTINUOUS
 62
     3
100
AcDbLine
 10
381.6333711892662
 20
202.630580352148
 30
0.0
 11
364.1333711892662
 21
202.630580352148
 31
0.0
  0
LINE
  5
31F
330
31C
100
AcDbEntity
  8
1
  6
CONTINUOUS
 62
     3
100
AcDbLine
 10
381.6333711892662
 20
202.630580352148
 30
0.0
 11
393.6333711892662
 21
202.630580352148
 31
0.0
  0
LINE
  5
320
330
31C
100
AcDbEntity
  8
1
  6
CONTINUOUS
 62
     3
100
AcDbLine
 10
393.6333711892662
 20
165.842895
 30
0.0
 11
393.6333711892662
 21
204.630580352148
 31
0.0
  0
LINE
  5
321
330
31C
100
AcDbEntity
  8
1
  6
CONTINUOUS
 62
     3
100
AcDbLine
 10
381.6333711892662
 20
161.842895
 30
0.0
 11
381.6333711892662
 21
204.630580352148
 31
0.0
  0
SOLID
  5
322
330
31C
100
AcDbEntity
  8
1
 62
     3
100
AcDbTrace
 10
372.8833711892662
 20
201.4786209982583
 30
0.0
 11
372.8833711892662
 21
203.7825397060377
 31
0.0
 12
381.6333711892662
 22
202.630580352148
 32
0.0
 13
381.6333711892662
 23
202.630580352148
 33
0.0
  0
SOLID
  5
323
330
31C
100
AcDbEntity
  8
1
 62
     3
100
AcDbTrace
 10
402.3833711892662
 20
203.7825397060377
 30
0.0
 11
402.3833711892662
 21
201.4786209982583
 31
0.0
 12
393.6333711892662
 22
202.630580352148
 32
0.0
 13
393.6333711892662
 23
202.630580352148
 33
0.0
  0
MTEXT
  5
324
330
31C
100
AcDbEntity
  8
1
 62
     2
100
AcDbMText
 10
383.6030620374211
 20
205.130580352148
 30
0.0
 40
8.75
 41
0.0
 71
     7
 72
     1
  1
12
  7
CONVERTER_1
 11
0.9999999999970621
 21
2.424068405545307E-6
 31
0.0
1001
ACAD
1000
MTEXTBEGIN
1070
    44
1040
0.60024009603842
1000
MTEXTEND
  0
ENDBLK
  5
326
330
31C
100
AcDbEntity
  8
0
100
AcDbBlockEnd
  0
BLOCK
  5
332
330
329
100
AcDbEntity
  8
0
100
AcDbBlockBegin
  2
*D2427
 70
     1
 71
     0
 10
0.0
 20
0.0
 30
0.0
  3
*D2427
  1

  0
LINE
  5
32A
330
329
100
AcDbEntity
  8
1
  6
CONTINUOUS
 62
     3
100
AcDbLine
 10
358.1333711892662
 20
-37.87749570569488
 30
0.0
 11
375.6333711892662
 21
-37.87749570569488
 31
0.0
  0
LINE
  5
32B
330
329
100
AcDbEntity
  8
1
  6
CONTINUOUS
 62
     3
100
AcDbLine
 10
375.6333711892662
 20
-37.87749570569488
 30
0.0
 11
399.6333711892662
 21
-37.87749570569488
 31
0.0
  0
LINE
  5
32C
330
329
100
AcDbEntity
  8
1
  6
CONTINUOUS
 62
     3
100
AcDbLine
 10
399.6333711892662
 20
-37.87749570569488
 30
0.0
 11
417.1333711892662
 21
-37.87749570569488
 31
0.0
  0
LINE
  5
32D
330
329
100
AcDbEntity
  8
1
  6
CONTINUOUS
 62
     3
100
AcDbLine
 10
399.6333711892662
 20
1.342895
 30
0.0
 11
399.6333711892662
 21
-39.87749570569488
 31
0.0
  0
LINE
  5
32E
330
329
100
AcDbEntity
  8
1
  6
CONTINUOUS
 62
     3
100
AcDbLine
 10
375.6333711892662
 20
1.342895
 30
0.0
 11
375.6333711892662
 21
-39.87749570569488
 31
0.0
  0
SOLID
  5
32F
330
329
100
AcDbEntity
  8
1
 62
     3
100
AcDbTrace
 10
366.8833711892662
 20
-39.02945505958459
 30
0.0
 11
366.8833711892662
 21
-36.72553635180517
 31
0.0
 12
375.6333711892662
 22
-37.87749570569488
 32
0.0
 13
375.6333711892662
 23
-37.87749570569488
 33
0.0
  0
SOLID
  5
330
330
329
100
AcDbEntity
  8
1
 62
     3
100
AcDbTrace
 10
408.3833711892662
 20
-36.72553635180517
 30
0.0
 11
408.3833711892662
 21
-39.0294550595846
 31
0.0
 12
399.6333711892662
 22
-37.87749570569488
 32
0.0
 13
399.6333711892662
 23
-37.87749570569488
 33
0.0
  0
MTEXT
  5
331
330
329
100
AcDbEntity
  8
1
 62
     2
100
AcDbMText
 10
382.815351875003
 20
-35.37749570569488
 30
0.0
 40
8.75
 41
0.0
 71
     7
 72
     1
  1
24
  7
CONVERTER_1
 11
0.9999999999970621
 21
2.424068405545307E-6
 31
0.0
1001
ACAD
1000
MTEXTBEGIN
1070
    44
1040
0.60024009603842
1000
MTEXTEND
  0
ENDBLK
  5
333
330
329
100
AcDbEntity
  8
0
100
AcDbBlockEnd
  0
BLOCK
  5
33F
330
336
100
AcDbEntity
  8
0
100
AcDbBlockBegin
  2
*D2528
 70
     1
 71
     0
 10
0.0
 20
0.0
 30
0.0
  3
*D2528
  1

  0
LINE
  5
337
330
336
100
AcDbEntity
  8
1
  6
CONTINUOUS
 62
     3
100
AcDbLine
 10
358.1333711892662
 20
223.051562784178
 30
0.0
 11
375.6333711892662
 21
223.051562784178
 31
0.0
  0
LINE
  5
338
330
336
100
AcDbEntity
  8
1
  6
CONTINUOUS
 62
     3
100
AcDbLine
 10
375.6333711892662
 20
223.051562784178
 30
0.0
 11
381.6333711892662
 21
223.051562784178
 31
0.0
  0
LINE
  5
339
330
336
100
AcDbEntity
  8
1
  6
CONTINUOUS
 62
     3
100
AcDbLine
 10
381.6333711892662
 20
223.051562784178
 30
0.0
 11
399.1333711892662
 21
223.051562784178
 31
0.0
  0
LINE
  5
33A
330
336
100
AcDbEntity
  8
1
  6
CONTINUOUS
 62
     3
100
AcDbLine
 10
381.6333711892662
 20
193.8428949999999
 30
0.0
 11
381.6333711892662
 21
225.051562784178
 31
0.0
  0
LINE
  5
33B
330
336
100
AcDbEntity
  8
1
  6
CONTINUOUS
 62
     3
100
AcDbLine
 10
375.6333711892662
 20
257.342895
 30
0.0
 11
375.6333711892662
 21
221.051562784178
 31
0.0
  0
SOLID
  5
33C
330
336
100
AcDbEntity
  8
1
 62
     3
100
AcDbTrace
 10
366.8833711892662
 20
221.8996034302883
 30
0.0
 11
366.8833711892662
 21
224.2035221380677
 31
0.0
 12
375.6333711892662
 22
223.051562784178
 32
0.0
 13
375.6333711892662
 23
223.051562784178
 33
0.0
  0
SOLID
  5
33D
330
336
100
AcDbEntity
  8
1
 62
     3
100
AcDbTrace
 10
390.3833711892662
 20
224.2035221380677
 30
0.0
 11
390.3833711892662
 21
221.8996034302883
 31
0.0
 12
381.6333711892662
 22
223.051562784178
 32
0.0
 13
381.6333711892662
 23
223.051562784178
 33
0.0
  0
MTEXT
  5
33E
330
336
100
AcDbEntity
  8
1
 62
     2
100
AcDbMText
 10
359.655938524397
 20
225.551562784178
 30
0.0
 40
8.75
 41
0.0
 71
     7
 72
     1
  1
6
  7
CONVERTER_1
 11
0.9999999999970621
 21
2.424068405545307E-6
 31
0.0
1001
ACAD
1000
MTEXTBEGIN
1070
    44
1040
0.60024009603842
1000
MTEXTEND
  0
ENDBLK
  5
340
330
336
100
AcDbEntity
  8
0
100
AcDbBlockEnd
  0
BLOCK
  5
34C
330
343
100
AcDbEntity
  8
0
100
AcDbBlockBegin
  2
*D2629
 70
     1
 71
     0
 10
0.0
 20
0.0
 30
0.0
  3
*D2629
  1

  0
LINE
  5
344
330
343
100
AcDbEntity
  8
1
  6
CONTINUOUS
 62
     3
100
AcDbLine
 10
96.04874721534176
 20
-107.5082613859884
 30
0.0
 11
96.04874721534176
 21
-90.00826138598836
 31
0.0
  0
LINE
  5
345
330
343
100
AcDbEntity
  8
1
  6
CONTINUOUS
 62
     3
100
AcDbLine
 10
96.04874721534176
 20
-90.00826138598836
 30
0.0
 11
96.04874721534176
 21
-89.50826138598814
 31
0.0
  0
LINE
  5
346
330
343
100
AcDbEntity
  8
1
  6
CONTINUOUS
 62
     3
100
AcDbLine
 10
96.04874721534176
 20
-89.50826138598814
 30
0.0
 11
96.04874721534176
 21
-63.74891554667462
 31
0.0
  0
LINE
  5
347
330
343
100
AcDbEntity
  8
1
  6
CONTINUOUS
 62
     3
100
AcDbLine
 10
115.2896037519025
 20
-90.00826138598836
 30
0.0
 11
94.04874721534176
 21
-90.00826138598836
 31
0.0
  0
LINE
  5
348
330
343
100
AcDbEntity
  8
1
  6
CONTINUOUS
 62
     3
100
AcDbLine
 10
81.48960375190276
 20
-89.50826138598814
 30
0.0
 11
98.04874721534176
 21
-89.50826138598814
 31
0.0
  0
SOLID
  5
349
330
343
100
AcDbEntity
  8
1
 62
     3
100
AcDbTrace
 10
94.89678786145205
 20
-80.75826138598814
 30
0.0
 11
97.20070656923147
 21
-80.75826138598814
 31
0.0
 12
96.04874721534176
 22
-89.50826138598814
 32
0.0
 13
96.04874721534176
 23
-89.50826138598814
 33
0.0
  0
SOLID
  5
34A
330
343
100
AcDbEntity
  8
1
 62
     3
100
AcDbTrace
 10
97.20070656923147
 20
-98.75826138598836
 30
0.0
 11
94.89678786145205
 21
-98.75826138598836
 31
0.0
 12
96.04874721534176
 22
-90.00826138598836
 32
0.0
 13
96.04874721534176
 23
-90.00826138598836
 33
0.0
  0
MTEXT
  5
34B
330
343
100
AcDbEntity
  8
1
 62
     2
100
AcDbMText
 10
92.67374721534176
 20
-76.69891554667461
 30
0.0
 40
8.75
 41
0.0
 71
     7
 72
     1
  1
0,5
  7
CONVERTER_1
 11
0.0
 21
1.0
 31
0.0
1001
ACAD
1000
MTEXTBEGIN
1070
    44
1040
0.60024009603842
1000
MTEXTEND
  0
ENDBLK
  5
34D
330
343
100
AcDbEntity
  8
0
100
AcDbBlockEnd
  0
BLOCK
  5
359
330
350
100
AcDbEntity
  8
0
100
AcDbBlockBegin
  2
*D2730
 70
     1
 71
     0
 10
0.0
 20
0.0
 30
0.0
  3
*D2730
  1

  0
LINE
  5
351
330
350
100
AcDbEntity
  8
1
  6
CONTINUOUS
 62
     3
100
AcDbLine
 10
189.8754458877748
 20
-123.0082613859886
 30
0.0
 11
189.8754458877748
 21
-105.5082613859886
 31
0.0
  0
LINE
  5
352
330
350
100
AcDbEntity
  8
1
  6
CONTINUOUS
 62
     3
100
AcDbLine
 10
189.8754458877748
 20
-105.5082613859886
 30
0.0
 11
189.8754458877748
 21
-90.00826138598865
 31
0.0
  0
LINE
  5
353
330
350
100
AcDbEntity
  8
1
  6
CONTINUOUS
 62
     3
100
AcDbLine
 10
189.8754458877748
 20
-90.00826138598865
 30
0.0
 11
189.8754458877748
 21
-61.31619675705602
 31
0.0
  0
LINE
  5
354
330
350
100
AcDbEntity
  8
1
  6
CONTINUOUS
 62
     3
100
AcDbLine
 10
150.7896037519028
 20
-105.5082613859886
 30
0.0
 11
191.8754458877748
 21
-105.5082613859886
 31
0.0
  0
LINE
  5
355
330
350
100
AcDbEntity
  8
1
  6
CONTINUOUS
 62
     3
100
AcDbLine
 10
151.6896037519028
 20
-90.00826138598865
 30
0.0
 11
191.8754458877748
 21
-90.00826138598865
 31
0.0
  0
SOLID
  5
356
330
350
100
AcDbEntity
  8
1
 62
     3
100
AcDbTrace
 10
188.7234865338851
 20
-81.25826138598865
 30
0.0
 11
191.0274052416645
 21
-81.25826138598865
 31
0.0
 12
189.8754458877748
 22
-90.00826138598865
 32
0.0
 13
189.8754458877748
 23
-90.00826138598865
 33
0.0
  0
SOLID
  5
357
330
350
100
AcDbEntity
  8
1
 62
     3
100
AcDbTrace
 10
191.0274052416645
 20
-114.2582613859886
 30
0.0
 11
188.7234865338851
 21
-114.2582613859886
 31
0.0
 12
189.8754458877748
 22
-105.5082613859886
 32
0.0
 13
189.8754458877748
 23
-105.5082613859886
 33
0.0
  0
MTEXT
  5
358
330
350
100
AcDbEntity
  8
1
 62
     2
100
AcDbMText
 10
186.5004458877748
 20
-78.46619675705603
 30
0.0
 40
8.75
 41
0.0
 71
     7
 72
     1
  1
15,5
  7
CONVERTER_1
 11
0.0
 21
1.0
 31
0.0
1001
ACAD
1000
MTEXTBEGIN
1070
    44
1040
0.60024009603842
1000
MTEXTEND
  0
ENDBLK
  5
35A
330
350
100
AcDbEntity
  8
0
100
AcDbBlockEnd
  0
BLOCK
  5
366
330
35D
100
AcDbEntity
  8
0
100
AcDbBlockBegin
  2
*D2831
 70
     1
 71
     0
 10
0.0
 20
0.0
 30
0.0
  3
*D2831
  1

  0
LINE
  5
35E
330
35D
100
AcDbEntity
  8
1
  6
CONTINUOUS
 62
     3
100
AcDbLine
 10
98.98960375190276
 20
-121.8495927503706
 30
0.0
 11
81.48960375190276
 21
-121.8495927503706
 31
0.0
  0
LINE
  5
35F
330
35D
100
AcDbEntity
  8
1
  6
CONTINUOUS
 62
     3
100
AcDbLine
 10
78.48960375190278
 20
-121.8495927503706
 30
0.0
 11
81.48960375190276
 21
-121.8495927503706
 31
0.0
  0
LINE
  5
360
330
35D
100
AcDbEntity
  8
1
  6
CONTINUOUS
 62
     3
100
AcDbLine
 10
78.48960375190278
 20
-121.8495927503706
 30
0.0
 11
60.98960375190278
 21
-121.8495927503706
 31
0.0
  0
LINE
  5
361
330
35D
100
AcDbEntity
  8
1
  6
CONTINUOUS
 62
     3
100
AcDbLine
 10
78.48960375190278
 20
-109.5082613859882
 30
0.0
 11
78.48960375190278
 21
-123.8495927503706
 31
0.0
  0
LINE
  5
362
330
35D
100
AcDbEntity
  8
1
  6
CONTINUOUS
 62
     3
100
AcDbLine
 10
81.48960375190276
 20
-109.5082613859881
 30
0.0
 11
81.48960375190276
 21
-123.8495927503706
 31
0.0
  0
SOLID
  5
363
330
35D
100
AcDbEntity
  8
1
 62
     3
100
AcDbTrace
 10
69.73960375190278
 20
-123.0015521042603
 30
0.0
 11
69.73960375190278
 21
-120.6976333964809
 31
0.0
 12
78.48960375190278
 22
-121.8495927503706
 32
0.0
 13
78.48960375190278
 23
-121.8495927503706
 33
0.0
  0
SOLID
  5
364
330
35D
100
AcDbEntity
  8
1
 62
     3
100
AcDbTrace
 10
90.23960375190276
 20
-120.6976333964809
 30
0.0
 11
90.23960375190276
 21
-123.0015521042603
 31
0.0
 12
81.48960375190276
 22
-121.8495927503706
 32
0.0
 13
81.48960375190276
 23
-121.8495927503706
 33
0.0
  0
MTEXT
  5
365
330
35D
100
AcDbEntity
  8
1
 62
     2
100
AcDbMText
 10
62.84685375761446
 20
-119.3495927503706
 30
0.0
 40
8.75
 41
0.0
 71
     7
 72
     1
  1
3
  7
CONVERTER_1
 11
0.9999999999970621
 21
2.424068405545307E-6
 31
0.0
1001
ACAD
1000
MTEXTBEGIN
1070
    44
1040
0.60024009603842
1000
MTEXTEND
  0
ENDBLK
  5
367
330
35D
100
AcDbEntity
  8
0
100
AcDbBlockEnd
  0
BLOCK
  5
373
330
36A
100
AcDbEntity
  8
0
100
AcDbBlockBegin
  2
*D2932
 70
     1
 71
     0
 10
0.0
 20
0.0
 30
0.0
  3
*D2932
  1

  0
LINE
  5
36B
330
36A
100
AcDbEntity
  8
1
  6
CONTINUOUS
 62
     3
100
AcDbLine
 10
96.04874721534176
 20
-199.2397097405209
 30
0.0
 11
96.04874721534176
 21
-181.7397097405209
 31
0.0
  0
LINE
  5
36C
330
36A
100
AcDbEntity
  8
1
  6
CONTINUOUS
 62
     3
100
AcDbLine
 10
96.04874721534176
 20
-181.7397097405209
 30
0.0
 11
96.04874721534176
 21
-178.2397097405206
 31
0.0
  0
LINE
  5
36D
330
36A
100
AcDbEntity
  8
1
  6
CONTINUOUS
 62
     3
100
AcDbLine
 10
96.04874721534176
 20
-178.2397097405206
 30
0.0
 11
96.04874721534176
 21
-152.4803639012071
 31
0.0
  0
LINE
  5
36E
330
36A
100
AcDbEntity
  8
1
  6
CONTINUOUS
 62
     3
100
AcDbLine
 10
115.2896037519025
 20
-181.7397097405209
 30
0.0
 11
94.04874721534176
 21
-181.7397097405209
 31
0.0
  0
LINE
  5
36F
330
36A
100
AcDbEntity
  8
1
  6
CONTINUOUS
 62
     3
100
AcDbLine
 10
81.48960375190274
 20
-178.2397097405206
 30
0.0
 11
98.04874721534176
 21
-178.2397097405206
 31
0.0
  0
SOLID
  5
370
330
36A
100
AcDbEntity
  8
1
 62
     3
100
AcDbTrace
 10
94.89678786145205
 20
-169.4897097405206
 30
0.0
 11
97.20070656923147
 21
-169.4897097405206
 31
0.0
 12
96.04874721534176
 22
-178.2397097405206
 32
0.0
 13
96.04874721534176
 23
-178.2397097405206
 33
0.0
  0
SOLID
  5
371
330
36A
100
AcDbEntity
  8
1
 62
     3
100
AcDbTrace
 10
97.20070656923147
 20
-190.4897097405209
 30
0.0
 11
94.89678786145205
 21
-190.4897097405209
 31
0.0
 12
96.04874721534176
 22
-181.7397097405209
 32
0.0
 13
96.04874721534176
 23
-181.7397097405209
 33
0.0
  0
MTEXT
  5
372
330
36A
100
AcDbEntity
  8
1
 62
     2
100
AcDbMText
 10
92.67374721534176
 20
-165.4303639012071
 30
0.0
 40
8.75
 41
0.0
 71
     7
 72
     1
  1
3,5
  7
CONVERTER_1
 11
0.0
 21
1.0
 31
0.0
1001
ACAD
1000
MTEXTBEGIN
1070
    44
1040
0.60024009603842
1000
MTEXTEND
  0
ENDBLK
  5
374
330
36A
100
AcDbEntity
  8
0
100
AcDbBlockEnd
  0
BLOCK
  5
380
330
377
100
AcDbEntity
  8
0
100
AcDbBlockBegin
  2
*D3033
 70
     1
 71
     0
 10
0.0
 20
0.0
 30
0.0
  3
*D3033
  1

  0
LINE
  5
378
330
377
100
AcDbEntity
  8
1
  6
CONTINUOUS
 62
     3
100
AcDbLine
 10
98.98960375190276
 20
-213.5810411049031
 30
0.0
 11
81.48960375190276
 21
-213.5810411049031
 31
0.0
  0
LINE
  5
379
330
377
100
AcDbEntity
  8
1
  6
CONTINUOUS
 62
     3
100
AcDbLine
 10
78.48960375190286
 20
-213.5810411049031
 30
0.0
 11
81.48960375190276
 21
-213.5810411049031
 31
0.0
  0
LINE
  5
37A
330
377
100
AcDbEntity
  8
1
  6
CONTINUOUS
 62
     3
100
AcDbLine
 10
78.48960375190286
 20
-213.5810411049031
 30
0.0
 11
60.98960375190286
 21
-213.5810411049031
 31
0.0
  0
LINE
  5
37B
330
377
100
AcDbEntity
  8
1
  6
CONTINUOUS
 62
     3
100
AcDbLine
 10
78.48960375190286
 20
-202.2397097405206
 30
0.0
 11
78.48960375190286
 21
-215.5810411049031
 31
0.0
  0
LINE
  5
37C
330
377
100
AcDbEntity
  8
1
  6
CONTINUOUS
 62
     3
100
AcDbLine
 10
81.48960375190276
 20
-202.2397097405206
 30
0.0
 11
81.48960375190276
 21
-215.5810411049031
 31
0.0
  0
SOLID
  5
37D
330
377
100
AcDbEntity
  8
1
 62
     3
100
AcDbTrace
 10
69.73960375190286
 20
-214.7330004587928
 30
0.0
 11
69.73960375190286
 21
-212.4290817510134
 31
0.0
 12
78.48960375190286
 22
-213.5810411049031
 32
0.0
 13
78.48960375190286
 23
-213.5810411049031
 33
0.0
  0
SOLID
  5
37E
330
377
100
AcDbEntity
  8
1
 62
     3
100
AcDbTrace
 10
90.23960375190276
 20
-212.4290817510134
 30
0.0
 11
90.23960375190276
 21
-214.7330004587928
 31
0.0
 12
81.48960375190276
 22
-213.5810411049031
 32
0.0
 13
81.48960375190276
 23
-213.5810411049031
 33
0.0
  0
MTEXT
  5
37F
330
377
100
AcDbEntity
  8
1
 62
     2
100
AcDbMText
 10
62.84685375761455
 20
-211.0810411049031
 30
0.0
 40
8.75
 41
0.0
 71
     7
 72
     1
  1
3
  7
CONVERTER_1
 11
0.9999999999970621
 21
2.424068405545307E-6
 31
0.0
1001
ACAD
1000
MTEXTBEGIN
1070
    44
1040
0.60024009603842
1000
MTEXTEND
  0
ENDBLK
  5
381
330
377
100
AcDbEntity
  8
0
100
AcDbBlockEnd
  0
BLOCK
  5
38D
330
384
100
AcDbEntity
  8
0
100
AcDbBlockBegin
  2
*D3134
 70
     1
 71
     0
 10
0.0
 20
0.0
 30
0.0
  3
*D3134
  1

  0
LINE
  5
385
330
384
100
AcDbEntity
  8
1
  6
CONTINUOUS
 62
     3
100
AcDbLine
 10
189.8754458877748
 20
-214.7397097405211
 30
0.0
 11
189.8754458877748
 21
-197.2397097405211
 31
0.0
  0
LINE
  5
386
330
384
100
AcDbEntity
  8
1
  6
CONTINUOUS
 62
     3
100
AcDbLine
 10
189.8754458877748
 20
-197.2397097405211
 30
0.0
 11
189.8754458877748
 21
-181.7397097405211
 31
0.0
  0
LINE
  5
387
330
384
100
AcDbEntity
  8
1
  6
CONTINUOUS
 62
     3
100
AcDbLine
 10
189.8754458877748
 20
-181.7397097405211
 30
0.0
 11
189.8754458877748
 21
-153.0476451115885
 31
0.0
  0
LINE
  5
388
330
384
100
AcDbEntity
  8
1
  6
CONTINUOUS
 62
     3
100
AcDbLine
 10
150.7896037519028
 20
-197.2397097405211
 30
0.0
 11
191.8754458877748
 21
-197.2397097405211
 31
0.0
  0
LINE
  5
389
330
384
100
AcDbEntity
  8
1
  6
CONTINUOUS
 62
     3
100
AcDbLine
 10
151.6896037519028
 20
-181.7397097405211
 30
0.0
 11
191.8754458877748
 21
-181.7397097405211
 31
0.0
  0
SOLID
  5
38A
330
384
100
AcDbEntity
  8
1
 62
     3
100
AcDbTrace
 10
188.7234865338851
 20
-172.9897097405211
 30
0.0
 11
191.0274052416645
 21
-172.9897097405211
 31
0.0
 12
189.8754458877748
 22
-181.7397097405211
 32
0.0
 13
189.8754458877748
 23
-181.7397097405211
 33
0.0
  0
SOLID
  5
38B
330
384
100
AcDbEntity
  8
1
 62
     3
100
AcDbTrace
 10
191.0274052416645
 20
-205.9897097405211
 30
0.0
 11
188.7234865338851
 21
-205.9897097405211
 31
0.0
 12
189.8754458877748
 22
-197.2397097405211
 32
0.0
 13
189.8754458877748
 23
-197.2397097405211
 33
0.0
  0
MTEXT
  5
38C
330
384
100
AcDbEntity
  8
1
 62
     2
100
AcDbMText
 10
186.5004458877748
 20
-170.1976451115885
 30
0.0
 40
8.75
 41
0.0
 71
     7
 72
     1
  1
15,5
  7
CONVERTER_1
 11
0.0
 21
1.0
 31
0.0
1001
ACAD
1000
MTEXTBEGIN
1070
    44
1040
0.60024009603842
1000
MTEXTEND
  0
ENDBLK
  5
38E
330
384
100
AcDbEntity
  8
0
100
AcDbBlockEnd
  0
BLOCK
  5
39A
330
391
100
AcDbEntity
  8
0
100
AcDbBlockBegin
  2
*D3235
 70
     1
 71
     0
 10
0.0
 20
0.0
 30
0.0
  3
*D3235
  1

  0
LINE
  5
392
330
391
100
AcDbEntity
  8
1
  6
CONTINUOUS
 62
     3
100
AcDbLine
 10
276.2882962205221
 20
286.7797008200201
 30
0.0
 11
293.7882962205221
 21
286.7797008200201
 31
0.0
  0
LINE
  5
393
330
391
100
AcDbEntity
  8
1
  6
CONTINUOUS
 62
     3
100
AcDbLine
 10
269.2882962205221
 20
286.7797008200201
 30
0.0
 11
251.7882962205221
 21
286.7797008200201
 31
0.0
  0
LINE
  5
394
330
391
100
AcDbEntity
  8
1
  6
CONTINUOUS
 62
     3
100
AcDbLine
 10
269.2882962205221
 20
286.7797008200201
 30
0.0
 11
276.2882962205221
 21
286.7797008200201
 31
0.0
  0
LINE
  5
395
330
391
100
AcDbEntity
  8
1
  6
CONTINUOUS
 62
     3
100
AcDbLine
 10
276.2882962205221
 20
259.342895
 30
0.0
 11
276.2882962205221
 21
288.7797008200201
 31
0.0
  0
LINE
  5
396
330
391
100
AcDbEntity
  8
1
  6
CONTINUOUS
 62
     3
100
AcDbLine
 10
269.2882962205221
 20
262.342895
 30
0.0
 11
269.2882962205221
 21
288.7797008200201
 31
0.0
  0
SOLID
  5
397
330
391
100
AcDbEntity
  8
1
 62
     3
100
AcDbTrace
 10
285.0382962205221
 20
287.9316601739098
 30
0.0
 11
285.0382962205221
 21
285.6277414661304
 31
0.0
 12
276.2882962205221
 22
286.7797008200201
 32
0.0
 13
276.2882962205221
 23
286.7797008200201
 33
0.0
  0
SOLID
  5
398
330
391
100
AcDbEntity
  8
1
 62
     3
100
AcDbTrace
 10
260.5382962205221
 20
285.6277414661304
 30
0.0
 11
260.5382962205221
 21
287.9316601739098
 31
0.0
 12
269.2882962205221
 22
286.7797008200201
 32
0.0
 13
269.2882962205221
 23
286.7797008200201
 33
0.0
  0
MTEXT
  5
399
330
391
100
AcDbEntity
  8
1
 62
     2
100
AcDbMText
 10
270.6106435120128
 20
289.2797008200201
 30
0.0
 40
8.75
 41
0.0
 71
     7
 72
     1
  1
7
  7
CONVERTER_1
 11
0.9999999999970621
 21
2.424068405545307E-6
 31
0.0
1001
ACAD
1000
MTEXTBEGIN
1070
    44
1040
0.60024009603842
1000
MTEXTEND
  0
ENDBLK
  5
39B
330
391
100
AcDbEntity
  8
0
100
AcDbBlockEnd
  0
BLOCK
  5
3A7
330
39E
100
AcDbEntity
  8
0
100
AcDbBlockBegin
  2
*D3336
 70
     1
 71
     0
 10
0.0
 20
0.0
 30
0.0
  3
*D3336
  1

  0
LINE
  5
39F
330
39E
100
AcDbEntity
  8
1
  6
CONTINUOUS
 62
     3
100
AcDbLine
 10
256.2882962205232
 20
243.5300279764079
 30
0.0
 11
236.6854414190889
 21
243.5300279764079
 31
0.0
  0
LINE
  5
3A0
330
39E
100
AcDbEntity
  8
1
  6
CONTINUOUS
 62
     3
100
AcDbLine
 10
256.2882962205232
 20
243.5300279764079
 30
0.0
 11
263.2882962205232
 21
243.5300279764079
 31
0.0
  0
LINE
  5
3A1
330
39E
100
AcDbEntity
  8
1
  6
CONTINUOUS
 62
     3
100
AcDbLine
 10
280.7882962205232
 20
243.5300279764079
 30
0.0
 11
263.2882962205232
 21
243.5300279764079
 31
0.0
  0
LINE
  5
3A2
330
39E
100
AcDbEntity
  8
1
  6
CONTINUOUS
 62
     3
100
AcDbLine
 10
263.2882962205232
 20
239.8428949999998
 30
0.0
 11
263.2882962205232
 21
245.5300279764079
 31
0.0
  0
LINE
  5
3A3
330
39E
100
AcDbEntity
  8
1
  6
CONTINUOUS
 62
     3
100
AcDbLine
 10
256.2882962205232
 20
259.3428949999998
 30
0.0
 11
256.2882962205232
 21
241.5300279764079
 31
0.0
  0
SOLID
  5
3A4
330
39E
100
AcDbEntity
  8
1
 62
     3
100
AcDbTrace
 10
247.5382962205232
 20
242.3780686225182
 30
0.0
 11
247.5382962205232
 21
244.6819873302976
 31
0.0
 12
256.2882962205232
 22
243.5300279764079
 32
0.0
 13
256.2882962205232
 23
243.5300279764079
 33
0.0
  0
SOLID
  5
3A5
330
39E
100
AcDbEntity
  8
1
 62
     3
100
AcDbTrace
 10
272.0382962205232
 20
244.6819873302976
 30
0.0
 11
272.0382962205232
 21
242.3780686225182
 31
0.0
 12
263.2882962205232
 22
243.5300279764079
 32
0.0
 13
263.2882962205232
 23
243.5300279764079
 33
0.0
  0
MTEXT
  5
3A6
330
39E
100
AcDbEntity
  8
1
 62
     2
100
AcDbMText
 10
236.6854414190889
 20
246.0300279764079
 30
0.0
 40
8.75
 41
0.0
 71
     7
 72
     1
  1
7
  7
CONVERTER_1
 11
0.9999999999970621
 21
2.424068405545307E-6
 31
0.0
1001
ACAD
1000
MTEXTBEGIN
1070
    44
1040
0.60024009603842
1000
MTEXTEND
  0
ENDBLK
  5
3A8
330
39E
100
AcDbEntity
  8
0
100
AcDbBlockEnd
  0
BLOCK
  5
3B4
330
3AB
100
AcDbEntity
  8
0
100
AcDbBlockBegin
  2
*D3437
 70
     1
 71
     0
 10
0.0
 20
0.0
 30
0.0
  3
*D3437
  1

  0
LINE
  5
3AC
330
3AB
100
AcDbEntity
  8
1
  6
CONTINUOUS
 62
     3
100
AcDbLine
 10
296.9809815429768
 20
269.3428949999999
 30
0.0
 11
296.9809815429768
 21
286.8428949999999
 31
0.0
  0
LINE
  5
3AD
330
3AB
100
AcDbEntity
  8
1
  6
CONTINUOUS
 62
     3
100
AcDbLine
 10
296.9809815429768
 20
256.3428949999999
 30
0.0
 11
296.9809815429768
 21
238.8428949999999
 31
0.0
  0
LINE
  5
3AE
330
3AB
100
AcDbEntity
  8
1
  6
CONTINUOUS
 62
     3
100
AcDbLine
 10
296.9809815429768
 20
256.3428949999999
 30
0.0
 11
296.9809815429768
 21
269.3428949999999
 31
0.0
  0
LINE
  5
3AF
330
3AB
100
AcDbEntity
  8
1
  6
CONTINUOUS
 62
     3
100
AcDbLine
 10
266.2882962205221
 20
269.3428949999999
 30
0.0
 11
298.9809815429768
 21
269.3428949999999
 31
0.0
  0
LINE
  5
3B0
330
3AB
100
AcDbEntity
  8
1
  6
CONTINUOUS
 62
     3
100
AcDbLine
 10
276.2882962205221
 20
256.3428949999999
 30
0.0
 11
298.9809815429768
 21
256.3428949999999
 31
0.0
  0
SOLID
  5
3B1
330
3AB
100
AcDbEntity
  8
1
 62
     3
100
AcDbTrace
 10
295.8290221890871
 20
278.0928949999999
 30
0.0
 11
298.1329408968665
 21
278.0928949999999
 31
0.0
 12
296.9809815429768
 22
269.3428949999999
 32
0.0
 13
296.9809815429768
 23
269.3428949999999
 33
0.0
  0
SOLID
  5
3B2
330
3AB
100
AcDbEntity
  8
1
 62
     3
100
AcDbTrace
 10
298.1329408968665
 20
247.5928949999999
 30
0.0
 11
295.8290221890871
 21
247.5928949999999
 31
0.0
 12
296.9809815429768
 22
256.3428949999999
 32
0.0
 13
296.9809815429768
 23
256.3428949999999
 33
0.0
  0
MTEXT
  5
3B3
330
3AB
100
AcDbEntity
  8
1
 62
     2
100
AcDbMText
 10
294.4809815429768
 20
258.464782436116
 30
0.0
 40
8.75
 41
0.0
 71
     7
 72
     1
  1
13
  7
CONVERTER_1
 11
0.0
 21
1.0
 31
0.0
1001
ACAD
1000
MTEXTBEGIN
1070
    44
1040
0.60024009603842
1000
MTEXTEND
  0
ENDBLK
  5
3B5
330
3AB
100
AcDbEntity
  8
0
100
AcDbBlockEnd
  0
BLOCK
  5
3C1
330
3B8
100
AcDbEntity
  8
0
100
AcDbBlockBegin
  2
*D3538
 70
     1
 71
     0
 10
0.0
 20
0.0
 30
0.0
  3
*D3538
  1

  0
LINE
  5
3B9
330
3B8
100
AcDbEntity
  8
1
  6
CONTINUOUS
 62
     3
100
AcDbLine
 10
296.8641541243538
 20
2.34289500000003
 30
0.0
 11
296.8641541243538
 21
19.84289500000003
 31
0.0
  0
LINE
  5
3BA
330
3B8
100
AcDbEntity
  8
1
  6
CONTINUOUS
 62
     3
100
AcDbLine
 10
296.8641541243538
 20
-10.65710499999996
 30
0.0
 11
296.8641541243538
 21
-28.15710499999996
 31
0.0
  0
LINE
  5
3BB
330
3B8
100
AcDbEntity
  8
1
  6
CONTINUOUS
 62
     3
100
AcDbLine
 10
296.8641541243538
 20
-10.65710499999996
 30
0.0
 11
296.8641541243538
 21
2.34289500000003
 31
0.0
  0
LINE
  5
3BC
330
3B8
100
AcDbEntity
  8
1
  6
CONTINUOUS
 62
     3
100
AcDbLine
 10
274.2882962205221
 20
2.34289500000003
 30
0.0
 11
298.8641541243538
 21
2.34289500000003
 31
0.0
  0
LINE
  5
3BD
330
3B8
100
AcDbEntity
  8
1
  6
CONTINUOUS
 62
     3
100
AcDbLine
 10
266.2882962205221
 20
-10.65710499999996
 30
0.0
 11
298.8641541243538
 21
-10.65710499999996
 31
0.0
  0
SOLID
  5
3BE
330
3B8
100
AcDbEntity
  8
1
 62
     3
100
AcDbTrace
 10
298.0161134782435
 20
-19.40710499999996
 30
0.0
 11
295.7121947704641
 21
-19.40710499999996
 31
0.0
 12
296.8641541243538
 22
-10.65710499999996
 32
0.0
 13
296.8641541243538
 23
-10.65710499999996
 33
0.0
  0
SOLID
  5
3BF
330
3B8
100
AcDbEntity
  8
1
 62
     3
100
AcDbTrace
 10
295.7121947704641
 20
11.09289500000003
 30
0.0
 11
298.0161134782435
 21
11.09289500000003
 31
0.0
 12
296.8641541243538
 22
2.34289500000003
 32
0.0
 13
296.8641541243538
 23
2.34289500000003
 33
0.0
  0
MTEXT
  5
3C0
330
3B8
100
AcDbEntity
  8
1
 62
     2
100
AcDbMText
 10
294.3641541243538
 20
-7.77017707077305
 30
0.0
 40
8.75
 41
0.0
 71
     7
 72
     1
  1
13
  7
CONVERTER_1
 11
0.0
 21
1.0
 31
0.0
1001
ACAD
1000
MTEXTBEGIN
1070
    44
1040
0.60024009603842
1000
MTEXTEND
  0
ENDBLK
  5
3C2
330
3B8
100
AcDbEntity
  8
0
100
AcDbBlockEnd
  0
BLOCK
  5
3CE
330
3C5
100
AcDbEntity
  8
0
100
AcDbBlockBegin
  2
*D3639
 70
     1
 71
     0
 10
0.0
 20
0.0
 30
0.0
  3
*D3639
  1

  0
LINE
  5
3C6
330
3C5
100
AcDbEntity
  8
1
  6
CONTINUOUS
 62
     3
100
AcDbLine
 10
271.5882962205242
 20
202.6305803521439
 30
0.0
 11
289.0882962205242
 21
202.6305803521439
 31
0.0
  0
LINE
  5
3C7
330
3C5
100
AcDbEntity
  8
1
  6
CONTINUOUS
 62
     3
100
AcDbLine
 10
259.5882962205242
 20
202.6305803521439
 30
0.0
 11
242.0882962205242
 21
202.6305803521439
 31
0.0
  0
LINE
  5
3C8
330
3C5
100
AcDbEntity
  8
1
  6
CONTINUOUS
 62
     3
100
AcDbLine
 10
259.5882962205242
 20
202.6305803521439
 30
0.0
 11
271.5882962205242
 21
202.6305803521439
 31
0.0
  0
LINE
  5
3C9
330
3C5
100
AcDbEntity
  8
1
  6
CONTINUOUS
 62
     3
100
AcDbLine
 10
271.5882962205242
 20
165.8428949999959
 30
0.0
 11
271.5882962205242
 21
204.6305803521439
 31
0.0
  0
LINE
  5
3CA
330
3C5
100
AcDbEntity
  8
1
  6
CONTINUOUS
 62
     3
100
AcDbLine
 10
259.5882962205242
 20
161.8428949999959
 30
0.0
 11
259.5882962205242
 21
204.6305803521439
 31
0.0
  0
SOLID
  5
3CB
330
3C5
100
AcDbEntity
  8
1
 62
     3
100
AcDbTrace
 10
250.8382962205242
 20
201.4786209982542
 30
0.0
 11
250.8382962205242
 21
203.7825397060336
 31
0.0
 12
259.5882962205242
 22
202.6305803521439
 32
0.0
 13
259.5882962205242
 23
202.6305803521439
 33
0.0
  0
SOLID
  5
3CC
330
3C5
100
AcDbEntity
  8
1
 62
     3
100
AcDbTrace
 10
280.3382962205242
 20
203.7825397060336
 30
0.0
 11
280.3382962205242
 21
201.4786209982542
 31
0.0
 12
271.5882962205242
 22
202.6305803521439
 32
0.0
 13
271.5882962205242
 23
202.6305803521439
 33
0.0
  0
MTEXT
  5
3CD
330
3C5
100
AcDbEntity
  8
1
 62
     2
100
AcDbMText
 10
261.5579870686791
 20
205.1305803521439
 30
0.0
 40
8.75
 41
0.0
 71
     7
 72
     1
  1
12
  7
CONVERTER_1
 11
0.9999999999970621
 21
2.424068405545307E-6
 31
0.0
1001
ACAD
1000
MTEXTBEGIN
1070
    44
1040
0.60024009603842
1000
MTEXTEND
  0
ENDBLK
  5
3CF
330
3C5
100
AcDbEntity
  8
0
100
AcDbBlockEnd
  0
BLOCK
  5
3DB
330
3D2
100
AcDbEntity
  8
0
100
AcDbBlockBegin
  2
*D3740
 70
     1
 71
     0
 10
0.0
 20
0.0
 30
0.0
  3
*D3740
  1

  0
LINE
  5
3D3
330
3D2
100
AcDbEntity
  8
1
  6
CONTINUOUS
 62
     3
100
AcDbLine
 10
232.3069017629269
 20
221.6409558051289
 30
0.0
 11
256.2882962205228
 21
221.6409558051289
 31
0.0
  0
LINE
  5
3D4
330
3D2
100
AcDbEntity
  8
1
  6
CONTINUOUS
 62
     3
100
AcDbLine
 10
256.2882962205228
 20
221.6409558051289
 30
0.0
 11
259.5882962205257
 21
221.6409558051289
 31
0.0
  0
LINE
  5
3D5
330
3D2
100
AcDbEntity
  8
1
  6
CONTINUOUS
 62
     3
100
AcDbLine
 10
259.5882962205257
 20
221.6409558051289
 30
0.0
 11
277.0882962205257
 21
221.6409558051289
 31
0.0
  0
LINE
  5
3D6
330
3D2
100
AcDbEntity
  8
1
  6
CONTINUOUS
 62
     3
100
AcDbLine
 10
259.5882962205257
 20
193.8428949999995
 30
0.0
 11
259.5882962205257
 21
223.6409558051289
 31
0.0
  0
LINE
  5
3D7
330
3D2
100
AcDbEntity
  8
1
  6
CONTINUOUS
 62
     3
100
AcDbLine
 10
256.2882962205228
 20
259.3428949999996
 30
0.0
 11
256.2882962205228
 21
219.6409558051289
 31
0.0
  0
SOLID
  5
3D8
330
3D2
100
AcDbEntity
  8
1
 62
     3
100
AcDbTrace
 10
247.5382962205228
 20
220.4889964512392
 30
0.0
 11
247.5382962205228
 21
222.7929151590186
 31
0.0
 12
256.2882962205228
 22
221.6409558051289
 32
0.0
 13
256.2882962205228
 23
221.6409558051289
 33
0.0
  0
SOLID
  5
3D9
330
3D2
100
AcDbEntity
  8
1
 62
     3
100
AcDbTrace
 10
268.3382962205257
 20
222.7929151590186
 30
0.0
 11
268.3382962205257
 21
220.4889964512392
 31
0.0
 12
259.5882962205257
 22
221.6409558051289
 32
0.0
 13
259.5882962205257
 23
221.6409558051289
 33
0.0
  0
MTEXT
  5
3DA
330
3D2
100
AcDbEntity
  8
1
 62
     2
100
AcDbMText
 10
232.3069017629269
 20
225.0159558051289
 30
0.0
 40
8.75
 41
0.0
 71
     7
 72
     1
  1
3,3
  7
CONVERTER_1
 11
0.9999999999970621
 21
2.424068405545307E-6
 31
0.0
1001
ACAD
1000
MTEXTBEGIN
1070
    44
1040
0.60024009603842
1000
MTEXTEND
  0
ENDBLK
  5
3DC
330
3D2
100
AcDbEntity
  8
0
100
AcDbBlockEnd
  0
BLOCK
  5
3E6
330
3DF
100
AcDbEntity
  8
0
100
AcDbBlockBegin
  2
*D3841
 70
     1
 71
     0
 10
0.0
 20
0.0
 30
0.0
  3
*D3841
  1

  0
LINE
  5
3E0
330
3DF
100
AcDbEntity
  8
1
  6
CONTINUOUS
 62
     3
100
AcDbLine
 10
316.224055426878
 20
-10.65710500000079
 30
0.0
 11
316.224055426878
 21
24.84289499999915
 31
0.0
  0
LINE
  5
3E1
330
3DF
100
AcDbEntity
  8
1
  6
CONTINUOUS
 62
     3
100
AcDbLine
 10
273.9382962205165
 20
24.84289499999915
 30
0.0
 11
318.224055426878
 21
24.84289499999915
 31
0.0
  0
LINE
  5
3E2
330
3DF
100
AcDbEntity
  8
1
  6
CONTINUOUS
 62
     3
100
AcDbLine
 10
283.6272083544065
 20
-10.65710500000079
 30
0.0
 11
318.224055426878
 21
-10.65710500000079
 31
0.0
  0
SOLID
  5
3E3
330
3DF
100
AcDbEntity
  8
1
 62
     3
100
AcDbTrace
 10
315.0720960729883
 20
-1.90710500000079
 30
0.0
 11
317.3760147807677
 21
-1.90710500000079
 31
0.0
 12
316.224055426878
 22
-10.65710500000079
 32
0.0
 13
316.224055426878
 23
-10.65710500000079
 33
0.0
  0
SOLID
  5
3E4
330
3DF
100
AcDbEntity
  8
1
 62
     3
100
AcDbTrace
 10
317.3760147807677
 20
16.09289499999915
 30
0.0
 11
315.0720960729883
 21
16.09289499999915
 31
0.0
 12
316.224055426878
 22
24.84289499999915
 32
0.0
 13
316.224055426878
 23
24.84289499999915
 33
0.0
  0
MTEXT
  5
3E5
330
3DF
100
AcDbEntity
  8
1
 62
     2
100
AcDbMText
 10
312.849055426878
 20
-2.62543976602999
 30
0.0
 40
8.75
 41
0.0
 71
     7
 72
     1
  1
35,5
  7
CONVERTER_1
 11
0.0
 21
1.0
 31
0.0
1001
ACAD
1000
MTEXTBEGIN
1070
    44
1040
0.60024009603842
1000
MTEXTEND
  0
ENDBLK
  5
3E7
330
3DF
100
AcDbEntity
  8
0
100
AcDbBlockEnd
  0
BLOCK
  5
3F1
330
3EA
100
AcDbEntity
  8
0
100
AcDbBlockBegin
  2
*D3942
 70
     1
 71
     0
 10
0.0
 20
0.0
 30
0.0
  3
*D3942
  1

  0
LINE
  5
3EB
330
3EA
100
AcDbEntity
  8
1
  6
CONTINUOUS
 62
     3
100
AcDbLine
 10
315.9582978711998
 20
233.842895
 30
0.0
 11
315.9582978711998
 21
269.3428950000001
 31
0.0
  0
LINE
  5
3EC
330
3EA
100
AcDbEntity
  8
1
  6
CONTINUOUS
 62
     3
100
AcDbLine
 10
266.2882962205221
 20
269.3428950000001
 30
0.0
 11
317.9582978711998
 21
269.3428950000001
 31
0.0
  0
LINE
  5
3ED
330
3EA
100
AcDbEntity
  8
1
  6
CONTINUOUS
 62
     3
100
AcDbLine
 10
273.9382962205163
 20
233.842895
 30
0.0
 11
317.9582978711998
 21
233.842895
 31
0.0
  0
SOLID
  5
3EE
330
3EA
100
AcDbEntity
  8
1
 62
     3
100
AcDbTrace
 10
317.1102572250895
 20
260.5928950000001
 30
0.0
 11
314.8063385173101
 21
260.5928950000001
 31
0.0
 12
315.9582978711998
 22
269.3428950000001
 32
0.0
 13
315.9582978711998
 23
269.3428950000001
 33
0.0
  0
SOLID
  5
3EF
330
3EA
100
AcDbEntity
  8
1
 62
     3
100
AcDbTrace
 10
314.8063385173101
 20
242.592895
 30
0.0
 11
317.1102572250895
 21
242.592895
 31
0.0
 12
315.9582978711998
 22
233.842895
 32
0.0
 13
315.9582978711998
 23
233.842895
 33
0.0
  0
MTEXT
  5
3F0
330
3EA
100
AcDbEntity
  8
1
 62
     2
100
AcDbMText
 10
312.5832978711998
 20
240.9410290576041
 30
0.0
 40
8.75
 41
0.0
 71
     7
 72
     1
  1
35,5
  7
CONVERTER_1
 11
0.0
 21
1.0
 31
0.0
1001
ACAD
1000
MTEXTBEGIN
1070
    44
1040
0.60024009603842
1000
MTEXTEND
  0
ENDBLK
  5
3F2
330
3EA
100
AcDbEntity
  8
0
100
AcDbBlockEnd
  0
BLOCK
  5
3FC
330
3F5
100
AcDbEntity
  8
0
100
AcDbBlockBegin
  2
*D4043
 70
     1
 71
     0
 10
0.0
 20
0.0
 30
0.0
  3
*D4043
  1

  0
LINE
  5
3F6
330
3F5
100
AcDbEntity
  8
1
  6
CONTINUOUS
 62
     3
100
AcDbLine
 10
329.285617444351
 20
269.3428949999998
 30
0.0
 11
329.285617444351
 21
-10.65710500000023
 31
0.0
  0
LINE
  5
3F7
330
3F5
100
AcDbEntity
  8
1
  6
CONTINUOUS
 62
     3
100
AcDbLine
 10
289.6075953837031
 20
269.3428949999998
 30
0.0
 11
331.285617444351
 21
269.3428949999998
 31
0.0
  0
LINE
  5
3F8
330
3F5
100
AcDbEntity
  8
1
  6
CONTINUOUS
 62
     3
100
AcDbLine
 10
283.6272083544069
 20
-10.6571050000002
 30
0.0
 11
331.285617444351
 21
-10.6571050000002
 31
0.0
  0
SOLID
  5
3F9
330
3F5
100
AcDbEntity
  8
1
 62
     3
100
AcDbTrace
 10
330.4375767982407
 20
260.5928949999998
 30
0.0
 11
328.1336580904613
 21
260.5928949999998
 31
0.0
 12
329.285617444351
 22
269.3428949999998
 32
0.0
 13
329.285617444351
 23
269.3428949999998
 33
0.0
  0
SOLID
  5
3FA
330
3F5
100
AcDbEntity
  8
1
 62
     3
100
AcDbTrace
 10
328.1336580904613
 20
-1.9071050000002
 30
0.0
 11
330.4375767982407
 21
-1.9071050000002
 31
0.0
 12
329.285617444351
 22
-10.6571050000002
 32
0.0
 13
329.285617444351
 23
-10.6571050000002
 33
0.0
  0
MTEXT
  5
3FB
330
3F5
100
AcDbEntity
  8
1
 62
     2
100
AcDbMText
 10
326.785617444351
 20
120.3679145295661
 30
0.0
 40
8.75
 41
0.0
 71
     7
 72
     1
  1
280
  7
CONVERTER_1
 11
0.0
 21
1.0
 31
0.0
1001
ACAD
1000
MTEXTBEGIN
1070
    44
1040
0.60024009603842
1000
MTEXTEND
  0
ENDBLK
  5
3FD
330
3F5
100
AcDbEntity
  8
0
100
AcDbBlockEnd
  0
ENDSEC
  0
SECTION
  2
ENTITIES
  0
INSERT
  5
45
330
1F
100
AcDbEntity
  8
0
100
AcDbBlockReference
  2
_RAHMEN
 10
220.5862243430985
 20
3.90476738494129
 30
0.0
 41
2.5
 42
2.5
 43
2.5
  0
LINE
  5
127
330
1F
100
AcDbEntity
  8
1
  6
DOT_CENTER
 62
     3
100
AcDbLine
 10
136.1396037519027
 20
148.842895
 30
0.0
 11
143.4896037519027
 21
148.842895
 31
0.0
  0
LINE
  5
128
330
1F
100
AcDbEntity
  8
MN
  6
DOT_CENTER
 62
     3
100
AcDbLine
 10
133.4896037519027
 20
168.768794351815
 30
0.0
 11
133.4896037519027
 21
134.012060018119
 31
0.0
  0
LINE
  5
129
330
1F
100
AcDbEntity
  8
MN
  6
DOT_CENTER
 62
     3
100
AcDbLine
 10
133.4896037519027
 20
88.36967750993603
 30
0.0
 11
133.4896037519027
 21
46.84289500000001
 31
0.0
  0
LINE
  5
12A
330
1F
100
AcDbEntity
  8
VB
  6
CONTINUOUS
 62
     4
100
AcDbLine
 10
78.48960375190276
 20
161.842895
 30
0.0
 11
78.48960375190276
 21
149.342895
 31
0.0
  0
LINE
  5
12B
330
1F
100
AcDbEntity
  8
VB
  6
CONTINUOUS
 62
     4
100
AcDbLine
 10
78.48960375190276
 20
164.842895
 30
0.0
 11
78.48960375190276
 21
161.842895
 31
0.0
  0
LINE
  5
12C
330
1F
100
AcDbEntity
  8
VB
  6
CONTINUOUS
 62
     4
100
AcDbLine
 10
78.48960375190276
 20
193.842895
 30
0.0
 11
78.48960375190276
 21
190.842895
 31
0.0
  0
LINE
  5
12D
330
1F
100
AcDbEntity
  8
1
  6
CONTINUOUS
 62
     4
100
AcDbLine
 10
259.5882962205234
 20
139.342895
 30
0.0
 11
259.5882962205234
 21
149.342895
 31
0.0
  0
LINE
  5
12E
330
1F
100
AcDbEntity
  8
1
  6
CONTINUOUS
 62
     4
100
AcDbLine
 10
262.5882962205234
 20
139.342895
 30
0.0
 11
259.5882962205234
 21
139.342895
 31
0.0
  0
LINE
  5
12F
330
1F
100
AcDbEntity
  8
1
  6
CONTINUOUS
 62
     4
100
AcDbLine
 10
262.5882962205234
 20
149.342895
 30
0.0
 11
262.5882962205234
 21
139.342895
 31
0.0
  0
LINE
  5
130
330
1F
100
AcDbEntity
  8
1
  6
CONTINUOUS
 62
     4
100
AcDbLine
 10
259.5882962205234
 20
149.342895
 30
0.0
 11
262.5882962205234
 21
149.342895
 31
0.0
  0
LINE
  5
131
330
1F
100
AcDbEntity
  8
VB
  6
CONTINUOUS
 62
     4
100
AcDbLine
 10
78.48960375190276
 20
149.342895
 30
0.0
 11
78.48960375190276
 21
139.342895
 31
0.0
  0
LINE
  5
132
330
1F
100
AcDbEntity
  8
1
  6
CONTINUOUS
 62
     4
100
AcDbLine
 10
67.98960375190276
 20
149.342895
 30
0.0
 11
78.48960375190276
 21
149.342895
 31
0.0
  0
LINE
  5
133
330
1F
100
AcDbEntity
  8
1
  6
CONTINUOUS
 62
     4
100
AcDbLine
 10
67.98960375190276
 20
139.342895
 30
0.0
 11
67.98960375190276
 21
149.342895
 31
0.0
  0
LINE
  5
134
330
1F
100
AcDbEntity
  8
VB
  6
CONTINUOUS
 62
     4
100
AcDbLine
 10
78.48960375190276
 20
139.342895
 30
0.0
 11
78.48960375190276
 21
76.84289500000003
 31
0.0
  0
LINE
  5
135
330
1F
100
AcDbEntity
  8
1
  6
CONTINUOUS
 62
     4
100
AcDbLine
 10
78.48960375190276
 20
139.342895
 30
0.0
 11
67.98960375190276
 21
139.342895
 31
0.0
  0
LINE
  5
136
330
1F
100
AcDbEntity
  8
1
  6
DOT_CENTER
 62
     3
100
AcDbLine
 10
128.7698094774678
 20
127.342895
 30
0.0
 11
138.0753297764817
 21
127.342895
 31
0.0
  0
LINE
  5
137
330
1F
100
AcDbEntity
  8
1
  6
DOT_CENTER
 62
     3
100
AcDbLine
 10
133.4896037519027
 20
144.342895
 30
0.0
 11
133.4896037519027
 21
105.585117815582
 31
0.0
  0
LINE
  5
138
330
1F
100
AcDbEntity
  8
1
  6
DOT_CENTER
 62
     3
100
AcDbLine
 10
124.4896037519027
 20
194.842895
 30
0.0
 11
142.4896037519027
 21
194.842895
 31
0.0
  0
LINE
  5
139
330
1F
100
AcDbEntity
  8
1
  6
DOT_CENTER
 62
     3
100
AcDbLine
 10
123.4896037519027
 20
148.842895
 30
0.0
 11
136.1396037519027
 21
148.842895
 31
0.0
  0
LINE
  5
13A
330
1F
100
AcDbEntity
  8
VB
  6
CONTINUOUS
 62
     4
100
AcDbLine
 10
81.48960375190276
 20
163.842895
 30
0.0
 11
81.48960375190276
 21
46.84289500000003
 31
0.0
  0
LINE
  5
13B
330
1F
100
AcDbEntity
  8
1
  6
CONTINUOUS
 62
     4
100
AcDbLine
 10
81.48960375190276
 20
163.842895
 30
0.0
 11
91.98960375190276
 21
163.842895
 31
0.0
  0
LINE
  5
13C
330
1F
100
AcDbEntity
  8
VB
  6
CONTINUOUS
 62
     4
100
AcDbLine
 10
81.48960375190276
 20
191.842895
 30
0.0
 11
81.48960375190276
 21
163.842895
 31
0.0
  0
LINE
  5
13D
330
1F
100
AcDbEntity
  8
1
  6
CONTINUOUS
 62
     4
100
AcDbLine
 10
81.48960375190276
 20
191.842895
 30
0.0
 11
91.98960375190276
 21
191.842895
 31
0.0
  0
LINE
  5
13E
330
1F
100
AcDbEntity
  8
VB
  6
CONTINUOUS
 62
     4
100
AcDbLine
 10
81.48960375190276
 20
211.842895
 30
0.0
 11
81.48960375190276
 21
191.842895
 31
0.0
  0
LINE
  5
13F
330
1F
100
AcDbEntity
  8
VB
  6
CONTINUOUS
 62
     4
100
AcDbLine
 10
78.48960375190276
 20
76.84289500000003
 30
0.0
 11
78.48960375190276
 21
-10.65710500000002
 31
0.0
  0
LINE
  5
140
330
1F
100
AcDbEntity
  8
1
  6
DOT_CENTER
 62
     3
100
AcDbLine
 10
114.4896037519027
 20
77.84289500000003
 30
0.0
 11
114.4896037519027
 21
59.84289500000002
 31
0.0
  0
LINE
  5
141
330
1F
100
AcDbEntity
  8
1
  6
DOT_CENTER
 62
     3
100
AcDbLine
 10
105.4896037519028
 20
68.84289500000003
 30
0.0
 11
123.4896037519027
 21
68.84289500000003
 31
0.0
  0
LINE
  5
142
330
1F
100
AcDbEntity
  8
1
  6
DOT_CENTER
 62
     3
100
AcDbLine
 10
152.4896037519027
 20
77.84289500000003
 30
0.0
 11
152.4896037519027
 21
59.84289500000002
 31
0.0
  0
LINE
  5
143
330
1F
100
AcDbEntity
  8
1
  6
DOT_CENTER
 62
     3
100
AcDbLine
 10
143.4896037519027
 20
68.84289500000003
 30
0.0
 11
161.4896037519027
 21
68.84289500000003
 31
0.0
  0
LINE
  5
144
330
1F
100
AcDbEntity
  8
1
  6
DOT_CENTER
 62
     3
100
AcDbLine
 10
152.4896037519027
 20
157.842895
 30
0.0
 11
152.4896037519027
 21
139.842895
 31
0.0
  0
LINE
  5
145
330
1F
100
AcDbEntity
  8
1
  6
DOT_CENTER
 62
     3
100
AcDbLine
 10
143.4896037519027
 20
148.842895
 30
0.0
 11
161.4896037519027
 21
148.842895
 31
0.0
  0
LINE
  5
146
330
1F
100
AcDbEntity
  8
1
  6
DOT_CENTER
 62
     3
100
AcDbLine
 10
114.4896037519027
 20
157.842895
 30
0.0
 11
114.4896037519027
 21
139.842895
 31
0.0
  0
LINE
  5
147
330
1F
100
AcDbEntity
  8
1
  6
DOT_CENTER
 62
     3
100
AcDbLine
 10
105.4896037519028
 20
148.842895
 30
0.0
 11
123.4896037519027
 21
148.842895
 31
0.0
  0
LINE
  5
148
330
1F
100
AcDbEntity
  8
1
  6
CONTINUOUS
 62
     4
100
AcDbLine
 10
128.9896037519027
 20
144.342895
 30
0.0
 11
128.9896037519027
 21
153.342895
 31
0.0
  0
LINE
  5
149
330
1F
100
AcDbEntity
  8
1
  6
CONTINUOUS
 62
     4
100
AcDbLine
 10
137.9896037519027
 20
144.342895
 30
0.0
 11
128.9896037519027
 21
144.342895
 31
0.0
  0
LINE
  5
14A
330
1F
100
AcDbEntity
  8
1
  6
CONTINUOUS
 62
     4
100
AcDbLine
 10
137.9896037519027
 20
153.342895
 30
0.0
 11
137.9896037519027
 21
144.342895
 31
0.0
  0
LINE
  5
14B
330
1F
100
AcDbEntity
  8
1
  6
CONTINUOUS
 62
     4
100
AcDbLine
 10
128.9896037519027
 20
153.342895
 30
0.0
 11
137.9896037519027
 21
153.342895
 31
0.0
  0
LINE
  5
14C
330
1F
100
AcDbEntity
  8
VB
  6
CONTINUOUS
 62
     4
100
AcDbLine
 10
133.4896037519027
 20
211.842895
 30
0.0
 11
157.4896037519027
 21
211.842895
 31
0.0
  0
LINE
  5
14D
330
1F
100
AcDbEntity
  8
1
  6
DOT_CENTER
 62
     3
100
AcDbLine
 10
121.9845965955988
 20
76.84289500000003
 30
0.0
 11
144.6025642421087
 21
76.84289500000003
 31
0.0
  0
LINE
  5
14E
330
1F
100
AcDbEntity
  8
1
  6
CONTINUOUS
 62
     4
100
AcDbLine
 10
138.6396037519027
 20
56.84289500000002
 30
0.0
 11
138.6396037519027
 21
69.89307485844239
 31
0.0
  0
LINE
  5
14F
330
1F
100
AcDbEntity
  8
1
  6
CONTINUOUS
 62
     4
100
AcDbLine
 10
128.3396037519028
 20
56.84289500000002
 30
0.0
 11
128.3396037519028
 21
69.89307485844239
 31
0.0
  0
LINE
  5
150
330
1F
100
AcDbEntity
  8
VB
  6
CONTINUOUS
 62
     4
100
AcDbLine
 10
165.4896037519027
 20
203.842895
 30
0.0
 11
165.4896037519027
 21
54.84289500000003
 31
0.0
  0
LINE
  5
151
330
1F
100
AcDbEntity
  8
VB
  6
CONTINUOUS
 62
     4
100
AcDbLine
 10
81.48960375190276
 20
46.84289500000003
 30
0.0
 11
157.4896037519027
 21
46.84289500000001
 31
0.0
  0
LINE
  5
152
330
1F
100
AcDbEntity
  8
VB
  6
CONTINUOUS
 62
     4
100
AcDbLine
 10
157.4896037519027
 20
211.842895
 30
0.0
 11
165.4896037519027
 21
203.842895
 31
0.0
  0
LINE
  5
153
330
1F
100
AcDbEntity
  8
VB
  6
CONTINUOUS
 62
     4
100
AcDbLine
 10
157.4896037519027
 20
46.84289500000001
 30
0.0
 11
165.4896037519027
 21
54.84289500000002
 31
0.0
  0
LINE
  5
154
330
1F
100
AcDbEntity
  8
VB
  6
CONTINUOUS
 62
     4
100
AcDbLine
 10
81.48960375190276
 20
211.842895
 30
0.0
 11
133.4896037519027
 21
211.842895
 31
0.0
  0
LINE
  5
155
330
1F
100
AcDbEntity
  8
VB
  6
CONTINUOUS
 62
     4
100
AcDbLine
 10
78.48960375190276
 20
-10.65710500000001
 30
0.0
 11
81.48960375190276
 21
-10.65710499999998
 31
0.0
  0
LINE
  5
156
330
1F
100
AcDbEntity
  8
VB
  6
CONTINUOUS
 62
     4
100
AcDbLine
 10
81.48960375190276
 20
269.3428950000001
 30
0.0
 11
81.48960375190276
 21
211.842895
 31
0.0
  0
LINE
  5
157
330
1F
100
AcDbEntity
  8
VB
  6
CONTINUOUS
 62
     4
100
AcDbLine
 10
78.48960375190276
 20
269.3428950000001
 30
0.0
 11
78.48960375190276
 21
193.842895
 31
0.0
  0
LINE
  5
158
330
1F
100
AcDbEntity
  8
VB
  6
CONTINUOUS
 62
     4
100
AcDbLine
 10
68.48960375190276
 20
193.842895
 30
0.0
 11
78.48960375190276
 21
193.842895
 31
0.0
  0
LINE
  5
159
330
1F
100
AcDbEntity
  8
VB
  6
CONTINUOUS
 62
     4
100
AcDbLine
 10
68.48960375190276
 20
161.842895
 30
0.0
 11
78.48960375190276
 21
161.842895
 31
0.0
  0
LINE
  5
15A
330
1F
100
AcDbEntity
  8
MK
  6
DOT_CENTER
 62
     3
100
AcDbLine
 10
74.98036275190276
 20
2.34289500000002
 30
0.0
 11
85.06386384333274
 21
2.34289500000002
 31
0.0
  0
LINE
  5
15B
330
1F
100
AcDbEntity
  8
VB
  6
CONTINUOUS
 62
     4
100
AcDbLine
 10
78.48960375190276
 20
269.3428950000001
 30
0.0
 11
81.48960375190276
 21
269.3428950000001
 31
0.0
  0
LINE
  5
15C
330
1F
100
AcDbEntity
  8
MK
  6
DOT_CENTER
 62
     3
100
AcDbLine
 10
74.98036275190276
 20
256.3428950000001
 30
0.0
 11
84.48960375190276
 21
256.3428950000001
 31
0.0
  0
LINE
  5
15D
330
1F
100
AcDbEntity
  8
1
  6
CONTINUOUS
 62
     4
100
AcDbLine
 10
68.48960375190276
 20
193.842895
 30
0.0
 11
68.48960375190276
 21
190.842895
 31
0.0
  0
LINE
  5
15E
330
1F
100
AcDbEntity
  8
1
  6
CONTINUOUS
 62
     4
100
AcDbLine
 10
68.48960375190276
 20
190.842895
 30
0.0
 11
68.48960375190276
 21
164.842895
 31
0.0
  0
LINE
  5
15F
330
1F
100
AcDbEntity
  8
1
  6
CONTINUOUS
 62
     4
100
AcDbLine
 10
68.48960375190276
 20
164.842895
 30
0.0
 11
68.48960375190276
 21
161.842895
 31
0.0
  0
LINE
  5
160
330
1F
100
AcDbEntity
  8
VB
  6
CONTINUOUS
 62
     4
100
AcDbLine
 10
68.48960375190276
 20
190.842895
 30
0.0
 11
78.48960375190276
 21
190.842895
 31
0.0
  0
LINE
  5
161
330
1F
100
AcDbEntity
  8
VB
  6
CONTINUOUS
 62
     4
100
AcDbLine
 10
68.48960375190276
 20
164.842895
 30
0.0
 11
78.48960375190276
 21
164.842895
 31
0.0
  0
LINE
  5
162
330
1F
100
AcDbEntity
  8
1
  6
CONTINUOUS
 62
     4
100
AcDbLine
 10
78.48960375190276
 20
190.842895
 30
0.0
 11
78.48960375190276
 21
164.842895
 31
0.0
  0
LINE
  5
163
330
1F
100
AcDbEntity
  8
1
  6
CONTINUOUS
 62
     4
100
AcDbLine
 10
68.48960375190276
 20
190.842895
 30
0.0
 11
78.48960375190276
 21
189.842895
 31
0.0
  0
LINE
  5
164
330
1F
100
AcDbEntity
  8
1
  6
CONTINUOUS
 62
     4
100
AcDbLine
 10
68.48960375190276
 20
164.842895
 30
0.0
 11
78.48960375190276
 21
165.842895
 31
0.0
  0
LINE
  5
165
330
1F
100
AcDbEntity
  8
MN
  6
DOT_CENTER
 62
     3
100
AcDbLine
 10
133.4896037519027
 20
211.842895
 30
0.0
 11
133.4896037519027
 21
184.2032331418391
 31
0.0
  0
LINE
  5
166
330
1F
100
AcDbEntity
  8
VB
  6
CONTINUOUS
 62
     4
100
AcDbLine
 10
81.48960375190276
 20
46.84289500000003
 30
0.0
 11
81.48960375190276
 21
-10.65710499999998
 31
0.0
  0
LINE
  5
167
330
1F
100
AcDbEntity
  8
1
  6
CONTINUOUS
 62
     3
100
AcDbLine
 10
405.6722833231571
 20
-10.65710500000002
 30
0.0
 11
387.6333711892662
 21
-10.65710500000002
 31
0.0
  0
LINE
  5
168
330
1F
100
AcDbEntity
  8
1
  6
CONTINUOUS
 62
     3
100
AcDbLine
 10
411.6526703524452
 20
269.3428950000001
 30
0.0
 11
387.6333711892662
 21
269.3428950000001
 31
0.0
  0
LINE
  5
169
330
1F
100
AcDbEntity
  8
1
  6
DOT_CENTER
 62
     3
100
AcDbLine
 10
386.6333711892662
 20
65.842895
 30
0.0
 11
386.6333711892662
 21
49.842895
 31
0.0
  0
LINE
  5
16A
330
1F
100
AcDbEntity
  8
1
  6
DOT_CENTER
 62
     3
100
AcDbLine
 10
378.6333711892662
 20
57.84289499999999
 30
0.0
 11
394.6333711892662
 21
57.84289499999999
 31
0.0
  0
LINE
  5
16B
330
1F
100
AcDbEntity
  8
1
  6
DOT_CENTER
 62
     3
100
AcDbLine
 10
390.6333711892663
 20
-5.307105
 30
0.0
 11
390.6333711892663
 21
9.99289499999998
 31
0.0
  0
LINE
  5
16C
330
1F
100
AcDbEntity
  8
1
  6
DOT_CENTER
 62
     3
100
AcDbLine
 10
398.2833711892665
 20
2.34289499999998
 30
0.0
 11
382.9833711892666
 21
2.34289499999998
 31
0.0
  0
LINE
  5
16D
330
1F
100
AcDbEntity
  8
1
  6
DOT_CENTER
 62
     3
100
AcDbLine
 10
390.6333711892663
 20
263.9928950000001
 30
0.0
 11
390.6333711892663
 21
248.6928950000001
 31
0.0
  0
LINE
  5
16E
330
1F
100
AcDbEntity
  8
1
  6
DOT_CENTER
 62
     3
100
AcDbLine
 10
383.6833711892663
 20
256.3428950000001
 30
0.0
 11
398.9833711892663
 21
256.3428950000001
 31
0.0
  0
LINE
  5
16F
330
1F
100
AcDbEntity
  8
1
  6
CONTINUOUS
 62
     4
100
AcDbLine
 10
381.6333711892662
 20
139.342895
 30
0.0
 11
381.6333711892662
 21
149.342895
 31
0.0
  0
LINE
  5
170
330
1F
100
AcDbEntity
  8
1
  6
CONTINUOUS
 62
     4
100
AcDbLine
 10
384.6333711892662
 20
139.342895
 30
0.0
 11
381.6333711892662
 21
139.342895
 31
0.0
  0
LINE
  5
171
330
1F
100
AcDbEntity
  8
1
  6
CONTINUOUS
 62
     4
100
AcDbLine
 10
384.6333711892662
 20
149.342895
 30
0.0
 11
384.6333711892662
 21
139.342895
 31
0.0
  0
LINE
  5
172
330
1F
100
AcDbEntity
  8
1
  6
CONTINUOUS
 62
     4
100
AcDbLine
 10
381.6333711892662
 20
149.342895
 30
0.0
 11
384.6333711892662
 21
149.342895
 31
0.0
  0
LINE
  5
173
330
1F
100
AcDbEntity
  8
1
  6
CONTINUOUS
 62
     4
100
AcDbLine
 10
384.6333711892662
 20
164.842895
 30
0.0
 11
384.6333711892662
 21
161.842895
 31
0.0
  0
LINE
  5
174
330
1F
100
AcDbEntity
  8
1
  6
CONTINUOUS
 62
     4
100
AcDbLine
 10
393.6333711892662
 20
165.842895
 30
0.0
 11
384.6333711892662
 21
164.842895
 31
0.0
  0
LINE
  5
175
330
1F
100
AcDbEntity
  8
1
  6
CONTINUOUS
 62
     4
100
AcDbLine
 10
393.6333711892662
 20
189.842895
 30
0.0
 11
393.6333711892662
 21
165.842895
 31
0.0
  0
LINE
  5
176
330
1F
100
AcDbEntity
  8
1
  6
CONTINUOUS
 62
     4
100
AcDbLine
 10
384.6333711892662
 20
190.842895
 30
0.0
 11
384.6333711892662
 21
164.842895
 31
0.0
  0
LINE
  5
177
330
1F
100
AcDbEntity
  8
1
  6
CONTINUOUS
 62
     4
100
AcDbLine
 10
384.6333711892662
 20
190.842895
 30
0.0
 11
393.6333711892662
 21
189.842895
 31
0.0
  0
LINE
  5
178
330
1F
100
AcDbEntity
  8
1
  6
CONTINUOUS
 62
     4
100
AcDbLine
 10
381.6333711892662
 20
161.842895
 30
0.0
 11
381.6333711892662
 21
193.842895
 31
0.0
  0
LINE
  5
179
330
1F
100
AcDbEntity
  8
1
  6
CONTINUOUS
 62
     4
100
AcDbLine
 10
384.6333711892662
 20
161.842895
 30
0.0
 11
381.6333711892662
 21
161.842895
 31
0.0
  0
LINE
  5
17A
330
1F
100
AcDbEntity
  8
1
  6
CONTINUOUS
 62
     4
100
AcDbLine
 10
384.6333711892662
 20
193.842895
 30
0.0
 11
384.6333711892662
 21
190.842895
 31
0.0
  0
LINE
  5
17B
330
1F
100
AcDbEntity
  8
1
  6
CONTINUOUS
 62
     4
100
AcDbLine
 10
381.6333711892662
 20
193.842895
 30
0.0
 11
384.6333711892662
 21
193.842895
 31
0.0
  0
LINE
  5
17C
330
1F
100
AcDbEntity
  8
1
  6
CONTINUOUS
 62
     4
100
AcDbLine
 10
375.6333711892662
 20
257.3428950000001
 30
0.0
 11
375.6333711892662
 21
1.342895
 31
0.0
  0
LINE
  5
17D
330
1F
100
AcDbEntity
  8
1
  6
CONTINUOUS
 62
     4
100
AcDbLine
 10
399.6333711892662
 20
257.3428950000001
 30
0.0
 11
399.6333711892662
 21
1.342895
 31
0.0
  0
LINE
  5
17E
330
1F
100
AcDbEntity
  8
1
  6
CONTINUOUS
 62
     4
100
AcDbLine
 10
78.48960375190279
 20
-89.50826138598811
 30
0.0
 11
81.48960375190276
 21
-89.50826138598814
 31
0.0
  0
LINE
  5
17F
330
1F
100
AcDbEntity
  8
1
  6
CONTINUOUS
 62
     4
100
AcDbLine
 10
81.48960375190276
 20
-89.50826138598814
 30
0.0
 11
81.48960375190276
 21
-90.80826138598812
 31
0.0
  0
LINE
  5
180
330
1F
100
AcDbEntity
  8
1
  6
CONTINUOUS
 62
     4
100
AcDbLine
 10
81.48960375190276
 20
-109.5082613859881
 30
0.0
 11
78.48960375190279
 21
-109.5082613859882
 31
0.0
  0
LINE
  5
181
330
1F
100
AcDbEntity
  8
1
  6
CONTINUOUS
 62
     4
100
AcDbLine
 10
78.48960375190279
 20
-109.5082613859882
 30
0.0
 11
78.48960375190279
 21
-104.8082613859882
 31
0.0
  0
LINE
  5
182
330
1F
100
AcDbEntity
  8
1
  6
CONTINUOUS
 62
     4
100
AcDbLine
 10
78.48960375190279
 20
-92.80826138598812
 30
0.0
 11
68.48960375190279
 21
-92.80826138598815
 31
0.0
  0
LINE
  5
183
330
1F
100
AcDbEntity
  8
1
  6
CONTINUOUS
 62
     4
100
AcDbLine
 10
78.48960375190279
 20
-92.80826138598812
 30
0.0
 11
78.48960375190279
 21
-89.50826138598811
 31
0.0
  0
LINE
  5
184
330
1F
100
AcDbEntity
  8
1
  6
CONTINUOUS
 62
     4
100
AcDbLine
 10
68.48960375190279
 20
-92.80826138598815
 30
0.0
 11
68.48960375190279
 21
-95.80826138598815
 31
0.0
  0
LINE
  5
185
330
1F
100
AcDbEntity
  8
1
  6
CONTINUOUS
 62
     4
100
AcDbLine
 10
68.48960375190279
 20
-95.80826138598815
 30
0.0
 11
78.48960375190279
 21
-95.80826138598812
 31
0.0
  0
LINE
  5
186
330
1F
100
AcDbEntity
  8
1
  6
CONTINUOUS
 62
     4
100
AcDbLine
 10
78.48960375190279
 20
-95.80826138598812
 30
0.0
 11
78.48960375190279
 21
-92.80826138598812
 31
0.0
  0
LINE
  5
187
330
1F
100
AcDbEntity
  8
1
  6
CONTINUOUS
 62
     4
100
AcDbLine
 10
68.48960375190279
 20
-95.80826138598815
 30
0.0
 11
78.48960375190279
 21
-104.8082613859882
 31
0.0
  0
LINE
  5
188
330
1F
100
AcDbEntity
  8
1
  6
CONTINUOUS
 62
     4
100
AcDbLine
 10
78.48960375190279
 20
-104.8082613859882
 30
0.0
 11
78.48960375190279
 21
-95.80826138598812
 31
0.0
  0
LINE
  5
189
330
1F
100
AcDbEntity
  8
1
  6
CONTINUOUS
 62
     4
100
AcDbLine
 10
81.48960375190276
 20
-90.80826138598812
 30
0.0
 11
114.4896037519027
 21
-90.80826138598812
 31
0.0
  0
LINE
  5
18A
330
1F
100
AcDbEntity
  8
1
  6
CONTINUOUS
 62
     4
100
AcDbLine
 10
81.48960375190276
 20
-90.80826138598812
 30
0.0
 11
81.48960375190276
 21
-103.8082613859882
 31
0.0
  0
LINE
  5
18B
330
1F
100
AcDbEntity
  8
1
  6
CONTINUOUS
 62
     4
100
AcDbLine
 10
152.4896037519027
 20
-90.80826138598863
 30
0.0
 11
165.4896037519027
 21
-90.80826138598863
 31
0.0
  0
LINE
  5
18C
330
1F
100
AcDbEntity
  8
1
  6
CONTINUOUS
 62
     4
100
AcDbLine
 10
81.48960375190276
 20
-103.8082613859882
 30
0.0
 11
114.4896037519027
 21
-103.8082613859882
 31
0.0
  0
LINE
  5
18D
330
1F
100
AcDbEntity
  8
1
  6
CONTINUOUS
 62
     4
100
AcDbLine
 10
81.48960375190276
 20
-103.8082613859882
 30
0.0
 11
81.48960375190276
 21
-109.5082613859881
 31
0.0
  0
LINE
  5
18E
330
1F
100
AcDbEntity
  8
1
  6
CONTINUOUS
 62
     4
100
AcDbLine
 10
152.4896037519027
 20
-103.8082613859886
 30
0.0
 11
165.4896037519027
 21
-103.8082613859886
 31
0.0
  0
LINE
  5
18F
330
1F
100
AcDbEntity
  8
1
  6
CONTINUOUS
 62
     4
100
AcDbLine
 10
165.4896037519027
 20
-90.80826138598863
 30
0.0
 11
165.4896037519027
 21
-103.8082613859886
 31
0.0
  0
LINE
  5
190
330
1F
100
AcDbEntity
  8
1
  6
CONTINUOUS
 62
     4
100
AcDbLine
 10
114.4896037519027
 20
-90.80826138598812
 30
0.0
 11
115.2896037519026
 21
-90.00826138598836
 31
0.0
  0
LINE
  5
191
330
1F
100
AcDbEntity
  8
1
  6
CONTINUOUS
 62
     4
100
AcDbLine
 10
115.2896037519026
 20
-90.00826138598836
 30
0.0
 11
151.6896037519028
 21
-90.00826138598862
 31
0.0
  0
LINE
  5
192
330
1F
100
AcDbEntity
  8
1
  6
CONTINUOUS
 62
     4
100
AcDbLine
 10
152.4896037519027
 20
-90.80826138598863
 30
0.0
 11
151.6896037519028
 21
-90.00826138598862
 31
0.0
  0
LINE
  5
193
330
1F
100
AcDbEntity
  8
1
  6
CONTINUOUS
 62
     4
100
AcDbLine
 10
152.4896037519027
 20
-103.8082613859886
 30
0.0
 11
150.7896037519029
 21
-105.5082613859886
 31
0.0
  0
LINE
  5
194
330
1F
100
AcDbEntity
  8
1
  6
CONTINUOUS
 62
     4
100
AcDbLine
 10
114.4896037519027
 20
-103.8082613859882
 30
0.0
 11
116.189603751903
 21
-105.5082613859884
 31
0.0
  0
LINE
  5
195
330
1F
100
AcDbEntity
  8
1
  6
CONTINUOUS
 62
     4
100
AcDbLine
 10
116.189603751903
 20
-105.5082613859884
 30
0.0
 11
150.7896037519029
 21
-105.5082613859886
 31
0.0
  0
LINE
  5
196
330
1F
100
AcDbEntity
  8
1
  6
CONTINUOUS
 62
     4
100
AcDbLine
 10
114.4896037519027
 20
-90.80826138598812
 30
0.0
 11
152.4896037519027
 21
-90.80826138598863
 31
0.0
  0
LINE
  5
197
330
1F
100
AcDbEntity
  8
1
  6
CONTINUOUS
 62
     4
100
AcDbLine
 10
114.4896037519027
 20
-103.8082613859882
 30
0.0
 11
152.4896037519027
 21
-103.8082613859886
 31
0.0
  0
LINE
  5
198
330
1F
100
AcDbEntity
  8
1
  6
DOT_CENTER
 62
     3
100
AcDbLine
 10
133.4896037519027
 20
-87.69145772525042
 30
0.0
 11
133.4896037519027
 21
-107.9491775945828
 31
0.0
  0
LINE
  5
199
330
1F
100
AcDbEntity
  8
1
  6
CONTINUOUS
 62
     4
100
AcDbLine
 10
78.48960375190279
 20
-178.2397097405206
 30
0.0
 11
81.48960375190276
 21
-178.2397097405206
 31
0.0
  0
LINE
  5
19A
330
1F
100
AcDbEntity
  8
1
  6
CONTINUOUS
 62
     4
100
AcDbLine
 10
81.48960375190276
 20
-178.2397097405206
 30
0.0
 11
81.48960375190276
 21
-182.5397097405206
 31
0.0
  0
LINE
  5
19B
330
1F
100
AcDbEntity
  8
1
  6
CONTINUOUS
 62
     4
100
AcDbLine
 10
81.48960375190276
 20
-202.2397097405206
 30
0.0
 11
78.48960375190285
 21
-202.2397097405206
 31
0.0
  0
LINE
  5
19C
330
1F
100
AcDbEntity
  8
1
  6
CONTINUOUS
 62
     4
100
AcDbLine
 10
78.48960375190285
 20
-202.2397097405206
 30
0.0
 11
78.48960375190279
 21
-196.5397097405206
 31
0.0
  0
LINE
  5
19D
330
1F
100
AcDbEntity
  8
1
  6
CONTINUOUS
 62
     4
100
AcDbLine
 10
78.48960375190279
 20
-184.5397097405206
 30
0.0
 11
68.48960375190279
 21
-184.5397097405206
 31
0.0
  0
LINE
  5
19E
330
1F
100
AcDbEntity
  8
1
  6
CONTINUOUS
 62
     4
100
AcDbLine
 10
78.48960375190279
 20
-184.5397097405206
 30
0.0
 11
78.48960375190279
 21
-178.2397097405206
 31
0.0
  0
LINE
  5
19F
330
1F
100
AcDbEntity
  8
1
  6
CONTINUOUS
 62
     4
100
AcDbLine
 10
68.48960375190279
 20
-184.5397097405206
 30
0.0
 11
68.48960375190279
 21
-187.5397097405206
 31
0.0
  0
LINE
  5
1A0
330
1F
100
AcDbEntity
  8
1
  6
CONTINUOUS
 62
     4
100
AcDbLine
 10
68.48960375190279
 20
-187.5397097405206
 30
0.0
 11
78.48960375190279
 21
-187.5397097405206
 31
0.0
  0
LINE
  5
1A1
330
1F
100
AcDbEntity
  8
1
  6
CONTINUOUS
 62
     4
100
AcDbLine
 10
78.48960375190279
 20
-187.5397097405206
 30
0.0
 11
78.48960375190279
 21
-184.5397097405206
 31
0.0
  0
LINE
  5
1A2
330
1F
100
AcDbEntity
  8
1
  6
CONTINUOUS
 62
     4
100
AcDbLine
 10
68.48960375190279
 20
-187.5397097405206
 30
0.0
 11
78.48960375190279
 21
-196.5397097405206
 31
0.0
  0
LINE
  5
1A3
330
1F
100
AcDbEntity
  8
1
  6
CONTINUOUS
 62
     4
100
AcDbLine
 10
78.48960375190279
 20
-196.5397097405206
 30
0.0
 11
78.48960375190279
 21
-187.5397097405206
 31
0.0
  0
LINE
  5
1A4
330
1F
100
AcDbEntity
  8
1
  6
CONTINUOUS
 62
     4
100
AcDbLine
 10
81.48960375190276
 20
-182.5397097405206
 30
0.0
 11
114.4896037519027
 21
-182.5397097405206
 31
0.0
  0
LINE
  5
1A5
330
1F
100
AcDbEntity
  8
1
  6
CONTINUOUS
 62
     4
100
AcDbLine
 10
81.48960375190276
 20
-182.5397097405206
 30
0.0
 11
81.48960375190276
 21
-195.5397097405206
 31
0.0
  0
LINE
  5
1A6
330
1F
100
AcDbEntity
  8
1
  6
CONTINUOUS
 62
     4
100
AcDbLine
 10
152.4896037519027
 20
-182.5397097405212
 30
0.0
 11
165.4896037519027
 21
-182.5397097405212
 31
0.0
  0
LINE
  5
1A7
330
1F
100
AcDbEntity
  8
1
  6
CONTINUOUS
 62
     4
100
AcDbLine
 10
81.48960375190276
 20
-195.5397097405206
 30
0.0
 11
114.4896037519027
 21
-195.5397097405206
 31
0.0
  0
LINE
  5
1A8
330
1F
100
AcDbEntity
  8
1
  6
CONTINUOUS
 62
     4
100
AcDbLine
 10
81.48960375190276
 20
-195.7397097405206
 30
0.0
 11
81.48960375190276
 21
-202.7397097405206
 31
0.0
  0
LINE
  5
1A9
330
1F
100
AcDbEntity
  8
1
  6
CONTINUOUS
 62
     4
100
AcDbLine
 10
152.4896037519027
 20
-195.5397097405212
 30
0.0
 11
165.4896037519027
 21
-195.5397097405212
 31
0.0
  0
LINE
  5
1AA
330
1F
100
AcDbEntity
  8
1
  6
CONTINUOUS
 62
     4
100
AcDbLine
 10
165.4896037519027
 20
-182.5397097405212
 30
0.0
 11
165.4896037519027
 21
-195.5397097405212
 31
0.0
  0
LINE
  5
1AB
330
1F
100
AcDbEntity
  8
1
  6
CONTINUOUS
 62
     4
100
AcDbLine
 10
114.4896037519027
 20
-182.5397097405206
 30
0.0
 11
115.2896037519026
 21
-181.7397097405209
 31
0.0
  0
LINE
  5
1AC
330
1F
100
AcDbEntity
  8
1
  6
CONTINUOUS
 62
     4
100
AcDbLine
 10
115.2896037519026
 20
-181.7397097405209
 30
0.0
 11
151.6896037519028
 21
-181.7397097405211
 31
0.0
  0
LINE
  5
1AD
330
1F
100
AcDbEntity
  8
1
  6
CONTINUOUS
 62
     4
100
AcDbLine
 10
152.4896037519027
 20
-182.5397097405212
 30
0.0
 11
151.6896037519028
 21
-181.7397097405211
 31
0.0
  0
LINE
  5
1AE
330
1F
100
AcDbEntity
  8
1
  6
CONTINUOUS
 62
     4
100
AcDbLine
 10
152.4896037519027
 20
-195.5397097405212
 30
0.0
 11
150.7896037519029
 21
-197.2397097405211
 31
0.0
  0
LINE
  5
1AF
330
1F
100
AcDbEntity
  8
1
  6
CONTINUOUS
 62
     4
100
AcDbLine
 10
114.4896037519027
 20
-195.5397097405206
 30
0.0
 11
116.189603751903
 21
-197.2397097405209
 31
0.0
  0
LINE
  5
1B0
330
1F
100
AcDbEntity
  8
1
  6
CONTINUOUS
 62
     4
100
AcDbLine
 10
116.189603751903
 20
-197.2397097405209
 30
0.0
 11
150.7896037519029
 21
-197.2397097405211
 31
0.0
  0
LINE
  5
1B1
330
1F
100
AcDbEntity
  8
1
  6
CONTINUOUS
 62
     4
100
AcDbLine
 10
114.4896037519027
 20
-182.5397097405206
 30
0.0
 11
152.4896037519027
 21
-182.5397097405212
 31
0.0
  0
LINE
  5
1B2
330
1F
100
AcDbEntity
  8
1
  6
CONTINUOUS
 62
     4
100
AcDbLine
 10
114.4896037519027
 20
-195.5397097405206
 30
0.0
 11
152.4896037519027
 21
-195.5397097405212
 31
0.0
  0
LINE
  5
1B3
330
1F
100
AcDbEntity
  8
1
  6
DOT_CENTER
 62
     3
100
AcDbLine
 10
133.4896037519027
 20
-179.4229060797829
 30
0.0
 11
133.4896037519027
 21
-199.6806259491153
 31
0.0
  0
LINE
  5
1B4
330
1F
100
AcDbEntity
  8
MK
  6
DOT_CENTER
 62
     3
100
AcDbLine
 10
274.2882962205232
 20
256.3428950000001
 30
0.0
 11
276.2882962205232
 21
256.3428950000001
 31
0.0
  0
LINE
  5
1B5
330
1F
100
AcDbEntity
  8
1
  6
DOT_CENTER
 62
     3
100
AcDbLine
 10
268.2882962205232
 20
233.842895
 30
0.0
 11
273.9382962205169
 21
233.842895
 31
0.0
  0
LINE
  5
1B6
330
1F
100
AcDbEntity
  8
MK
  6
DOT_CENTER
 62
     3
100
AcDbLine
 10
262.7882962205232
 20
256.3428950000001
 30
0.0
 11
274.2882962205232
 21
256.3428950000001
 31
0.0
  0
LINE
  5
1B7
330
1F
100
AcDbEntity
  8
MK
  6
DOT_CENTER
 62
     3
100
AcDbLine
 10
269.2882962205232
 20
250.8428950000001
 30
0.0
 11
269.2882962205232
 21
262.3428950000001
 31
0.0
  0
LINE
  5
1B8
330
1F
100
AcDbEntity
  8
MK
  6
DOT_CENTER
 62
     3
100
AcDbLine
 10
263.2882962205232
 20
231.1928949999911
 30
0.0
 11
263.2882962205232
 21
236.492894999994
 31
0.0
  0
LINE
  5
1B9
330
1F
100
AcDbEntity
  8
MK
  6
DOT_CENTER
 62
     3
100
AcDbLine
 10
263.2882962205232
 20
228.342895
 30
0.0
 11
263.2882962205232
 21
231.1928949999911
 31
0.0
  0
LINE
  5
1BA
330
1F
100
AcDbEntity
  8
MK
  6
DOT_CENTER
 62
     3
100
AcDbLine
 10
263.2882962205232
 20
236.492894999994
 30
0.0
 11
263.2882962205232
 21
239.8428950000001
 31
0.0
  0
LINE
  5
1BB
330
1F
100
AcDbEntity
  8
MK
  6
DOT_CENTER
 62
     3
100
AcDbLine
 10
274.2882962205232
 20
2.34289500000002
 30
0.0
 11
275.2882962205232
 21
2.34289500000002
 31
0.0
  0
LINE
  5
1BC
330
1F
100
AcDbEntity
  8
1
  6
DOT_CENTER
 62
     3
100
AcDbLine
 10
268.2882962205232
 20
24.84289500000002
 30
0.0
 11
258.638296220514
 21
24.84289500000002
 31
0.0
  0
LINE
  5
1BD
330
1F
100
AcDbEntity
  8
MK
  6
DOT_CENTER
 62
     3
100
AcDbLine
 10
262.7882962205232
 20
2.34289500000002
 30
0.0
 11
274.2882962205232
 21
2.34289500000002
 31
0.0
  0
LINE
  5
1BE
330
1F
100
AcDbEntity
  8
MK
  6
DOT_CENTER
 62
     3
100
AcDbLine
 10
269.2882962205232
 20
8.84289500000002
 30
0.0
 11
269.2882962205232
 21
-4.15710499999998
 31
0.0
  0
LINE
  5
1BF
330
1F
100
AcDbEntity
  8
MK
  6
DOT_CENTER
 62
     3
100
AcDbLine
 10
263.2882962205232
 20
31.34289500000002
 30
0.0
 11
263.2882962205232
 21
18.34289500000002
 31
0.0
  0
LINE
  5
1C0
330
1F
100
AcDbEntity
  8
1
  6
CONTINUOUS
 62
     3
100
AcDbLine
 10
283.6272083544069
 20
-10.65710499999998
 30
0.0
 11
266.2882962205232
 21
-10.65710499999998
 31
0.0
  0
LINE
  5
1C1
330
1F
100
AcDbEntity
  8
1
  6
CONTINUOUS
 62
     3
100
AcDbLine
 10
289.6075953837031
 20
269.3428950000001
 30
0.0
 11
266.2882962205232
 21
269.3428950000001
 31
0.0
  0
LINE
  5
1C2
330
1F
100
AcDbEntity
  8
1
  6
DOT_CENTER
 62
     3
100
AcDbLine
 10
273.9382962205169
 20
24.84289500000002
 30
0.0
 11
268.2882962205232
 21
24.84289500000002
 31
0.0
  0
LINE
  5
1C3
330
1F
100
AcDbEntity
  8
1
  6
DOT_CENTER
 62
     3
100
AcDbLine
 10
258.638296220514
 20
233.842895
 30
0.0
 11
268.2882962205232
 21
233.842895
 31
0.0
  0
LINE
  5
1C4
330
1F
100
AcDbEntity
  8
1
  6
CONTINUOUS
 62
     4
100
AcDbLine
 10
262.588296220526
 20
164.842895
 30
0.0
 11
262.588296220526
 21
161.842895
 31
0.0
  0
LINE
  5
1C5
330
1F
100
AcDbEntity
  8
1
  6
CONTINUOUS
 62
     4
100
AcDbLine
 10
271.588296220526
 20
165.842895
 30
0.0
 11
262.588296220526
 21
164.842895
 31
0.0
  0
LINE
  5
1C6
330
1F
100
AcDbEntity
  8
1
  6
CONTINUOUS
 62
     4
100
AcDbLine
 10
271.588296220526
 20
189.842895
 30
0.0
 11
271.588296220526
 21
165.842895
 31
0.0
  0
LINE
  5
1C7
330
1F
100
AcDbEntity
  8
1
  6
CONTINUOUS
 62
     4
100
AcDbLine
 10
262.588296220526
 20
190.842895
 30
0.0
 11
262.588296220526
 21
164.842895
 31
0.0
  0
LINE
  5
1C8
330
1F
100
AcDbEntity
  8
1
  6
CONTINUOUS
 62
     4
100
AcDbLine
 10
262.588296220526
 20
190.842895
 30
0.0
 11
271.588296220526
 21
189.842895
 31
0.0
  0
LINE
  5
1C9
330
1F
100
AcDbEntity
  8
1
  6
CONTINUOUS
 62
     4
100
AcDbLine
 10
259.588296220526
 20
161.842895
 30
0.0
 11
259.588296220526
 21
193.842895
 31
0.0
  0
LINE
  5
1CA
330
1F
100
AcDbEntity
  8
1
  6
CONTINUOUS
 62
     4
100
AcDbLine
 10
262.588296220526
 20
161.842895
 30
0.0
 11
259.588296220526
 21
161.842895
 31
0.0
  0
LINE
  5
1CB
330
1F
100
AcDbEntity
  8
1
  6
CONTINUOUS
 62
     4
100
AcDbLine
 10
262.588296220526
 20
193.842895
 30
0.0
 11
262.588296220526
 21
190.842895
 31
0.0
  0
LINE
  5
1CC
330
1F
100
AcDbEntity
  8
1
  6
CONTINUOUS
 62
     4
100
AcDbLine
 10
259.588296220526
 20
193.842895
 30
0.0
 11
262.588296220526
 21
193.842895
 31
0.0
  0
LINE
  5
1CD
330
1F
100
AcDbEntity
  8
1
  6
CONTINUOUS
 62
     4
100
AcDbLine
 10
276.2882962205232
 20
259.3428950000001
 30
0.0
 11
276.2882962205232
 21
-0.657105
 31
0.0
  0
LINE
  5
1CE
330
1F
100
AcDbEntity
  8
1
  6
CONTINUOUS
 62
     4
100
AcDbLine
 10
256.2882962205232
 20
259.3428950000001
 30
0.0
 11
256.2882962205232
 21
-0.657105
 31
0.0
  0
LINE
  5
1CF
330
1F
100
AcDbEntity
  8
1
  6
DOT_CENTER
 62
     3
100
AcDbLine
 10
269.813296220526
 20
57.84289500000002
 30
0.0
 11
259.3632962205262
 21
57.84289500000002
 31
0.0
  0
LINE
  5
1D0
330
1F
100
AcDbEntity
  8
1
  6
DOT_CENTER
 62
     3
100
AcDbLine
 10
264.5882962205261
 20
63.06789499999993
 30
0.0
 11
264.5882962205261
 21
52.61789499999988
 31
0.0
  0
LINE
  5
1D1
330
1F
100
AcDbEntity
  8
MK
  6
DOT_CENTER
 62
     3
100
AcDbLine
 10
74.98036275190276
 20
233.8428950000001
 30
0.0
 11
84.48960375190276
 21
233.8428950000001
 31
0.0
  0
LINE
  5
1D2
330
1F
100
AcDbEntity
  8
MK
  6
DOT_CENTER
 62
     3
100
AcDbLine
 10
74.98036275190276
 20
24.84289500000001
 30
0.0
 11
85.06386384333274
 21
24.84289500000001
 31
0.0
  0
LINE
  5
1D3
330
1F
100
AcDbEntity
  8
MK
  6
DOT_CENTER
 62
     3
100
AcDbLine
 10
384.6333711892662
 20
31.34289500000002
 30
0.0
 11
384.6333711892662
 21
18.34289500000002
 31
0.0
  0
LINE
  5
1D4
330
1F
100
AcDbEntity
  8
1
  6
DOT_CENTER
 62
     3
100
AcDbLine
 10
389.6333711892662
 20
24.84289500000002
 30
0.0
 11
379.983371189257
 21
24.84289500000002
 31
0.0
  0
LINE
  5
1D5
330
1F
100
AcDbEntity
  8
1
  6
DOT_CENTER
 62
     3
100
AcDbLine
 10
379.983371189257
 20
233.842895
 30
0.0
 11
389.6333711892662
 21
233.842895
 31
0.0
  0
LINE
  5
1D6
330
1F
100
AcDbEntity
  8
MK
  6
DOT_CENTER
 62
     3
100
AcDbLine
 10
384.6333711892662
 20
236.492894999994
 30
0.0
 11
384.6333711892662
 21
239.8428950000001
 31
0.0
  0
LINE
  5
1D7
330
1F
100
AcDbEntity
  8
MK
  6
DOT_CENTER
 62
     3
100
AcDbLine
 10
384.6333711892662
 20
228.342895
 30
0.0
 11
384.6333711892662
 21
231.1928949999911
 31
0.0
  0
LINE
  5
1D8
330
1F
100
AcDbEntity
  8
MK
  6
DOT_CENTER
 62
     3
100
AcDbLine
 10
384.6333711892662
 20
231.1928949999911
 30
0.0
 11
384.6333711892662
 21
236.492894999994
 31
0.0
  0
ARC
  5
1D9
330
1F
100
AcDbEntity
  8
1
  6
CONTINUOUS
 62
     4
100
AcDbCircle
 10
91.98960375190276
 20
166.342895
 30
0.0
 40
2.5
100
AcDbArc
 50
-90.0
 51
15.25219124256691
  0
ARC
  5
1DA
330
1F
100
AcDbEntity
  8
1
  6
CONTINUOUS
 62
     4
100
AcDbCircle
 10
130.0482027358962
 20
177.8411891897483
 30
0.0
 40
37.25859898399351
100
AcDbArc
 50
163.1846351203082
 51
-163.0847833326938
  0
ARC
  5
1DB
330
1F
100
AcDbEntity
  8
1
  6
CONTINUOUS
 62
     4
100
AcDbCircle
 10
91.98960375190276
 20
189.342895
 30
0.0
 40
2.499999999999943
100
AcDbArc
 50
-16.81536487969211
 51
90.0
  0
ARC
  5
1DC
330
1F
100
AcDbEntity
  8
1
  6
CONTINUOUS
 62
     4
100
AcDbCircle
 10
133.4896037519027
 20
76.84289500000003
 30
0.0
 40
8.650000000000006
100
AcDbArc
 50
0.0
 51
-126.5394211431528
  0
ARC
  5
1DD
330
1F
100
AcDbEntity
  8
1
  6
CONTINUOUS
 62
     4
100
AcDbCircle
 10
133.4896037519027
 20
76.84289500000003
 30
0.0
 40
8.650000000000016
100
AcDbArc
 50
-53.46057885684664
 51
0.0
  0
ARC
  5
1DE
330
1F
100
AcDbEntity
  8
VB
  6
CONTINUOUS
 62
     4
100
AcDbCircle
 10
133.4896037519027
 20
56.84289500000002
 30
0.0
 40
5.149999999999892
100
AcDbArc
 50
180.0
 51
0.0
  0
ARC
  5
1DF
330
1F
100
AcDbEntity
  8
1
  6
CONTINUOUS
 62
     4
100
AcDbCircle
 10
387.6333711892662
 20
257.3428950000001
 30
0.0
 40
12.0
100
AcDbArc
 50
0.0
 51
90.0
  0
ARC
  5
1E0
330
1F
100
AcDbEntity
  8
1
  6
CONTINUOUS
 62
     4
100
AcDbCircle
 10
387.6333711892662
 20
257.3428950000001
 30
0.0
 40
12.0
100
AcDbArc
 50
90.0
 51
180.0
  0
ARC
  5
1E1
330
1F
100
AcDbEntity
  8
1
  6
CONTINUOUS
 62
     4
100
AcDbCircle
 10
387.6333711892662
 20
1.34289499999998
 30
0.0
 40
12.0
100
AcDbArc
 50
179.9999999999999
 51
-90.0
  0
ARC
  5
1E2
330
1F
100
AcDbEntity
  8
1
  6
CONTINUOUS
 62
     4
100
AcDbCircle
 10
387.6333711892662
 20
1.34289499999998
 30
0.0
 40
12.0
100
AcDbArc
 50
-90.0
 51
0.00000000000009
  0
ARC
  5
1E3
330
1F
100
AcDbEntity
  8
BREIT-VOLL-LINIE
  6
CONTINUOUS
 62
     4
100
AcDbCircle
 10
263.2882962205232
 20
233.842895
 30
0.0
 40
2.650000000008902
100
AcDbArc
 50
-90.0
 51
90.0
  0
ARC
  5
1E4
330
1F
100
AcDbEntity
  8
BREIT-VOLL-LINIE
  6
CONTINUOUS
 62
     4
100
AcDbCircle
 10
263.2882962205232
 20
233.842895
 30
0.0
 40
2.649999999994009
100
AcDbArc
 50
90.0
 51
-90.0
  0
ARC
  5
1E5
330
1F
100
AcDbEntity
  8
1
  6
CONTINUOUS
 62
     4
100
AcDbCircle
 10
266.2882962205232
 20
-0.65710499999998
 30
0.0
 40
10.0
100
AcDbArc
 50
-90.0
 51
0.0
  0
ARC
  5
1E6
330
1F
100
AcDbEntity
  8
1
  6
CONTINUOUS
 62
     4
100
AcDbCircle
 10
266.2882962205232
 20
259.3428950000001
 30
0.0
 40
10.0
100
AcDbArc
 50
90.0
 51
180.0
  0
ARC
  5
1E7
330
1F
100
AcDbEntity
  8
1
  6
CONTINUOUS
 62
     4
100
AcDbCircle
 10
266.2882962205232
 20
-0.65710499999998
 30
0.0
 40
10.0
100
AcDbArc
 50
180.0
 51
-90.0
  0
ARC
  5
1E8
330
1F
100
AcDbEntity
  8
1
  6
CONTINUOUS
 62
     4
100
AcDbCircle
 10
266.2882962205232
 20
259.3428950000001
 30
0.0
 40
10.0
100
AcDbArc
 50
0.0
 51
90.0
  0
ARC
  5
1E9
330
1F
100
AcDbEntity
  8
BREIT-VOLL-LINIE
  6
CONTINUOUS
 62
     4
100
AcDbCircle
 10
384.6333711892662
 20
233.842895
 30
0.0
 40
2.649999999994009
100
AcDbArc
 50
90.0
 51
-90.0
  0
ARC
  5
1EA
330
1F
100
AcDbEntity
  8
BREIT-VOLL-LINIE
  6
CONTINUOUS
 62
     4
100
AcDbCircle
 10
384.6333711892662
 20
233.842895
 30
0.0
 40
2.650000000008902
100
AcDbArc
 50
-90.0
 51
90.0
  0
CIRCLE
  5
1EB
330
1F
100
AcDbEntity
  8
1
  6
CONTINUOUS
 62
     4
100
AcDbCircle
 10
133.4896037519027
 20
148.842895
 30
0.0
 40
2.650000000000006
  0
CIRCLE
  5
1EC
330
1F
100
AcDbEntity
  8
1
  6
CONTINUOUS
 62
     4
100
AcDbCircle
 10
133.4896037519027
 20
194.842895
 30
0.0
 40
4.0
  0
CIRCLE
  5
1ED
330
1F
100
AcDbEntity
  8
1
  6
CONTINUOUS
 62
     4
100
AcDbCircle
 10
133.4896037519027
 20
127.342895
 30
0.0
 40
4.0
  0
CIRCLE
  5
1EE
330
1F
100
AcDbEntity
  8
1
  6
CONTINUOUS
 62
     4
100
AcDbCircle
 10
114.4896037519027
 20
68.84289500000003
 30
0.0
 40
4.0
  0
CIRCLE
  5
1EF
330
1F
100
AcDbEntity
  8
1
  6
CONTINUOUS
 62
     4
100
AcDbCircle
 10
152.4896037519027
 20
68.84289500000003
 30
0.0
 40
4.0
  0
CIRCLE
  5
1F0
330
1F
100
AcDbEntity
  8
1
  6
CONTINUOUS
 62
     4
100
AcDbCircle
 10
152.4896037519027
 20
148.842895
 30
0.0
 40
4.0
  0
CIRCLE
  5
1F1
330
1F
100
AcDbEntity
  8
1
  6
CONTINUOUS
 62
     4
100
AcDbCircle
 10
114.4896037519027
 20
148.842895
 30
0.0
 40
4.0
  0
CIRCLE
  5
1F2
330
1F
100
AcDbEntity
  8
1
  6
CONTINUOUS
 62
     4
100
AcDbCircle
 10
133.4896037519027
 20
148.842895
 30
0.0
 40
10.75
  0
CIRCLE
  5
1F3
330
1F
100
AcDbEntity
  8
1
  6
CONTINUOUS
 62
     4
100
AcDbCircle
 10
386.6333711892662
 20
57.84289499999999
 30
0.0
 40
4.75
  0
CIRCLE
  5
1F4
330
1F
100
AcDbEntity
  8
1
  6
CONTINUOUS
 62
     4
100
AcDbCircle
 10
386.6333711892662
 20
57.84289499999999
 30
0.0
 40
3.0
  0
CIRCLE
  5
1F5
330
1F
100
AcDbEntity
  8
1
  6
CONTINUOUS
 62
     4
100
AcDbCircle
 10
390.6333711892663
 20
2.34289499999998
 30
0.0
 40
4.25
  0
CIRCLE
  5
1F6
330
1F
100
AcDbEntity
  8
1
  6
CONTINUOUS
 62
     4
100
AcDbCircle
 10
390.6333711892663
 20
256.3428950000001
 30
0.0
 40
4.25
  0
CIRCLE
  5
1F7
330
1F
100
AcDbEntity
  8
1
  6
CONTINUOUS
 62
     4
100
AcDbCircle
 10
390.6333711892663
 20
2.34289499999998
 30
0.0
 40
2.650000000000205
  0
CIRCLE
  5
1F8
330
1F
100
AcDbEntity
  8
1
  6
CONTINUOUS
 62
     4
100
AcDbCircle
 10
390.6333711892663
 20
256.3428950000001
 30
0.0
 40
2.650000000000205
  0
CIRCLE
  5
1F9
330
1F
100
AcDbEntity
  8
1
  6
CONTINUOUS
 62
     4
100
AcDbCircle
 10
269.2882962205232
 20
256.3428950000001
 30
0.0
 40
5.0
  0
CIRCLE
  5
1FA
330
1F
100
AcDbEntity
  8
1
  6
CONTINUOUS
 62
     4
100
AcDbCircle
 10
263.2882962205232
 20
233.842895
 30
0.0
 40
5.0
  0
CIRCLE
  5
1FB
330
1F
100
AcDbEntity
  8
BREIT-VOLL-LINIE
  6
CONTINUOUS
 62
     4
100
AcDbCircle
 10
269.2882962205232
 20
256.3428950000001
 30
0.0
 40
2.649999999993725
  0
CIRCLE
  5
1FC
330
1F
100
AcDbEntity
  8
1
  6
CONTINUOUS
 62
     4
100
AcDbCircle
 10
269.2882962205232
 20
2.34289500000002
 30
0.0
 40
5.0
  0
CIRCLE
  5
1FD
330
1F
100
AcDbEntity
  8
1
  6
CONTINUOUS
 62
     4
100
AcDbCircle
 10
263.2882962205232
 20
24.84289500000002
 30
0.0
 40
5.0
  0
CIRCLE
  5
1FE
330
1F
100
AcDbEntity
  8
BREIT-VOLL-LINIE
  6
CONTINUOUS
 62
     4
100
AcDbCircle
 10
269.2882962205232
 20
2.34289500000002
 30
0.0
 40
2.649999999993725
  0
CIRCLE
  5
1FF
330
1F
100
AcDbEntity
  8
BREIT-VOLL-LINIE
  6
CONTINUOUS
 62
     4
100
AcDbCircle
 10
263.2882962205232
 20
24.84289500000002
 30
0.0
 40
2.649999999993725
  0
CIRCLE
  5
200
330
1F
100
AcDbEntity
  8
1
  6
CONTINUOUS
 62
     4
100
AcDbCircle
 10
264.5882962205261
 20
57.84289500000002
 30
0.0
 40
4.75
  0
CIRCLE
  5
201
330
1F
100
AcDbEntity
  8
1
  6
CONTINUOUS
 62
     4
100
AcDbCircle
 10
264.5882962205261
 20
57.84289500000002
 30
0.0
 40
3.0
  0
CIRCLE
  5
202
330
1F
100
AcDbEntity
  8
BREIT-VOLL-LINIE
  6
CONTINUOUS
 62
     4
100
AcDbCircle
 10
384.6333711892662
 20
24.84289500000002
 30
0.0
 40
2.649999999993725
  0
CIRCLE
  5
203
330
1F
100
AcDbEntity
  8
1
  6
CONTINUOUS
 62
     4
100
AcDbCircle
 10
384.6333711892662
 20
24.84289500000002
 30
0.0
 40
5.0
  0
CIRCLE
  5
204
330
1F
100
AcDbEntity
  8
1
  6
CONTINUOUS
 62
     4
100
AcDbCircle
 10
384.6333711892662
 20
233.842895
 30
0.0
 40
5.0
  0
MTEXT
  5
205
330
1F
100
AcDbEntity
  8
1
 62
     2
100
AcDbMText
 10
89.25942419060576
 20
-142.298353534232
 30
0.0
 40
8.75
 41
0.0
 71
     5
 72
     1
  1
min
  7
CONVERTER_1
 11
6.123031769111886E-17
 21
1.0
 31
0.0
1001
ACAD
1000
MTEXTBEGIN
1070
    44
1040
1.32052821128451
1000
MTEXTEND
  0
MTEXT
  5
206
330
1F
100
AcDbEntity
  8
1
 62
     2
100
AcDbMText
 10
88.28354513561675
 20
-53.28398294373106
 30
0.0
 40
8.75
 41
0.0
 71
     5
 72
     1
  1
min
  7
CONVERTER_1
 11
6.123031769111886E-17
 21
1.0
 31
0.0
1001
ACAD
1000
MTEXTBEGIN
1070
    44
1040
1.32052821128451
1000
MTEXTEND
  0
MTEXT
  5
207
330
1F
100
AcDbEntity
  8
1
 62
     2
100
AcDbMText
 10
242.1975011700586
 20
329.9104384058413
 30
0.0
 40
8.75
 41
0.0
 71
     4
 72
     1
  1
überfälzt\P17476SP\P17476SK
  7
CONVERTER_1
1001
ACAD
1000
MTEXTBEGIN
1070
    44
1040
1.32052821128451
1000
MTEXTEND
  0
MTEXT
  5
208
330
1F
100
AcDbEntity
  8
1
 62
     2
100
AcDbMText
 10
368.094989229206
 20
330.1036385058868
 30
0.0
 40
8.75
 41
0.0
 71
     4
 72
     1
  1
stumpf\P17576SP\P17576SK
  7
CONVERTER_1
1001
ACAD
1000
MTEXTBEGIN
1070
    44
1040
1.32052821128451
1000
MTEXTEND
  0
MTEXT
  5
209
330
1F
100
AcDbEntity
  8
1
 62
     2
100
AcDbMText
 10
230.5957229273816
 20
-97.55738601811925
 30
0.0
 40
8.75
 41
0.0
 71
     5
 72
     1
  1
überfälzt
  7
CONVERTER_1
1001
ACAD
1000
MTEXTBEGIN
1070
    44
1040
1.32052821128451
1000
MTEXTEND
  0
MTEXT
  5
20A
330
1F
100
AcDbEntity
  8
1
 62
     2
100
AcDbMText
 10
221.5135883032847
 20
-189.3566843056461
 30
0.0
 40
8.75
 41
0.0
 71
     5
 72
     1
  1
stumpf
  7
CONVERTER_1
1001
ACAD
1000
MTEXTBEGIN
1070
    44
1040
1.32052821128451
1000
MTEXTEND
  0
DIMENSION
  5
217
330
1F
100
AcDbEntity
  8
1
100
AcDbDimension
  2
*D03
 10
68.48960375190276
 20
208.296792756518
 30
0.0
 11
50.99962704675126
 21
215.171792756518
 31
0.0
  1
<>
 53
0.00013888888889
  3
ME10_DIM_0
100
AcDbAlignedDimension
 13
78.48960375190276
 23
269.3428950000001
 33
0.0
 14
68.48960375190276
 24
193.842895
 34
0.0
100
AcDbRotatedDimension
  0
DIMENSION
  5
222
330
1F
100
AcDbEntity
  8
1
100
AcDbDimension
  2
*D14
 10
431.005596814948
 20
269.3428950000001
 30
0.0
 11
423.693096814948
 21
253.122699239528
 31
0.0
  1
<>
 53
90.0
  3
ME10_DIM_1
100
AcDbAlignedDimension
 13
389.6333711892662
 23
233.842895
 33
0.0
 14
387.6333711892662
 24
269.3428950000001
 34
0.0
 50
90.0
100
AcDbRotatedDimension
  0
DIMENSION
  5
22D
330
1F
100
AcDbEntity
  8
1
100
AcDbDimension
  2
*D25
 10
431.005596814948
 20
-10.65710500000002
 30
0.0
 11
423.693096814948
 21
6.60745614528396
 31
0.0
  1
<>
 53
90.0
  3
ME10_DIM_2
100
AcDbAlignedDimension
 13
389.6333711892662
 23
24.84289500000002
 33
0.0
 14
387.6333711892662
 24
-10.65710500000002
 34
0.0
 50
90.0
100
AcDbRotatedDimension
  0
DIMENSION
  5
23A
330
1F
100
AcDbEntity
  8
1
100
AcDbDimension
  2
*D36
 10
375.6333711892663
 20
246.247699239528
 30
0.0
 11
362.929589156772
 21
253.122699239528
 31
0.0
  1
<>
 53
0.00013888888889
  3
ME10_DIM_3
100
AcDbAlignedDimension
 13
384.6333711892662
 23
239.8428950000001
 33
0.0
 14
375.6333711892662
 24
257.3428950000001
 34
0.0
100
AcDbRotatedDimension
  0
DIMENSION
  5
247
330
1F
100
AcDbEntity
  8
1
100
AcDbDimension
  2
*D47
 10
399.6333711892662
 20
288.166827940422
 30
0.0
 11
394.849659635434
 21
295.041827940422
 31
0.0
  1
<>
 53
0.00013888888889
  3
ME10_DIM_4
100
AcDbAlignedDimension
 13
390.6333711892663
 23
263.9928950000001
 33
0.0
 14
399.6333711892662
 24
257.3428950000001
 34
0.0
100
AcDbRotatedDimension
  0
DIMENSION
  5
254
330
1F
100
AcDbEntity
  8
1
100
AcDbDimension
  2
*D58
 10
256.2882962205233
 20
-37.87749570569488
 30
0.0
 11
265.29463984233
 21
-31.00249570569488
 31
0.0
  1
<>
 53
0.00013888888889
  3
ME10_DIM_5
100
AcDbAlignedDimension
 13
276.2882962205232
 23
-0.65710499999998
 33
0.0
 14
256.2882962205232
 24
-0.65710499999998
 34
0.0
100
AcDbRotatedDimension
  0
DIMENSION
  5
25F
330
1F
100
AcDbEntity
  8
1
100
AcDbDimension
  2
*D69
 10
78.48960375190276
 20
-37.87749570569488
 30
0.0
 11
106.124965158794
 21
-31.00249570569488
 31
0.0
  1
DornmaÞ
 53
0.00013888888889
  3
ME10_DIM_6
100
AcDbAlignedDimension
 13
133.4896037519027
 23
46.84289500000001
 33
0.0
 14
78.48960375190276
 24
-10.65710500000001
 34
0.0
100
AcDbRotatedDimension
  0
DIMENSION
  5
26A
330
1F
100
AcDbEntity
  8
1
100
AcDbDimension
  2
*D710
 10
133.4896037519027
 20
-37.87749570569488
 30
0.0
 11
149.4896037519027
 21
-31.00249570569488
 31
0.0
  1
<>
 53
0.00013888888889
  3
ME10_DIM_7
100
AcDbAlignedDimension
 13
165.4896037519027
 23
54.84289500000002
 33
0.0
 14
133.4896037519027
 24
46.84289500000001
 34
0.0
100
AcDbRotatedDimension
  0
DIMENSION
  5
275
330
1F
100
AcDbEntity
  8
1
100
AcDbDimension
  2
*D811
 10
202.0111710717158
 20
46.84289500000001
 30
0.0
 11
195.1361710717158
 21
62.95651619448213
 31
0.0
  1
<>
 53
90.0
  3
ME10_DIM_8
100
AcDbAlignedDimension
 13
144.6025642421087
 23
76.84289500000003
 33
0.0
 14
157.4896037519027
 24
46.84289500000001
 34
0.0
 50
90.0
100
AcDbRotatedDimension
  0
DIMENSION
  5
280
330
1F
100
AcDbEntity
  8
1
100
AcDbDimension
  2
*D912
 10
202.0111710717158
 20
76.842895
 30
0.0
 11
195.1361710717158
 21
109.798710833932
 31
0.0
  1
<>
 53
90.0
  3
ME10_DIM_9
100
AcDbAlignedDimension
 13
161.4896037519027
 23
148.842895
 33
0.0
 14
144.6025642421087
 24
76.84289500000003
 34
0.0
 50
90.0
100
AcDbRotatedDimension
  0
DIMENSION
  5
28D
330
1F
100
AcDbEntity
  8
1
100
AcDbDimension
  2
*D1013
 10
186.5557836047597
 20
127.342895
 30
0.0
 11
179.2432836047597
 21
138.029497781814
 31
0.0
  1
<>
 53
90.0
  3
ME10_DIM_10
100
AcDbAlignedDimension
 13
161.4896037519027
 23
148.842895
 33
0.0
 14
138.0753297764817
 24
127.342895
 34
0.0
 50
90.0
100
AcDbRotatedDimension
  0
DIMENSION
  5
298
330
1F
100
AcDbEntity
  8
1
100
AcDbDimension
  2
*D1114
 10
186.5365174854688
 20
148.842895
 30
0.0
 11
179.6615174854688
 21
171.697325178919
 31
0.0
  1
<>
 53
90.0
  3
ME10_DIM_11
100
AcDbAlignedDimension
 13
142.4896037519027
 23
194.842895
 33
0.0
 14
161.4896037519027
 24
148.842895
 34
0.0
 50
90.0
100
AcDbRotatedDimension
  0
DIMENSION
  5
2A3
330
1F
100
AcDbEntity
  8
1
100
AcDbDimension
  2
*D1215
 10
36.58984096763837
 20
-10.65710500000002
 30
0.0
 11
29.27734096763837
 21
17.28899805629472
 31
0.0
  1
<>
 53
90.0
  3
ME10_DIM_12
100
AcDbAlignedDimension
 13
81.48960375190276
 23
46.84289500000003
 33
0.0
 14
78.48960375190276
 24
-10.65710500000001
 34
0.0
 50
90.0
100
AcDbRotatedDimension
  0
DIMENSION
  5
2AE
330
1F
100
AcDbEntity
  8
1
100
AcDbDimension
  2
*D1316
 10
36.58984096763837
 20
161.842895
 30
0.0
 11
29.71484096763837
 21
177.842895
 31
0.0
  1
<>
 53
90.0
  3
ME10_DIM_13
100
AcDbAlignedDimension
 13
68.48960375190276
 23
193.842895
 33
0.0
 14
68.48960375190276
 24
161.842895
 34
0.0
 50
90.0
100
AcDbRotatedDimension
  0
DIMENSION
  5
2B9
330
1F
100
AcDbEntity
  8
1
100
AcDbDimension
  2
*D1417
 10
36.61071250568995
 20
46.84289499999998
 30
0.0
 11
29.73571250568995
 21
105.133971727473
 31
0.0
  1
<>
 53
90.0
  3
ME10_DIM_14
100
AcDbAlignedDimension
 13
68.48960375190276
 23
161.842895
 33
0.0
 14
81.48960375190276
 24
46.84289500000003
 34
0.0
 50
90.0
100
AcDbRotatedDimension
  0
DIMENSION
  5
2C6
330
1F
100
AcDbEntity
  8
1
100
AcDbDimension
  2
*D1518
 10
128.9896037519027
 20
170.451502987868
 30
0.0
 11
133.516207464445
 21
177.326502987868
 31
0.0
  1
<>
 53
0.00013888888889
  3
ME10_DIM_15
100
AcDbAlignedDimension
 13
137.9896037519027
 23
153.342895
 33
0.0
 14
128.9896037519027
 24
153.342895
 34
0.0
100
AcDbRotatedDimension
  0
DIMENSION
  5
2D1
330
1F
100
AcDbEntity
  8
1
100
AcDbDimension
  2
*D1619
 10
114.4896037519027
 20
91.39109202911402
 30
0.0
 11
133.4896037519027
 21
98.26609202911402
 31
0.0
  1
<>
 53
0.00013888888889
  3
ME10_DIM_16
100
AcDbAlignedDimension
 13
152.4896037519027
 23
77.84289500000003
 33
0.0
 14
114.4896037519027
 24
77.84289500000003
 34
0.0
100
AcDbRotatedDimension
  0
DIMENSION
  5
2DC
330
1F
100
AcDbEntity
  8
1
100
AcDbDimension
  2
*D1720
 10
216.6493568965437
 20
46.84289500000001
 30
0.0
 11
209.7743568965437
 21
125.691598300888
 31
0.0
  1
<>
 53
90.0
  3
ME10_DIM_17
100
AcDbAlignedDimension
 13
157.4896037519027
 23
211.842895
 33
0.0
 14
157.4896037519027
 24
46.84289500000001
 34
0.0
 50
90.0
100
AcDbRotatedDimension
  0
DIMENSION
  5
2E9
330
1F
100
AcDbEntity
  8
1
100
AcDbDimension
  2
*D1821
 10
186.9547513661788
 20
68.84289500000001
 30
0.0
 11
180.0797513661788
 21
72.36677851044291
 31
0.0
  1
<>
 53
90.0
  3
ME10_DIM_18
100
AcDbAlignedDimension
 13
144.6025642421087
 23
76.84289500000003
 33
0.0
 14
161.4896037519027
 24
68.84289500000003
 34
0.0
 50
90.0
100
AcDbRotatedDimension
  0
DIMENSION
  5
2F6
330
1F
100
AcDbEntity
  8
1
100
AcDbDimension
  2
*D1922
 10
56.31614456001235
 20
161.842895
 30
0.0
 11
49.00364456001235
 21
150.169989019713
 31
0.0
  1
<>
 53
90.0
  3
ME10_DIM_19
100
AcDbAlignedDimension
 13
67.98960375190276
 23
139.342895
 33
0.0
 14
68.48960375190276
 24
161.842895
 34
0.0
 50
90.0
100
AcDbRotatedDimension
  0
DIMENSION
  5
301
330
1F
100
AcDbEntity
  8
1
100
AcDbDimension
  2
*D2023
 10
446.335842473082
 20
269.3428950000001
 30
0.0
 11
439.460842473082
 21
143.90221711977
 31
0.0
  1
<>
 53
90.0
  3
ME10_DIM_20
100
AcDbAlignedDimension
 13
405.6722833231571
 23
-10.65710500000002
 33
0.0
 14
411.6526703524452
 24
269.3428950000001
 34
0.0
 50
90.0
100
AcDbRotatedDimension
  0
DIMENSION
  5
30E
330
1F
100
AcDbEntity
  8
1
100
AcDbDimension
  2
*D2124
 10
414.031192832026
 20
269.3428950000001
 30
0.0
 11
407.156192832026
 21
262.6214604575381
 31
0.0
  1
<>
 53
90.0
  3
ME10_DIM_21
100
AcDbAlignedDimension
 13
398.9833711892663
 23
256.3428950000001
 33
0.0
 14
387.6333711892662
 24
269.3428950000001
 34
0.0
 50
90.0
100
AcDbRotatedDimension
  0
DIMENSION
  5
31B
330
1F
100
AcDbEntity
  8
1
100
AcDbDimension
  2
*D2225
 10
414.031192832026
 20
-10.65710500000002
 30
0.0
 11
407.156192832026
 21
-3.7064793544405
 31
0.0
  1
<>
 53
90.0
  3
ME10_DIM_22
100
AcDbAlignedDimension
 13
398.2833711892665
 23
2.34289499999998
 33
0.0
 14
405.6722833231571
 24
-10.65710500000002
 34
0.0
 50
90.0
100
AcDbRotatedDimension
  0
DIMENSION
  5
328
330
1F
100
AcDbEntity
  8
1
100
AcDbDimension
  2
*D2326
 10
381.6333711892662
 20
202.630580352148
 30
0.0
 11
387.8030620374211
 21
209.505580352148
 31
0.0
  1
<>
 53
0.00013888888889
  3
ME10_DIM_23
100
AcDbAlignedDimension
 13
393.6333711892662
 23
165.842895
 33
0.0
 14
381.6333711892662
 24
161.842895
 34
0.0
100
AcDbRotatedDimension
  0
DIMENSION
  5
335
330
1F
100
AcDbEntity
  8
1
100
AcDbDimension
  2
*D2427
 10
375.6333711892662
 20
-37.87749570569488
 30
0.0
 11
388.065351875003
 21
-31.00249570569488
 31
0.0
  1
<>
 53
0.00013888888889
  3
ME10_DIM_24
100
AcDbAlignedDimension
 13
399.6333711892662
 23
1.342895
 33
0.0
 14
375.6333711892662
 24
1.342895
 34
0.0
100
AcDbRotatedDimension
  0
DIMENSION
  5
342
330
1F
100
AcDbEntity
  8
1
100
AcDbDimension
  2
*D2528
 10
375.6333711892662
 20
223.051562784178
 30
0.0
 11
361.755938524397
 21
229.926562784178
 31
0.0
  1
<>
 53
0.00013888888889
  3
ME10_DIM_25
100
AcDbAlignedDimension
 13
381.6333711892662
 23
193.842895
 33
0.0
 14
375.6333711892662
 24
257.3428950000001
 34
0.0
100
AcDbRotatedDimension
  0
DIMENSION
  5
34F
330
1F
100
AcDbEntity
  8
1
100
AcDbDimension
  2
*D2629
 10
96.04874721534176
 20
-89.50826138598814
 30
0.0
 11
88.73624721534176
 21
-70.22391554667462
 31
0.0
  1
<>
 53
90.0
  3
ME10_DIM_26
100
AcDbAlignedDimension
 13
115.2896037519026
 23
-90.00826138598836
 33
0.0
 14
81.48960375190276
 24
-89.50826138598814
 34
0.0
 50
90.0
100
AcDbRotatedDimension
  0
DIMENSION
  5
35C
330
1F
100
AcDbEntity
  8
1
100
AcDbDimension
  2
*D2730
 10
189.8754458877748
 20
-90.00826138598865
 30
0.0
 11
182.5629458877748
 21
-69.89119675705602
 31
0.0
  1
<>
 53
90.0
  3
ME10_DIM_27
100
AcDbAlignedDimension
 13
150.7896037519029
 23
-105.5082613859886
 33
0.0
 14
151.6896037519028
 24
-90.00826138598862
 34
0.0
 50
90.0
100
AcDbRotatedDimension
  0
DIMENSION
  5
369
330
1F
100
AcDbEntity
  8
1
100
AcDbDimension
  2
*D2831
 10
78.48960375190278
 20
-121.8495927503706
 30
0.0
 11
64.94685375761446
 21
-114.9745927503706
 31
0.0
  1
<>
 53
0.00013888888889
  3
ME10_DIM_28
100
AcDbAlignedDimension
 13
81.48960375190276
 23
-109.5082613859881
 33
0.0
 14
78.48960375190279
 24
-109.5082613859882
 34
0.0
100
AcDbRotatedDimension
  0
DIMENSION
  5
376
330
1F
100
AcDbEntity
  8
1
100
AcDbDimension
  2
*D2932
 10
96.04874721534176
 20
-178.2397097405206
 30
0.0
 11
88.73624721534176
 21
-158.9553639012071
 31
0.0
  1
<>
 53
90.0
  3
ME10_DIM_29
100
AcDbAlignedDimension
 13
115.2896037519026
 23
-181.7397097405209
 33
0.0
 14
81.48960375190276
 24
-178.2397097405206
 34
0.0
 50
90.0
100
AcDbRotatedDimension
  0
DIMENSION
  5
383
330
1F
100
AcDbEntity
  8
1
100
AcDbDimension
  2
*D3033
 10
78.48960375190286
 20
-213.5810411049031
 30
0.0
 11
64.94685375761455
 21
-206.7060411049031
 31
0.0
  1
<>
 53
0.00013888888889
  3
ME10_DIM_30
100
AcDbAlignedDimension
 13
81.48960375190276
 23
-202.2397097405206
 33
0.0
 14
78.48960375190285
 24
-202.2397097405206
 34
0.0
100
AcDbRotatedDimension
  0
DIMENSION
  5
390
330
1F
100
AcDbEntity
  8
1
100
AcDbDimension
  2
*D3134
 10
189.8754458877748
 20
-181.7397097405211
 30
0.0
 11
182.5629458877748
 21
-161.6226451115885
 31
0.0
  1
<>
 53
90.0
  3
ME10_DIM_31
100
AcDbAlignedDimension
 13
150.7896037519029
 23
-197.2397097405211
 33
0.0
 14
151.6896037519028
 24
-181.7397097405211
 34
0.0
 50
90.0
100
AcDbRotatedDimension
  0
DIMENSION
  5
39D
330
1F
100
AcDbEntity
  8
1
100
AcDbDimension
  2
*D3235
 10
276.2882962205221
 20
286.7797008200201
 30
0.0
 11
272.7106435120128
 21
293.6547008200201
 31
0.0
  1
<>
 53
0.00013888888889
  3
ME10_DIM_32
100
AcDbAlignedDimension
 13
269.2882962205232
 23
262.3428950000001
 33
0.0
 14
276.2882962205232
 24
259.3428950000001
 34
0.0
100
AcDbRotatedDimension
  0
DIMENSION
  5
3AA
330
1F
100
AcDbEntity
  8
1
100
AcDbDimension
  2
*D3336
 10
256.2882962205232
 20
243.5300279764079
 30
0.0
 11
238.7854414190889
 21
250.4050279764079
 31
0.0
  1
<>
 53
0.00013888888889
  3
ME10_DIM_33
100
AcDbAlignedDimension
 13
263.2882962205232
 23
239.8428950000001
 33
0.0
 14
256.2882962205232
 24
259.3428950000001
 34
0.0
100
AcDbRotatedDimension
  0
DIMENSION
  5
3B7
330
1F
100
AcDbEntity
  8
1
100
AcDbDimension
  2
*D3437
 10
296.9809815429768
 20
269.3428949999999
 30
0.0
 11
290.1059815429768
 21
262.664782436116
 31
0.0
  1
<>
 53
90.0
  3
ME10_DIM_34
100
AcDbAlignedDimension
 13
276.2882962205232
 23
256.3428950000001
 33
0.0
 14
266.2882962205232
 24
269.3428950000001
 34
0.0
 50
90.0
100
AcDbRotatedDimension
  0
DIMENSION
  5
3C4
330
1F
100
AcDbEntity
  8
1
100
AcDbDimension
  2
*D3538
 10
296.8641541243538
 20
-10.65710499999996
 30
0.0
 11
289.9891541243538
 21
-3.57017707077305
 31
0.0
  1
<>
 53
90.0
  3
ME10_DIM_35
100
AcDbAlignedDimension
 13
274.2882962205232
 23
2.34289500000002
 33
0.0
 14
266.2882962205232
 24
-10.65710499999998
 34
0.0
 50
90.0
100
AcDbRotatedDimension
  0
DIMENSION
  5
3D1
330
1F
100
AcDbEntity
  8
1
100
AcDbDimension
  2
*D3639
 10
259.5882962205242
 20
202.6305803521439
 30
0.0
 11
265.7579870686791
 21
209.5055803521439
 31
0.0
  1
<>
 53
0.00013888888889
  3
ME10_DIM_36
100
AcDbAlignedDimension
 13
271.588296220526
 23
165.842895
 33
0.0
 14
259.588296220526
 24
161.842895
 34
0.0
100
AcDbRotatedDimension
  0
DIMENSION
  5
3DE
330
1F
100
AcDbEntity
  8
1
100
AcDbDimension
  2
*D3740
 10
256.2882962205228
 20
221.6409558051289
 30
0.0
 11
238.7819017629269
 21
228.9534558051289
 31
0.0
  1
<>
 53
0.00013888888889
  3
ME10_DIM_37
100
AcDbAlignedDimension
 13
259.588296220526
 23
193.842895
 33
0.0
 14
256.2882962205232
 24
259.3428950000001
 34
0.0
100
AcDbRotatedDimension
  0
DIMENSION
  5
3E9
330
1F
100
AcDbEntity
  8
1
100
AcDbDimension
  2
*D3841
 10
316.224055426878
 20
-10.65710500000079
 30
0.0
 11
308.911555426878
 21
6.99956023397001
 31
0.0
  1
<>
 53
90.0
  3
ME10_DIM_38
100
AcDbAlignedDimension
 13
273.9382962205169
 23
24.84289500000002
 33
0.0
 14
283.6272083544069
 24
-10.65710499999998
 34
0.0
 50
90.0
100
AcDbRotatedDimension
  0
DIMENSION
  5
3F4
330
1F
100
AcDbEntity
  8
1
100
AcDbDimension
  2
*D3942
 10
315.9582978711998
 20
269.3428950000001
 30
0.0
 11
308.6457978711998
 21
250.5660290576041
 31
0.0
  1
<>
 53
90.0
  3
ME10_DIM_39
100
AcDbAlignedDimension
 13
273.9382962205169
 23
233.842895
 33
0.0
 14
266.2882962205232
 24
269.3428950000001
 34
0.0
 50
90.0
100
AcDbRotatedDimension
  0
DIMENSION
  5
3FF
330
1F
100
AcDbEntity
  8
1
100
AcDbDimension
  2
*D4043
 10
329.285617444351
 20
269.3428949999998
 30
0.0
 11
322.410617444351
 21
128.7679145295661
 31
0.0
  1
<>
 53
90.0
  3
ME10_DIM_40
100
AcDbAlignedDimension
 13
283.6272083544069
 23
-10.65710499999998
 33
0.0
 14
289.6075953837031
 24
269.3428950000001
 34
0.0
 50
90.0
100
AcDbRotatedDimension
  0
ENDSEC
  0
SECTION
  2
OBJECTS
  0
DICTIONARY
  5
C
330
0
100
AcDbDictionary
  3
ACAD_GROUP
350
D
  3
ACAD_LAYOUT
350
1A
  3
ACAD_MLINESTYLE
350
17
  3
ACAD_PLOTSETTINGS
350
19
  3
ACAD_TABLESTYLE
350
2A
  3
ACDBHEADERROUNDTRIPXREC
350
400
  3
ACDBVARIABLEDICTIONARY
350
2C
  0
DICTIONARY
  5
420
330
29
100
AcDbDictionary
280
     1
  3
ACAD_XREC_ROUNDTRIP
360
421
  0
DICTIONARY
  5
D
102
{ACAD_REACTORS
330
C
102
}
330
C
100
AcDbDictionary
  0
DICTIONARY
  5
1A
102
{ACAD_REACTORS
330
C
102
}
330
C
100
AcDbDictionary
  0
DICTIONARY
  5
17
102
{ACAD_REACTORS
330
C
102
}
330
C
100
AcDbDictionary
  3
STANDARD
350
18
  0
DICTIONARY
  5
19
102
{ACAD_REACTORS
330
C
102
}
330
C
100
AcDbDictionary
  0
DICTIONARY
  5
2A
102
{ACAD_REACTORS
330
C
102
}
330
C
100
AcDbDictionary
  3
STANDARD
350
2B
  0
DICTIONARY
  5
400
102
{ACAD_REACTORS
330
C
102
}
330
C
100
AcDbDictionary
  3
CEPSNTYPE
350
409
  3
DIMSTYLEDATA
350
41F
  3
FINGERPRINTGUID
350
40A
  3
HYPERLINKBASE
350
403
  3
INSUNITS
350
408
  3
LAYOUTDICT
350
405
  3
LWETCUNION
350
407
  3
PLOTSETDICT
350
406
  3
PSVPSCALE
350
40C
  3
PUCSBASE
350
40F
  3
PUCSORGBACK
350
415
  3
PUCSORGBOTTOM
350
411
  3
PUCSORGFRONT
350
414
  3
PUCSORGLEFT
350
412
  3
PUCSORGRIGHT
350
413
  3
PUCSORGTOP
350
410
  3
PUCSORTHOREF
350
40D
  3
PUCSORTHOVIEW
350
40E
  3
STYLESHEET
350
404
  3
TSTACKALIGN
350
401
  3
TSTACKSIZE
350
402
  3
UCSBASE
350
418
  3
UCSORGBACK
350
41E
  3
UCSORGBOTTOM
350
41A
  3
UCSORGFRONT
350
41D
  3
UCSORGLEFT
350
41B
  3
UCSORGRIGHT
350
41C
  3
UCSORGTOP
350
419
  3
UCSORTHOREF
350
416
  3
UCSORTHOVIEW
350
417
  3
VERSIONGUID
350
40B
  0
DICTIONARY
  5
2C
102
{ACAD_REACTORS
330
C
102
}
330
C
100
AcDbDictionary
  3
CTABLESTYLE
350
2D
  0
XRECORD
  5
421
102
{ACAD_REACTORS
330
420
102
}
330
420
100
AcDbXrecord
102
UCS
 74
     0
 71
     1
 10
0.0
 20
0.0
 30
0.0
 10
1.0
 20
0.0
 30
0.0
 10
0.0
 20
1.0
 30
0.0
146
0.0
 79
     0
102
VIEW
281
     0
  0
MLINESTYLE
  5
18
102
{ACAD_REACTORS
330
17
102
}
330
17
100
AcDbMlineStyle
  2
Standard
 70
     0
  3

 62
   256
 51
90.0
 52
90.0
 71
     2
 49
0.5
 62
   256
  6
BYLAYER
 49
-0.5
 62
   256
  6
BYLAYER
  0
TABLESTYLE
  5
2B
102
{ACAD_REACTORS
330
2A
102
}
330
2A
100
AcDbTableStyle
  3
Standard
 70
     0
 71
     0
 40
0.06
 41
0.06
280
     0
281
     0
  7
STANDARD
140
0.18
170
     2
 62
     0
 63
     7
283
     0
274
    -2
284
     1
 64
     0
275
    -2
285
     1
 65
     0
276
    -2
286
     1
 66
     0
277
    -2
287
     1
 67
     0
278
    -2
288
     1
 68
     0
279
    -2
289
     1
 69
     0
  7
STANDARD
140
0.25
170
     5
 62
     0
 63
     7
283
     0
274
    -2
284
     1
 64
     0
275
    -2
285
     1
 65
     0
276
    -2
286
     1
 66
     0
277
    -2
287
     1
 67
     0
278
    -2
288
     1
 68
     0
279
    -2
289
     1
 69
     0
  7
STANDARD
140
0.18
170
     5
 62
     0
 63
     7
283
     0
274
    -2
284
     1
 64
     0
275
    -2
285
     1
 65
     0
276
    -2
286
     1
 66
     0
277
    -2
287
     1
 67
     0
278
    -2
288
     1
 68
     0
279
    -2
289
     1
 69
     0
  0
XRECORD
  5
409
102
{ACAD_REACTORS
330
400
102
}
330
400
100
AcDbXrecord
 90
        0
  0
XRECORD
  5
41F
102
{ACAD_REACTORS
330
400
102
}
330
400
100
AcDbXrecord
1000
DSTYLE
1002
{
1070
   171
 70
     2
1070
   143
 40
25.4
1070
   274
 70
     2
1070
    41
 40
0.18
1070
   141
 40
0.09
1070
   271
 70
     4
1070
    43
 40
0.38
1070
    44
 40
0.18
1070
   278
 70
    46
1070
    42
 40
0.0625
1070
   147
 40
0.09
1070
    77
 70
     0
1070
   272
 70
     4
1070
    73
 70
     1
1070
   172
 70
     0
1070
    74
 70
     1
1070
   283
 70
     1
1070
   340
340
11
1070
   140
 40
0.18
1070
   284
 70
     0
1070
    78
 70
     0
1002
}
  0
XRECORD
  5
40A
102
{ACAD_REACTORS
330
400
102
}
330
400
100
AcDbXrecord
  1
{FAEB1C30-E019-11D5-929B-00C0DF256EC4}
  0
XRECORD
  5
403
102
{ACAD_REACTORS
330
400
102
}
330
400
100
AcDbXrecord
  1

  0
XRECORD
  5
408
102
{ACAD_REACTORS
330
400
102
}
330
400
100
AcDbXrecord
 90
        1
  0
XRECORD
  5
405
102
{ACAD_REACTORS
330
400
102
}
330
400
100
AcDbXrecord
340
1A
  0
XRECORD
  5
407
102
{ACAD_REACTORS
330
400
102
}
330
400
100
AcDbXrecord
 90
     2560
  0
XRECORD
  5
406
102
{ACAD_REACTORS
330
400
102
}
330
400
100
AcDbXrecord
340
19
  0
XRECORD
  5
40C
102
{ACAD_REACTORS
330
400
102
}
330
400
100
AcDbXrecord
 40
0.0
  0
XRECORD
  5
40F
102
{ACAD_REACTORS
330
400
102
}
330
400
100
AcDbXrecord
340
0
  0
XRECORD
  5
415
102
{ACAD_REACTORS
330
400
102
}
330
400
100
AcDbXrecord
 10
0.0
 20
0.0
 30
0.0
  0
XRECORD
  5
411
102
{ACAD_REACTORS
330
400
102
}
330
400
100
AcDbXrecord
 10
0.0
 20
0.0
 30
0.0
  0
XRECORD
  5
414
102
{ACAD_REACTORS
330
400
102
}
330
400
100
AcDbXrecord
 10
0.0
 20
0.0
 30
0.0
  0
XRECORD
  5
412
102
{ACAD_REACTORS
330
400
102
}
330
400
100
AcDbXrecord
 10
0.0
 20
0.0
 30
0.0
  0
XRECORD
  5
413
102
{ACAD_REACTORS
330
400
102
}
330
400
100
AcDbXrecord
 10
0.0
 20
0.0
 30
0.0
  0
XRECORD
  5
410
102
{ACAD_REACTORS
330
400
102
}
330
400
100
AcDbXrecord
 10
0.0
 20
0.0
 30
0.0
  0
XRECORD
  5
40D
102
{ACAD_REACTORS
330
400
102
}
330
400
100
AcDbXrecord
340
0
  0
XRECORD
  5
40E
102
{ACAD_REACTORS
330
400
102
}
330
400
100
AcDbXrecord
 70
     0
  0
XRECORD
  5
404
102
{ACAD_REACTORS
330
400
102
}
330
400
100
AcDbXrecord
  1

  0
XRECORD
  5
401
102
{ACAD_REACTORS
330
400
102
}
330
400
100
AcDbXrecord
 90
        1
  0
XRECORD
  5
402
102
{ACAD_REACTORS
330
400
102
}
330
400
100
AcDbXrecord
 90
       70
  0
XRECORD
  5
418
102
{ACAD_REACTORS
330
400
102
}
330
400
100
AcDbXrecord
340
0
  0
XRECORD
  5
41E
102
{ACAD_REACTORS
330
400
102
}
330
400
100
AcDbXrecord
 10
0.0
 20
0.0
 30
0.0
  0
XRECORD
  5
41A
102
{ACAD_REACTORS
330
400
102
}
330
400
100
AcDbXrecord
 10
0.0
 20
0.0
 30
0.0
  0
XRECORD
  5
41D
102
{ACAD_REACTORS
330
400
102
}
330
400
100
AcDbXrecord
 10
0.0
 20
0.0
 30
0.0
  0
XRECORD
  5
41B
102
{ACAD_REACTORS
330
400
102
}
330
400
100
AcDbXrecord
 10
0.0
 20
0.0
 30
0.0
  0
XRECORD
  5
41C
102
{ACAD_REACTORS
330
400
102
}
330
400
100
AcDbXrecord
 10
0.0
 20
0.0
 30
0.0
  0
XRECORD
  5
419
102
{ACAD_REACTORS
330
400
102
}
330
400
100
AcDbXrecord
 10
0.0
 20
0.0
 30
0.0
  0
XRECORD
  5
416
102
{ACAD_REACTORS
330
400
102
}
330
400
100
AcDbXrecord
340
0
  0
XRECORD
  5
417
102
{ACAD_REACTORS
330
400
102
}
330
400
100
AcDbXrecord
 70
     0
  0
XRECORD
  5
40B
102
{ACAD_REACTORS
330
400
102
}
330
400
100
AcDbXrecord
  1
{FAEB1C32-E019-11D5-929B-00C0DF256EC4}
  0
DICTIONARYVAR
  5
2D
102
{ACAD_REACTORS
330
2C
102
}
330
2C
100
DictionaryVariables
280
     0
  1
Standard
  0
ENDSEC
  0
EOF
