  0
SECTION
  2
HEADER
  9
$ACADVER
  1
AC1014
  9
$ACADMAINTVER
 70
     9
  9
$DWGCODEPAGE
  3
ANSI_1252
  9
$INSBASE
 10
0.0
 20
0.0
 30
0.0
  9
$EXTMIN
 10
-41.91377565690175
 20
-367.3452326150602
 30
0.0
  9
$EXTMAX
 10
483.0862243430985
 20
375.1547673849402
 30
0.0
  9
$LIMMIN
 10
0.0
 20
0.0
  9
$LIMMAX
 10
12.0
 20
9.0
  9
$ORTHOMODE
 70
     0
  9
$REGENMODE
 70
     1
  9
$FILLMODE
 70
     1
  9
$QTEXTMODE
 70
     0
  9
$MIRRTEXT
 70
     1
  9
$DRAGMODE
 70
     2
  9
$LTSCALE
 40
1.0
  9
$OSMODE
 70
    37
  9
$ATTMODE
 70
     1
  9
$TEXTSIZE
 40
0.2
  9
$TRACEWID
 40
0.05
  9
$TEXTSTYLE
  7
STANDARD
  9
$CLAYER
  8
0
  9
$CELTYPE
  6
BYLAYER
  9
$CECOLOR
 62
   256
  9
$CELTSCALE
 40
1.0
  9
$DELOBJ
 70
     1
  9
$DISPSILH
 70
     0
  9
$DIMSCALE
 40
1.0
  9
$DIMASZ
 40
0.18
  9
$DIMEXO
 40
0.0625
  9
$DIMDLI
 40
0.38
  9
$DIMRND
 40
0.0
  9
$DIMDLE
 40
0.0
  9
$DIMEXE
 40
0.18
  9
$DIMTP
 40
0.0
  9
$DIMTM
 40
0.0
  9
$DIMTXT
 40
0.18
  9
$DIMCEN
 40
0.09
  9
$DIMTSZ
 40
0.0
  9
$DIMTOL
 70
     0
  9
$DIMLIM
 70
     0
  9
$DIMTIH
 70
     1
  9
$DIMTOH
 70
     1
  9
$DIMSE1
 70
     0
  9
$DIMSE2
 70
     0
  9
$DIMTAD
 70
     0
  9
$DIMZIN
 70
     0
  9
$DIMBLK
  1

  9
$DIMASO
 70
     1
  9
$DIMSHO
 70
     1
  9
$DIMPOST
  1

  9
$DIMAPOST
  1

  9
$DIMALT
 70
     0
  9
$DIMALTD
 70
     2
  9
$DIMALTF
 40
25.4
  9
$DIMLFAC
 40
1.0
  9
$DIMTOFL
 70
     0
  9
$DIMTVP
 40
0.0
  9
$DIMTIX
 70
     0
  9
$DIMSOXD
 70
     0
  9
$DIMSAH
 70
     0
  9
$DIMBLK1
  1

  9
$DIMBLK2
  1

  9
$DIMSTYLE
  2
STANDARD
  9
$DIMCLRD
 70
     0
  9
$DIMCLRE
 70
     0
  9
$DIMCLRT
 70
     0
  9
$DIMTFAC
 40
1.0
  9
$DIMGAP
 40
0.09
  9
$DIMJUST
 70
     0
  9
$DIMSD1
 70
     0
  9
$DIMSD2
 70
     0
  9
$DIMTOLJ
 70
     1
  9
$DIMTZIN
 70
     0
  9
$DIMALTZ
 70
     0
  9
$DIMALTTZ
 70
     0
  9
$DIMFIT
 70
     3
  9
$DIMUPT
 70
     0
  9
$DIMUNIT
 70
     2
  9
$DIMDEC
 70
     4
  9
$DIMTDEC
 70
     4
  9
$DIMALTU
 70
     2
  9
$DIMALTTD
 70
     2
  9
$DIMTXSTY
  7
STANDARD
  9
$DIMAUNIT
 70
     0
  9
$LUNITS
 70
     2
  9
$LUPREC
 70
     4
  9
$SKETCHINC
 40
0.1
  9
$FILLETRAD
 40
0.5
  9
$AUNITS
 70
     0
  9
$AUPREC
 70
     0
  9
$MENU
  1
.
  9
$ELEVATION
 40
0.0
  9
$PELEVATION
 40
0.0
  9
$THICKNESS
 40
0.0
  9
$LIMCHECK
 70
     0
  9
$CHAMFERA
 40
0.5
  9
$CHAMFERB
 40
0.5
  9
$CHAMFERC
 40
1.0
  9
$CHAMFERD
 40
0.0
  9
$SKPOLY
 70
     0
  9
$TDCREATE
 40
2455055.457543981
  9
$TDUPDATE
 40
2455055.457543993
  9
$TDINDWG
 40
0.0000000116
  9
$TDUSRTIMER
 40
0.0000000116
  9
$USRTIMER
 70
     1
  9
$ANGBASE
 50
0.0
  9
$ANGDIR
 70
     0
  9
$PDMODE
 70
     0
  9
$PDSIZE
 40
0.0
  9
$PLINEWID
 40
0.0
  9
$COORDS
 70
     1
  9
$SPLFRAME
 70
     0
  9
$SPLINETYPE
 70
     6
  9
$SPLINESEGS
 70
     8
  9
$ATTDIA
 70
     0
  9
$ATTREQ
 70
     1
  9
$HANDLING
 70
     1
  9
$HANDSEED
  5
423
  9
$SURFTAB1
 70
     6
  9
$SURFTAB2
 70
     6
  9
$SURFTYPE
 70
     6
  9
$SURFU
 70
     6
  9
$SURFV
 70
     6
  9
$UCSNAME
  2

  9
$UCSORG
 10
0.0
 20
0.0
 30
0.0
  9
$UCSXDIR
 10
1.0
 20
0.0
 30
0.0
  9
$UCSYDIR
 10
0.0
 20
1.0
 30
0.0
  9
$PUCSNAME
  2

  9
$PUCSORG
 10
0.0
 20
0.0
 30
0.0
  9
$PUCSXDIR
 10
1.0
 20
0.0
 30
0.0
  9
$PUCSYDIR
 10
0.0
 20
1.0
 30
0.0
  9
$USERI1
 70
     0
  9
$USERI2
 70
     0
  9
$USERI3
 70
     0
  9
$USERI4
 70
     0
  9
$USERI5
 70
     0
  9
$USERR1
 40
14.0
  9
$USERR2
 40
0.0
  9
$USERR3
 40
0.0
  9
$USERR4
 40
0.0
  9
$USERR5
 40
0.0
  9
$WORLDVIEW
 70
     1
  9
$SHADEDGE
 70
     3
  9
$SHADEDIF
 70
    70
  9
$TILEMODE
 70
     1
  9
$MAXACTVP
 70
    64
  9
$PINSBASE
 10
0.0
 20
0.0
 30
0.0
  9
$PLIMCHECK
 70
     0
  9
$PEXTMIN
 10
1.00000000000000E+20
 20
1.00000000000000E+20
 30
1.00000000000000E+20
  9
$PEXTMAX
 10
-1.00000000000000E+20
 20
-1.00000000000000E+20
 30
-1.00000000000000E+20
  9
$PLIMMIN
 10
0.0
 20
0.0
  9
$PLIMMAX
 10
12.0
 20
9.0
  9
$UNITMODE
 70
     0
  9
$VISRETAIN
 70
     1
  9
$PLINEGEN
 70
     0
  9
$PSLTSCALE
 70
     1
  9
$TREEDEPTH
 70
  3020
  9
$PICKSTYLE
 70
     1
  9
$CMLSTYLE
  2
STANDARD
  9
$CMLJUST
 70
     0
  9
$CMLSCALE
 40
1.0
  9
$PROXYGRAPHICS
 70
     1
  9
$MEASUREMENT
 70
     1
  0
ENDSEC
  0
SECTION
  2
CLASSES
  0
CLASS
  1
ACDBDICTIONARYWDFLT
  2
AcDbDictionaryWithDefault
  3
ObjectDBX Classes
 90
        0
280
     0
281
     0
  0
CLASS
  1

  2
exOdDbCircle
  3

 90
        0
280
     0
281
     1
  0
CLASS
  1
XRECORD
  2
AcDbXrecord
  3
AutoCAD 2000
 90
        0
280
     0
281
     0
  0
CLASS
  1
LWPOLYLINE
  2
AcDbPolyline
  3
AutoCAD 2000
 90
        0
280
     0
281
     1
  0
CLASS
  1
HATCH
  2
AcDbHatch
  3
AutoCAD 2000
 90
        0
280
     0
281
     1
  0
CLASS
  1
ACDBPLACEHOLDER
  2
AcDbPlaceHolder
  3
ObjectDBX Classes
 90
        0
280
     0
281
     0
  0
CLASS
  1
LAYOUT
  2
AcDbLayout
  3
ObjectDBX Classes
 90
        0
280
     0
281
     0
  0
ENDSEC
  0
SECTION
  2
TABLES
  0
TABLE
  2
VPORT
  5
8
330
0
100
AcDbSymbolTable
 70
     1
  0
VPORT
  5
29
330
8
100
AcDbSymbolTableRecord
100
AcDbViewportTableRecord
  2
*ACTIVE
 70
     0
 10
0.0
 20
0.0
 11
1.0
 21
1.0
 12
220.5862243430984
 22
3.90476738494002
 13
0.0
 23
0.0
 14
0.5
 24
0.5
 15
0.5
 25
0.5
 16
0.0
 26
0.0
 36
1.0
 17
0.0
 27
0.0
 37
0.0
 40
816.7500000000006
 41
1.60267857142857
 42
50.0
 43
0.0
 44
0.0
 50
0.0
 51
0.0
 71
     0
 72
   100
 73
     1
 74
     3
 75
     0
 76
     0
 77
     0
 78
     0
  0
ENDTAB
  0
TABLE
  2
LTYPE
  5
5
330
0
100
AcDbSymbolTable
 70
     8
  0
LTYPE
  5
14
330
5
100
AcDbSymbolTableRecord
100
AcDbLinetypeTableRecord
  2
BYBLOCK
 70
     0
  3

 72
    65
 73
     0
 40
0.0
  0
LTYPE
  5
15
330
5
100
AcDbSymbolTableRecord
100
AcDbLinetypeTableRecord
  2
BYLAYER
 70
     0
  3

 72
    65
 73
     0
 40
0.0
  0
LTYPE
  5
16
330
5
100
AcDbSymbolTableRecord
100
AcDbLinetypeTableRecord
  2
CONTINUOUS
 70
     0
  3
Solid line
 72
    65
 73
     0
 40
0.0
  0
LTYPE
  5
2A
330
5
100
AcDbSymbolTableRecord
100
AcDbLinetypeTableRecord
  2
DASHED
 70
     0
  3
Dashed
 72
    65
 73
     2
 40
15.0
 49
7.0
 74
     0
 49
-8.0
 74
     0
  0
LTYPE
  5
2B
330
5
100
AcDbSymbolTableRecord
100
AcDbLinetypeTableRecord
  2
DOTTED
 70
     0
  3
Dotted
 72
    65
 73
     2
 40
1.0
 49
0.0
 74
     0
 49
-1.0
 74
     0
  0
LTYPE
  5
2C
330
5
100
AcDbSymbolTableRecord
100
AcDbLinetypeTableRecord
  2
DOT_CENTER
 70
     0
  3
Dot_Center
 72
    65
 73
     4
 40
14.0
 49
12.0
 74
     0
 49
-1.0
 74
     0
 49
0.0
 74
     0
 49
-1.0
 74
     0
  0
LTYPE
  5
2D
330
5
100
AcDbSymbolTableRecord
100
AcDbLinetypeTableRecord
  2
LONG_DASHED
 70
     0
  3
Long_Dashed
 72
    65
 73
     2
 40
15.0
 49
10.0
 74
     0
 49
-5.0
 74
     0
  0
LTYPE
  5
2E
330
5
100
AcDbSymbolTableRecord
100
AcDbLinetypeTableRecord
  2
DASH_CENTER
 70
     0
  3
Dash_Center
 72
    65
 73
     4
 40
14.0
 49
11.0
 74
     0
 49
-1.0
 74
     0
 49
1.0
 74
     0
 49
-1.0
 74
     0
  0
LTYPE
  5
2F
330
5
100
AcDbSymbolTableRecord
100
AcDbLinetypeTableRecord
  2
PHANTOM
 70
     0
  3
Phantom
 72
    65
 73
     6
 40
13.0
 49
10.0
 74
     0
 49
-1.0
 74
     0
 49
0.0
 74
     0
 49
-1.0
 74
     0
 49
0.0
 74
     0
 49
-1.0
 74
     0
  0
LTYPE
  5
30
330
5
100
AcDbSymbolTableRecord
100
AcDbLinetypeTableRecord
  2
CENTER_DASH_DASH
 70
     0
  3
Center_Dash_Dash
 72
    65
 73
     6
 40
14.0
 49
9.0
 74
     0
 49
-1.0
 74
     0
 49
1.0
 74
     0
 49
-1.0
 74
     0
 49
1.0
 74
     0
 49
-1.0
 74
     0
  0
ENDTAB
  0
TABLE
  2
LAYER
  5
2
330
0
100
AcDbSymbolTable
 70
     9
  0
LAYER
  5
10
330
2
100
AcDbSymbolTableRecord
100
AcDbLayerTableRecord
  2
0
 70
     0
 62
     7
  6
CONTINUOUS
  0
LAYER
  5
31
330
2
100
AcDbSymbolTableRecord
100
AcDbLayerTableRecord
  2
1
 70
     0
 62
     7
  6
CONTINUOUS
  0
LAYER
  5
32
330
2
100
AcDbSymbolTableRecord
100
AcDbLayerTableRecord
  2
MK
 70
     0
 62
     7
  6
CONTINUOUS
  0
LAYER
  5
33
330
2
100
AcDbSymbolTableRecord
100
AcDbLayerTableRecord
  2
MN
 70
     0
 62
     7
  6
CONTINUOUS
  0
LAYER
  5
34
330
2
100
AcDbSymbolTableRecord
100
AcDbLayerTableRecord
  2
VB
 70
     0
 62
     7
  6
CONTINUOUS
  0
LAYER
  5
35
330
2
100
AcDbSymbolTableRecord
100
AcDbLayerTableRecord
  2
Z1
 70
     0
 62
     7
  6
CONTINUOUS
  0
LAYER
  5
36
330
2
100
AcDbSymbolTableRecord
100
AcDbLayerTableRecord
  2
Z2
 70
     0
 62
     7
  6
CONTINUOUS
  0
LAYER
  5
37
330
2
100
AcDbSymbolTableRecord
100
AcDbLayerTableRecord
  2
Z4
 70
     0
 62
     7
  6
CONTINUOUS
  0
LAYER
  5
38
330
2
100
AcDbSymbolTableRecord
100
AcDbLayerTableRecord
  2
Z5
 70
     0
 62
     7
  6
CONTINUOUS
  0
ENDTAB
  0
TABLE
  2
STYLE
  5
3
330
0
100
AcDbSymbolTable
 70
    10
  0
STYLE
  5
11
330
3
100
AcDbSymbolTableRecord
100
AcDbTextStyleTableRecord
  2
STANDARD
 70
     0
 40
0.0
 41
1.0
 50
0.0
 71
     0
 42
0.2
  3
txt
  4

  0
STYLE
  5
D4
330
3
100
AcDbSymbolTableRecord
100
AcDbTextStyleTableRecord
  2
CONVERTER_1
 70
     0
 40
0.0
 41
0.72
 50
0.0
 71
     0
 42
0.2
  3
txt.shx
  4

  0
STYLE
  5
D6
330
3
100
AcDbSymbolTableRecord
100
AcDbTextStyleTableRecord
  2
CONVERTER_2
 70
     0
 40
0.0
 41
0.63
 50
0.0
 71
     0
 42
0.2
  3
txt.shx
  4

  0
STYLE
  5
E5
330
3
100
AcDbSymbolTableRecord
100
AcDbTextStyleTableRecord
  2
CONVERTER_3
 70
     0
 40
0.0
 41
0.8415
 50
0.0
 71
     0
 42
0.2
  3
txt.shx
  4

  0
STYLE
  5
E7
330
3
100
AcDbSymbolTableRecord
100
AcDbTextStyleTableRecord
  2
CONVERTER_4
 70
     0
 40
0.0
 41
0.585
 50
0.0
 71
     0
 42
0.2
  3
txt.shx
  4

  0
STYLE
  5
F0
330
3
100
AcDbSymbolTableRecord
100
AcDbTextStyleTableRecord
  2
CONVERTER_5
 70
     0
 40
0.0
 41
0.675
 50
0.0
 71
     0
 42
0.2
  3
txt.shx
  4

  0
STYLE
  5
102
330
3
100
AcDbSymbolTableRecord
100
AcDbTextStyleTableRecord
  2
CONVERTER_6
 70
     0
 40
0.0
 41
0.9
 50
0.0
 71
     0
 42
0.2
  3
txt.shx
  4

  0
STYLE
  5
105
330
3
100
AcDbSymbolTableRecord
100
AcDbTextStyleTableRecord
  2
CONVERTER_7
 70
     0
 40
0.0
 41
0.7425
 50
0.0
 71
     0
 42
0.2
  3
txt.shx
  4

  0
STYLE
  5
11C
330
3
100
AcDbSymbolTableRecord
100
AcDbTextStyleTableRecord
  2
CONVERTER_8
 70
     0
 40
0.0
 41
0.7125
 50
0.0
 71
     0
 42
0.2
  3
complex.shx
  4

  0
STYLE
  5
11E
330
3
100
AcDbSymbolTableRecord
100
AcDbTextStyleTableRecord
  2
CONVERTER_9
 70
     0
 40
0.0
 41
0.76
 50
0.0
 71
     0
 42
0.2
  3
complex.shx
  4

  0
ENDTAB
  0
TABLE
  2
VIEW
  5
6
330
0
100
AcDbSymbolTable
 70
     0
  0
ENDTAB
  0
TABLE
  2
UCS
  5
7
330
0
100
AcDbSymbolTable
 70
     0
  0
ENDTAB
  0
TABLE
  2
APPID
  5
9
330
0
100
AcDbSymbolTable
 70
     1
  0
APPID
  5
12
330
9
100
AcDbSymbolTableRecord
100
AcDbRegAppTableRecord
  2
ACAD
 70
     0
  0
ENDTAB
  0
TABLE
  2
DIMSTYLE
  5
A
330
0
100
AcDbSymbolTable
 70
    44
  0
DIMSTYLE
105
27
330
A
100
AcDbSymbolTableRecord
100
AcDbDimStyleTableRecord
  2
STANDARD
 70
     0
  3

  4

  5

  6

  7

 40
1.0
 41
0.18
 42
0.0625
 43
0.38
 44
0.18
 45
0.0
 46
0.0
 47
0.0
 48
0.0
140
0.18
141
0.09
142
0.0
143
25.4
144
1.0
145
0.0
146
1.0
147
0.09
 71
     0
 72
     0
 73
     1
 74
     1
 75
     0
 76
     0
 77
     0
 78
     0
170
     0
171
     2
172
     0
173
     0
174
     0
175
     0
176
     0
177
     0
178
     0
270
     2
271
     4
272
     4
273
     2
274
     2
340
11
275
     0
280
     0
281
     0
282
     0
283
     1
284
     0
285
     0
286
     0
287
     3
288
     0
  0
DIMSTYLE
105
201
102
{ACAD_REACTORS
330
202
102
}
330
A
100
AcDbSymbolTableRecord
100
AcDbDimStyleTableRecord
  2
ME10_DIM_0
 70
     0
  3

  4

  5

  6

  7

 40
1.0
 41
8.75
 42
0.0
 43
0.38
 44
2.0
 45
0.0
 46
0.0
 47
0.0
 48
0.0
140
8.75
141
0.09
142
0.0
143
25.4
144
1.0
145
0.0
146
1.0
147
2.5
 71
     0
 72
     0
 73
     0
 74
     0
 75
     0
 76
     0
 77
     1
 78
     8
170
     0
171
     2
172
     1
173
     1
174
     0
175
     0
176
     3
177
     3
178
     2
270
     2
271
     2
272
     4
273
     2
274
     2
340
D4
275
     0
280
     0
281
     0
282
     0
283
     1
284
     0
285
     0
286
     0
287
     3
288
     0
  0
DIMSTYLE
105
20C
102
{ACAD_REACTORS
330
20D
102
}
330
A
100
AcDbSymbolTableRecord
100
AcDbDimStyleTableRecord
  2
ME10_DIM_1
 70
     0
  3

  4

  5

  6

  7

 40
1.0
 41
8.75
 42
0.0
 43
0.38
 44
2.5
 45
0.0
 46
0.0
 47
0.0
 48
0.0
140
8.75
141
0.09
142
0.0
143
25.4
144
1.0
145
0.0
146
1.0
147
2.5
 71
     0
 72
     0
 73
     0
 74
     0
 75
     0
 76
     0
 77
     1
 78
     8
170
     0
171
     2
172
     1
173
     1
174
     0
175
     0
176
     3
177
     3
178
     2
270
     2
271
     2
272
     4
273
     2
274
     2
340
D6
275
     0
280
     0
281
     0
282
     0
283
     1
284
     0
285
     0
286
     0
287
     3
288
     0
  0
DIMSTYLE
105
219
102
{ACAD_REACTORS
330
21A
102
}
330
A
100
AcDbSymbolTableRecord
100
AcDbDimStyleTableRecord
  2
ME10_DIM_2
 70
     0
  3

  4

  5

  6

  7

 40
1.0
 41
8.75
 42
0.0
 43
0.38
 44
2.5
 45
0.0
 46
0.0
 47
0.0
 48
0.0
140
8.75
141
0.09
142
0.0
143
25.4
144
1.0
145
0.0
146
1.0
147
2.5
 71
     0
 72
     0
 73
     0
 74
     0
 75
     0
 76
     0
 77
     1
 78
     8
170
     0
171
     2
172
     1
173
     1
174
     0
175
     0
176
     3
177
     3
178
     2
270
     2
271
     2
272
     4
273
     2
274
     2
340
D6
275
     0
280
     0
281
     0
282
     0
283
     1
284
     0
285
     0
286
     0
287
     3
288
     0
  0
DIMSTYLE
105
226
102
{ACAD_REACTORS
330
227
102
}
330
A
100
AcDbSymbolTableRecord
100
AcDbDimStyleTableRecord
  2
ME10_DIM_3
 70
     0
  3

  4

  5

  6

  7

 40
1.0
 41
8.75
 42
0.0
 43
0.38
 44
2.5
 45
0.0
 46
0.0
 47
0.0
 48
0.0
140
8.75
141
0.09
142
0.0
143
25.4
144
1.0
145
0.0
146
1.0
147
2.5
 71
     0
 72
     0
 73
     0
 74
     0
 75
     0
 76
     0
 77
     1
 78
     8
170
     0
171
     2
172
     1
173
     1
174
     0
175
     0
176
     3
177
     3
178
     2
270
     2
271
     2
272
     4
273
     2
274
     2
340
D6
275
     0
280
     0
281
     0
282
     0
283
     1
284
     0
285
     0
286
     0
287
     3
288
     0
  0
DIMSTYLE
105
233
102
{ACAD_REACTORS
330
234
102
}
330
A
100
AcDbSymbolTableRecord
100
AcDbDimStyleTableRecord
  2
ME10_DIM_4
 70
     0
  3

  4

  5

  6

  7

 40
1.0
 41
8.75
 42
0.0
 43
0.38
 44
2.5
 45
0.0
 46
0.0
 47
0.0
 48
0.0
140
8.75
141
0.09
142
0.0
143
25.4
144
1.0
145
0.0
146
1.0
147
2.5
 71
     0
 72
     0
 73
     0
 74
     0
 75
     0
 76
     0
 77
     1
 78
     8
170
     0
171
     2
172
     1
173
     1
174
     0
175
     0
176
     3
177
     3
178
     2
270
     2
271
     2
272
     4
273
     2
274
     2
340
D6
275
     0
280
     0
281
     0
282
     0
283
     1
284
     0
285
     0
286
     0
287
     3
288
     0
  0
DIMSTYLE
105
240
102
{ACAD_REACTORS
330
241
102
}
330
A
100
AcDbSymbolTableRecord
100
AcDbDimStyleTableRecord
  2
ME10_DIM_5
 70
     0
  3

  4

  5

  6

  7

 40
1.0
 41
8.75
 42
0.0
 43
0.38
 44
2.5
 45
0.0
 46
0.0
 47
0.0
 48
0.0
140
8.75
141
0.09
142
0.0
143
25.4
144
1.0
145
0.0
146
1.0
147
2.5
 71
     0
 72
     0
 73
     0
 74
     0
 75
     0
 76
     0
 77
     1
 78
     8
170
     0
171
     2
172
     1
173
     1
174
     0
175
     0
176
     3
177
     3
178
     2
270
     2
271
     2
272
     4
273
     2
274
     2
340
D6
275
     0
280
     0
281
     0
282
     0
283
     1
284
     0
285
     0
286
     0
287
     3
288
     0
  0
DIMSTYLE
105
24D
102
{ACAD_REACTORS
330
24E
102
}
330
A
100
AcDbSymbolTableRecord
100
AcDbDimStyleTableRecord
  2
ME10_DIM_6
 70
     0
  3

  4

  5

  6

  7

 40
1.0
 41
8.75
 42
0.0
 43
0.38
 44
2.5
 45
0.0
 46
0.0
 47
0.0
 48
0.0
140
8.75
141
0.09
142
0.0
143
25.4
144
1.0
145
0.0
146
1.0
147
2.5
 71
     0
 72
     0
 73
     0
 74
     0
 75
     0
 76
     0
 77
     1
 78
     8
170
     0
171
     2
172
     1
173
     1
174
     0
175
     0
176
     3
177
     3
178
     2
270
     2
271
     2
272
     4
273
     2
274
     2
340
D6
275
     0
280
     0
281
     0
282
     0
283
     1
284
     0
285
     0
286
     0
287
     3
288
     0
  0
DIMSTYLE
105
25A
102
{ACAD_REACTORS
330
25B
102
}
330
A
100
AcDbSymbolTableRecord
100
AcDbDimStyleTableRecord
  2
ME10_DIM_7
 70
     0
  3

  4

  5

  6

  7

 40
1.0
 41
8.75
 42
0.0
 43
0.38
 44
2.5
 45
0.0
 46
0.0
 47
0.0
 48
0.0
140
8.75
141
0.09
142
0.0
143
25.4
144
1.0
145
0.0
146
1.0
147
2.5
 71
     0
 72
     0
 73
     0
 74
     0
 75
     0
 76
     0
 77
     1
 78
     8
170
     0
171
     2
172
     1
173
     1
174
     0
175
     0
176
     3
177
     3
178
     2
270
     2
271
     2
272
     4
273
     2
274
     2
340
D6
275
     0
280
     0
281
     0
282
     0
283
     1
284
     0
285
     0
286
     0
287
     3
288
     0
  0
DIMSTYLE
105
267
102
{ACAD_REACTORS
330
268
102
}
330
A
100
AcDbSymbolTableRecord
100
AcDbDimStyleTableRecord
  2
ME10_DIM_8
 70
     0
  3

  4

  5

  6

  7

 40
1.0
 41
8.75
 42
0.0
 43
0.38
 44
2.5
 45
0.0
 46
0.0
 47
0.0
 48
0.0
140
8.75
141
0.09
142
0.0
143
25.4
144
1.0
145
0.0
146
1.0
147
2.5
 71
     0
 72
     0
 73
     0
 74
     0
 75
     0
 76
     0
 77
     1
 78
     8
170
     0
171
     2
172
     1
173
     1
174
     0
175
     0
176
     3
177
     3
178
     2
270
     2
271
     2
272
     4
273
     2
274
     2
340
D6
275
     0
280
     0
281
     0
282
     0
283
     1
284
     0
285
     0
286
     0
287
     3
288
     0
  0
DIMSTYLE
105
272
102
{ACAD_REACTORS
330
273
102
}
330
A
100
AcDbSymbolTableRecord
100
AcDbDimStyleTableRecord
  2
ME10_DIM_9
 70
     0
  3

  4

  5

  6

  7

 40
1.0
 41
8.75
 42
0.0
 43
0.38
 44
2.0
 45
0.0
 46
0.0
 47
0.0
 48
0.0
140
8.75
141
0.09
142
0.0
143
25.4
144
1.0
145
0.0
146
1.0
147
2.5
 71
     0
 72
     0
 73
     0
 74
     0
 75
     0
 76
     0
 77
     1
 78
     8
170
     0
171
     2
172
     1
173
     1
174
     0
175
     0
176
     3
177
     3
178
     2
270
     2
271
     2
272
     4
273
     2
274
     2
340
D4
275
     0
280
     0
281
     0
282
     0
283
     1
284
     0
285
     0
286
     0
287
     3
288
     0
  0
DIMSTYLE
105
27D
102
{ACAD_REACTORS
330
27E
102
}
330
A
100
AcDbSymbolTableRecord
100
AcDbDimStyleTableRecord
  2
ME10_DIM_10
 70
     0
  3

  4

  5

  6

  7

 40
1.0
 41
8.75
 42
0.0
 43
0.38
 44
2.0
 45
0.0
 46
0.0
 47
0.0
 48
0.0
140
8.75
141
0.09
142
0.0
143
25.4
144
1.0
145
0.0
146
1.0
147
2.5
 71
     0
 72
     0
 73
     0
 74
     0
 75
     0
 76
     0
 77
     1
 78
     8
170
     0
171
     2
172
     1
173
     1
174
     0
175
     0
176
     3
177
     3
178
     2
270
     2
271
     2
272
     4
273
     2
274
     2
340
D4
275
     0
280
     0
281
     0
282
     0
283
     1
284
     0
285
     0
286
     0
287
     3
288
     0
  0
DIMSTYLE
105
288
102
{ACAD_REACTORS
330
289
102
}
330
A
100
AcDbSymbolTableRecord
100
AcDbDimStyleTableRecord
  2
ME10_DIM_11
 70
     0
  3

  4

  5

  6

  7

 40
1.0
 41
8.75
 42
0.0
 43
0.38
 44
2.0
 45
0.0
 46
0.0
 47
0.0
 48
0.0
140
8.75
141
0.09
142
0.0
143
25.4
144
1.0
145
0.0
146
1.0
147
2.5
 71
     0
 72
     0
 73
     0
 74
     0
 75
     0
 76
     0
 77
     1
 78
     8
170
     0
171
     2
172
     1
173
     1
174
     0
175
     0
176
     3
177
     3
178
     2
270
     2
271
     2
272
     4
273
     2
274
     2
340
D4
275
     0
280
     0
281
     0
282
     0
283
     1
284
     0
285
     0
286
     0
287
     3
288
     0
  0
DIMSTYLE
105
293
102
{ACAD_REACTORS
330
294
102
}
330
A
100
AcDbSymbolTableRecord
100
AcDbDimStyleTableRecord
  2
ME10_DIM_12
 70
     0
  3

  4

  5

  6

  7

 40
1.0
 41
8.75
 42
0.0
 43
0.38
 44
2.0
 45
0.0
 46
0.0
 47
0.0
 48
0.0
140
8.75
141
0.09
142
0.0
143
25.4
144
1.0
145
0.0
146
1.0
147
2.5
 71
     0
 72
     0
 73
     0
 74
     0
 75
     0
 76
     0
 77
     1
 78
     8
170
     0
171
     2
172
     1
173
     1
174
     0
175
     0
176
     3
177
     3
178
     2
270
     2
271
     2
272
     4
273
     2
274
     2
340
D4
275
     0
280
     0
281
     0
282
     0
283
     1
284
     0
285
     0
286
     0
287
     3
288
     0
  0
DIMSTYLE
105
29E
102
{ACAD_REACTORS
330
29F
102
}
330
A
100
AcDbSymbolTableRecord
100
AcDbDimStyleTableRecord
  2
ME10_DIM_13
 70
     0
  3

  4

  5

  6

  7

 40
1.0
 41
8.75
 42
0.0
 43
0.38
 44
2.0
 45
0.0
 46
0.0
 47
0.0
 48
0.0
140
8.75
141
0.09
142
0.0
143
25.4
144
1.0
145
0.0
146
1.0
147
2.5
 71
     0
 72
     0
 73
     0
 74
     0
 75
     0
 76
     0
 77
     1
 78
     8
170
     0
171
     2
172
     1
173
     1
174
     0
175
     0
176
     3
177
     3
178
     2
270
     2
271
     2
272
     4
273
     2
274
     2
340
D4
275
     0
280
     0
281
     0
282
     0
283
     1
284
     0
285
     0
286
     0
287
     3
288
     0
  0
DIMSTYLE
105
2AB
102
{ACAD_REACTORS
330
2AC
102
}
330
A
100
AcDbSymbolTableRecord
100
AcDbDimStyleTableRecord
  2
ME10_DIM_14
 70
     0
  3

  4

  5

  6

  7

 40
1.0
 41
8.75
 42
0.0
 43
0.38
 44
2.0
 45
0.0
 46
0.0
 47
0.0
 48
0.0
140
8.75
141
0.09
142
0.0
143
25.4
144
1.0
145
0.0
146
1.0
147
2.5
 71
     0
 72
     0
 73
     0
 74
     0
 75
     0
 76
     0
 77
     1
 78
     8
170
     0
171
     2
172
     1
173
     1
174
     0
175
     0
176
     3
177
     3
178
     2
270
     2
271
     2
272
     4
273
     2
274
     2
340
D4
275
     0
280
     0
281
     0
282
     0
283
     1
284
     0
285
     0
286
     0
287
     3
288
     0
  0
DIMSTYLE
105
2B6
102
{ACAD_REACTORS
330
2B7
102
}
330
A
100
AcDbSymbolTableRecord
100
AcDbDimStyleTableRecord
  2
ME10_DIM_15
 70
     0
  3

  4

  5

  6

  7

 40
1.0
 41
8.75
 42
0.0
 43
0.38
 44
2.0
 45
0.0
 46
0.0
 47
0.0
 48
0.0
140
8.75
141
0.09
142
0.0
143
25.4
144
1.0
145
0.0
146
1.0
147
2.5
 71
     0
 72
     0
 73
     0
 74
     0
 75
     0
 76
     0
 77
     1
 78
     8
170
     0
171
     2
172
     1
173
     1
174
     0
175
     0
176
     3
177
     3
178
     2
270
     2
271
     2
272
     4
273
     2
274
     2
340
D4
275
     0
280
     0
281
     0
282
     0
283
     1
284
     0
285
     0
286
     0
287
     3
288
     0
  0
DIMSTYLE
105
2C1
102
{ACAD_REACTORS
330
2C2
102
}
330
A
100
AcDbSymbolTableRecord
100
AcDbDimStyleTableRecord
  2
ME10_DIM_16
 70
     0
  3

  4

  5

  6

  7

 40
1.0
 41
8.75
 42
0.0
 43
0.38
 44
2.0
 45
0.0
 46
0.0
 47
0.0
 48
0.0
140
8.75
141
0.09
142
0.0
143
25.4
144
1.0
145
0.0
146
1.0
147
2.5
 71
     0
 72
     0
 73
     0
 74
     0
 75
     0
 76
     0
 77
     1
 78
     8
170
     0
171
     2
172
     1
173
     1
174
     0
175
     0
176
     3
177
     3
178
     2
270
     2
271
     2
272
     4
273
     2
274
     2
340
D4
275
     0
280
     0
281
     0
282
     0
283
     1
284
     0
285
     0
286
     0
287
     3
288
     0
  0
DIMSTYLE
105
2CC
102
{ACAD_REACTORS
330
2CD
102
}
330
A
100
AcDbSymbolTableRecord
100
AcDbDimStyleTableRecord
  2
ME10_DIM_17
 70
     0
  3

  4

  5

  6

  7

 40
1.0
 41
8.75
 42
0.0
 43
0.38
 44
2.0
 45
0.0
 46
0.0
 47
0.0
 48
0.0
140
8.75
141
0.09
142
0.0
143
25.4
144
1.0
145
0.0
146
1.0
147
2.5
 71
     0
 72
     0
 73
     0
 74
     0
 75
     0
 76
     0
 77
     1
 78
     8
170
     0
171
     2
172
     1
173
     1
174
     0
175
     0
176
     3
177
     3
178
     2
270
     2
271
     2
272
     4
273
     2
274
     2
340
D4
275
     0
280
     0
281
     0
282
     0
283
     1
284
     0
285
     0
286
     0
287
     3
288
     0
  0
DIMSTYLE
105
2D7
102
{ACAD_REACTORS
330
2D8
102
}
330
A
100
AcDbSymbolTableRecord
100
AcDbDimStyleTableRecord
  2
ME10_DIM_18
 70
     0
  3

  4

  5

  6

  7

 40
1.0
 41
8.75
 42
0.0
 43
0.38
 44
2.0
 45
0.0
 46
0.0
 47
0.0
 48
0.0
140
8.75
141
0.09
142
0.0
143
25.4
144
1.0
145
0.0
146
1.0
147
2.5
 71
     0
 72
     0
 73
     0
 74
     0
 75
     0
 76
     0
 77
     1
 78
     8
170
     0
171
     2
172
     1
173
     1
174
     0
175
     0
176
     3
177
     3
178
     2
270
     2
271
     2
272
     4
273
     2
274
     2
340
D4
275
     0
280
     0
281
     0
282
     0
283
     1
284
     0
285
     0
286
     0
287
     3
288
     0
  0
DIMSTYLE
105
2E2
102
{ACAD_REACTORS
330
2E3
102
}
330
A
100
AcDbSymbolTableRecord
100
AcDbDimStyleTableRecord
  2
ME10_DIM_19
 70
     0
  3

  4

  5

  6

  7

 40
1.0
 41
8.75
 42
0.0
 43
0.38
 44
2.0
 45
0.0
 46
0.0
 47
0.0
 48
0.0
140
8.75
141
0.09
142
0.0
143
25.4
144
1.0
145
0.0
146
1.0
147
2.5
 71
     0
 72
     0
 73
     0
 74
     0
 75
     0
 76
     0
 77
     1
 78
     8
170
     0
171
     2
172
     1
173
     1
174
     0
175
     0
176
     3
177
     3
178
     2
270
     2
271
     2
272
     4
273
     2
274
     2
340
D4
275
     0
280
     0
281
     0
282
     0
283
     1
284
     0
285
     0
286
     0
287
     3
288
     0
  0
DIMSTYLE
105
2EF
102
{ACAD_REACTORS
330
2F0
102
}
330
A
100
AcDbSymbolTableRecord
100
AcDbDimStyleTableRecord
  2
ME10_DIM_20
 70
     0
  3

  4

  5

  6

  7

 40
1.0
 41
8.75
 42
0.0
 43
0.38
 44
2.5
 45
0.0
 46
0.0
 47
0.0
 48
0.0
140
8.75
141
0.09
142
0.0
143
25.4
144
1.0
145
0.0
146
1.0
147
2.5
 71
     0
 72
     0
 73
     0
 74
     0
 75
     0
 76
     0
 77
     1
 78
     8
170
     0
171
     2
172
     1
173
     1
174
     0
175
     0
176
     3
177
     3
178
     2
270
     2
271
     2
272
     4
273
     2
274
     2
340
D6
275
     0
280
     0
281
     0
282
     0
283
     1
284
     0
285
     0
286
     0
287
     3
288
     0
  0
DIMSTYLE
105
2FA
102
{ACAD_REACTORS
330
2FB
102
}
330
A
100
AcDbSymbolTableRecord
100
AcDbDimStyleTableRecord
  2
ME10_DIM_21
 70
     0
  3

  4

  5

  6

  7

 40
1.0
 41
8.75
 42
0.0
 43
0.38
 44
2.5
 45
0.0
 46
0.0
 47
0.0
 48
0.0
140
8.75
141
0.09
142
0.0
143
25.4
144
1.0
145
0.0
146
1.0
147
2.5
 71
     0
 72
     0
 73
     0
 74
     0
 75
     0
 76
     0
 77
     1
 78
     8
170
     0
171
     2
172
     1
173
     1
174
     0
175
     0
176
     3
177
     3
178
     2
270
     2
271
     2
272
     4
273
     2
274
     2
340
D6
275
     0
280
     0
281
     0
282
     0
283
     1
284
     0
285
     0
286
     0
287
     3
288
     0
  0
DIMSTYLE
105
307
102
{ACAD_REACTORS
330
308
102
}
330
A
100
AcDbSymbolTableRecord
100
AcDbDimStyleTableRecord
  2
ME10_DIM_22
 70
     0
  3

  4

  5

  6

  7

 40
1.0
 41
8.75
 42
0.0
 43
0.38
 44
2.5
 45
0.0
 46
0.0
 47
0.0
 48
0.0
140
8.75
141
0.09
142
0.0
143
25.4
144
1.0
145
0.0
146
1.0
147
2.5
 71
     0
 72
     0
 73
     0
 74
     0
 75
     0
 76
     0
 77
     1
 78
     8
170
     0
171
     2
172
     1
173
     1
174
     0
175
     0
176
     3
177
     3
178
     2
270
     2
271
     2
272
     4
273
     2
274
     2
340
D6
275
     0
280
     0
281
     0
282
     0
283
     1
284
     0
285
     0
286
     0
287
     3
288
     0
  0
DIMSTYLE
105
312
102
{ACAD_REACTORS
330
313
102
}
330
A
100
AcDbSymbolTableRecord
100
AcDbDimStyleTableRecord
  2
ME10_DIM_23
 70
     0
  3

  4

  5

  6

  7

 40
1.0
 41
8.75
 42
0.0
 43
0.38
 44
2.5
 45
0.0
 46
0.0
 47
0.0
 48
0.0
140
8.75
141
0.09
142
0.0
143
25.4
144
1.0
145
0.0
146
1.0
147
2.5
 71
     0
 72
     0
 73
     0
 74
     0
 75
     0
 76
     0
 77
     1
 78
     8
170
     0
171
     2
172
     1
173
     1
174
     0
175
     0
176
     3
177
     3
178
     2
270
     2
271
     2
272
     4
273
     2
274
     2
340
D6
275
     0
280
     0
281
     0
282
     0
283
     1
284
     0
285
     0
286
     0
287
     3
288
     0
  0
DIMSTYLE
105
31F
102
{ACAD_REACTORS
330
320
102
}
330
A
100
AcDbSymbolTableRecord
100
AcDbDimStyleTableRecord
  2
ME10_DIM_24
 70
     0
  3

  4

  5

  6

  7

 40
1.0
 41
8.75
 42
0.0
 43
0.38
 44
2.0
 45
0.0
 46
0.0
 47
0.0
 48
0.0
140
8.75
141
0.09
142
0.0
143
25.4
144
1.0
145
0.0
146
1.0
147
2.5
 71
     0
 72
     0
 73
     0
 74
     0
 75
     0
 76
     0
 77
     1
 78
     8
170
     0
171
     2
172
     1
173
     1
174
     0
175
     0
176
     3
177
     3
178
     2
270
     2
271
     2
272
     4
273
     2
274
     2
340
D4
275
     0
280
     0
281
     0
282
     0
283
     1
284
     0
285
     0
286
     0
287
     3
288
     0
  0
DIMSTYLE
105
32C
102
{ACAD_REACTORS
330
32D
102
}
330
A
100
AcDbSymbolTableRecord
100
AcDbDimStyleTableRecord
  2
ME10_DIM_25
 70
     0
  3

  4

  5

  6

  7

 40
1.0
 41
8.75
 42
0.0
 43
0.38
 44
2.0
 45
0.0
 46
0.0
 47
0.0
 48
0.0
140
8.75
141
0.09
142
0.0
143
25.4
144
1.0
145
0.0
146
1.0
147
2.5
 71
     0
 72
     0
 73
     0
 74
     0
 75
     0
 76
     0
 77
     1
 78
     8
170
     0
171
     2
172
     1
173
     1
174
     0
175
     0
176
     3
177
     3
178
     2
270
     2
271
     2
272
     4
273
     2
274
     2
340
D4
275
     0
280
     0
281
     0
282
     0
283
     1
284
     0
285
     0
286
     0
287
     3
288
     0
  0
DIMSTYLE
105
339
102
{ACAD_REACTORS
330
33A
102
}
330
A
100
AcDbSymbolTableRecord
100
AcDbDimStyleTableRecord
  2
ME10_DIM_26
 70
     0
  3

  4

  5

  6

  7

 40
1.0
 41
8.75
 42
0.0
 43
0.38
 44
2.0
 45
0.0
 46
0.0
 47
0.0
 48
0.0
140
8.75
141
0.09
142
0.0
143
25.4
144
1.0
145
0.0
146
1.0
147
2.5
 71
     0
 72
     0
 73
     0
 74
     0
 75
     0
 76
     0
 77
     1
 78
     8
170
     0
171
     2
172
     1
173
     1
174
     0
175
     0
176
     3
177
     3
178
     2
270
     2
271
     2
272
     4
273
     2
274
     2
340
D4
275
     0
280
     0
281
     0
282
     0
283
     1
284
     0
285
     0
286
     0
287
     3
288
     0
  0
DIMSTYLE
105
346
102
{ACAD_REACTORS
330
347
102
}
330
A
100
AcDbSymbolTableRecord
100
AcDbDimStyleTableRecord
  2
ME10_DIM_27
 70
     0
  3

  4

  5

  6

  7

 40
1.0
 41
8.75
 42
0.0
 43
0.38
 44
2.0
 45
0.0
 46
0.0
 47
0.0
 48
0.0
140
8.75
141
0.09
142
0.0
143
25.4
144
1.0
145
0.0
146
1.0
147
2.5
 71
     0
 72
     0
 73
     0
 74
     0
 75
     0
 76
     0
 77
     1
 78
     8
170
     0
171
     2
172
     1
173
     1
174
     0
175
     0
176
     3
177
     3
178
     2
270
     2
271
     2
272
     4
273
     2
274
     2
340
D4
275
     0
280
     0
281
     0
282
     0
283
     1
284
     0
285
     0
286
     0
287
     3
288
     0
  0
DIMSTYLE
105
353
102
{ACAD_REACTORS
330
354
102
}
330
A
100
AcDbSymbolTableRecord
100
AcDbDimStyleTableRecord
  2
ME10_DIM_28
 70
     0
  3

  4

  5

  6

  7

 40
1.0
 41
8.75
 42
0.0
 43
0.38
 44
2.0
 45
0.0
 46
0.0
 47
0.0
 48
0.0
140
8.75
141
0.09
142
0.0
143
25.4
144
1.0
145
0.0
146
1.0
147
2.5
 71
     0
 72
     0
 73
     0
 74
     0
 75
     0
 76
     0
 77
     1
 78
     8
170
     0
171
     2
172
     1
173
     1
174
     0
175
     0
176
     3
177
     3
178
     2
270
     2
271
     2
272
     4
273
     2
274
     2
340
D4
275
     0
280
     0
281
     0
282
     0
283
     1
284
     0
285
     0
286
     0
287
     3
288
     0
  0
DIMSTYLE
105
360
102
{ACAD_REACTORS
330
361
102
}
330
A
100
AcDbSymbolTableRecord
100
AcDbDimStyleTableRecord
  2
ME10_DIM_29
 70
     0
  3

  4

  5

  6

  7

 40
1.0
 41
8.75
 42
0.0
 43
0.38
 44
2.0
 45
0.0
 46
0.0
 47
0.0
 48
0.0
140
8.75
141
0.09
142
0.0
143
25.4
144
1.0
145
0.0
146
1.0
147
2.5
 71
     0
 72
     0
 73
     0
 74
     0
 75
     0
 76
     0
 77
     1
 78
     8
170
     0
171
     2
172
     1
173
     1
174
     0
175
     0
176
     3
177
     3
178
     2
270
     2
271
     2
272
     4
273
     2
274
     2
340
D4
275
     0
280
     0
281
     0
282
     0
283
     1
284
     0
285
     0
286
     0
287
     3
288
     0
  0
DIMSTYLE
105
36D
102
{ACAD_REACTORS
330
36E
102
}
330
A
100
AcDbSymbolTableRecord
100
AcDbDimStyleTableRecord
  2
ME10_DIM_30
 70
     0
  3

  4

  5

  6

  7

 40
1.0
 41
8.75
 42
0.0
 43
0.38
 44
2.0
 45
0.0
 46
0.0
 47
0.0
 48
0.0
140
8.75
141
0.09
142
0.0
143
25.4
144
1.0
145
0.0
146
1.0
147
2.5
 71
     0
 72
     0
 73
     0
 74
     0
 75
     0
 76
     0
 77
     1
 78
     8
170
     0
171
     2
172
     1
173
     1
174
     0
175
     0
176
     3
177
     3
178
     2
270
     2
271
     2
272
     4
273
     2
274
     2
340
D4
275
     0
280
     0
281
     0
282
     0
283
     1
284
     0
285
     0
286
     0
287
     3
288
     0
  0
DIMSTYLE
105
378
102
{ACAD_REACTORS
330
379
102
}
330
A
100
AcDbSymbolTableRecord
100
AcDbDimStyleTableRecord
  2
ME10_DIM_31
 70
     0
  3

  4

  5

  6

  7

 40
1.0
 41
8.75
 42
0.0
 43
0.38
 44
2.0
 45
0.0
 46
0.0
 47
0.0
 48
0.0
140
8.75
141
0.09
142
0.0
143
25.4
144
1.0
145
0.0
146
1.0
147
2.5
 71
     0
 72
     0
 73
     0
 74
     0
 75
     0
 76
     0
 77
     1
 78
     8
170
     0
171
     2
172
     1
173
     1
174
     0
175
     0
176
     3
177
     3
178
     2
270
     2
271
     2
272
     4
273
     2
274
     2
340
D4
275
     0
280
     0
281
     0
282
     0
283
     1
284
     0
285
     0
286
     0
287
     3
288
     0
  0
DIMSTYLE
105
385
102
{ACAD_REACTORS
330
386
102
}
330
A
100
AcDbSymbolTableRecord
100
AcDbDimStyleTableRecord
  2
ME10_DIM_32
 70
     0
  3

  4

  5

  6

  7

 40
1.0
 41
8.75
 42
0.0
 43
0.38
 44
2.0
 45
0.0
 46
0.0
 47
0.0
 48
0.0
140
8.75
141
0.09
142
0.0
143
25.4
144
1.0
145
0.0
146
1.0
147
2.5
 71
     0
 72
     0
 73
     0
 74
     0
 75
     0
 76
     0
 77
     1
 78
     8
170
     0
171
     2
172
     1
173
     1
174
     0
175
     0
176
     3
177
     3
178
     2
270
     2
271
     2
272
     4
273
     2
274
     2
340
D4
275
     0
280
     0
281
     0
282
     0
283
     1
284
     0
285
     0
286
     0
287
     3
288
     0
  0
DIMSTYLE
105
390
102
{ACAD_REACTORS
330
391
102
}
330
A
100
AcDbSymbolTableRecord
100
AcDbDimStyleTableRecord
  2
ME10_DIM_33
 70
     0
  3

  4

  5

  6

  7

 40
1.0
 41
8.75
 42
0.0
 43
0.38
 44
2.0
 45
0.0
 46
0.0
 47
0.0
 48
0.0
140
8.75
141
0.09
142
0.0
143
25.4
144
1.0
145
0.0
146
1.0
147
2.5
 71
     0
 72
     0
 73
     0
 74
     0
 75
     0
 76
     0
 77
     1
 78
     8
170
     0
171
     2
172
     1
173
     1
174
     0
175
     0
176
     3
177
     3
178
     2
270
     2
271
     2
272
     4
273
     2
274
     2
340
D4
275
     0
280
     0
281
     0
282
     0
283
     1
284
     0
285
     0
286
     0
287
     3
288
     0
  0
DIMSTYLE
105
39D
102
{ACAD_REACTORS
330
39E
102
}
330
A
100
AcDbSymbolTableRecord
100
AcDbDimStyleTableRecord
  2
ME10_DIM_34
 70
     0
  3

  4

  5

  6

  7

 40
1.0
 41
8.75
 42
0.0
 43
0.38
 44
2.0
 45
0.0
 46
0.0
 47
0.0
 48
0.0
140
8.75
141
0.09
142
0.0
143
25.4
144
1.0
145
0.0
146
1.0
147
2.5
 71
     0
 72
     0
 73
     0
 74
     0
 75
     0
 76
     0
 77
     1
 78
     8
170
     0
171
     2
172
     1
173
     1
174
     0
175
     0
176
     3
177
     3
178
     2
270
     2
271
     2
272
     4
273
     2
274
     2
340
D4
275
     0
280
     0
281
     0
282
     0
283
     1
284
     0
285
     0
286
     0
287
     3
288
     0
  0
DIMSTYLE
105
3A8
102
{ACAD_REACTORS
330
3A9
102
}
330
A
100
AcDbSymbolTableRecord
100
AcDbDimStyleTableRecord
  2
ME10_DIM_35
 70
     0
  3

  4

  5

  6

  7

 40
1.0
 41
8.75
 42
0.0
 43
0.38
 44
2.0
 45
0.0
 46
0.0
 47
0.0
 48
0.0
140
8.75
141
0.09
142
0.0
143
25.4
144
1.0
145
0.0
146
1.0
147
2.5
 71
     0
 72
     0
 73
     0
 74
     0
 75
     0
 76
     0
 77
     1
 78
     8
170
     0
171
     2
172
     1
173
     1
174
     0
175
     0
176
     3
177
     3
178
     2
270
     2
271
     2
272
     4
273
     2
274
     2
340
D4
275
     0
280
     0
281
     0
282
     0
283
     1
284
     0
285
     0
286
     0
287
     3
288
     0
  0
DIMSTYLE
105
3B3
102
{ACAD_REACTORS
330
3B4
102
}
330
A
100
AcDbSymbolTableRecord
100
AcDbDimStyleTableRecord
  2
ME10_DIM_36
 70
     0
  3

  4

  5

  6

  7

 40
1.0
 41
8.75
 42
0.0
 43
0.38
 44
2.0
 45
0.0
 46
0.0
 47
0.0
 48
0.0
140
8.75
141
0.09
142
0.0
143
25.4
144
1.0
145
0.0
146
1.0
147
2.5
 71
     0
 72
     0
 73
     0
 74
     0
 75
     0
 76
     0
 77
     1
 78
     8
170
     0
171
     2
172
     1
173
     1
174
     0
175
     0
176
     3
177
     3
178
     2
270
     2
271
     2
272
     4
273
     2
274
     2
340
D4
275
     0
280
     0
281
     0
282
     0
283
     1
284
     0
285
     0
286
     0
287
     3
288
     0
  0
DIMSTYLE
105
3C0
102
{ACAD_REACTORS
330
3C1
102
}
330
A
100
AcDbSymbolTableRecord
100
AcDbDimStyleTableRecord
  2
ME10_DIM_37
 70
     0
  3

  4

  5

  6

  7

 40
1.0
 41
8.75
 42
0.0
 43
0.38
 44
2.0
 45
0.0
 46
0.0
 47
0.0
 48
0.0
140
8.75
141
0.09
142
0.0
143
25.4
144
1.0
145
0.0
146
1.0
147
2.5
 71
     0
 72
     0
 73
     0
 74
     0
 75
     0
 76
     0
 77
     1
 78
     8
170
     0
171
     2
172
     1
173
     1
174
     0
175
     0
176
     3
177
     3
178
     2
270
     2
271
     2
272
     4
273
     2
274
     2
340
D4
275
     0
280
     0
281
     0
282
     0
283
     1
284
     0
285
     0
286
     0
287
     3
288
     0
  0
DIMSTYLE
105
3CD
102
{ACAD_REACTORS
330
3CE
102
}
330
A
100
AcDbSymbolTableRecord
100
AcDbDimStyleTableRecord
  2
ME10_DIM_38
 70
     0
  3

  4

  5

  6

  7

 40
1.0
 41
8.75
 42
0.0
 43
0.38
 44
2.0
 45
0.0
 46
0.0
 47
0.0
 48
0.0
140
8.75
141
0.09
142
0.0
143
25.4
144
1.0
145
0.0
146
1.0
147
2.5
 71
     0
 72
     0
 73
     0
 74
     0
 75
     0
 76
     0
 77
     1
 78
     8
170
     0
171
     2
172
     1
173
     1
174
     0
175
     0
176
     3
177
     3
178
     2
270
     2
271
     2
272
     4
273
     2
274
     2
340
D4
275
     0
280
     0
281
     0
282
     0
283
     1
284
     0
285
     0
286
     0
287
     3
288
     0
  0
DIMSTYLE
105
3DA
102
{ACAD_REACTORS
330
3DB
102
}
330
A
100
AcDbSymbolTableRecord
100
AcDbDimStyleTableRecord
  2
ME10_DIM_39
 70
     0
  3

  4

  5

  6

  7

 40
1.0
 41
8.75
 42
0.0
 43
0.38
 44
2.0
 45
0.0
 46
0.0
 47
0.0
 48
0.0
140
8.75
141
0.09
142
0.0
143
25.4
144
1.0
145
0.0
146
1.0
147
2.5
 71
     0
 72
     0
 73
     0
 74
     0
 75
     0
 76
     0
 77
     1
 78
     8
170
     0
171
     2
172
     1
173
     1
174
     0
175
     0
176
     3
177
     3
178
     2
270
     2
271
     2
272
     4
273
     2
274
     2
340
D4
275
     0
280
     0
281
     0
282
     0
283
     1
284
     0
285
     0
286
     0
287
     3
288
     0
  0
DIMSTYLE
105
3E7
102
{ACAD_REACTORS
330
3E8
102
}
330
A
100
AcDbSymbolTableRecord
100
AcDbDimStyleTableRecord
  2
ME10_DIM_40
 70
     0
  3

  4

  5

  6

  7

 40
1.0
 41
8.75
 42
0.0
 43
0.38
 44
2.0
 45
0.0
 46
0.0
 47
0.0
 48
0.0
140
8.75
141
0.09
142
0.0
143
25.4
144
1.0
145
0.0
146
1.0
147
2.5
 71
     0
 72
     0
 73
     0
 74
     0
 75
     0
 76
     0
 77
     1
 78
     8
170
     0
171
     2
172
     1
173
     1
174
     0
175
     0
176
     3
177
     3
178
     2
270
     2
271
     2
272
     4
273
     2
274
     2
340
D4
275
     0
280
     0
281
     0
282
     0
283
     1
284
     0
285
     0
286
     0
287
     3
288
     0
  0
DIMSTYLE
105
3F4
102
{ACAD_REACTORS
330
3F5
102
}
330
A
100
AcDbSymbolTableRecord
100
AcDbDimStyleTableRecord
  2
ME10_DIM_41
 70
     0
  3

  4

  5

  6

  7

 40
1.0
 41
8.75
 42
0.0
 43
0.38
 44
2.0
 45
0.0
 46
0.0
 47
0.0
 48
0.0
140
8.75
141
0.09
142
0.0
143
25.4
144
1.0
145
0.0
146
1.0
147
2.5
 71
     0
 72
     0
 73
     0
 74
     0
 75
     0
 76
     0
 77
     1
 78
     8
170
     0
171
     2
172
     1
173
     1
174
     0
175
     0
176
     3
177
     3
178
     2
270
     2
271
     2
272
     4
273
     2
274
     2
340
D4
275
     0
280
     0
281
     0
282
     0
283
     1
284
     0
285
     0
286
     0
287
     3
288
     0
  0
DIMSTYLE
105
401
102
{ACAD_REACTORS
330
402
102
}
330
A
100
AcDbSymbolTableRecord
100
AcDbDimStyleTableRecord
  2
ME10_DIM_42
 70
     0
  3
<>
  4

  5

  6

  7

 40
1.0
 41
8.75
 42
0.0
 43
0.38
 44
2.0
 45
0.0
 46
0.0
 47
0.0
 48
0.0
140
8.75
141
0.09
142
0.0
143
25.4
144
1.0
145
0.0
146
0.71428571428571
147
2.5
 71
     1
 72
     0
 73
     0
 74
     0
 75
     0
 76
     0
 77
     1
 78
     8
170
     0
171
     2
172
     1
173
     1
174
     0
175
     0
176
     3
177
     3
178
     2
270
     2
271
     2
272
     0
273
     2
274
     2
340
D4
275
     0
280
     0
281
     0
282
     0
283
     1
284
     0
285
     0
286
     0
287
     3
288
     0
  0
ENDTAB
  0
TABLE
  2
BLOCK_RECORD
  5
1
330
0
100
AcDbSymbolTable
 70
    46
  0
BLOCK_RECORD
  5
1F
330
1
100
AcDbSymbolTableRecord
100
AcDbBlockTableRecord
  2
*MODEL_SPACE
  0
BLOCK_RECORD
  5
1B
330
1
100
AcDbSymbolTableRecord
100
AcDbBlockTableRecord
  2
*PAPER_SPACE
  0
BLOCK_RECORD
  5
39
330
1
100
AcDbSymbolTableRecord
100
AcDbBlockTableRecord
  2
_SCHRIFTFELD
  0
BLOCK_RECORD
  5
3C
330
1
100
AcDbSymbolTableRecord
100
AcDbBlockTableRecord
  2
_RAHMEN
  0
BLOCK_RECORD
  5
1F6
330
1
100
AcDbSymbolTableRecord
100
AcDbBlockTableRecord
  2
*D03
  0
BLOCK_RECORD
  5
203
330
1
100
AcDbSymbolTableRecord
100
AcDbBlockTableRecord
  2
*D14
  0
BLOCK_RECORD
  5
20E
330
1
100
AcDbSymbolTableRecord
100
AcDbBlockTableRecord
  2
*D25
  0
BLOCK_RECORD
  5
21B
330
1
100
AcDbSymbolTableRecord
100
AcDbBlockTableRecord
  2
*D36
  0
BLOCK_RECORD
  5
228
330
1
100
AcDbSymbolTableRecord
100
AcDbBlockTableRecord
  2
*D47
  0
BLOCK_RECORD
  5
235
330
1
100
AcDbSymbolTableRecord
100
AcDbBlockTableRecord
  2
*D58
  0
BLOCK_RECORD
  5
242
330
1
100
AcDbSymbolTableRecord
100
AcDbBlockTableRecord
  2
*D69
  0
BLOCK_RECORD
  5
24F
330
1
100
AcDbSymbolTableRecord
100
AcDbBlockTableRecord
  2
*D710
  0
BLOCK_RECORD
  5
25C
330
1
100
AcDbSymbolTableRecord
100
AcDbBlockTableRecord
  2
*D811
  0
BLOCK_RECORD
  5
269
330
1
100
AcDbSymbolTableRecord
100
AcDbBlockTableRecord
  2
*D912
  0
BLOCK_RECORD
  5
274
330
1
100
AcDbSymbolTableRecord
100
AcDbBlockTableRecord
  2
*D1013
  0
BLOCK_RECORD
  5
27F
330
1
100
AcDbSymbolTableRecord
100
AcDbBlockTableRecord
  2
*D1114
  0
BLOCK_RECORD
  5
28A
330
1
100
AcDbSymbolTableRecord
100
AcDbBlockTableRecord
  2
*D1215
  0
BLOCK_RECORD
  5
295
330
1
100
AcDbSymbolTableRecord
100
AcDbBlockTableRecord
  2
*D1316
  0
BLOCK_RECORD
  5
2A0
330
1
100
AcDbSymbolTableRecord
100
AcDbBlockTableRecord
  2
*D1417
  0
BLOCK_RECORD
  5
2AD
330
1
100
AcDbSymbolTableRecord
100
AcDbBlockTableRecord
  2
*D1518
  0
BLOCK_RECORD
  5
2B8
330
1
100
AcDbSymbolTableRecord
100
AcDbBlockTableRecord
  2
*D1619
  0
BLOCK_RECORD
  5
2C3
330
1
100
AcDbSymbolTableRecord
100
AcDbBlockTableRecord
  2
*D1720
  0
BLOCK_RECORD
  5
2CE
330
1
100
AcDbSymbolTableRecord
100
AcDbBlockTableRecord
  2
*D1821
  0
BLOCK_RECORD
  5
2D9
330
1
100
AcDbSymbolTableRecord
100
AcDbBlockTableRecord
  2
*D1922
  0
BLOCK_RECORD
  5
2E4
330
1
100
AcDbSymbolTableRecord
100
AcDbBlockTableRecord
  2
*D2023
  0
BLOCK_RECORD
  5
2F1
330
1
100
AcDbSymbolTableRecord
100
AcDbBlockTableRecord
  2
*D2124
  0
BLOCK_RECORD
  5
2FC
330
1
100
AcDbSymbolTableRecord
100
AcDbBlockTableRecord
  2
*D2225
  0
BLOCK_RECORD
  5
309
330
1
100
AcDbSymbolTableRecord
100
AcDbBlockTableRecord
  2
*D2326
  0
BLOCK_RECORD
  5
314
330
1
100
AcDbSymbolTableRecord
100
AcDbBlockTableRecord
  2
*D2427
  0
BLOCK_RECORD
  5
321
330
1
100
AcDbSymbolTableRecord
100
AcDbBlockTableRecord
  2
*D2528
  0
BLOCK_RECORD
  5
32E
330
1
100
AcDbSymbolTableRecord
100
AcDbBlockTableRecord
  2
*D2629
  0
BLOCK_RECORD
  5
33B
330
1
100
AcDbSymbolTableRecord
100
AcDbBlockTableRecord
  2
*D2730
  0
BLOCK_RECORD
  5
348
330
1
100
AcDbSymbolTableRecord
100
AcDbBlockTableRecord
  2
*D2831
  0
BLOCK_RECORD
  5
355
330
1
100
AcDbSymbolTableRecord
100
AcDbBlockTableRecord
  2
*D2932
  0
BLOCK_RECORD
  5
362
330
1
100
AcDbSymbolTableRecord
100
AcDbBlockTableRecord
  2
*D3033
  0
BLOCK_RECORD
  5
36F
330
1
100
AcDbSymbolTableRecord
100
AcDbBlockTableRecord
  2
*D3134
  0
BLOCK_RECORD
  5
37A
330
1
100
AcDbSymbolTableRecord
100
AcDbBlockTableRecord
  2
*D3235
  0
BLOCK_RECORD
  5
387
330
1
100
AcDbSymbolTableRecord
100
AcDbBlockTableRecord
  2
*D3336
  0
BLOCK_RECORD
  5
392
330
1
100
AcDbSymbolTableRecord
100
AcDbBlockTableRecord
  2
*D3437
  0
BLOCK_RECORD
  5
39F
330
1
100
AcDbSymbolTableRecord
100
AcDbBlockTableRecord
  2
*D3538
  0
BLOCK_RECORD
  5
3AA
330
1
100
AcDbSymbolTableRecord
100
AcDbBlockTableRecord
  2
*D3639
  0
BLOCK_RECORD
  5
3B5
330
1
100
AcDbSymbolTableRecord
100
AcDbBlockTableRecord
  2
*D3740
  0
BLOCK_RECORD
  5
3C2
330
1
100
AcDbSymbolTableRecord
100
AcDbBlockTableRecord
  2
*D3841
  0
BLOCK_RECORD
  5
3CF
330
1
100
AcDbSymbolTableRecord
100
AcDbBlockTableRecord
  2
*D3942
  0
BLOCK_RECORD
  5
3DC
330
1
100
AcDbSymbolTableRecord
100
AcDbBlockTableRecord
  2
*D4043
  0
BLOCK_RECORD
  5
3E9
330
1
100
AcDbSymbolTableRecord
100
AcDbBlockTableRecord
  2
*D4144
  0
BLOCK_RECORD
  5
3F6
330
1
100
AcDbSymbolTableRecord
100
AcDbBlockTableRecord
  2
*D4245
  0
ENDTAB
  0
ENDSEC
  0
SECTION
  2
BLOCKS
  0
BLOCK
  5
20
330
1F
100
AcDbEntity
  8
0
100
AcDbBlockBegin
  2
*MODEL_SPACE
 70
     0
 71
     0
 10
0.0
 20
0.0
 30
0.0
  3
*MODEL_SPACE
  1

  0
ENDBLK
  5
21
330
1F
100
AcDbEntity
  8
0
100
AcDbBlockEnd
  0
BLOCK
  5
1C
330
1B
100
AcDbEntity
 67
     1
  8
0
100
AcDbBlockBegin
  2
*PAPER_SPACE
 70
     0
 71
     0
 10
0.0
 20
0.0
 30
0.0
  3
*PAPER_SPACE
  1

  0
ENDBLK
  5
1D
330
1B
100
AcDbEntity
 67
     1
  8
0
100
AcDbBlockEnd
  0
BLOCK
  5
3A
330
39
100
AcDbEntity
  8
0
100
AcDbBlockBegin
  2
_SCHRIFTFELD
 70
     0
 71
     0
 10
186.2344897372394
 20
-140.788093046024
 30
0.0
  3
_SCHRIFTFELD
  1

  0
POINT
  5
41
330
39
100
AcDbEntity
  8
1
 62
     3
 60
     1
100
AcDbPoint
 10
124.4059042250036
 20
-118.7795814679899
 30
0.0
  0
POINT
  5
42
330
39
100
AcDbEntity
  8
1
 62
     3
 60
     1
100
AcDbPoint
 10
125.3585142946344
 20
-120.4455930460242
 30
0.0
  0
POINT
  5
43
330
39
100
AcDbEntity
  8
1
 62
     3
 60
     1
100
AcDbPoint
 10
125.6872518167756
 20
-120.2576239598627
 30
0.0
  0
POINT
  5
44
330
39
100
AcDbEntity
  8
1
 62
     3
 60
     1
100
AcDbPoint
 10
122.6412930998124
 20
-120.687093046024
 30
0.0
  0
POINT
  5
45
330
39
100
AcDbEntity
  8
1
 62
     3
 60
     1
100
AcDbPoint
 10
132.7298495175794
 20
-119.2486524209355
 30
0.0
  0
POINT
  5
46
330
39
100
AcDbEntity
  8
1
 62
     3
 60
     1
100
AcDbPoint
 10
129.9666519732917
 20
-117.2410718917303
 30
0.0
  0
POINT
  5
47
330
39
100
AcDbEntity
  8
1
 62
     3
 60
     1
100
AcDbPoint
 10
131.8173129133953
 20
-120.5046513047024
 30
0.0
  0
POINT
  5
48
330
39
100
AcDbEntity
  8
1
 62
     3
 60
     1
100
AcDbPoint
 10
119.9970529823992
 20
-111.916729772756
 30
0.0
  0
POINT
  5
49
330
39
100
AcDbEntity
  8
1
 62
     3
 60
     1
100
AcDbPoint
 10
130.2019897372392
 20
-119.3310503207524
 30
0.0
  0
POINT
  5
4A
330
39
100
AcDbEntity
  8
1
 62
     3
 60
     1
100
AcDbPoint
 10
119.5069897372392
 20
-122.5155930460242
 30
0.0
  0
POINT
  5
4B
330
39
100
AcDbEntity
  8
1
 62
     3
 60
     1
100
AcDbPoint
 10
132.9619897372393
 20
-120.696642519691
 30
0.0
  0
POINT
  5
4C
330
39
100
AcDbEntity
  8
1
 62
     3
 60
     1
100
AcDbPoint
 10
132.9619897372393
 20
-122.5155930460242
 30
0.0
  0
POINT
  5
4D
330
39
100
AcDbEntity
  8
1
 62
     3
 60
     1
100
AcDbPoint
 10
131.6830378977298
 20
-109.0605930460241
 30
0.0
  0
POINT
  5
4E
330
39
100
AcDbEntity
  8
1
 62
     3
 60
     1
100
AcDbPoint
 10
127.5640458784394
 20
-119.861930049583
 30
0.0
  0
POINT
  5
4F
330
39
100
AcDbEntity
  8
1
 62
     3
 60
     1
100
AcDbPoint
 10
121.2059599277967
 20
-117.4834812456861
 30
0.0
  0
POINT
  5
50
330
39
100
AcDbEntity
  8
1
 62
     3
 60
     1
100
AcDbPoint
 10
121.2674571867987
 20
-119.6691096183611
 30
0.0
  0
POINT
  5
51
330
39
100
AcDbEntity
  8
1
 62
     3
 60
     1
100
AcDbPoint
 10
122.0248782399958
 20
-120.3746217286312
 30
0.0
  0
POINT
  5
52
330
39
100
AcDbEntity
  8
1
 62
     3
 60
     1
100
AcDbPoint
 10
122.3489641746638
 20
-120.7012760948541
 30
0.0
  0
POINT
  5
53
330
39
100
AcDbEntity
  8
1
 62
     3
 60
     1
100
AcDbPoint
 10
121.791100377022
 20
-120.1568655509485
 30
0.0
  0
POINT
  5
54
330
39
100
AcDbEntity
  8
1
 62
     3
 60
     1
100
AcDbPoint
 10
126.9663194308307
 20
-119.2419746418455
 30
0.0
  0
POINT
  5
55
330
39
100
AcDbEntity
  8
1
 62
     3
 60
     1
100
AcDbPoint
 10
127.8993783791774
 20
-118.4404586458757
 30
0.0
  0
POINT
  5
56
330
39
100
AcDbEntity
  8
1
 62
     3
 60
     1
100
AcDbPoint
 10
119.3344897372393
 20
-122.6880930460241
 30
0.0
  0
POINT
  5
57
330
39
100
AcDbEntity
  8
1
 62
     3
 60
     1
100
AcDbPoint
 10
133.1344897372393
 20
-110.2680930460239
 30
0.0
  0
POINT
  5
58
330
39
100
AcDbEntity
  8
1
 62
     3
 60
     1
100
AcDbPoint
 10
119.5069897372392
 20
-120.687093046024
 30
0.0
  0
POINT
  5
59
330
39
100
AcDbEntity
  8
1
 62
     3
 60
     1
100
AcDbPoint
 10
128.6494897372393
 20
-120.687093046024
 30
0.0
  0
POINT
  5
5A
330
39
100
AcDbEntity
  8
1
 62
     3
 60
     1
100
AcDbPoint
 10
120.3012318504605
 20
-111.498063478167
 30
0.0
  0
POINT
  5
5B
330
39
100
AcDbEntity
  8
1
 62
     3
 60
     1
100
AcDbPoint
 10
129.5002443755976
 20
-117.8830268767669
 30
0.0
  0
POINT
  5
5C
330
39
100
AcDbEntity
  8
1
 62
     3
 60
     1
100
AcDbPoint
 10
119.8519897372391
 20
-120.687093046024
 30
0.0
  0
POINT
  5
5D
330
39
100
AcDbEntity
  8
1
 62
     3
 60
     1
100
AcDbPoint
 10
123.808376233457
 20
-119.824593046024
 30
0.0
  0
POINT
  5
5E
330
39
100
AcDbEntity
  8
1
 62
     3
 60
     1
100
AcDbPoint
 10
124.7864376132765
 20
-119.4450930460241
 30
0.0
  0
POINT
  5
5F
330
39
100
AcDbEntity
  8
1
 62
     3
 60
     1
100
AcDbPoint
 10
123.453294155373
 20
-120.4455930460242
 30
0.0
  0
POINT
  5
60
330
39
100
AcDbEntity
  8
1
 62
     3
 60
     1
100
AcDbPoint
 10
124.0253708367308
 20
-119.4450930460241
 30
0.0
  0
POINT
  5
61
330
39
100
AcDbEntity
  8
1
 62
     3
 60
     1
100
AcDbPoint
 10
125.0034322165501
 20
-119.824593046024
 30
0.0
  0
POINT
  5
62
330
39
100
AcDbEntity
  8
1
 62
     3
 60
     1
100
AcDbPoint
 10
123.1245566332316
 20
-120.2576239598627
 30
0.0
  0
POINT
  5
63
330
39
100
AcDbEntity
  8
1
 62
     3
 60
     1
100
AcDbPoint
 10
124.4059042250036
 20
-118.0166861496986
 30
0.0
  0
POINT
  5
64
330
39
100
AcDbEntity
  8
1
 62
     3
 60
     1
100
AcDbPoint
 10
122.4969897372392
 20
-120.9630930460239
 30
0.0
  0
POINT
  5
65
330
39
100
AcDbEntity
  8
1
 62
     3
 60
     1
100
AcDbPoint
 10
132.2634419198853
 20
-119.8906074059718
 30
0.0
  0
POINT
  5
66
330
39
100
AcDbEntity
  8
1
 62
     3
 60
     1
100
AcDbPoint
 10
132.1214917814567
 20
-120.0859850101134
 30
0.0
  0
POINT
  5
67
330
39
100
AcDbEntity
  8
1
 62
     3
 60
     1
100
AcDbPoint
 10
128.6494897372392
 20
-118.2030930460242
 30
0.0
  0
POINT
  5
68
330
39
100
AcDbEntity
  8
1
 62
     3
 60
     1
100
AcDbPoint
 10
119.5069897372392
 20
-120.9630930460239
 30
0.0
  0
POINT
  5
69
330
39
100
AcDbEntity
  8
1
 62
     3
 60
     1
100
AcDbPoint
 10
132.9619897372393
 20
-120.9630930460239
 30
0.0
  0
POINT
  5
6A
330
39
100
AcDbEntity
  8
1
 62
     3
 60
     1
100
AcDbPoint
 10
132.9619897372393
 20
-110.3395448855333
 30
0.0
  0
POINT
  5
6B
330
39
100
AcDbEntity
  8
1
 62
     3
 60
     1
100
AcDbPoint
 10
119.5069897372392
 20
-109.0605930460241
 30
0.0
  0
POINT
  5
6C
330
39
100
AcDbEntity
  8
1
 62
     3
 60
     1
100
AcDbPoint
 10
133.1344897372393
 20
-122.6880930460241
 30
0.0
  0
POINT
  5
6D
330
39
100
AcDbEntity
  8
1
 62
     3
 60
     1
100
AcDbPoint
 10
131.7544897372392
 20
-108.8880930460242
 30
0.0
  0
POINT
  5
6E
330
39
100
AcDbEntity
  8
1
 62
     3
 60
     1
100
AcDbPoint
 10
119.3344897372393
 20
-108.8880930460242
 30
0.0
  0
POINT
  5
6F
330
39
100
AcDbEntity
  8
1
 62
     3
 60
     1
100
AcDbPoint
 10
127.9090458784408
 20
-120.0320972512324
 30
0.0
  0
POINT
  5
70
330
39
100
AcDbEntity
  8
1
 62
     3
 60
     1
100
AcDbPoint
 10
127.6167751392313
 20
-118.6775909202841
 30
0.0
  0
POINT
  5
71
330
39
100
AcDbEntity
  8
1
 62
     3
 60
     1
100
AcDbPoint
 10
122.0576995078681
 20
-119.4243904589026
 30
0.0
  0
POINT
  5
72
330
39
100
AcDbEntity
  8
1
 62
     3
 60
     1
100
AcDbPoint
 10
121.386957748306
 20
-120.697289371792
 30
0.0
  0
POINT
  5
73
330
39
100
AcDbEntity
  8
1
 62
     3
 60
     1
100
AcDbPoint
 10
120.0559599277966
 20
-120.9807506804661
 30
0.0
  0
LINE
  5
74
330
39
100
AcDbEntity
  8
Z4
  6
CONTINUOUS
 62
     6
100
AcDbLine
 10
36.23448973723941
 20
-107.788093046024
 30
0.0
 11
186.2344897372394
 21
-107.788093046024
 31
0.0
  0
LINE
  5
75
330
39
100
AcDbEntity
  8
Z4
  6
CONTINUOUS
 62
     6
100
AcDbLine
 10
36.23448973723941
 20
-107.788093046024
 30
0.0
 11
36.23448973723941
 21
-123.788093046024
 31
0.0
  0
LINE
  5
76
102
{ACAD_REACTORS
330
10B
330
10B
102
}
330
39
100
AcDbEntity
  8
1
  6
CONTINUOUS
 62
     5
100
AcDbLine
 10
119.3344897372393
 20
-122.6880930460241
 30
0.0
 11
119.3344897372393
 21
-108.8880930460242
 31
0.0
  0
LINE
  5
77
102
{ACAD_REACTORS
330
10B
330
10B
102
}
330
39
100
AcDbEntity
  8
1
  6
CONTINUOUS
 62
     5
100
AcDbLine
 10
119.3344897372393
 20
-108.8880930460242
 30
0.0
 11
131.7544897372392
 21
-108.8880930460242
 31
0.0
  0
LINE
  5
78
102
{ACAD_REACTORS
330
10B
330
10B
102
}
330
39
100
AcDbEntity
  8
1
  6
CONTINUOUS
 62
     5
100
AcDbLine
 10
131.7544897372392
 20
-108.8880930460242
 30
0.0
 11
133.1344897372393
 21
-110.2680930460239
 31
0.0
  0
LINE
  5
79
102
{ACAD_REACTORS
330
10B
330
10B
102
}
330
39
100
AcDbEntity
  8
1
  6
CONTINUOUS
 62
     5
100
AcDbLine
 10
133.1344897372393
 20
-110.2680930460239
 30
0.0
 11
133.1344897372393
 21
-122.6880930460241
 31
0.0
  0
LINE
  5
7A
102
{ACAD_REACTORS
330
10B
330
10B
102
}
330
39
100
AcDbEntity
  8
1
  6
CONTINUOUS
 62
     5
100
AcDbLine
 10
133.1344897372393
 20
-122.6880930460241
 30
0.0
 11
119.3344897372393
 21
-122.6880930460241
 31
0.0
  0
LINE
  5
7B
102
{ACAD_REACTORS
330
10B
330
10B
102
}
330
39
100
AcDbEntity
  8
1
  6
CONTINUOUS
 62
     5
100
AcDbLine
 10
119.5069897372392
 20
-109.0605930460241
 30
0.0
 11
131.6830378977298
 21
-109.0605930460241
 31
0.0
  0
LINE
  5
7C
102
{ACAD_REACTORS
330
10B
330
10B
102
}
330
39
100
AcDbEntity
  8
1
  6
CONTINUOUS
 62
     5
100
AcDbLine
 10
131.6830378977298
 20
-109.0605930460241
 30
0.0
 11
132.9619897372393
 21
-110.3395448855333
 31
0.0
  0
LINE
  5
7D
102
{ACAD_REACTORS
330
10B
330
10B
102
}
330
39
100
AcDbEntity
  8
1
  6
CONTINUOUS
 62
     5
100
AcDbLine
 10
132.9619897372393
 20
-110.3395448855333
 30
0.0
 11
132.9619897372393
 21
-120.696642519691
 31
0.0
  0
LINE
  5
7E
102
{ACAD_REACTORS
330
10B
330
10B
102
}
330
39
100
AcDbEntity
  8
1
  6
CONTINUOUS
 62
     5
100
AcDbLine
 10
132.9619897372393
 20
-122.5155930460242
 30
0.0
 11
119.5069897372392
 21
-122.5155930460242
 31
0.0
  0
LINE
  5
7F
102
{ACAD_REACTORS
330
10B
330
10B
102
}
330
39
100
AcDbEntity
  8
1
  6
CONTINUOUS
 62
     5
100
AcDbLine
 10
119.5069897372392
 20
-122.5155930460242
 30
0.0
 11
119.5069897372392
 21
-120.9630930460239
 31
0.0
  0
LINE
  5
80
102
{ACAD_REACTORS
330
10B
330
10B
102
}
330
39
100
AcDbEntity
  8
1
  6
CONTINUOUS
 62
     5
100
AcDbLine
 10
128.6494897372392
 20
-118.2030930460242
 30
0.0
 11
128.6494897372393
 21
-120.687093046024
 31
0.0
  0
LINE
  5
81
102
{ACAD_REACTORS
330
10B
330
10B
102
}
330
39
100
AcDbEntity
  8
1
  6
CONTINUOUS
 62
     5
100
AcDbLine
 10
130.2019897372392
 20
-119.3310503207524
 30
0.0
 11
130.2019897372396
 21
-120.6966425196911
 31
0.0
  0
LINE
  5
82
102
{ACAD_REACTORS
330
10B
330
10B
102
}
330
39
100
AcDbEntity
  8
1
  6
CONTINUOUS
 62
     5
100
AcDbLine
 10
128.6494897372392
 20
-118.2030930460242
 30
0.0
 11
119.9970529823992
 21
-111.916729772756
 31
0.0
  0
LINE
  5
83
102
{ACAD_REACTORS
330
10B
330
10B
102
}
330
39
100
AcDbEntity
  8
1
  6
CONTINUOUS
 62
     5
100
AcDbLine
 10
120.3012318504605
 20
-111.498063478167
 30
0.0
 11
119.9970529823992
 21
-111.916729772756
 31
0.0
  0
LINE
  5
84
102
{ACAD_REACTORS
330
10B
330
10B
102
}
330
39
100
AcDbEntity
  8
1
  6
CONTINUOUS
 62
     5
100
AcDbLine
 10
130.2019897372392
 20
-119.3310503207524
 30
0.0
 11
131.8173129133953
 21
-120.5046513047024
 31
0.0
  0
LINE
  5
85
102
{ACAD_REACTORS
330
10B
330
10B
102
}
330
39
100
AcDbEntity
  8
1
  6
CONTINUOUS
 62
     5
100
AcDbLine
 10
132.1214917814567
 20
-120.0859850101134
 30
0.0
 11
120.3012318504605
 21
-111.498063478167
 31
0.0
  0
LINE
  5
86
102
{ACAD_REACTORS
330
10C
330
10C
102
}
330
39
100
AcDbEntity
  8
1
  6
CONTINUOUS
 62
     5
100
AcDbLine
 10
129.9666519732917
 20
-117.2410718917303
 30
0.0
 11
129.5002443755976
 21
-117.8830268767669
 31
0.0
  0
LINE
  5
87
102
{ACAD_REACTORS
330
10C
330
10C
102
}
330
39
100
AcDbEntity
  8
1
  6
CONTINUOUS
 62
     5
100
AcDbLine
 10
129.5002443755976
 20
-117.8830268767669
 30
0.0
 11
132.2634419198853
 21
-119.8906074059718
 31
0.0
  0
LINE
  5
88
102
{ACAD_REACTORS
330
10C
330
10C
102
}
330
39
100
AcDbEntity
  8
1
  6
CONTINUOUS
 62
     5
100
AcDbLine
 10
132.2634419198853
 20
-119.8906074059718
 30
0.0
 11
132.7298495175794
 21
-119.2486524209355
 31
0.0
  0
LINE
  5
89
102
{ACAD_REACTORS
330
10C
330
10C
102
}
330
39
100
AcDbEntity
  8
1
  6
CONTINUOUS
 62
     5
100
AcDbLine
 10
132.7298495175794
 20
-119.2486524209355
 30
0.0
 11
129.9666519732917
 21
-117.2410718917303
 31
0.0
  0
LINE
  5
8A
102
{ACAD_REACTORS
330
10B
330
10B
102
}
330
39
100
AcDbEntity
  8
1
  6
CONTINUOUS
 62
     5
100
AcDbLine
 10
132.1214917814567
 20
-120.0859850101134
 30
0.0
 11
131.8173129133953
 21
-120.5046513047024
 31
0.0
  0
LINE
  5
8B
102
{ACAD_REACTORS
330
10B
330
10B
102
}
330
39
100
AcDbEntity
  8
1
  6
CONTINUOUS
 62
     5
100
AcDbLine
 10
132.9619897372393
 20
-120.696642519691
 30
0.0
 11
130.2019897372396
 21
-120.6966425196911
 31
0.0
  0
LINE
  5
8C
102
{ACAD_REACTORS
330
10B
330
10B
102
}
330
39
100
AcDbEntity
  8
1
  6
CONTINUOUS
 62
     5
100
AcDbLine
 10
132.9619897372393
 20
-120.9630930460239
 30
0.0
 11
122.4969897372392
 21
-120.9630930460239
 31
0.0
  0
LINE
  5
8D
102
{ACAD_REACTORS
330
10B
330
10B
102
}
330
39
100
AcDbEntity
  8
1
  6
CONTINUOUS
 62
     5
100
AcDbLine
 10
132.9619897372393
 20
-120.9630930460239
 30
0.0
 11
132.9619897372393
 21
-122.5155930460242
 31
0.0
  0
LINE
  5
8E
102
{ACAD_REACTORS
330
10B
330
10B
102
}
330
39
100
AcDbEntity
  8
1
  6
CONTINUOUS
 62
     5
100
AcDbLine
 10
122.4969897372392
 20
-120.9630930460239
 30
0.0
 11
122.6412930998124
 21
-120.687093046024
 31
0.0
  0
LINE
  5
8F
102
{ACAD_REACTORS
330
10B
330
10B
102
}
330
39
100
AcDbEntity
  8
1
  6
CONTINUOUS
 62
     5
100
AcDbLine
 10
122.6412930998124
 20
-120.687093046024
 30
0.0
 11
128.6494897372393
 21
-120.687093046024
 31
0.0
  0
LINE
  5
90
102
{ACAD_REACTORS
330
10B
330
10B
102
}
330
39
100
AcDbEntity
  8
1
  6
CONTINUOUS
 62
     5
100
AcDbLine
 10
119.5069897372392
 20
-120.687093046024
 30
0.0
 11
119.8519897372391
 21
-120.687093046024
 31
0.0
  0
LINE
  5
91
102
{ACAD_REACTORS
330
10B
330
10B
102
}
330
39
100
AcDbEntity
  8
1
  6
CONTINUOUS
 62
     5
100
AcDbLine
 10
119.5069897372392
 20
-120.687093046024
 30
0.0
 11
119.5069897372392
 21
-109.0605930460241
 31
0.0
  0
LINE
  5
92
102
{ACAD_REACTORS
330
10B
330
10B
102
}
330
39
100
AcDbEntity
  8
1
  6
CONTINUOUS
 62
     5
100
AcDbLine
 10
119.8519897372391
 20
-120.687093046024
 30
0.0
 11
119.7830192960136
 21
-120.9630930460241
 31
0.0
  0
LINE
  5
93
102
{ACAD_REACTORS
330
10B
330
10B
102
}
330
39
100
AcDbEntity
  8
1
  6
CONTINUOUS
 62
     5
100
AcDbLine
 10
119.5069897372392
 20
-120.9630930460239
 30
0.0
 11
119.7830192960136
 21
-120.9630930460241
 31
0.0
  0
LINE
  5
94
330
39
100
AcDbEntity
  8
1
  6
CONTINUOUS
 62
     5
100
AcDbLine
 10
126.7926642812754
 20
-119.3960650641971
 30
0.0
 11
126.9663194308303
 21
-119.0552476433446
 31
0.0
  0
LINE
  5
95
330
39
100
AcDbEntity
  8
1
  6
CONTINUOUS
 62
     5
100
AcDbLine
 10
127.5640458784395
 20
-119.3960650641971
 30
0.0
 11
126.7926642812754
 21
-119.3960650641971
 31
0.0
  0
LINE
  5
96
330
39
100
AcDbEntity
  8
1
  6
CONTINUOUS
 62
     5
100
AcDbLine
 10
127.5640458784395
 20
-119.3960650641971
 30
0.0
 11
127.5640458784394
 21
-119.861930049583
 31
0.0
  0
LINE
  5
97
330
39
100
AcDbEntity
  8
1
  6
CONTINUOUS
 62
     5
100
AcDbLine
 10
126.9663194308303
 20
-119.0552476433446
 30
0.0
 11
127.9090458784408
 21
-119.0552476433446
 31
0.0
  0
LINE
  5
98
330
39
100
AcDbEntity
  8
1
  6
CONTINUOUS
 62
     5
100
AcDbLine
 10
127.9090458784408
 20
-119.0552476433446
 30
0.0
 11
127.9090458784408
 21
-120.0320972512324
 31
0.0
  0
LINE
  5
99
330
39
100
AcDbEntity
  8
1
  6
CONTINUOUS
 62
     5
100
AcDbLine
 10
123.1245566332316
 20
-120.2576239598627
 30
0.0
 11
124.4059042250036
 21
-118.0166861496986
 31
0.0
  0
LINE
  5
9A
330
39
100
AcDbEntity
  8
1
  6
CONTINUOUS
 62
     5
100
AcDbLine
 10
124.4059042250036
 20
-118.0166861496986
 30
0.0
 11
125.6872518167756
 21
-120.2576239598627
 31
0.0
  0
LINE
  5
9B
330
39
100
AcDbEntity
  8
1
  6
CONTINUOUS
 62
     5
100
AcDbLine
 10
125.6872518167756
 20
-120.2576239598627
 30
0.0
 11
125.3585142946344
 21
-120.4455930460242
 31
0.0
  0
LINE
  5
9C
330
39
100
AcDbEntity
  8
1
  6
CONTINUOUS
 62
     5
100
AcDbLine
 10
125.3585142946344
 20
-120.4455930460242
 30
0.0
 11
125.0034322165501
 21
-119.824593046024
 31
0.0
  0
LINE
  5
9D
330
39
100
AcDbEntity
  8
1
  6
CONTINUOUS
 62
     5
100
AcDbLine
 10
125.0034322165501
 20
-119.824593046024
 30
0.0
 11
123.808376233457
 21
-119.824593046024
 31
0.0
  0
LINE
  5
9E
330
39
100
AcDbEntity
  8
1
  6
CONTINUOUS
 62
     5
100
AcDbLine
 10
123.808376233457
 20
-119.824593046024
 30
0.0
 11
123.453294155373
 21
-120.4455930460242
 31
0.0
  0
LINE
  5
9F
330
39
100
AcDbEntity
  8
1
  6
CONTINUOUS
 62
     5
100
AcDbLine
 10
123.453294155373
 20
-120.4455930460242
 30
0.0
 11
123.1245566332316
 21
-120.2576239598627
 31
0.0
  0
LINE
  5
A0
330
39
100
AcDbEntity
  8
1
  6
CONTINUOUS
 62
     5
100
AcDbLine
 10
124.0253708367308
 20
-119.4450930460241
 30
0.0
 11
124.4059042250036
 21
-118.7795814679899
 31
0.0
  0
LINE
  5
A1
330
39
100
AcDbEntity
  8
1
  6
CONTINUOUS
 62
     5
100
AcDbLine
 10
124.0253708367308
 20
-119.4450930460241
 30
0.0
 11
124.7864376132765
 21
-119.4450930460241
 31
0.0
  0
LINE
  5
A2
330
39
100
AcDbEntity
  8
1
  6
CONTINUOUS
 62
     5
100
AcDbLine
 10
124.4059042250036
 20
-118.7795814679899
 30
0.0
 11
124.7864376132765
 21
-119.4450930460241
 31
0.0
  0
LINE
  5
A3
330
39
100
AcDbEntity
  8
1
  6
CONTINUOUS
 62
     5
100
AcDbLine
 10
127.6167751392313
 20
-118.6775909202841
 30
0.0
 11
127.8993783791774
 21
-118.4404586458757
 31
0.0
  0
LINE
  5
A4
102
{ACAD_REACTORS
330
10A
330
10A
102
}
330
39
100
AcDbEntity
  8
1
  6
CONTINUOUS
 62
     5
100
AcDbLine
 10
120.1684508218685
 20
-120.5305942625548
 30
0.0
 11
120.0559599277966
 21
-120.9807506804661
 31
0.0
  0
LINE
  5
A5
102
{ACAD_REACTORS
330
10A
330
10A
102
}
330
39
100
AcDbEntity
  8
1
  6
CONTINUOUS
 62
     5
100
AcDbLine
 10
122.2434690337235
 20
-118.1178616077937
 30
0.0
 11
122.3559599277963
 21
-117.6677051898824
 31
0.0
  0
LINE
  5
A6
102
{ACAD_REACTORS
330
10A
330
10A
102
}
330
39
100
AcDbEntity
  8
1
  6
CONTINUOUS
 62
     5
100
AcDbLine
 10
120.5115496136535
 20
-118.7918068058841
 30
0.0
 11
122.0576995078681
 21
-119.4243904589026
 31
0.0
  0
LINE
  5
A7
102
{ACAD_REACTORS
330
10A
330
10A
102
}
330
39
100
AcDbEntity
  8
1
  6
CONTINUOUS
 62
     5
100
AcDbLine
 10
120.3542203477235
 20
-119.2240654114456
 30
0.0
 11
121.9003702419383
 21
-119.8566490644643
 31
0.0
  0
LINE
  5
A8
330
39
100
AcDbEntity
  8
Z1
  6
CONTINUOUS
 62
     7
100
AcDbLine
 10
6.23448973723941
 20
-89.78809304602402
 30
0.0
 11
186.2344897372394
 21
-89.78809304602402
 31
0.0
  0
LINE
  5
A9
330
39
100
AcDbEntity
  8
Z4
  6
CONTINUOUS
 62
     6
100
AcDbLine
 10
6.23448973723941
 20
-123.788093046024
 30
0.0
 11
186.2344897372394
 21
-123.788093046024
 31
0.0
  0
LINE
  5
AA
330
39
100
AcDbEntity
  8
Z4
  6
CONTINUOUS
 62
     6
100
AcDbLine
 10
25.23448973723941
 20
-123.788093046024
 30
0.0
 11
25.23448973723941
 21
-140.788093046024
 31
0.0
  0
LINE
  5
AB
330
39
100
AcDbEntity
  8
Z4
  6
CONTINUOUS
 62
     6
100
AcDbLine
 10
137.2344897372394
 20
-123.788093046024
 30
0.0
 11
137.2344897372394
 21
-140.788093046024
 31
0.0
  0
LINE
  5
AC
330
39
100
AcDbEntity
  8
Z4
  6
CONTINUOUS
 62
     6
100
AcDbLine
 10
76.23448973723941
 20
-89.78809304602402
 30
0.0
 11
76.23448973723941
 21
-123.788093046024
 31
0.0
  0
LINE
  5
AD
330
39
100
AcDbEntity
  8
Z4
  6
CONTINUOUS
 62
     6
100
AcDbLine
 10
118.2344897372394
 20
-107.788093046024
 30
0.0
 11
118.2344897372394
 21
-123.788093046024
 31
0.0
  0
LINE
  5
AE
330
39
100
AcDbEntity
  8
Z4
  6
CONTINUOUS
 62
     6
100
AcDbLine
 10
90.23448973723941
 20
-107.788093046024
 30
0.0
 11
90.23448973723941
 21
-123.788093046024
 31
0.0
  0
LINE
  5
AF
330
39
100
AcDbEntity
  8
Z4
  6
CONTINUOUS
 62
     6
100
AcDbLine
 10
104.2344897372394
 20
-107.788093046024
 30
0.0
 11
104.2344897372394
 21
-123.788093046024
 31
0.0
  0
LINE
  5
B0
330
39
100
AcDbEntity
  8
Z4
  6
CONTINUOUS
 62
     6
100
AcDbLine
 10
86.23448973723941
 20
-89.78809304602402
 30
0.0
 11
86.23448973723941
 21
-107.788093046024
 31
0.0
  0
LINE
  5
B1
330
39
100
AcDbEntity
  8
Z4
  6
CONTINUOUS
 62
     6
100
AcDbLine
 10
96.23448973723941
 20
-89.78809304602402
 30
0.0
 11
96.23448973723941
 21
-107.788093046024
 31
0.0
  0
LINE
  5
B2
330
39
100
AcDbEntity
  8
Z4
  6
CONTINUOUS
 62
     6
100
AcDbLine
 10
156.2344897372394
 20
-89.78809304602402
 30
0.0
 11
156.2344897372394
 21
-107.788093046024
 31
0.0
  0
LINE
  5
B3
330
39
100
AcDbEntity
  8
Z4
  6
CONTINUOUS
 62
     6
100
AcDbLine
 10
171.2344897372394
 20
-89.78809304602402
 30
0.0
 11
171.2344897372394
 21
-107.788093046024
 31
0.0
  0
LINE
  5
B4
330
39
100
AcDbEntity
  8
Z4
  6
CONTINUOUS
 62
     6
100
AcDbLine
 10
6.23448973723941
 20
-107.788093046024
 30
0.0
 11
36.23448973723941
 21
-107.788093046024
 31
0.0
  0
LINE
  5
B5
330
39
100
AcDbEntity
  8
Z4
  6
CONTINUOUS
 62
     6
100
AcDbLine
 10
76.23448973723941
 20
-103.288093046024
 30
0.0
 11
186.2344897372394
 21
-103.288093046024
 31
0.0
  0
LINE
  5
B6
330
39
100
AcDbEntity
  8
Z1
  6
CONTINUOUS
 62
     7
100
AcDbLine
 10
76.23448973723941
 20
-98.78809304602402
 30
0.0
 11
186.2344897372394
 21
-98.78809304602402
 31
0.0
  0
LINE
  5
B7
330
39
100
AcDbEntity
  8
Z1
  6
CONTINUOUS
 62
     7
100
AcDbLine
 10
76.23448973723941
 20
-94.28809304602402
 30
0.0
 11
186.2344897372394
 21
-94.28809304602402
 31
0.0
  0
LINE
  5
B8
330
39
100
AcDbEntity
  8
Z1
  6
CONTINUOUS
 62
     7
100
AcDbLine
 10
137.2344897372394
 20
-132.288093046024
 30
0.0
 11
186.2344897372394
 21
-132.288093046024
 31
0.0
  0
LINE
  5
B9
330
39
100
AcDbEntity
  8
Z1
  6
CONTINUOUS
 62
     7
100
AcDbLine
 10
137.2344897372394
 20
-136.538093046024
 30
0.0
 11
186.2344897372394
 21
-136.538093046024
 31
0.0
  0
LINE
  5
BA
330
39
100
AcDbEntity
  8
Z1
  6
CONTINUOUS
 62
     7
100
AcDbLine
 10
76.23448973723941
 20
-115.788093046024
 30
0.0
 11
118.2344897372394
 21
-115.788093046024
 31
0.0
  0
LINE
  5
BB
330
39
100
AcDbEntity
  8
Z1
  6
CONTINUOUS
 62
     7
100
AcDbLine
 10
76.23448973723941
 20
-119.788093046024
 30
0.0
 11
118.2344897372394
 21
-119.788093046024
 31
0.0
  0
LINE
  5
BC
330
39
100
AcDbEntity
  8
Z1
  6
CONTINUOUS
 62
     6
100
AcDbLine
 10
76.23448973723941
 20
-111.788093046024
 30
0.0
 11
118.2344897372394
 21
-111.788093046024
 31
0.0
  0
ARC
  5
BD
330
39
100
AcDbEntity
  8
1
  6
CONTINUOUS
 62
     5
100
AcDbCircle
 10
126.9663194308307
 20
-119.2419746418455
 30
0.0
 40
0.8611745547532277
100
AcDbArc
 50
40.94733722364031
 51
-46.04582666014606
  0
ARC
  5
BE
330
39
100
AcDbEntity
  8
1
  6
CONTINUOUS
 62
     5
100
AcDbCircle
 10
126.9663194308307
 20
-119.2419746418455
 30
0.0
 40
1.230051581392157
100
AcDbArc
 50
40.66322727574627
 51
-39.96721488601295
  0
ARC
  5
BF
102
{ACAD_REACTORS
330
10A
330
10A
102
}
330
39
100
AcDbEntity
  8
1
  6
CONTINUOUS
 62
     5
100
AcDbCircle
 10
121.791100377022
 20
-120.1568655509485
 30
0.0
 40
0.3194837118470598
100
AcDbArc
 50
-42.96783873651545
 51
69.99999999998764
  0
ARC
  5
C0
102
{ACAD_REACTORS
330
10A
330
10A
102
}
330
39
100
AcDbEntity
  8
1
  6
CONTINUOUS
 62
     5
100
AcDbCircle
 10
121.791100377022
 20
-120.1568655509485
 30
0.0
 40
0.7794837118470931
100
AcDbArc
 50
-44.3007399699334
 51
70.00000000000112
  0
ARC
  5
C1
102
{ACAD_REACTORS
330
10A
330
10A
102
}
330
39
100
AcDbEntity
  8
1
  6
CONTINUOUS
 62
     5
100
AcDbCircle
 10
121.2674571867987
 20
-119.6691096183611
 30
0.0
 40
1.035100956219136
100
AcDbArc
 50
-83.37052171981323
 51
-42.96783873659629
  0
ARC
  5
C2
102
{ACAD_REACTORS
330
10A
330
10A
102
}
330
39
100
AcDbEntity
  8
1
  6
CONTINUOUS
 62
     5
100
AcDbCircle
 10
121.2674571867987
 20
-119.6691096183611
 30
0.0
 40
1.495000000000091
100
AcDbArc
 50
-88.38828777060563
 51
-43.66275951287594
  0
ARC
  5
C3
102
{ACAD_REACTORS
330
10A
330
10A
102
}
330
39
100
AcDbEntity
  8
1
  6
CONTINUOUS
 62
     5
100
AcDbCircle
 10
121.2059599277967
 20
-117.4834812456861
 30
0.0
 40
3.218900881116819
100
AcDbArc
 50
-108.8031547052758
 51
-86.7765755411959
  0
ARC
  5
C4
102
{ACAD_REACTORS
330
10A
330
10A
102
}
330
39
100
AcDbEntity
  8
1
  6
CONTINUOUS
 62
     5
100
AcDbCircle
 10
121.2059599277967
 20
-117.4834812456861
 30
0.0
 40
3.681493378976353
100
AcDbArc
 50
-108.2023110609175
 51
-88.38828777059101
  0
ARC
  5
C5
102
{ACAD_REACTORS
330
10A
330
10A
102
}
330
39
100
AcDbEntity
  8
1
  6
CONTINUOUS
 62
     5
100
AcDbCircle
 10
121.2059599277967
 20
-121.1649746246624
 30
0.0
 40
3.21890088111637
100
AcDbArc
 50
71.19684529474766
 51
93.22342445883406
  0
ARC
  5
C6
102
{ACAD_REACTORS
330
10A
330
10A
102
}
330
39
100
AcDbEntity
  8
1
  6
CONTINUOUS
 62
     5
100
AcDbCircle
 10
121.2059599277967
 20
-121.1649746246624
 30
0.0
 40
3.681493378976197
100
AcDbArc
 50
71.79768893908988
 51
91.61171222943217
  0
ARC
  5
C7
102
{ACAD_REACTORS
330
10A
330
10A
102
}
330
39
100
AcDbEntity
  8
1
  6
CONTINUOUS
 62
     5
100
AcDbCircle
 10
121.1444626687943
 20
-118.9793462519874
 30
0.0
 40
1.035100956219384
100
AcDbArc
 50
96.62947828025725
 51
137.0321612634557
  0
ARC
  5
C8
102
{ACAD_REACTORS
330
10A
330
10A
102
}
330
39
100
AcDbEntity
  8
1
  6
CONTINUOUS
 62
     5
100
AcDbCircle
 10
120.6208194785694
 20
-118.4915903194
 30
0.0
 40
0.319483711847487
100
AcDbArc
 50
137.0321612634584
 51
-109.9999999999514
  0
ARC
  5
C9
102
{ACAD_REACTORS
330
10A
330
10A
102
}
330
39
100
AcDbEntity
  8
1
  6
CONTINUOUS
 62
     5
100
AcDbCircle
 10
121.1444626687943
 20
-118.9793462519874
 30
0.0
 40
1.495000000000222
100
AcDbArc
 50
91.61171222943618
 51
136.3372404871661
  0
ARC
  5
CA
102
{ACAD_REACTORS
330
10A
330
10A
102
}
330
39
100
AcDbEntity
  8
1
  6
CONTINUOUS
 62
     5
100
AcDbCircle
 10
120.6208194785694
 20
-118.4915903194
 30
0.0
 40
0.7794837118472338
100
AcDbArc
 50
135.6992600300665
 51
-109.999999999994
  0
XLINE
  5
CB
330
39
100
AcDbEntity
  8
1
  6
DOT_CENTER
 62
     3
 60
     1
100
AcDbXline
 10
126.9663194308307
 20
-119.2419746418455
 30
0.0
 11
0.7585527001158178
 21
0.651611695066166
 31
0.0
  0
XLINE
  5
CC
330
39
100
AcDbEntity
  8
1
  6
DOT_CENTER
 62
     3
 60
     1
100
AcDbXline
 10
121.791100377022
 20
-120.1568655509485
 30
0.0
 11
0.342020143325682
 21
0.9396926207859037
 31
0.0
  0
XLINE
  5
CD
330
39
100
AcDbEntity
  8
1
  6
DOT_CENTER
 62
     3
 60
     1
100
AcDbXline
 10
121.2674571867987
 20
-119.6691096183611
 30
0.0
 11
0.7234160453956451
 21
-0.6904123588581871
 31
0.0
  0
XLINE
  5
CE
330
39
100
AcDbEntity
  8
1
  6
DOT_CENTER
 62
     3
 60
     1
100
AcDbXline
 10
121.2059599277967
 20
-117.4834812456861
 30
0.0
 11
0.05622969678011738
 21
-0.9984178590149598
 31
0.0
  0
XLINE
  5
CF
330
39
100
AcDbEntity
  8
1
  6
DOT_CENTER
 62
     3
 60
     1
100
AcDbXline
 10
126.9663194308307
 20
-119.2419746418455
 30
0.0
 11
0.7664121260197058
 21
-0.6423491675794051
 31
0.0
  0
XLINE
  5
D0
330
39
100
AcDbEntity
  8
1
  6
DOT_CENTER
 62
     3
 60
     1
100
AcDbXline
 10
126.9663194308307
 20
-119.2419746418455
 30
0.0
 11
0.7553122706777714
 21
0.6553650690749311
 31
0.0
  0
XLINE
  5
D1
330
39
100
AcDbEntity
  8
1
  6
DOT_CENTER
 62
     3
 60
     1
100
AcDbXline
 10
126.9663194308307
 20
-119.2419746418455
 30
0.0
 11
0.6940828015755927
 21
-0.7198951760895307
 31
0.0
  0
XLINE
  5
D2
330
39
100
AcDbEntity
  8
1
  6
DOT_CENTER
 62
     3
 60
     1
100
AcDbXline
 10
121.2674571867987
 20
-119.6691096183611
 30
0.0
 11
0.7317364056593275
 21
-0.6815877292269632
 31
0.0
  0
XLINE
  5
D3
330
39
100
AcDbEntity
  8
1
  6
DOT_CENTER
 62
     3
 60
     1
100
AcDbXline
 10
121.2059599277967
 20
-117.4834812456861
 30
0.0
 11
-0.3123732359719131
 21
-0.9499594525285989
 31
0.0
  0
MTEXT
  5
D5
330
39
100
AcDbEntity
  8
1
 62
     7
100
AcDbMText
 10
91.23448973723941
 20
-97.78809304602402
 30
0.0
 40
2.2
 41
0.0
 71
     8
 72
     1
  1
 
  7
CONVERTER_1
1001
ACAD
1000
MTEXTBEGIN
1070
    44
1040
1.32052821128451
1000
MTEXTEND
  0
MTEXT
  5
D7
330
39
100
AcDbEntity
  8
1
 62
     7
100
AcDbMText
 10
125.6606523081194
 20
-92.91701554129691
 30
0.0
 40
2.0
 41
0.0
 71
     8
 72
     1
  1
 
  7
CONVERTER_2
1001
ACAD
1000
MTEXTBEGIN
1070
    44
1040
1.32052821128451
1000
MTEXTEND
  0
MTEXT
  5
D8
330
39
100
AcDbEntity
  8
1
 62
     7
100
AcDbMText
 10
125.6606523081194
 20
-97.41701554129702
 30
0.0
 40
2.0
 41
0.0
 71
     8
 72
     1
  1
 
  7
CONVERTER_2
1001
ACAD
1000
MTEXTBEGIN
1070
    44
1040
1.32052821128451
1000
MTEXTEND
  0
MTEXT
  5
D9
330
39
100
AcDbEntity
  8
1
 62
     7
100
AcDbMText
 10
125.6606523081194
 20
-101.917015541297
 30
0.0
 40
2.0
 41
0.0
 71
     8
 72
     1
  1
 
  7
CONVERTER_2
1001
ACAD
1000
MTEXTBEGIN
1070
    44
1040
1.32052821128451
1000
MTEXTEND
  0
MTEXT
  5
DA
330
39
100
AcDbEntity
  8
1
 62
     7
100
AcDbMText
 10
91.23448973723941
 20
-93.28809304602402
 30
0.0
 40
2.2
 41
0.0
 71
     8
 72
     1
  1
 
  7
CONVERTER_1
1001
ACAD
1000
MTEXTBEGIN
1070
    44
1040
1.32052821128451
1000
MTEXTEND
  0
MTEXT
  5
DB
330
39
100
AcDbEntity
  8
1
 62
     7
100
AcDbMText
 10
178.7344897372394
 20
-93.28809304602402
 30
0.0
 40
2.2
 41
0.0
 71
     8
 72
     1
  1
 
  7
CONVERTER_2
1001
ACAD
1000
MTEXTBEGIN
1070
    44
1040
1.32052821128451
1000
MTEXTEND
  0
MTEXT
  5
DC
330
39
100
AcDbEntity
  8
1
 62
     7
100
AcDbMText
 10
178.7344897372394
 20
-97.78809304602402
 30
0.0
 40
2.2
 41
0.0
 71
     8
 72
     1
  1
 
  7
CONVERTER_2
1001
ACAD
1000
MTEXTBEGIN
1070
    44
1040
1.32052821128451
1000
MTEXTEND
  0
MTEXT
  5
DD
330
39
100
AcDbEntity
  8
1
 62
     7
100
AcDbMText
 10
178.7344897372394
 20
-102.288093046024
 30
0.0
 40
2.2
 41
0.0
 71
     8
 72
     1
  1
 
  7
CONVERTER_2
1001
ACAD
1000
MTEXTBEGIN
1070
    44
1040
1.32052821128451
1000
MTEXTEND
  0
MTEXT
  5
DE
330
39
100
AcDbEntity
  8
1
 62
     7
100
AcDbMText
 10
163.7344897372394
 20
-93.28809304602402
 30
0.0
 40
2.2
 41
0.0
 71
     8
 72
     1
  1
 
  7
CONVERTER_2
1001
ACAD
1000
MTEXTBEGIN
1070
    44
1040
1.32052821128451
1000
MTEXTEND
  0
MTEXT
  5
DF
330
39
100
AcDbEntity
  8
1
 62
     7
100
AcDbMText
 10
163.7344897372394
 20
-97.78809304602402
 30
0.0
 40
2.2
 41
0.0
 71
     8
 72
     1
  1
 
  7
CONVERTER_2
1001
ACAD
1000
MTEXTBEGIN
1070
    44
1040
1.32052821128451
1000
MTEXTEND
  0
MTEXT
  5
E0
330
39
100
AcDbEntity
  8
1
 62
     7
100
AcDbMText
 10
163.7344897372394
 20
-102.288093046024
 30
0.0
 40
2.2
 41
0.0
 71
     8
 72
     1
  1
 
  7
CONVERTER_2
1001
ACAD
1000
MTEXTBEGIN
1070
    44
1040
1.32052821128451
1000
MTEXTEND
  0
MTEXT
  5
E1
330
39
100
AcDbEntity
  8
1
 62
     7
100
AcDbMText
 10
91.23448973723941
 20
-102.288093046024
 30
0.0
 40
2.2
 41
0.0
 71
     8
 72
     1
  1
 
  7
CONVERTER_1
1001
ACAD
1000
MTEXTBEGIN
1070
    44
1040
1.32052821128451
1000
MTEXTEND
  0
MTEXT
  5
E2
330
39
100
AcDbEntity
  8
1
 62
     7
100
AcDbMText
 10
81.23448973723941
 20
-93.28809304602402
 30
0.0
 40
2.2
 41
0.0
 71
     8
 72
     1
  1
 
  7
CONVERTER_1
1001
ACAD
1000
MTEXTBEGIN
1070
    44
1040
1.32052821128451
1000
MTEXTEND
  0
MTEXT
  5
E3
330
39
100
AcDbEntity
  8
1
 62
     7
100
AcDbMText
 10
81.23448973723941
 20
-97.78809304602402
 30
0.0
 40
2.2
 41
0.0
 71
     8
 72
     1
  1
 
  7
CONVERTER_1
1001
ACAD
1000
MTEXTBEGIN
1070
    44
1040
1.32052821128451
1000
MTEXTEND
  0
MTEXT
  5
E4
330
39
100
AcDbEntity
  8
1
 62
     7
100
AcDbMText
 10
81.23448973723941
 20
-102.288093046024
 30
0.0
 40
2.2
 41
0.0
 71
     8
 72
     1
  1
 
  7
CONVERTER_1
1001
ACAD
1000
MTEXTBEGIN
1070
    44
1040
1.32052821128451
1000
MTEXTEND
  0
MTEXT
  5
E6
330
39
100
AcDbEntity
  8
1
 62
     7
100
AcDbMText
 10
3.20620990896236
 20
-130.8736574176351
 30
0.0
 40
2.0
 41
0.0
 71
     5
 72
     1
  1
0016851
  7
CONVERTER_3
 11
0.0
 21
1.0
 31
0.0
1001
ACAD
1000
MTEXTBEGIN
1070
    44
1040
1.32052821128451
1000
MTEXTEND
  0
TEXT
  5
E8
330
39
100
AcDbEntity
  8
1
 62
     6
100
AcDbText
 10
150.7344897372394
 20
-130.788093046024
 30
0.0
 40
5.0
  1
K1.8352-8354
 41
0.585
  7
CONVERTER_4
100
AcDbText
  0
MTEXT
  5
E9
330
39
100
AcDbEntity
  8
1
 62
     7
100
AcDbMText
 10
3.20620990896236
 20
-104.5736574176351
 30
0.0
 40
2.0
 41
0.0
 71
     5
 72
     1
  1
 
  7
CONVERTER_3
 11
0.0
 21
1.0
 31
0.0
1001
ACAD
1000
MTEXTBEGIN
1070
    44
1040
1.32052821128451
1000
MTEXTEND
  0
MTEXT
  5
EA
330
39
100
AcDbEntity
  8
1
 62
     7
100
AcDbMText
 10
111.7344897372394
 20
-114.788093046024
 30
0.0
 40
2.2
 41
0.0
 71
     8
 72
     1
  1
JUNG
  7
CONVERTER_2
1001
ACAD
1000
MTEXTBEGIN
1070
    44
1040
1.32052821128451
1000
MTEXTEND
  0
MTEXT
  5
EB
330
39
100
AcDbEntity
  8
1
 62
     7
100
AcDbMText
 10
97.23448973723941
 20
-115.038093046024
 30
0.0
 40
2.2
 41
0.0
 71
     8
 72
     1
  1
04.12.2007
  7
CONVERTER_2
1001
ACAD
1000
MTEXTBEGIN
1070
    44
1040
1.32052821128451
1000
MTEXTEND
  0
MTEXT
  5
EC
330
39
100
AcDbEntity
  8
1
 62
     7
100
AcDbMText
 10
111.7344897372394
 20
-118.788093046024
 30
0.0
 40
2.2
 41
0.0
 71
     8
 72
     1
  1
 
  7
CONVERTER_2
1001
ACAD
1000
MTEXTBEGIN
1070
    44
1040
1.32052821128451
1000
MTEXTEND
  0
MTEXT
  5
ED
330
39
100
AcDbEntity
  8
1
 62
     7
100
AcDbMText
 10
97.23448973723941
 20
-119.038093046024
 30
0.0
 40
2.2
 41
0.0
 71
     8
 72
     1
  1
 
  7
CONVERTER_2
1001
ACAD
1000
MTEXTBEGIN
1070
    44
1040
1.32052821128451
1000
MTEXTEND
  0
MTEXT
  5
EE
330
39
100
AcDbEntity
  8
1
 62
     7
100
AcDbMText
 10
171.2344897372394
 20
-138.788093046024
 30
0.0
 40
2.0
 41
0.0
 71
     5
 72
     1
  1
 
  7
CONVERTER_3
1001
ACAD
1000
MTEXTBEGIN
1070
    44
1040
1.32052821128451
1000
MTEXTEND
  0
MTEXT
  5
EF
330
39
100
AcDbEntity
  8
1
 62
     7
100
AcDbMText
 10
166.4344897372398
 20
-134.288093046024
 30
0.0
 40
2.0
 41
0.0
 71
     5
 72
     1
  1
 
  7
CONVERTER_3
1001
ACAD
1000
MTEXTBEGIN
1070
    44
1040
1.32052821128451
1000
MTEXTEND
  0
MTEXT
  5
F1
330
39
100
AcDbEntity
  8
1
 62
     2
100
AcDbMText
 10
81.23448973723941
 20
-138.2446147851546
 30
0.0
 40
3.5
 41
0.0
 71
     8
 72
     1
  1
18352W0.../ 18354W0...
  7
CONVERTER_5
1001
ACAD
1000
MTEXTBEGIN
1070
    44
1040
1.32052821128451
1000
MTEXTEND
  0
MTEXT
  5
F2
330
39
100
AcDbEntity
  8
1
 62
     6
100
AcDbMText
 10
81.23448973723941
 20
-132.3141800025456
 30
0.0
 40
5.0
 41
0.0
 71
     8
 72
     1
  1
Anschlussmasse
  7
CONVERTER_1
1001
ACAD
1000
MTEXTBEGIN
1070
    44
1040
1.32052821128451
1000
MTEXTEND
  0
MTEXT
  5
F3
330
39
100
AcDbEntity
  8
1
 62
     7
100
AcDbMText
 10
3.20620990896236
 20
-75.0736574176351
 30
0.0
 40
2.0
 41
0.0
 71
     5
 72
     1
  1
8352
  7
CONVERTER_3
 11
0.0
 21
1.0
 31
0.0
1001
ACAD
1000
MTEXTBEGIN
1070
    44
1040
1.32052821128451
1000
MTEXTEND
  0
TEXT
  5
F4
330
39
100
AcDbEntity
  8
Z2
 62
     7
100
AcDbText
 10
77.23448973723941
 20
-114.788093046024
 30
0.0
 40
2.0
  1
Gezeichn.
 41
0.72
  7
CONVERTER_1
100
AcDbText
  0
TEXT
  5
F5
330
39
100
AcDbEntity
  8
Z2
 62
     7
100
AcDbText
 10
77.23448973723941
 20
-118.788093046024
 30
0.0
 40
2.0
  1
Geprüft
 41
0.72
  7
CONVERTER_1
100
AcDbText
  0
TEXT
  5
F6
330
39
100
AcDbEntity
  8
Z2
 62
     7
100
AcDbText
 10
77.23448973723941
 20
-122.788093046024
 30
0.0
 40
2.0
  1
Normgepr.
 41
0.72
  7
CONVERTER_1
100
AcDbText
  0
MTEXT
  5
F7
330
39
100
AcDbEntity
  8
Z2
 62
     7
100
AcDbMText
 10
97.23448973723941
 20
-109.788093046024
 30
0.0
 40
2.0
 41
0.0
 71
     5
 72
     1
  1
Datum
  7
CONVERTER_3
1001
ACAD
1000
MTEXTBEGIN
1070
    44
1040
0.60024009603842
1000
MTEXTEND
  0
MTEXT
  5
F8
330
39
100
AcDbEntity
  8
Z2
 62
     7
100
AcDbMText
 10
111.2344897372394
 20
-109.788093046024
 30
0.0
 40
2.0
 41
0.0
 71
     5
 72
     1
  1
Name
  7
CONVERTER_3
1001
ACAD
1000
MTEXTBEGIN
1070
    44
1040
0.60024009603842
1000
MTEXTEND
  0
MTEXT
  5
F9
330
39
100
AcDbEntity
  8
Z2
 62
     7
100
AcDbMText
 10
81.23448973723941
 20
-105.288093046024
 30
0.0
 40
2.0
 41
0.0
 71
     5
 72
     1
  1
Index
  7
CONVERTER_3
1001
ACAD
1000
MTEXTBEGIN
1070
    44
1040
0.60024009603842
1000
MTEXTEND
  0
MTEXT
  5
FA
330
39
100
AcDbEntity
  8
Z2
 62
     7
100
AcDbMText
 10
91.23448973723941
 20
-105.3880930460242
 30
0.0
 40
1.26
 41
0.0
 71
     8
 72
     1
  1
Buchstabe
  7
CONVERTER_3
1001
ACAD
1000
MTEXTBEGIN
1070
    44
1040
0.60024009603842
1000
MTEXTEND
  0
MTEXT
  5
FB
330
39
100
AcDbEntity
  8
Z2
 62
     7
100
AcDbMText
 10
91.23448973723941
 20
-107.0880930460241
 30
0.0
 40
1.26
 41
0.0
 71
     8
 72
     1
  1
kommt vor
  7
CONVERTER_3
1001
ACAD
1000
MTEXTBEGIN
1070
    44
1040
0.60024009603842
1000
MTEXTEND
  0
MTEXT
  5
FC
330
39
100
AcDbEntity
  8
Z2
 62
     7
100
AcDbMText
 10
125.2344897372393
 20
-106.288093046024
 30
0.0
 40
2.0
 41
0.0
 71
     8
 72
     1
  1
Änderung
  7
CONVERTER_3
1001
ACAD
1000
MTEXTBEGIN
1070
    44
1040
0.60024009603842
1000
MTEXTEND
  0
MTEXT
  5
FD
330
39
100
AcDbEntity
  8
Z2
 62
     7
100
AcDbMText
 10
163.2344897372394
 20
-106.288093046024
 30
0.0
 40
2.0
 41
0.0
 71
     8
 72
     1
  1
Datum
  7
CONVERTER_3
1001
ACAD
1000
MTEXTBEGIN
1070
    44
1040
0.60024009603842
1000
MTEXTEND
  0
MTEXT
  5
FE
330
39
100
AcDbEntity
  8
Z2
 62
     7
100
AcDbMText
 10
178.2344897372394
 20
-106.288093046024
 30
0.0
 40
2.0
 41
0.0
 71
     8
 72
     1
  1
Name
  7
CONVERTER_3
1001
ACAD
1000
MTEXTBEGIN
1070
    44
1040
0.60024009603842
1000
MTEXTEND
  0
TEXT
  5
FF
330
39
100
AcDbEntity
  8
Z2
 62
     7
100
AcDbText
 10
138.7344897372394
 20
-135.288093046024
 30
0.0
 40
2.0
  1
Ersatz für
 41
0.8415
  7
CONVERTER_3
100
AcDbText
  0
TEXT
  5
100
330
39
100
AcDbEntity
  8
Z2
 62
     7
100
AcDbText
 10
138.7344897372394
 20
-139.788093046024
 30
0.0
 40
2.0
  1
Ersetzt durch
 41
0.8415
  7
CONVERTER_3
100
AcDbText
  0
TEXT
  5
101
330
39
100
AcDbEntity
  8
Z5
 62
     6
100
AcDbText
 10
135.7344897372394
 20
-119.788093046024
 30
0.0
 40
3.5
  1
Schulte-Schlagbaum AG
 41
0.675
  7
CONVERTER_5
100
AcDbText
  0
TEXT
  5
103
330
39
100
AcDbEntity
  8
Z2
 62
     3
100
AcDbText
 10
7.23448973723941
 20
-112.6880930460241
 30
0.0
 40
1.5
  1
ohne unsere Zustimmung
 41
0.9
  7
CONVERTER_6
100
AcDbText
  0
TEXT
  5
104
330
39
100
AcDbEntity
  8
Z2
 62
     3
100
AcDbText
 10
7.23448973723941
 20
-119.5880930460241
 30
0.0
 40
1.5
  1
Übernommen werden.
 41
0.9
  7
CONVERTER_6
100
AcDbText
  0
TEXT
  5
106
330
39
100
AcDbEntity
  8
Z2
 62
     7
100
AcDbText
 10
7.23448973723941
 20
-122.5880930460241
 30
0.0
 40
1.8
  1
Schulte-Schlagbaum AG
 41
0.7425
  7
CONVERTER_7
100
AcDbText
  0
TEXT
  5
107
330
39
100
AcDbEntity
  8
Z2
 62
     3
100
AcDbText
 10
7.23448973723941
 20
-114.988093046024
 30
0.0
 40
1.5
  1
weder vervielfältigt noch
 41
0.9
  7
CONVERTER_6
100
AcDbText
  0
TEXT
  5
108
330
39
100
AcDbEntity
  8
Z2
 62
     3
100
AcDbText
 10
7.23448973723941
 20
-117.288093046024
 30
0.0
 40
1.5
  1
in andere Unterlagen
 41
0.9
  7
CONVERTER_6
100
AcDbText
  0
TEXT
  5
109
330
39
100
AcDbEntity
  8
Z2
 62
     3
100
AcDbText
 10
7.23448973723941
 20
-110.3880930460242
 30
0.0
 40
1.5
  1
Diese Zeichnung darf
 41
0.9
  7
CONVERTER_6
100
AcDbText
  0
HATCH
  5
10A
330
39
100
AcDbEntity
  8
1
  6
CONTINUOUS
 62
     3
100
AcDbHatch
 10
0.0
 20
0.0
 30
0.0
210
0.0
220
0.0
230
1.0
  2
_USER
 70
     0
 71
     1
 91
        1
 92
        1
 93
       16
 72
     2
 10
121.791100377022
 20
-120.1568655509485
 40
0.7794837118470931
 50
315.6992600300666
 51
430.0000000000011
 73
     1
 72
     1
 10
122.0576995078681
 20
-119.4243904589026
 11
120.5115496136535
 21
-118.7918068058841
 72
     2
 10
120.6208194785694
 20
-118.4915903194
 40
0.319483711847487
 50
109.9999999999514
 51
222.9678387365416
 73
     0
 72
     2
 10
121.1444626687943
 20
-118.9793462519874
 40
1.035100956219384
 50
222.9678387365443
 51
263.3705217197428
 73
     0
 72
     2
 10
121.2059599277967
 20
-121.1649746246624
 40
3.21890088111637
 50
266.7765755411659
 51
288.8031547052524
 73
     0
 72
     1
 10
122.2434690337235
 20
-118.1178616077937
 11
122.3559599277963
 21
-117.6677051898824
 72
     2
 10
121.2059599277967
 20
-121.1649746246624
 40
3.681493378976197
 50
71.79768893908988
 51
91.61171222943217
 73
     1
 72
     2
 10
121.1444626687943
 20
-118.9793462519874
 40
1.495000000000222
 50
91.61171222943618
 51
136.3372404871661
 73
     1
 72
     2
 10
120.6208194785694
 20
-118.4915903194
 40
0.7794837118472338
 50
135.6992600300665
 51
250.000000000006
 73
     1
 72
     1
 10
120.3542203477235
 20
-119.2240654114456
 11
121.9003702419383
 21
-119.8566490644643
 72
     2
 10
121.791100377022
 20
-120.1568655509485
 40
0.3194837118470598
 50
290.0000000000124
 51
402.9678387365155
 73
     0
 72
     2
 10
121.2674571867987
 20
-119.6691096183611
 40
1.035100956219136
 50
42.96783873659629
 51
83.37052171981323
 73
     0
 72
     2
 10
121.2059599277967
 20
-117.4834812456861
 40
3.218900881116819
 50
86.7765755411959
 51
108.8031547052758
 73
     0
 72
     1
 10
120.1684508218685
 20
-120.5305942625548
 11
120.0559599277966
 21
-120.9807506804661
 72
     2
 10
121.2059599277967
 20
-117.4834812456861
 40
3.681493378976353
 50
251.7976889390825
 51
271.611712229409
 73
     1
 72
     2
 10
121.2674571867987
 20
-119.6691096183611
 40
1.495000000000091
 50
271.6117122293944
 51
316.3372404871241
 73
     1
 97
       16
330
C0
330
A6
330
C8
330
C7
330
C5
330
A5
330
C6
330
C9
330
CA
330
A7
330
BF
330
C1
330
C3
330
A4
330
C4
330
C2
 75
     1
 76
     0
 52
45.0
 41
0.1
 77
     0
 78
     1
 53
45.0
 43
0.0
 44
0.0
 45
-0.0707106781186548
 46
0.0707106781186548
 79
     0
 98
        1
 10
0.0
 20
0.0
  0
HATCH
  5
10B
330
39
100
AcDbEntity
  8
1
  6
CONTINUOUS
 62
     3
100
AcDbHatch
 10
0.0
 20
0.0
 30
0.0
210
0.0
220
0.0
230
1.0
  2
_USER
 70
     0
 71
     1
 91
        2
 92
        1
 93
        5
 72
     1
 10
133.1344897372393
 20
-110.2680930460239
 11
133.1344897372393
 21
-122.6880930460241
 72
     1
 10
133.1344897372393
 20
-122.6880930460241
 11
119.3344897372393
 21
-122.6880930460241
 72
     1
 10
119.3344897372393
 20
-122.6880930460241
 11
119.3344897372393
 21
-108.8880930460242
 72
     1
 10
119.3344897372393
 20
-108.8880930460242
 11
131.7544897372392
 21
-108.8880930460242
 72
     1
 10
131.7544897372392
 20
-108.8880930460242
 11
133.1344897372393
 21
-110.2680930460239
 97
        5
330
77
330
76
330
7A
330
79
330
78
 92
       16
 93
       21
 72
     1
 10
119.5069897372392
 20
-109.0605930460241
 11
131.6830378977298
 21
-109.0605930460241
 72
     1
 10
131.6830378977298
 20
-109.0605930460241
 11
132.9619897372393
 21
-110.3395448855333
 72
     1
 10
132.9619897372393
 20
-110.3395448855333
 11
132.9619897372393
 21
-120.696642519691
 72
     1
 10
132.9619897372393
 20
-120.696642519691
 11
130.2019897372396
 21
-120.6966425196911
 72
     1
 10
130.2019897372396
 20
-120.6966425196911
 11
130.2019897372392
 21
-119.3310503207524
 72
     1
 10
130.2019897372392
 20
-119.3310503207524
 11
131.8173129133953
 21
-120.5046513047024
 72
     1
 10
131.8173129133953
 20
-120.5046513047024
 11
132.1214917814567
 21
-120.0859850101134
 72
     1
 10
132.1214917814567
 20
-120.0859850101134
 11
120.3012318504605
 21
-111.498063478167
 72
     1
 10
120.3012318504605
 20
-111.498063478167
 11
119.9970529823992
 21
-111.916729772756
 72
     1
 10
119.9970529823992
 20
-111.916729772756
 11
128.6494897372392
 21
-118.2030930460242
 72
     1
 10
128.6494897372392
 20
-118.2030930460242
 11
128.6494897372393
 21
-120.687093046024
 72
     1
 10
128.6494897372393
 20
-120.687093046024
 11
122.6412930998124
 21
-120.687093046024
 72
     1
 10
122.6412930998124
 20
-120.687093046024
 11
122.4969897372392
 21
-120.9630930460239
 72
     1
 10
122.4969897372392
 20
-120.9630930460239
 11
132.9619897372393
 21
-120.9630930460239
 72
     1
 10
132.9619897372393
 20
-120.9630930460239
 11
132.9619897372393
 21
-122.5155930460242
 72
     1
 10
132.9619897372393
 20
-122.5155930460242
 11
119.5069897372392
 21
-122.5155930460242
 72
     1
 10
119.5069897372392
 20
-122.5155930460242
 11
119.5069897372392
 21
-120.9630930460239
 72
     1
 10
119.5069897372392
 20
-120.9630930460239
 11
119.7830192960136
 21
-120.9630930460241
 72
     1
 10
119.7830192960136
 20
-120.9630930460241
 11
119.8519897372391
 21
-120.687093046024
 72
     1
 10
119.8519897372391
 20
-120.687093046024
 11
119.5069897372392
 21
-120.687093046024
 72
     1
 10
119.5069897372392
 20
-120.687093046024
 11
119.5069897372392
 21
-109.0605930460241
 97
       21
330
7B
330
7C
330
7D
330
8B
330
81
330
84
330
8A
330
85
330
83
330
82
330
80
330
8F
330
8E
330
8C
330
8D
330
7E
330
7F
330
93
330
92
330
90
330
91
 75
     1
 76
     0
 52
45.0
 41
0.1
 77
     0
 78
     1
 53
45.0
 43
0.0
 44
0.0
 45
-0.0707106781186548
 46
0.0707106781186548
 79
     0
 98
        1
 10
0.0
 20
0.0
  0
HATCH
  5
10C
330
39
100
AcDbEntity
  8
1
  6
CONTINUOUS
 62
     3
100
AcDbHatch
 10
0.0
 20
0.0
 30
0.0
210
0.0
220
0.0
230
1.0
  2
_USER
 70
     0
 71
     1
 91
        1
 92
        1
 93
        4
 72
     1
 10
132.7298495175794
 20
-119.2486524209355
 11
129.9666519732917
 21
-117.2410718917303
 72
     1
 10
129.9666519732917
 20
-117.2410718917303
 11
129.5002443755976
 21
-117.8830268767669
 72
     1
 10
129.5002443755976
 20
-117.8830268767669
 11
132.2634419198853
 21
-119.8906074059718
 72
     1
 10
132.2634419198853
 20
-119.8906074059718
 11
132.7298495175794
 21
-119.2486524209355
 97
        4
330
89
330
86
330
87
330
88
 75
     1
 76
     0
 52
45.0
 41
0.1
 77
     0
 78
     1
 53
45.0
 43
0.0
 44
0.0
 45
-0.0707106781186548
 46
0.0707106781186548
 79
     0
 98
        1
 10
0.0
 20
0.0
  0
ENDBLK
  5
3B
330
39
100
AcDbEntity
  8
0
100
AcDbBlockEnd
  0
BLOCK
  5
3E
330
3C
100
AcDbEntity
  8
0
100
AcDbBlockBegin
  2
_RAHMEN
 70
     0
 71
     0
 10
88.2344897372393
 20
1.56190695397584
 30
0.0
  3
_RAHMEN
  1

  0
INSERT
  5
3D
330
3C
100
AcDbEntity
  8
1
100
AcDbBlockReference
  2
_SCHRIFTFELD
 10
186.2344897372394
 20
-140.788093046024
 30
0.0
  0
POINT
  5
10D
330
3C
100
AcDbEntity
  8
1
 62
     3
 60
     1
100
AcDbPoint
 10
149.2344897372393
 20
-132.288093046024
 30
0.0
  0
POINT
  5
10E
330
3C
100
AcDbEntity
  8
1
 62
     3
 60
     1
100
AcDbPoint
 10
149.2344897372393
 20
-123.788093046024
 30
0.0
  0
POINT
  5
10F
330
3C
100
AcDbEntity
  8
1
 62
     3
 60
     1
100
AcDbPoint
 10
143.2344897372393
 20
-132.288093046024
 30
0.0
  0
POINT
  5
110
330
3C
100
AcDbEntity
  8
1
 62
     3
 60
     1
100
AcDbPoint
 10
143.2344897372393
 20
-123.788093046024
 30
0.0
  0
LINE
  5
111
330
3C
100
AcDbEntity
  8
Z4
  6
CONTINUOUS
 62
     6
100
AcDbLine
 10
6.2344897372393
 20
-140.788093046024
 30
0.0
 11
186.2344897372394
 21
-140.788093046024
 31
0.0
  0
LINE
  5
112
330
3C
100
AcDbEntity
  8
Z4
  6
CONTINUOUS
 62
     6
100
AcDbLine
 10
186.2344897372394
 20
143.9119069539761
 30
0.0
 11
6.2344897372393
 21
143.9119069539762
 31
0.0
  0
LINE
  5
113
330
3C
100
AcDbEntity
  8
Z4
  6
CONTINUOUS
 62
     6
100
AcDbLine
 10
186.2344897372394
 20
-140.788093046024
 30
0.0
 11
186.2344897372394
 21
143.9119069539761
 31
0.0
  0
LINE
  5
114
330
3C
100
AcDbEntity
  8
Z4
  6
CONTINUOUS
 62
     6
100
AcDbLine
 10
6.2344897372393
 20
143.9119069539762
 30
0.0
 11
6.2344897372393
 21
-140.788093046024
 31
0.0
  0
LINE
  5
115
330
3C
100
AcDbEntity
  8
Z1
  6
CONTINUOUS
 62
     7
100
AcDbLine
 10
-16.7655102627607
 20
150.0619069539761
 30
0.0
 11
-16.7655102627607
 21
-146.9380930460241
 31
0.0
  0
LINE
  5
116
330
3C
100
AcDbEntity
  8
Z1
  6
CONTINUOUS
 62
     7
100
AcDbLine
 10
-16.7655102627607
 20
1.56190695397606
 30
0.0
 11
3.2344897372393
 21
1.56190695397606
 31
0.0
  0
LINE
  5
117
330
3C
100
AcDbEntity
  8
Z1
  6
CONTINUOUS
 62
     7
100
AcDbLine
 10
193.2344897372394
 20
150.0619069539761
 30
0.0
 11
-16.7655102627607
 21
150.0619069539761
 31
0.0
  0
LINE
  5
118
330
3C
100
AcDbEntity
  8
Z1
  6
CONTINUOUS
 62
     7
100
AcDbLine
 10
193.2344897372394
 20
-146.9380930460241
 30
0.0
 11
193.2344897372394
 21
150.0619069539761
 31
0.0
  0
LINE
  5
119
330
3C
100
AcDbEntity
  8
Z1
  6
CONTINUOUS
 62
     7
100
AcDbLine
 10
-16.7655102627607
 20
-146.9380930460241
 30
0.0
 11
193.2344897372394
 21
-146.9380930460241
 31
0.0
  0
LINE
  5
11A
330
3C
100
AcDbEntity
  8
1
  6
CONTINUOUS
 62
     6
100
AcDbLine
 10
143.2344897372393
 20
-123.788093046024
 30
0.0
 11
143.2344897372393
 21
-132.288093046024
 31
0.0
  0
LINE
  5
11B
330
3C
100
AcDbEntity
  8
1
  6
CONTINUOUS
 62
     6
100
AcDbLine
 10
149.2344897372393
 20
-123.788093046024
 30
0.0
 11
149.2344897372393
 21
-132.288093046024
 31
0.0
  0
MTEXT
  5
11D
330
3C
100
AcDbEntity
  8
1
 62
     6
100
AcDbMText
 10
4.9938328483872
 20
-99.37331629651925
 30
0.0
 40
3.8
 41
0.0
 71
     4
 72
     1
  1
   Zeichnung wird bei\PÄnderung nicht ausgetauscht.
  7
CONVERTER_8
1001
ACAD
1000
MTEXTBEGIN
1070
    44
1040
1.08043217286915
1000
MTEXTEND
  0
MTEXT
  5
11F
330
3C
100
AcDbEntity
  8
1
 62
     6
100
AcDbMText
 10
1.36914013944431
 20
69.13588495008401
 30
0.0
 40
5.0
 41
0.0
 71
     5
 72
     1
  1
Technische Änderungen vorbehalten.
  7
CONVERTER_9
 11
6.123031769111886E-17
 21
1.0
 31
0.0
1001
ACAD
1000
MTEXTBEGIN
1070
    44
1040
1.32052821128451
1000
MTEXTEND
  0
MTEXT
  5
120
330
3C
100
AcDbEntity
  8
1
 62
     6
100
AcDbMText
 10
140.2344897372393
 20
-130.788093046024
 30
0.0
 40
5.0
 41
0.0
 71
     8
 72
     1
  1
K
  7
CONVERTER_4
1001
ACAD
1000
MTEXTBEGIN
1070
    44
1040
1.02040816326531
1000
MTEXTEND
  0
MTEXT
  5
121
330
3C
100
AcDbEntity
  8
1
 62
     6
100
AcDbMText
 10
146.2344897372393
 20
-130.788093046024
 30
0.0
 40
5.0
 41
0.0
 71
     8
 72
     1
  1
E
  7
CONVERTER_4
1001
ACAD
1000
MTEXTBEGIN
1070
    44
1040
1.02040816326531
1000
MTEXTEND
  0
ENDBLK
  5
3F
330
3C
100
AcDbEntity
  8
0
100
AcDbBlockEnd
  0
BLOCK
  5
1FF
330
1F6
100
AcDbEntity
  8
0
100
AcDbBlockBegin
  2
*D03
 70
     1
 71
     0
 10
0.0
 20
0.0
 30
0.0
  3
*D03
  1

  0
LINE
  5
1F7
330
1F6
100
AcDbEntity
  8
1
  6
CONTINUOUS
 62
     3
100
AcDbLine
 10
65.12778529484851
 20
228.696792756518
 30
0.0
 11
86.81776200000002
 21
228.696792756518
 31
0.0
  0
LINE
  5
1F8
330
1F6
100
AcDbEntity
  8
1
  6
CONTINUOUS
 62
     3
100
AcDbLine
 10
86.81776200000002
 20
228.696792756518
 30
0.0
 11
98.817762
 21
228.696792756518
 31
0.0
  0
LINE
  5
1F9
330
1F6
100
AcDbEntity
  8
1
  6
CONTINUOUS
 62
     3
100
AcDbLine
 10
98.817762
 20
228.696792756518
 30
0.0
 11
116.317762
 21
228.696792756518
 31
0.0
  0
LINE
  5
1FA
330
1F6
100
AcDbEntity
  8
1
  6
CONTINUOUS
 62
     3
100
AcDbLine
 10
98.817762
 20
267.242895
 30
0.0
 11
98.817762
 21
226.696792756518
 31
0.0
  0
LINE
  5
1FB
330
1F6
100
AcDbEntity
  8
1
  6
CONTINUOUS
 62
     3
100
AcDbLine
 10
86.81776200000002
 20
214.242895
 30
0.0
 11
86.81776200000002
 21
230.696792756518
 31
0.0
  0
SOLID
  5
1FC
330
1F6
100
AcDbEntity
  8
1
 62
     3
100
AcDbTrace
 10
78.06776200000002
 20
227.5448334026283
 30
0.0
 11
78.06776200000002
 21
229.8487521104077
 31
0.0
 12
86.81776200000002
 22
228.696792756518
 32
0.0
 13
86.81776200000002
 23
228.696792756518
 33
0.0
  0
SOLID
  5
1FD
330
1F6
100
AcDbEntity
  8
1
 62
     3
100
AcDbTrace
 10
107.567762
 20
229.8487521104077
 30
0.0
 11
107.567762
 21
227.5448334026283
 31
0.0
 12
98.817762
 22
228.696792756518
 32
0.0
 13
98.817762
 23
228.696792756518
 33
0.0
  0
MTEXT
  5
1FE
330
1F6
100
AcDbEntity
  8
1
 62
     2
100
AcDbMText
 10
65.12778529484851
 20
231.196792756518
 30
0.0
 40
8.75
 41
0.0
 71
     7
 72
     1
  1
12
  7
CONVERTER_1
 11
0.9999999999970621
 21
2.424068405545307E-6
 31
0.0
1001
ACAD
1000
MTEXTBEGIN
1070
    44
1040
0.60024009603842
1000
MTEXTEND
  0
ENDBLK
  5
200
330
1F6
100
AcDbEntity
  8
0
100
AcDbBlockEnd
  0
BLOCK
  5
20A
330
203
100
AcDbEntity
  8
0
100
AcDbBlockBegin
  2
*D14
 70
     1
 71
     0
 10
0.0
 20
0.0
 30
0.0
  3
*D14
  1

  0
LINE
  5
204
330
203
100
AcDbEntity
  8
1
  6
CONTINUOUS
 62
     3
100
AcDbLine
 10
56.96948548251122
 20
267.242895
 30
0.0
 11
56.96948548251122
 21
214.242895
 31
0.0
  0
LINE
  5
205
330
203
100
AcDbEntity
  8
1
  6
CONTINUOUS
 62
     3
100
AcDbLine
 10
86.81776200000002
 20
214.242895
 30
0.0
 11
54.46948548251122
 21
214.242895
 31
0.0
  0
LINE
  5
206
330
203
100
AcDbEntity
  8
1
  6
CONTINUOUS
 62
     3
100
AcDbLine
 10
98.81776200000002
 20
267.242895
 30
0.0
 11
54.46948548251122
 21
267.242895
 31
0.0
  0
SOLID
  5
207
330
203
100
AcDbEntity
  8
1
 62
     3
100
AcDbTrace
 10
58.12144483640093
 20
258.492895
 30
0.0
 11
55.8175261286215
 21
258.492895
 31
0.0
 12
56.96948548251122
 22
267.242895
 32
0.0
 13
56.96948548251122
 23
267.242895
 33
0.0
  0
SOLID
  5
208
330
203
100
AcDbEntity
  8
1
 62
     3
100
AcDbTrace
 10
55.8175261286215
 20
222.992895
 30
0.0
 11
58.12144483640093
 21
222.992895
 31
0.0
 12
56.96948548251122
 22
214.242895
 32
0.0
 13
56.96948548251122
 23
214.242895
 33
0.0
  0
MTEXT
  5
209
330
203
100
AcDbEntity
  8
1
 62
     2
100
AcDbMText
 10
54.46948548251122
 20
236.667139319608
 30
0.0
 40
8.75
 41
0.0
 71
     7
 72
     1
  1
53
  7
CONVERTER_2
 11
0.0
 21
1.0
 31
0.0
1001
ACAD
1000
MTEXTBEGIN
1070
    44
1040
0.60024009603842
1000
MTEXTEND
  0
ENDBLK
  5
20B
330
203
100
AcDbEntity
  8
0
100
AcDbBlockEnd
  0
BLOCK
  5
217
330
20E
100
AcDbEntity
  8
0
100
AcDbBlockBegin
  2
*D25
 70
     1
 71
     0
 10
0.0
 20
0.0
 30
0.0
  3
*D25
  1

  0
LINE
  5
20F
330
20E
100
AcDbEntity
  8
1
  6
CONTINUOUS
 62
     3
100
AcDbLine
 10
121.591577925505
 20
-33.70826138598812
 30
0.0
 11
121.591577925505
 21
-51.20826138598813
 31
0.0
  0
LINE
  5
210
330
20E
100
AcDbEntity
  8
1
  6
CONTINUOUS
 62
     3
100
AcDbLine
 10
121.591577925505
 20
-51.20826138598813
 30
0.0
 11
121.591577925505
 21
-52.20826138598812
 31
0.0
  0
LINE
  5
211
330
20E
100
AcDbEntity
  8
1
  6
CONTINUOUS
 62
     3
100
AcDbLine
 10
121.591577925505
 20
-52.20826138598812
 30
0.0
 11
121.591577925505
 21
-69.70826138598812
 31
0.0
  0
LINE
  5
212
330
20E
100
AcDbEntity
  8
1
  6
CONTINUOUS
 62
     3
100
AcDbLine
 10
101.817762
 20
-52.20826138598812
 30
0.0
 11
124.091577925505
 21
-52.20826138598812
 31
0.0
  0
LINE
  5
213
330
20E
100
AcDbEntity
  8
1
  6
CONTINUOUS
 62
     3
100
AcDbLine
 10
101.817762
 20
-51.20826138598813
 30
0.0
 11
124.091577925505
 21
-51.20826138598813
 31
0.0
  0
SOLID
  5
214
330
20E
100
AcDbEntity
  8
1
 62
     3
100
AcDbTrace
 10
120.4396185716153
 20
-42.45826138598813
 30
0.0
 11
122.7435372793947
 21
-42.45826138598813
 31
0.0
 12
121.591577925505
 22
-51.20826138598813
 32
0.0
 13
121.591577925505
 23
-51.20826138598813
 33
0.0
  0
SOLID
  5
215
330
20E
100
AcDbEntity
  8
1
 62
     3
100
AcDbTrace
 10
122.7435372793947
 20
-60.95826138598812
 30
0.0
 11
120.4396185716153
 21
-60.95826138598812
 31
0.0
 12
121.591577925505
 22
-52.20826138598812
 32
0.0
 13
121.591577925505
 23
-52.20826138598812
 33
0.0
  0
MTEXT
  5
216
330
20E
100
AcDbEntity
  8
1
 62
     2
100
AcDbMText
 10
119.091577925505
 20
-36.4743874778935
 30
0.0
 40
8.75
 41
0.0
 71
     7
 72
     1
  1
1
  7
CONVERTER_2
 11
0.0
 21
1.0
 31
0.0
1001
ACAD
1000
MTEXTBEGIN
1070
    44
1040
0.60024009603842
1000
MTEXTEND
  0
ENDBLK
  5
218
330
20E
100
AcDbEntity
  8
0
100
AcDbBlockEnd
  0
BLOCK
  5
224
330
21B
100
AcDbEntity
  8
0
100
AcDbBlockBegin
  2
*D36
 70
     1
 71
     0
 10
0.0
 20
0.0
 30
0.0
  3
*D36
  1

  0
LINE
  5
21C
330
21B
100
AcDbEntity
  8
1
  6
CONTINUOUS
 62
     3
100
AcDbLine
 10
204.244062589019
 20
-32.6372389791397
 30
0.0
 11
204.244062589019
 21
-52.20826138598864
 31
0.0
  0
LINE
  5
21D
330
21B
100
AcDbEntity
  8
1
  6
CONTINUOUS
 62
     3
100
AcDbLine
 10
204.244062589019
 20
-52.20826138598864
 30
0.0
 11
204.244062589019
 21
-66.20826138598864
 31
0.0
  0
LINE
  5
21E
330
21B
100
AcDbEntity
  8
1
  6
CONTINUOUS
 62
     3
100
AcDbLine
 10
204.244062589019
 20
-66.20826138598864
 30
0.0
 11
204.244062589019
 21
-83.70826138598864
 31
0.0
  0
LINE
  5
21F
330
21B
100
AcDbEntity
  8
1
  6
CONTINUOUS
 62
     3
100
AcDbLine
 10
185.817762
 20
-66.20826138598864
 30
0.0
 11
206.744062589019
 21
-66.20826138598864
 31
0.0
  0
LINE
  5
220
330
21B
100
AcDbEntity
  8
1
  6
CONTINUOUS
 62
     3
100
AcDbLine
 10
185.817762
 20
-52.20826138598864
 30
0.0
 11
206.744062589019
 21
-52.20826138598864
 31
0.0
  0
SOLID
  5
221
330
21B
100
AcDbEntity
  8
1
 62
     3
100
AcDbTrace
 10
203.0921032351293
 20
-43.45826138598864
 30
0.0
 11
205.3960219429087
 21
-43.45826138598864
 31
0.0
 12
204.244062589019
 22
-52.20826138598864
 32
0.0
 13
204.244062589019
 23
-52.20826138598864
 33
0.0
  0
SOLID
  5
222
330
21B
100
AcDbEntity
  8
1
 62
     3
100
AcDbTrace
 10
205.3960219429087
 20
-74.95826138598864
 30
0.0
 11
203.0921032351293
 21
-74.95826138598864
 31
0.0
 12
204.244062589019
 22
-66.20826138598864
 32
0.0
 13
204.244062589019
 23
-66.20826138598864
 33
0.0
  0
MTEXT
  5
223
330
21B
100
AcDbEntity
  8
1
 62
     2
100
AcDbMText
 10
201.744062589019
 20
-39.9872389791397
 30
0.0
 40
8.75
 41
0.0
 71
     7
 72
     1
  1
14
  7
CONVERTER_2
 11
0.0
 21
1.0
 31
0.0
1001
ACAD
1000
MTEXTBEGIN
1070
    44
1040
0.60024009603842
1000
MTEXTEND
  0
ENDBLK
  5
225
330
21B
100
AcDbEntity
  8
0
100
AcDbBlockEnd
  0
BLOCK
  5
231
330
228
100
AcDbEntity
  8
0
100
AcDbBlockBegin
  2
*D47
 70
     1
 71
     0
 10
0.0
 20
0.0
 30
0.0
  3
*D47
  1

  0
LINE
  5
229
330
228
100
AcDbEntity
  8
1
  6
CONTINUOUS
 62
     3
100
AcDbLine
 10
125.098255453964
 20
-114.5647706333668
 30
0.0
 11
125.098255453964
 21
-132.0647706333668
 31
0.0
  0
LINE
  5
22A
330
228
100
AcDbEntity
  8
1
  6
CONTINUOUS
 62
     3
100
AcDbLine
 10
125.098255453964
 20
-132.0647706333668
 30
0.0
 11
125.098255453964
 21
-136.0647706333668
 31
0.0
  0
LINE
  5
22B
330
228
100
AcDbEntity
  8
1
  6
CONTINUOUS
 62
     3
100
AcDbLine
 10
125.098255453964
 20
-136.0647706333668
 30
0.0
 11
125.098255453964
 21
-153.5647706333668
 31
0.0
  0
LINE
  5
22C
330
228
100
AcDbEntity
  8
1
  6
CONTINUOUS
 62
     3
100
AcDbLine
 10
101.817762
 20
-136.0647706333668
 30
0.0
 11
127.598255453964
 21
-136.0647706333668
 31
0.0
  0
LINE
  5
22D
330
228
100
AcDbEntity
  8
1
  6
CONTINUOUS
 62
     3
100
AcDbLine
 10
101.817762
 20
-132.0647706333668
 30
0.0
 11
127.598255453964
 21
-132.0647706333668
 31
0.0
  0
SOLID
  5
22E
330
228
100
AcDbEntity
  8
1
 62
     3
100
AcDbTrace
 10
123.9462961000743
 20
-123.3147706333668
 30
0.0
 11
126.2502148078537
 21
-123.3147706333668
 31
0.0
 12
125.098255453964
 22
-132.0647706333668
 32
0.0
 13
125.098255453964
 23
-132.0647706333668
 33
0.0
  0
SOLID
  5
22F
330
228
100
AcDbEntity
  8
1
 62
     3
100
AcDbTrace
 10
126.2502148078537
 20
-144.8147706333668
 30
0.0
 11
123.9462961000743
 21
-144.8147706333668
 31
0.0
 12
125.098255453964
 22
-136.0647706333668
 32
0.0
 13
125.098255453964
 23
-136.0647706333668
 33
0.0
  0
MTEXT
  5
230
330
228
100
AcDbEntity
  8
1
 62
     2
100
AcDbMText
 10
122.598255453964
 20
-120.2893750688142
 30
0.0
 40
8.75
 41
0.0
 71
     7
 72
     1
  1
4
  7
CONVERTER_2
 11
0.0
 21
1.0
 31
0.0
1001
ACAD
1000
MTEXTBEGIN
1070
    44
1040
0.60024009603842
1000
MTEXTEND
  0
ENDBLK
  5
232
330
228
100
AcDbEntity
  8
0
100
AcDbBlockEnd
  0
BLOCK
  5
23E
330
235
100
AcDbEntity
  8
0
100
AcDbBlockBegin
  2
*D58
 70
     1
 71
     0
 10
0.0
 20
0.0
 30
0.0
  3
*D58
  1

  0
LINE
  5
236
330
235
100
AcDbEntity
  8
1
  6
CONTINUOUS
 62
     3
100
AcDbLine
 10
204.827711009239
 20
-115.5707363397341
 30
0.0
 11
204.827711009239
 21
-136.0647706333673
 31
0.0
  0
LINE
  5
237
330
235
100
AcDbEntity
  8
1
  6
CONTINUOUS
 62
     3
100
AcDbLine
 10
204.827711009239
 20
-136.0647706333673
 30
0.0
 11
204.827711009239
 21
-150.0647706333673
 31
0.0
  0
LINE
  5
238
330
235
100
AcDbEntity
  8
1
  6
CONTINUOUS
 62
     3
100
AcDbLine
 10
204.827711009239
 20
-150.0647706333673
 30
0.0
 11
204.827711009239
 21
-167.5647706333673
 31
0.0
  0
LINE
  5
239
330
235
100
AcDbEntity
  8
1
  6
CONTINUOUS
 62
     3
100
AcDbLine
 10
185.817762
 20
-150.0647706333673
 30
0.0
 11
207.327711009239
 21
-150.0647706333673
 31
0.0
  0
LINE
  5
23A
330
235
100
AcDbEntity
  8
1
  6
CONTINUOUS
 62
     3
100
AcDbLine
 10
185.817762
 20
-136.0647706333673
 30
0.0
 11
207.327711009239
 21
-136.0647706333673
 31
0.0
  0
SOLID
  5
23B
330
235
100
AcDbEntity
  8
1
 62
     3
100
AcDbTrace
 10
203.6757516553493
 20
-127.3147706333673
 30
0.0
 11
205.9796703631287
 21
-127.3147706333673
 31
0.0
 12
204.827711009239
 22
-136.0647706333673
 32
0.0
 13
204.827711009239
 23
-136.0647706333673
 33
0.0
  0
SOLID
  5
23C
330
235
100
AcDbEntity
  8
1
 62
     3
100
AcDbTrace
 10
205.9796703631287
 20
-158.8147706333673
 30
0.0
 11
203.6757516553493
 21
-158.8147706333673
 31
0.0
 12
204.827711009239
 22
-150.0647706333673
 32
0.0
 13
204.827711009239
 23
-150.0647706333673
 33
0.0
  0
MTEXT
  5
23D
330
235
100
AcDbEntity
  8
1
 62
     2
100
AcDbMText
 10
202.327711009239
 20
-122.9207363397341
 30
0.0
 40
8.75
 41
0.0
 71
     7
 72
     1
  1
14
  7
CONVERTER_2
 11
0.0
 21
1.0
 31
0.0
1001
ACAD
1000
MTEXTBEGIN
1070
    44
1040
0.60024009603842
1000
MTEXTEND
  0
ENDBLK
  5
23F
330
235
100
AcDbEntity
  8
0
100
AcDbBlockEnd
  0
BLOCK
  5
24B
330
242
100
AcDbEntity
  8
0
100
AcDbBlockBegin
  2
*D69
 70
     1
 71
     0
 10
0.0
 20
0.0
 30
0.0
  3
*D69
  1

  0
LINE
  5
243
330
242
100
AcDbEntity
  8
1
  6
CONTINUOUS
 62
     3
100
AcDbLine
 10
225.436402706245
 20
-28.8091139791397
 30
0.0
 11
225.436402706245
 21
-51.45826138598852
 31
0.0
  0
LINE
  5
244
330
242
100
AcDbEntity
  8
1
  6
CONTINUOUS
 62
     3
100
AcDbLine
 10
225.436402706245
 20
-51.45826138598852
 30
0.0
 11
225.436402706245
 21
-66.95826138598852
 31
0.0
  0
LINE
  5
245
330
242
100
AcDbEntity
  8
1
  6
CONTINUOUS
 62
     3
100
AcDbLine
 10
225.436402706245
 20
-66.95826138598852
 30
0.0
 11
225.436402706245
 21
-84.45826138598852
 31
0.0
  0
LINE
  5
246
330
242
100
AcDbEntity
  8
1
  6
CONTINUOUS
 62
     3
100
AcDbLine
 10
164.567762
 20
-66.95826138598852
 30
0.0
 11
227.936402706245
 21
-66.95826138598852
 31
0.0
  0
LINE
  5
247
330
242
100
AcDbEntity
  8
1
  6
CONTINUOUS
 62
     3
100
AcDbLine
 10
164.567762
 20
-51.45826138598852
 30
0.0
 11
227.936402706245
 21
-51.45826138598852
 31
0.0
  0
SOLID
  5
248
330
242
100
AcDbEntity
  8
1
 62
     3
100
AcDbTrace
 10
224.2844433523553
 20
-42.70826138598852
 30
0.0
 11
226.5883620601347
 21
-42.70826138598852
 31
0.0
 12
225.436402706245
 22
-51.45826138598852
 32
0.0
 13
225.436402706245
 23
-51.45826138598852
 33
0.0
  0
SOLID
  5
249
330
242
100
AcDbEntity
  8
1
 62
     3
100
AcDbTrace
 10
226.5883620601347
 20
-75.70826138598852
 30
0.0
 11
224.2844433523553
 21
-75.70826138598852
 31
0.0
 12
225.436402706245
 22
-66.95826138598852
 32
0.0
 13
225.436402706245
 23
-66.95826138598852
 33
0.0
  0
MTEXT
  5
24A
330
242
100
AcDbEntity
  8
1
 62
     2
100
AcDbMText
 10
222.061402706245
 20
-43.8153639791397
 30
0.0
 40
8.75
 41
0.0
 71
     7
 72
     1
  1
15,5
  7
CONVERTER_2
 11
0.0
 21
1.0
 31
0.0
1001
ACAD
1000
MTEXTBEGIN
1070
    44
1040
0.60024009603842
1000
MTEXTEND
  0
ENDBLK
  5
24C
330
242
100
AcDbEntity
  8
0
100
AcDbBlockEnd
  0
BLOCK
  5
258
330
24F
100
AcDbEntity
  8
0
100
AcDbBlockBegin
  2
*D710
 70
     1
 71
     0
 10
0.0
 20
0.0
 30
0.0
  3
*D710
  1

  0
LINE
  5
250
330
24F
100
AcDbEntity
  8
1
  6
CONTINUOUS
 62
     3
100
AcDbLine
 10
225.4364027062451
 20
-110.7138068909671
 30
0.0
 11
225.4364027062451
 21
-135.3147706333672
 31
0.0
  0
LINE
  5
251
330
24F
100
AcDbEntity
  8
1
  6
CONTINUOUS
 62
     3
100
AcDbLine
 10
225.4364027062451
 20
-135.3147706333672
 30
0.0
 11
225.4364027062451
 21
-150.8147706333672
 31
0.0
  0
LINE
  5
252
330
24F
100
AcDbEntity
  8
1
  6
CONTINUOUS
 62
     3
100
AcDbLine
 10
225.4364027062451
 20
-150.8147706333672
 30
0.0
 11
225.4364027062451
 21
-168.3147706333672
 31
0.0
  0
LINE
  5
253
330
24F
100
AcDbEntity
  8
1
  6
CONTINUOUS
 62
     3
100
AcDbLine
 10
164.5677620000001
 20
-150.8147706333672
 30
0.0
 11
227.9364027062451
 21
-150.8147706333672
 31
0.0
  0
LINE
  5
254
330
24F
100
AcDbEntity
  8
1
  6
CONTINUOUS
 62
     3
100
AcDbLine
 10
164.5677620000001
 20
-135.3147706333672
 30
0.0
 11
227.9364027062451
 21
-135.3147706333672
 31
0.0
  0
SOLID
  5
255
330
24F
100
AcDbEntity
  8
1
 62
     3
100
AcDbTrace
 10
224.2844433523554
 20
-126.5647706333672
 30
0.0
 11
226.5883620601348
 21
-126.5647706333672
 31
0.0
 12
225.4364027062451
 22
-135.3147706333672
 32
0.0
 13
225.4364027062451
 23
-135.3147706333672
 33
0.0
  0
SOLID
  5
256
330
24F
100
AcDbEntity
  8
1
 62
     3
100
AcDbTrace
 10
226.5883620601348
 20
-159.5647706333672
 30
0.0
 11
224.2844433523554
 21
-159.5647706333672
 31
0.0
 12
225.4364027062451
 22
-150.8147706333672
 32
0.0
 13
225.4364027062451
 23
-150.8147706333672
 33
0.0
  0
MTEXT
  5
257
330
24F
100
AcDbEntity
  8
1
 62
     2
100
AcDbMText
 10
222.0614027062451
 20
-125.7200568909671
 30
0.0
 40
8.75
 41
0.0
 71
     7
 72
     1
  1
15,5
  7
CONVERTER_2
 11
0.0
 21
1.0
 31
0.0
1001
ACAD
1000
MTEXTBEGIN
1070
    44
1040
0.60024009603842
1000
MTEXTEND
  0
ENDBLK
  5
259
330
24F
100
AcDbEntity
  8
0
100
AcDbBlockEnd
  0
BLOCK
  5
265
330
25C
100
AcDbEntity
  8
0
100
AcDbBlockBegin
  2
*D811
 70
     1
 71
     0
 10
0.0
 20
0.0
 30
0.0
  3
*D811
  1

  0
LINE
  5
25D
330
25C
100
AcDbEntity
  8
1
  6
CONTINUOUS
 62
     3
100
AcDbLine
 10
116.317762
 20
149.124258008009
 30
0.0
 11
98.817762
 21
149.124258008009
 31
0.0
  0
LINE
  5
25E
330
25C
100
AcDbEntity
  8
1
  6
CONTINUOUS
 62
     3
100
AcDbLine
 10
98.817762
 20
149.124258008009
 30
0.0
 11
87.817762
 21
149.124258008009
 31
0.0
  0
LINE
  5
25F
330
25C
100
AcDbEntity
  8
1
  6
CONTINUOUS
 62
     3
100
AcDbLine
 10
87.817762
 20
149.124258008009
 30
0.0
 11
70.317762
 21
149.124258008009
 31
0.0
  0
LINE
  5
260
330
25C
100
AcDbEntity
  8
1
  6
CONTINUOUS
 62
     3
100
AcDbLine
 10
87.817762
 20
132.242895
 30
0.0
 11
87.817762
 21
151.624258008009
 31
0.0
  0
LINE
  5
261
330
25C
100
AcDbEntity
  8
1
  6
CONTINUOUS
 62
     3
100
AcDbLine
 10
98.817762
 20
132.242895
 30
0.0
 11
98.817762
 21
151.624258008009
 31
0.0
  0
SOLID
  5
262
330
25C
100
AcDbEntity
  8
1
 62
     3
100
AcDbTrace
 10
107.567762
 20
150.2762173618987
 30
0.0
 11
107.567762
 21
147.9722986541193
 31
0.0
 12
98.817762
 22
149.124258008009
 32
0.0
 13
98.817762
 23
149.124258008009
 33
0.0
  0
SOLID
  5
263
330
25C
100
AcDbEntity
  8
1
 62
     3
100
AcDbTrace
 10
79.067762
 20
147.9722986541193
 30
0.0
 11
79.067762
 21
150.2762173618987
 31
0.0
 12
87.817762
 22
149.124258008009
 32
0.0
 13
87.817762
 23
149.124258008009
 33
0.0
  0
MTEXT
  5
264
330
25C
100
AcDbEntity
  8
1
 62
     2
100
AcDbMText
 10
72.77338318077202
 20
151.624258008009
 30
0.0
 40
8.75
 41
0.0
 71
     7
 72
     1
  1
11
  7
CONVERTER_2
 11
0.9999999999970621
 21
2.424068405545307E-6
 31
0.0
1001
ACAD
1000
MTEXTBEGIN
1070
    44
1040
0.60024009603842
1000
MTEXTEND
  0
ENDBLK
  5
266
330
25C
100
AcDbEntity
  8
0
100
AcDbBlockEnd
  0
BLOCK
  5
270
330
269
100
AcDbEntity
  8
0
100
AcDbBlockBegin
  2
*D912
 70
     1
 71
     0
 10
0.0
 20
0.0
 30
0.0
  3
*D912
  1

  0
LINE
  5
26A
330
269
100
AcDbEntity
  8
1
  6
CONTINUOUS
 62
     3
100
AcDbLine
 10
56.91799921573561
 20
32.24289499999999
 30
0.0
 11
56.91799921573561
 21
67.24289500000002
 31
0.0
  0
LINE
  5
26B
330
269
100
AcDbEntity
  8
1
  6
CONTINUOUS
 62
     3
100
AcDbLine
 10
101.817762
 20
67.24289500000002
 30
0.0
 11
54.91799921573561
 21
67.24289500000002
 31
0.0
  0
LINE
  5
26C
330
269
100
AcDbEntity
  8
1
  6
CONTINUOUS
 62
     3
100
AcDbLine
 10
98.81776200000002
 20
32.24289499999999
 30
0.0
 11
54.91799921573561
 21
32.24289499999999
 31
0.0
  0
SOLID
  5
26D
330
269
100
AcDbEntity
  8
1
 62
     3
100
AcDbTrace
 10
55.7660398618459
 20
40.99289499999999
 30
0.0
 11
58.06995856962533
 21
40.99289499999999
 31
0.0
 12
56.91799921573561
 22
32.24289499999999
 32
0.0
 13
56.91799921573561
 23
32.24289499999999
 33
0.0
  0
SOLID
  5
26E
330
269
100
AcDbEntity
  8
1
 62
     3
100
AcDbTrace
 10
58.06995856962532
 20
58.49289500000002
 30
0.0
 11
55.7660398618459
 21
58.49289500000002
 31
0.0
 12
56.91799921573561
 22
67.24289500000002
 32
0.0
 13
56.91799921573561
 23
67.24289500000002
 33
0.0
  0
MTEXT
  5
26F
330
269
100
AcDbEntity
  8
1
 62
     2
100
AcDbMText
 10
54.41799921573561
 20
44.0035664255707
 30
0.0
 40
8.75
 41
0.0
 71
     7
 72
     1
  1
35
  7
CONVERTER_1
 11
0.0
 21
1.0
 31
0.0
1001
ACAD
1000
MTEXTBEGIN
1070
    44
1040
0.60024009603842
1000
MTEXTEND
  0
ENDBLK
  5
271
330
269
100
AcDbEntity
  8
0
100
AcDbBlockEnd
  0
BLOCK
  5
27B
330
274
100
AcDbEntity
  8
0
100
AcDbBlockBegin
  2
*D1013
 70
     1
 71
     0
 10
0.0
 20
0.0
 30
0.0
  3
*D1013
  1

  0
LINE
  5
275
330
274
100
AcDbEntity
  8
1
  6
CONTINUOUS
 62
     3
100
AcDbLine
 10
56.91799921573561
 20
182.242895
 30
0.0
 11
56.91799921573561
 21
214.242895
 31
0.0
  0
LINE
  5
276
330
274
100
AcDbEntity
  8
1
  6
CONTINUOUS
 62
     3
100
AcDbLine
 10
86.81776200000002
 20
214.242895
 30
0.0
 11
54.91799921573561
 21
214.242895
 31
0.0
  0
LINE
  5
277
330
274
100
AcDbEntity
  8
1
  6
CONTINUOUS
 62
     3
100
AcDbLine
 10
86.81776200000002
 20
182.242895
 30
0.0
 11
54.91799921573561
 21
182.242895
 31
0.0
  0
SOLID
  5
278
330
274
100
AcDbEntity
  8
1
 62
     3
100
AcDbTrace
 10
55.7660398618459
 20
190.992895
 30
0.0
 11
58.06995856962533
 21
190.992895
 31
0.0
 12
56.91799921573561
 22
182.242895
 32
0.0
 13
56.91799921573561
 23
182.242895
 33
0.0
  0
SOLID
  5
279
330
274
100
AcDbEntity
  8
1
 62
     3
100
AcDbTrace
 10
58.06995856962532
 20
205.492895
 30
0.0
 11
55.7660398618459
 21
205.492895
 31
0.0
 12
56.91799921573561
 22
214.242895
 32
0.0
 13
56.91799921573561
 23
214.242895
 33
0.0
  0
MTEXT
  5
27A
330
274
100
AcDbEntity
  8
1
 62
     2
100
AcDbMText
 10
54.41799921573561
 20
192.992895
 30
0.0
 40
8.75
 41
0.0
 71
     7
 72
     1
  1
32
  7
CONVERTER_1
 11
0.0
 21
1.0
 31
0.0
1001
ACAD
1000
MTEXTBEGIN
1070
    44
1040
0.60024009603842
1000
MTEXTEND
  0
ENDBLK
  5
27C
330
274
100
AcDbEntity
  8
0
100
AcDbBlockEnd
  0
BLOCK
  5
286
330
27F
100
AcDbEntity
  8
0
100
AcDbBlockBegin
  2
*D1114
 70
     1
 71
     0
 10
0.0
 20
0.0
 30
0.0
  3
*D1114
  1

  0
LINE
  5
280
330
27F
100
AcDbEntity
  8
1
  6
CONTINUOUS
 62
     3
100
AcDbLine
 10
56.91799921573561
 20
132.242895
 30
0.0
 11
56.91799921573561
 21
182.242895
 31
0.0
  0
LINE
  5
281
330
27F
100
AcDbEntity
  8
1
  6
CONTINUOUS
 62
     3
100
AcDbLine
 10
86.81776200000002
 20
182.242895
 30
0.0
 11
54.91799921573561
 21
182.242895
 31
0.0
  0
LINE
  5
282
330
27F
100
AcDbEntity
  8
1
  6
CONTINUOUS
 62
     3
100
AcDbLine
 10
76.81776200000002
 20
132.242895
 30
0.0
 11
54.91799921573561
 21
132.242895
 31
0.0
  0
SOLID
  5
283
330
27F
100
AcDbEntity
  8
1
 62
     3
100
AcDbTrace
 10
55.7660398618459
 20
140.992895
 30
0.0
 11
58.06995856962533
 21
140.992895
 31
0.0
 12
56.91799921573561
 22
132.242895
 32
0.0
 13
56.91799921573561
 23
132.242895
 33
0.0
  0
SOLID
  5
284
330
27F
100
AcDbEntity
  8
1
 62
     3
100
AcDbTrace
 10
58.06995856962532
 20
173.492895
 30
0.0
 11
55.7660398618459
 21
173.492895
 31
0.0
 12
56.91799921573561
 22
182.242895
 32
0.0
 13
56.91799921573561
 23
182.242895
 33
0.0
  0
MTEXT
  5
285
330
27F
100
AcDbEntity
  8
1
 62
     2
100
AcDbMText
 10
54.41799921573561
 20
151.992895
 30
0.0
 40
8.75
 41
0.0
 71
     7
 72
     1
  1
50
  7
CONVERTER_1
 11
0.0
 21
1.0
 31
0.0
1001
ACAD
1000
MTEXTBEGIN
1070
    44
1040
0.60024009603842
1000
MTEXTEND
  0
ENDBLK
  5
287
330
27F
100
AcDbEntity
  8
0
100
AcDbBlockEnd
  0
BLOCK
  5
291
330
28A
100
AcDbEntity
  8
0
100
AcDbBlockBegin
  2
*D1215
 70
     1
 71
     0
 10
0.0
 20
0.0
 30
0.0
  3
*D1215
  1

  0
LINE
  5
28B
330
28A
100
AcDbEntity
  8
1
  6
CONTINUOUS
 62
     3
100
AcDbLine
 10
56.91799921573561
 20
97.242895
 30
0.0
 11
56.91799921573561
 21
132.242895
 31
0.0
  0
LINE
  5
28C
330
28A
100
AcDbEntity
  8
1
  6
CONTINUOUS
 62
     3
100
AcDbLine
 10
76.81776200000002
 20
132.242895
 30
0.0
 11
54.91799921573561
 21
132.242895
 31
0.0
  0
LINE
  5
28D
330
28A
100
AcDbEntity
  8
1
  6
CONTINUOUS
 62
     3
100
AcDbLine
 10
76.81776200000002
 20
97.242895
 30
0.0
 11
54.91799921573561
 21
97.242895
 31
0.0
  0
SOLID
  5
28E
330
28A
100
AcDbEntity
  8
1
 62
     3
100
AcDbTrace
 10
55.7660398618459
 20
105.992895
 30
0.0
 11
58.06995856962533
 21
105.992895
 31
0.0
 12
56.91799921573561
 22
97.242895
 32
0.0
 13
56.91799921573561
 23
97.242895
 33
0.0
  0
SOLID
  5
28F
330
28A
100
AcDbEntity
  8
1
 62
     3
100
AcDbTrace
 10
58.06995856962532
 20
123.492895
 30
0.0
 11
55.7660398618459
 21
123.492895
 31
0.0
 12
56.91799921573561
 22
132.242895
 32
0.0
 13
56.91799921573561
 23
132.242895
 33
0.0
  0
MTEXT
  5
290
330
28A
100
AcDbEntity
  8
1
 62
     2
100
AcDbMText
 10
54.41799921573561
 20
109.492895
 30
0.0
 40
8.75
 41
0.0
 71
     7
 72
     1
  1
35
  7
CONVERTER_1
 11
0.0
 21
1.0
 31
0.0
1001
ACAD
1000
MTEXTBEGIN
1070
    44
1040
0.60024009603842
1000
MTEXTEND
  0
ENDBLK
  5
292
330
28A
100
AcDbEntity
  8
0
100
AcDbBlockEnd
  0
BLOCK
  5
29C
330
295
100
AcDbEntity
  8
0
100
AcDbBlockBegin
  2
*D1316
 70
     1
 71
     0
 10
0.0
 20
0.0
 30
0.0
  3
*D1316
  1

  0
LINE
  5
296
330
295
100
AcDbEntity
  8
1
  6
CONTINUOUS
 62
     3
100
AcDbLine
 10
56.91799921573561
 20
67.24289500000002
 30
0.0
 11
56.91799921573561
 21
97.242895
 31
0.0
  0
LINE
  5
297
330
295
100
AcDbEntity
  8
1
  6
CONTINUOUS
 62
     3
100
AcDbLine
 10
76.81776200000002
 20
97.242895
 30
0.0
 11
54.91799921573561
 21
97.242895
 31
0.0
  0
LINE
  5
298
330
295
100
AcDbEntity
  8
1
  6
CONTINUOUS
 62
     3
100
AcDbLine
 10
101.817762
 20
67.24289500000002
 30
0.0
 11
54.91799921573561
 21
67.24289500000002
 31
0.0
  0
SOLID
  5
299
330
295
100
AcDbEntity
  8
1
 62
     3
100
AcDbTrace
 10
55.7660398618459
 20
75.99289500000002
 30
0.0
 11
58.06995856962533
 21
75.99289500000002
 31
0.0
 12
56.91799921573561
 22
67.24289500000002
 32
0.0
 13
56.91799921573561
 23
67.24289500000002
 33
0.0
  0
SOLID
  5
29A
330
295
100
AcDbEntity
  8
1
 62
     3
100
AcDbTrace
 10
58.06995856962532
 20
88.492895
 30
0.0
 11
55.7660398618459
 21
88.492895
 31
0.0
 12
56.91799921573561
 22
97.242895
 32
0.0
 13
56.91799921573561
 23
97.242895
 33
0.0
  0
MTEXT
  5
29B
330
295
100
AcDbEntity
  8
1
 62
     2
100
AcDbMText
 10
54.41799921573561
 20
76.992895
 30
0.0
 40
8.75
 41
0.0
 71
     7
 72
     1
  1
30
  7
CONVERTER_1
 11
0.0
 21
1.0
 31
0.0
1001
ACAD
1000
MTEXTBEGIN
1070
    44
1040
0.60024009603842
1000
MTEXTEND
  0
ENDBLK
  5
29D
330
295
100
AcDbEntity
  8
0
100
AcDbBlockEnd
  0
BLOCK
  5
2A9
330
2A0
100
AcDbEntity
  8
0
100
AcDbBlockBegin
  2
*D1417
 70
     1
 71
     0
 10
0.0
 20
0.0
 30
0.0
  3
*D1417
  1

  0
LINE
  5
2A1
330
2A0
100
AcDbEntity
  8
1
  6
CONTINUOUS
 62
     3
100
AcDbLine
 10
206.883941852857
 20
169.242895
 30
0.0
 11
206.883941852857
 21
186.742895
 31
0.0
  0
LINE
  5
2A2
330
2A0
100
AcDbEntity
  8
1
  6
CONTINUOUS
 62
     3
100
AcDbLine
 10
206.883941852857
 20
147.742895
 30
0.0
 11
206.883941852857
 21
130.242895
 31
0.0
  0
LINE
  5
2A3
330
2A0
100
AcDbEntity
  8
1
  6
CONTINUOUS
 62
     3
100
AcDbLine
 10
206.883941852857
 20
147.742895
 30
0.0
 11
206.883941852857
 21
169.242895
 31
0.0
  0
LINE
  5
2A4
330
2A0
100
AcDbEntity
  8
1
  6
CONTINUOUS
 62
     3
100
AcDbLine
 10
181.817762
 20
169.242895
 30
0.0
 11
208.883941852857
 21
169.242895
 31
0.0
  0
LINE
  5
2A5
330
2A0
100
AcDbEntity
  8
1
  6
CONTINUOUS
 62
     3
100
AcDbLine
 10
158.403488024579
 20
147.742895
 30
0.0
 11
208.883941852857
 21
147.742895
 31
0.0
  0
SOLID
  5
2A6
330
2A0
100
AcDbEntity
  8
1
 62
     3
100
AcDbTrace
 10
208.0359012067467
 20
138.992895
 30
0.0
 11
205.7319824989673
 21
138.992895
 31
0.0
 12
206.883941852857
 22
147.742895
 32
0.0
 13
206.883941852857
 23
147.742895
 33
0.0
  0
SOLID
  5
2A7
330
2A0
100
AcDbEntity
  8
1
 62
     3
100
AcDbTrace
 10
205.7319824989673
 20
177.992895
 30
0.0
 11
208.0359012067467
 21
177.992895
 31
0.0
 12
206.883941852857
 22
169.242895
 32
0.0
 13
206.883941852857
 23
169.242895
 33
0.0
  0
MTEXT
  5
2A8
330
2A0
100
AcDbEntity
  8
1
 62
     2
100
AcDbMText
 10
203.508941852857
 20
149.854497781814
 30
0.0
 40
8.75
 41
0.0
 71
     7
 72
     1
  1
21,5
  7
CONVERTER_1
 11
0.0
 21
1.0
 31
0.0
1001
ACAD
1000
MTEXTBEGIN
1070
    44
1040
0.60024009603842
1000
MTEXTEND
  0
ENDBLK
  5
2AA
330
2A0
100
AcDbEntity
  8
0
100
AcDbBlockEnd
  0
BLOCK
  5
2B4
330
2AD
100
AcDbEntity
  8
0
100
AcDbBlockBegin
  2
*D1518
 70
     1
 71
     0
 10
0.0
 20
0.0
 30
0.0
  3
*D1518
  1

  0
LINE
  5
2AE
330
2AD
100
AcDbEntity
  8
1
  6
CONTINUOUS
 62
     3
100
AcDbLine
 10
206.864675733566
 20
169.242895
 30
0.0
 11
206.864675733566
 21
215.242895
 31
0.0
  0
LINE
  5
2AF
330
2AD
100
AcDbEntity
  8
1
  6
CONTINUOUS
 62
     3
100
AcDbLine
 10
162.817762
 20
215.242895
 30
0.0
 11
208.864675733566
 21
215.242895
 31
0.0
  0
LINE
  5
2B0
330
2AD
100
AcDbEntity
  8
1
  6
CONTINUOUS
 62
     3
100
AcDbLine
 10
181.817762
 20
169.242895
 30
0.0
 11
208.864675733566
 21
169.242895
 31
0.0
  0
SOLID
  5
2B1
330
2AD
100
AcDbEntity
  8
1
 62
     3
100
AcDbTrace
 10
205.7127163796763
 20
177.992895
 30
0.0
 11
208.0166350874557
 21
177.992895
 31
0.0
 12
206.864675733566
 22
169.242895
 32
0.0
 13
206.864675733566
 23
169.242895
 33
0.0
  0
SOLID
  5
2B2
330
2AD
100
AcDbEntity
  8
1
 62
     3
100
AcDbTrace
 10
208.0166350874557
 20
206.492895
 30
0.0
 11
205.7127163796763
 21
206.492895
 31
0.0
 12
206.864675733566
 22
215.242895
 32
0.0
 13
206.864675733566
 23
215.242895
 33
0.0
  0
MTEXT
  5
2B3
330
2AD
100
AcDbEntity
  8
1
 62
     2
100
AcDbMText
 10
204.364675733566
 20
186.847325178919
 30
0.0
 40
8.75
 41
0.0
 71
     7
 72
     1
  1
46
  7
CONVERTER_1
 11
0.0
 21
1.0
 31
0.0
1001
ACAD
1000
MTEXTBEGIN
1070
    44
1040
0.60024009603842
1000
MTEXTEND
  0
ENDBLK
  5
2B5
330
2AD
100
AcDbEntity
  8
0
100
AcDbBlockEnd
  0
BLOCK
  5
2BF
330
2B8
100
AcDbEntity
  8
0
100
AcDbBlockBegin
  2
*D1619
 70
     1
 71
     0
 10
0.0
 20
0.0
 30
0.0
  3
*D1619
  1

  0
LINE
  5
2B9
330
2B8
100
AcDbEntity
  8
1
  6
CONTINUOUS
 62
     3
100
AcDbLine
 10
222.339329319813
 20
67.242895
 30
0.0
 11
222.339329319813
 21
97.242895
 31
0.0
  0
LINE
  5
2BA
330
2B8
100
AcDbEntity
  8
1
  6
CONTINUOUS
 62
     3
100
AcDbLine
 10
164.930722490206
 20
97.242895
 30
0.0
 11
224.339329319813
 21
97.242895
 31
0.0
  0
LINE
  5
2BB
330
2B8
100
AcDbEntity
  8
1
  6
CONTINUOUS
 62
     3
100
AcDbLine
 10
178.817762
 20
67.242895
 30
0.0
 11
224.339329319813
 21
67.242895
 31
0.0
  0
SOLID
  5
2BC
330
2B8
100
AcDbEntity
  8
1
 62
     3
100
AcDbTrace
 10
221.1873699659233
 20
75.992895
 30
0.0
 11
223.4912886737027
 21
75.992895
 31
0.0
 12
222.339329319813
 22
67.242895
 32
0.0
 13
222.339329319813
 23
67.242895
 33
0.0
  0
SOLID
  5
2BD
330
2B8
100
AcDbEntity
  8
1
 62
     3
100
AcDbTrace
 10
223.4912886737027
 20
88.492895
 30
0.0
 11
221.1873699659233
 21
88.492895
 31
0.0
 12
222.339329319813
 22
97.242895
 32
0.0
 13
222.339329319813
 23
97.242895
 33
0.0
  0
MTEXT
  5
2BE
330
2B8
100
AcDbEntity
  8
1
 62
     2
100
AcDbMText
 10
219.839329319813
 20
78.10651619448211
 30
0.0
 40
8.75
 41
0.0
 71
     7
 72
     1
  1
30
  7
CONVERTER_1
 11
0.0
 21
1.0
 31
0.0
1001
ACAD
1000
MTEXTBEGIN
1070
    44
1040
0.60024009603842
1000
MTEXTEND
  0
ENDBLK
  5
2C0
330
2B8
100
AcDbEntity
  8
0
100
AcDbBlockEnd
  0
BLOCK
  5
2CA
330
2C3
100
AcDbEntity
  8
0
100
AcDbBlockBegin
  2
*D1720
 70
     1
 71
     0
 10
0.0
 20
0.0
 30
0.0
  3
*D1720
  1

  0
LINE
  5
2C4
330
2C3
100
AcDbEntity
  8
1
  6
CONTINUOUS
 62
     3
100
AcDbLine
 10
222.339329319813
 20
97.242895
 30
0.0
 11
222.339329319813
 21
169.242895
 31
0.0
  0
LINE
  5
2C5
330
2C3
100
AcDbEntity
  8
1
  6
CONTINUOUS
 62
     3
100
AcDbLine
 10
181.817762
 20
169.242895
 30
0.0
 11
224.339329319813
 21
169.242895
 31
0.0
  0
LINE
  5
2C6
330
2C3
100
AcDbEntity
  8
1
  6
CONTINUOUS
 62
     3
100
AcDbLine
 10
164.930722490206
 20
97.242895
 30
0.0
 11
224.339329319813
 21
97.242895
 31
0.0
  0
SOLID
  5
2C7
330
2C3
100
AcDbEntity
  8
1
 62
     3
100
AcDbTrace
 10
221.1873699659233
 20
105.992895
 30
0.0
 11
223.4912886737027
 21
105.992895
 31
0.0
 12
222.339329319813
 22
97.242895
 32
0.0
 13
222.339329319813
 23
97.242895
 33
0.0
  0
SOLID
  5
2C8
330
2C3
100
AcDbEntity
  8
1
 62
     3
100
AcDbTrace
 10
223.4912886737027
 20
160.492895
 30
0.0
 11
221.1873699659233
 21
160.492895
 31
0.0
 12
222.339329319813
 22
169.242895
 32
0.0
 13
222.339329319813
 23
169.242895
 33
0.0
  0
MTEXT
  5
2C9
330
2C3
100
AcDbEntity
  8
1
 62
     2
100
AcDbMText
 10
219.839329319813
 20
124.948710833932
 30
0.0
 40
8.75
 41
0.0
 71
     7
 72
     1
  1
72
  7
CONVERTER_1
 11
0.0
 21
1.0
 31
0.0
1001
ACAD
1000
MTEXTBEGIN
1070
    44
1040
0.60024009603842
1000
MTEXTEND
  0
ENDBLK
  5
2CB
330
2C3
100
AcDbEntity
  8
0
100
AcDbBlockEnd
  0
BLOCK
  5
2D5
330
2CE
100
AcDbEntity
  8
0
100
AcDbBlockBegin
  2
*D1821
 70
     1
 71
     0
 10
0.0
 20
0.0
 30
0.0
  3
*D1821
  1

  0
LINE
  5
2CF
330
2CE
100
AcDbEntity
  8
1
  6
CONTINUOUS
 62
     3
100
AcDbLine
 10
98.81776199999999
 20
11.868941025105
 30
0.0
 11
153.817762
 21
11.868941025105
 31
0.0
  0
LINE
  5
2D0
330
2CE
100
AcDbEntity
  8
1
  6
CONTINUOUS
 62
     3
100
AcDbLine
 10
153.817762
 20
67.242895
 30
0.0
 11
153.817762
 21
9.868941025105
 31
0.0
  0
LINE
  5
2D1
330
2CE
100
AcDbEntity
  8
1
  6
CONTINUOUS
 62
     3
100
AcDbLine
 10
98.81776199999999
 20
32.242895
 30
0.0
 11
98.81776199999999
 21
9.868941025105
 31
0.0
  0
SOLID
  5
2D2
330
2CE
100
AcDbEntity
  8
1
 62
     3
100
AcDbTrace
 10
107.567762
 20
13.02090037899471
 30
0.0
 11
107.567762
 21
10.71698167121529
 31
0.0
 12
98.81776199999999
 22
11.868941025105
 32
0.0
 13
98.81776199999999
 23
11.868941025105
 33
0.0
  0
SOLID
  5
2D3
330
2CE
100
AcDbEntity
  8
1
 62
     3
100
AcDbTrace
 10
145.067762
 20
10.71698167121529
 30
0.0
 11
145.067762
 21
13.02090037899471
 31
0.0
 12
153.817762
 22
11.868941025105
 32
0.0
 13
153.817762
 23
11.868941025105
 33
0.0
  0
MTEXT
  5
2D4
330
2CE
100
AcDbEntity
  8
1
 62
     2
100
AcDbMText
 10
105.542186686193
 20
14.368941025105
 30
0.0
 40
8.75
 41
0.0
 71
     7
 72
     1
  1
Dornmaß
  7
CONVERTER_1
 11
0.9999999999970621
 21
2.424068405545307E-6
 31
0.0
1001
ACAD
1000
MTEXTBEGIN
1070
    44
1040
0.60024009603842
1000
MTEXTEND
  0
ENDBLK
  5
2D6
330
2CE
100
AcDbEntity
  8
0
100
AcDbBlockEnd
  0
BLOCK
  5
2E0
330
2D9
100
AcDbEntity
  8
0
100
AcDbBlockBegin
  2
*D1922
 70
     1
 71
     0
 10
0.0
 20
0.0
 30
0.0
  3
*D1922
  1

  0
LINE
  5
2DA
330
2D9
100
AcDbEntity
  8
1
  6
CONTINUOUS
 62
     3
100
AcDbLine
 10
153.817762
 20
11.868941025105
 30
0.0
 11
186.817762
 21
11.868941025105
 31
0.0
  0
LINE
  5
2DB
330
2D9
100
AcDbEntity
  8
1
  6
CONTINUOUS
 62
     3
100
AcDbLine
 10
186.817762
 20
75.24289500000002
 30
0.0
 11
186.817762
 21
9.868941025105
 31
0.0
  0
LINE
  5
2DC
330
2D9
100
AcDbEntity
  8
1
  6
CONTINUOUS
 62
     3
100
AcDbLine
 10
153.817762
 20
67.242895
 30
0.0
 11
153.817762
 21
9.868941025105
 31
0.0
  0
SOLID
  5
2DD
330
2D9
100
AcDbEntity
  8
1
 62
     3
100
AcDbTrace
 10
162.567762
 20
13.02090037899471
 30
0.0
 11
162.567762
 21
10.71698167121529
 31
0.0
 12
153.817762
 22
11.868941025105
 32
0.0
 13
153.817762
 23
11.868941025105
 33
0.0
  0
SOLID
  5
2DE
330
2D9
100
AcDbEntity
  8
1
 62
     3
100
AcDbTrace
 10
178.067762
 20
10.71698167121529
 30
0.0
 11
178.067762
 21
13.02090037899471
 31
0.0
 12
186.817762
 22
11.868941025105
 32
0.0
 13
186.817762
 23
11.868941025105
 33
0.0
  0
MTEXT
  5
2DF
330
2D9
100
AcDbEntity
  8
1
 62
     2
100
AcDbMText
 10
165.067762
 20
14.368941025105
 30
0.0
 40
8.75
 41
0.0
 71
     7
 72
     1
  1
33
  7
CONVERTER_1
 11
0.9999999999970621
 21
2.424068405545307E-6
 31
0.0
1001
ACAD
1000
MTEXTBEGIN
1070
    44
1040
0.60024009603842
1000
MTEXTEND
  0
ENDBLK
  5
2E1
330
2D9
100
AcDbEntity
  8
0
100
AcDbBlockEnd
  0
BLOCK
  5
2ED
330
2E4
100
AcDbEntity
  8
0
100
AcDbBlockBegin
  2
*D2023
 70
     1
 71
     0
 10
0.0
 20
0.0
 30
0.0
  3
*D2023
  1

  0
LINE
  5
2E5
330
2E4
100
AcDbEntity
  8
1
  6
CONTINUOUS
 62
     3
100
AcDbLine
 10
329.221108941338
 20
284.742895
 30
0.0
 11
329.221108941338
 21
267.242895
 31
0.0
  0
LINE
  5
2E6
330
2E4
100
AcDbEntity
  8
1
  6
CONTINUOUS
 62
     3
100
AcDbLine
 10
329.221108941338
 20
267.242895
 30
0.0
 11
329.221108941338
 21
254.242895
 31
0.0
  0
LINE
  5
2E7
330
2E4
100
AcDbEntity
  8
1
  6
CONTINUOUS
 62
     3
100
AcDbLine
 10
329.221108941338
 20
254.242895
 30
0.0
 11
329.221108941338
 21
236.742895
 31
0.0
  0
LINE
  5
2E8
330
2E4
100
AcDbEntity
  8
1
  6
CONTINUOUS
 62
     3
100
AcDbLine
 10
303.8664544686201
 20
254.242895
 30
0.0
 11
331.721108941338
 21
254.242895
 31
0.0
  0
LINE
  5
2E9
330
2E4
100
AcDbEntity
  8
1
  6
CONTINUOUS
 62
     3
100
AcDbLine
 10
296.21645446862
 20
267.242895
 30
0.0
 11
331.721108941338
 21
267.242895
 31
0.0
  0
SOLID
  5
2EA
330
2E4
100
AcDbEntity
  8
1
 62
     3
100
AcDbTrace
 10
328.0691495874483
 20
275.992895
 30
0.0
 11
330.3730682952277
 21
275.992895
 31
0.0
 12
329.221108941338
 22
267.242895
 32
0.0
 13
329.221108941338
 23
267.242895
 33
0.0
  0
SOLID
  5
2EB
330
2E4
100
AcDbEntity
  8
1
 62
     3
100
AcDbTrace
 10
330.3730682952277
 20
245.492895
 30
0.0
 11
328.0691495874483
 21
245.492895
 31
0.0
 12
329.221108941338
 22
254.242895
 32
0.0
 13
329.221108941338
 23
254.242895
 33
0.0
  0
MTEXT
  5
2EC
330
2E4
100
AcDbEntity
  8
1
 62
     2
100
AcDbMText
 10
326.721108941338
 20
256.722772208862
 30
0.0
 40
8.75
 41
0.0
 71
     7
 72
     1
  1
13
  7
CONVERTER_2
 11
0.0
 21
1.0
 31
0.0
1001
ACAD
1000
MTEXTBEGIN
1070
    44
1040
0.60024009603842
1000
MTEXTEND
  0
ENDBLK
  5
2EE
330
2E4
100
AcDbEntity
  8
0
100
AcDbBlockEnd
  0
BLOCK
  5
2F8
330
2F1
100
AcDbEntity
  8
0
100
AcDbBlockBegin
  2
*D2124
 70
     1
 71
     0
 10
0.0
 20
0.0
 30
0.0
  3
*D2124
  1

  0
LINE
  5
2F2
330
2F1
100
AcDbEntity
  8
1
  6
CONTINUOUS
 62
     3
100
AcDbLine
 10
329.221108941338
 20
254.242895
 30
0.0
 11
329.221108941338
 21
45.242895
 31
0.0
  0
LINE
  5
2F3
330
2F1
100
AcDbEntity
  8
1
  6
CONTINUOUS
 62
     3
100
AcDbLine
 10
303.8664544686201
 20
45.242895
 30
0.0
 11
331.721108941338
 21
45.242895
 31
0.0
  0
LINE
  5
2F4
330
2F1
100
AcDbEntity
  8
1
  6
CONTINUOUS
 62
     3
100
AcDbLine
 10
303.8664544686201
 20
254.242895
 30
0.0
 11
331.721108941338
 21
254.242895
 31
0.0
  0
SOLID
  5
2F5
330
2F1
100
AcDbEntity
  8
1
 62
     3
100
AcDbTrace
 10
330.3730682952277
 20
245.492895
 30
0.0
 11
328.0691495874483
 21
245.492895
 31
0.0
 12
329.221108941338
 22
254.242895
 32
0.0
 13
329.221108941338
 23
254.242895
 33
0.0
  0
SOLID
  5
2F6
330
2F1
100
AcDbEntity
  8
1
 62
     3
100
AcDbTrace
 10
328.0691495874483
 20
53.992895
 30
0.0
 11
330.3730682952277
 21
53.992895
 31
0.0
 12
329.221108941338
 22
45.242895
 32
0.0
 13
329.221108941338
 23
45.242895
 33
0.0
  0
MTEXT
  5
2F7
330
2F1
100
AcDbEntity
  8
1
 62
     2
100
AcDbMText
 10
326.721108941338
 20
142.392895
 30
0.0
 40
8.75
 41
0.0
 71
     7
 72
     1
  1
209
  7
CONVERTER_2
 11
0.0
 21
1.0
 31
0.0
1001
ACAD
1000
MTEXTBEGIN
1070
    44
1040
0.60024009603842
1000
MTEXTEND
  0
ENDBLK
  5
2F9
330
2F1
100
AcDbEntity
  8
0
100
AcDbBlockEnd
  0
BLOCK
  5
305
330
2FC
100
AcDbEntity
  8
0
100
AcDbBlockBegin
  2
*D2225
 70
     1
 71
     0
 10
0.0
 20
0.0
 30
0.0
  3
*D2225
  1

  0
LINE
  5
2FD
330
2FC
100
AcDbEntity
  8
1
  6
CONTINUOUS
 62
     3
100
AcDbLine
 10
430.3707546501531
 20
284.742895
 30
0.0
 11
430.3707546501531
 21
267.242895
 31
0.0
  0
LINE
  5
2FE
330
2FC
100
AcDbEntity
  8
1
  6
CONTINUOUS
 62
     3
100
AcDbLine
 10
430.3707546501531
 20
267.242895
 30
0.0
 11
430.3707546501531
 21
254.242895
 31
0.0
  0
LINE
  5
2FF
330
2FC
100
AcDbEntity
  8
1
  6
CONTINUOUS
 62
     3
100
AcDbLine
 10
430.3707546501531
 20
254.242895
 30
0.0
 11
430.3707546501531
 21
236.742895
 31
0.0
  0
LINE
  5
300
330
2FC
100
AcDbEntity
  8
1
  6
CONTINUOUS
 62
     3
100
AcDbLine
 10
400.9833711892662
 20
254.242895
 30
0.0
 11
432.8707546501531
 21
254.242895
 31
0.0
  0
LINE
  5
301
330
2FC
100
AcDbEntity
  8
1
  6
CONTINUOUS
 62
     3
100
AcDbLine
 10
392.6333711892663
 20
267.242895
 30
0.0
 11
432.8707546501531
 21
267.242895
 31
0.0
  0
SOLID
  5
302
330
2FC
100
AcDbEntity
  8
1
 62
     3
100
AcDbTrace
 10
429.2187952962634
 20
275.992895
 30
0.0
 11
431.5227140040428
 21
275.992895
 31
0.0
 12
430.3707546501531
 22
267.242895
 32
0.0
 13
430.3707546501531
 23
267.242895
 33
0.0
  0
SOLID
  5
303
330
2FC
100
AcDbEntity
  8
1
 62
     3
100
AcDbTrace
 10
431.5227140040428
 20
245.492895
 30
0.0
 11
429.2187952962634
 21
245.492895
 31
0.0
 12
430.3707546501531
 22
254.242895
 32
0.0
 13
430.3707546501531
 23
254.242895
 33
0.0
  0
MTEXT
  5
304
330
2FC
100
AcDbEntity
  8
1
 62
     2
100
AcDbMText
 10
427.8707546501531
 20
256.01543202908
 30
0.0
 40
8.75
 41
0.0
 71
     7
 72
     1
  1
13
  7
CONVERTER_2
 11
0.0
 21
1.0
 31
0.0
1001
ACAD
1000
MTEXTBEGIN
1070
    44
1040
0.60024009603842
1000
MTEXTEND
  0
ENDBLK
  5
306
330
2FC
100
AcDbEntity
  8
0
100
AcDbBlockEnd
  0
BLOCK
  5
310
330
309
100
AcDbEntity
  8
0
100
AcDbBlockBegin
  2
*D2326
 70
     1
 71
     0
 10
0.0
 20
0.0
 30
0.0
  3
*D2326
  1

  0
LINE
  5
30A
330
309
100
AcDbEntity
  8
1
  6
CONTINUOUS
 62
     3
100
AcDbLine
 10
430.3707546501531
 20
254.242895
 30
0.0
 11
430.3707546501531
 21
45.242895
 31
0.0
  0
LINE
  5
30B
330
309
100
AcDbEntity
  8
1
  6
CONTINUOUS
 62
     3
100
AcDbLine
 10
400.2833711892665
 20
45.242895
 30
0.0
 11
432.8707546501531
 21
45.242895
 31
0.0
  0
LINE
  5
30C
330
309
100
AcDbEntity
  8
1
  6
CONTINUOUS
 62
     3
100
AcDbLine
 10
400.9833711892662
 20
254.242895
 30
0.0
 11
432.8707546501531
 21
254.242895
 31
0.0
  0
SOLID
  5
30D
330
309
100
AcDbEntity
  8
1
 62
     3
100
AcDbTrace
 10
431.5227140040428
 20
245.492895
 30
0.0
 11
429.2187952962634
 21
245.492895
 31
0.0
 12
430.3707546501531
 22
254.242895
 32
0.0
 13
430.3707546501531
 23
254.242895
 33
0.0
  0
SOLID
  5
30E
330
309
100
AcDbEntity
  8
1
 62
     3
100
AcDbTrace
 10
429.2187952962634
 20
53.992895
 30
0.0
 11
431.5227140040428
 21
53.992895
 31
0.0
 12
430.3707546501531
 22
45.242895
 32
0.0
 13
430.3707546501531
 23
45.242895
 33
0.0
  0
MTEXT
  5
30F
330
309
100
AcDbEntity
  8
1
 62
     2
100
AcDbMText
 10
427.8707546501531
 20
142.392895
 30
0.0
 40
8.75
 41
0.0
 71
     7
 72
     1
  1
209
  7
CONVERTER_2
 11
0.0
 21
1.0
 31
0.0
1001
ACAD
1000
MTEXTBEGIN
1070
    44
1040
0.60024009603842
1000
MTEXTEND
  0
ENDBLK
  5
311
330
309
100
AcDbEntity
  8
0
100
AcDbBlockEnd
  0
BLOCK
  5
31D
330
314
100
AcDbEntity
  8
0
100
AcDbBlockBegin
  2
*D2427
 70
     1
 71
     0
 10
0.0
 20
0.0
 30
0.0
  3
*D2427
  1

  0
LINE
  5
315
330
314
100
AcDbEntity
  8
1
  6
CONTINUOUS
 62
     3
100
AcDbLine
 10
81.3177620000001
 20
-167.4061019977493
 30
0.0
 11
98.8177620000001
 21
-167.4061019977493
 31
0.0
  0
LINE
  5
316
330
314
100
AcDbEntity
  8
1
  6
CONTINUOUS
 62
     3
100
AcDbLine
 10
98.8177620000001
 20
-167.4061019977493
 30
0.0
 11
101.817762
 21
-167.4061019977493
 31
0.0
  0
LINE
  5
317
330
314
100
AcDbEntity
  8
1
  6
CONTINUOUS
 62
     3
100
AcDbLine
 10
101.817762
 20
-167.4061019977493
 30
0.0
 11
119.317762
 21
-167.4061019977493
 31
0.0
  0
LINE
  5
318
330
314
100
AcDbEntity
  8
1
  6
CONTINUOUS
 62
     3
100
AcDbLine
 10
101.817762
 20
-156.0647706333668
 30
0.0
 11
101.817762
 21
-169.4061019977493
 31
0.0
  0
LINE
  5
319
330
314
100
AcDbEntity
  8
1
  6
CONTINUOUS
 62
     3
100
AcDbLine
 10
98.8177620000001
 20
-156.0647706333668
 30
0.0
 11
98.8177620000001
 21
-169.4061019977493
 31
0.0
  0
SOLID
  5
31A
330
314
100
AcDbEntity
  8
1
 62
     3
100
AcDbTrace
 10
90.0677620000001
 20
-168.558061351639
 30
0.0
 11
90.0677620000001
 21
-166.2541426438596
 31
0.0
 12
98.8177620000001
 22
-167.4061019977493
 32
0.0
 13
98.8177620000001
 23
-167.4061019977493
 33
0.0
  0
SOLID
  5
31B
330
314
100
AcDbEntity
  8
1
 62
     3
100
AcDbTrace
 10
110.567762
 20
-166.2541426438596
 30
0.0
 11
110.567762
 21
-168.558061351639
 31
0.0
 12
101.817762
 22
-167.4061019977493
 32
0.0
 13
101.817762
 23
-167.4061019977493
 33
0.0
  0
MTEXT
  5
31C
330
314
100
AcDbEntity
  8
1
 62
     2
100
AcDbMText
 10
83.17501200571179
 20
-164.9061019977493
 30
0.0
 40
8.75
 41
0.0
 71
     7
 72
     1
  1
3
  7
CONVERTER_1
 11
0.9999999999970621
 21
2.424068405545307E-6
 31
0.0
1001
ACAD
1000
MTEXTBEGIN
1070
    44
1040
0.60024009603842
1000
MTEXTEND
  0
ENDBLK
  5
31E
330
314
100
AcDbEntity
  8
0
100
AcDbBlockEnd
  0
BLOCK
  5
32A
330
321
100
AcDbEntity
  8
0
100
AcDbBlockBegin
  2
*D2528
 70
     1
 71
     0
 10
0.0
 20
0.0
 30
0.0
  3
*D2528
  1

  0
LINE
  5
322
330
321
100
AcDbEntity
  8
1
  6
CONTINUOUS
 62
     3
100
AcDbLine
 10
81.31776200000003
 20
-83.54959275037061
 30
0.0
 11
98.81776200000003
 21
-83.54959275037061
 31
0.0
  0
LINE
  5
323
330
321
100
AcDbEntity
  8
1
  6
CONTINUOUS
 62
     3
100
AcDbLine
 10
98.81776200000003
 20
-83.54959275037061
 30
0.0
 11
101.817762
 21
-83.54959275037061
 31
0.0
  0
LINE
  5
324
330
321
100
AcDbEntity
  8
1
  6
CONTINUOUS
 62
     3
100
AcDbLine
 10
101.817762
 20
-83.54959275037061
 30
0.0
 11
119.317762
 21
-83.54959275037061
 31
0.0
  0
LINE
  5
325
330
321
100
AcDbEntity
  8
1
  6
CONTINUOUS
 62
     3
100
AcDbLine
 10
101.817762
 20
-71.20826138598812
 30
0.0
 11
101.817762
 21
-85.54959275037061
 31
0.0
  0
LINE
  5
326
330
321
100
AcDbEntity
  8
1
  6
CONTINUOUS
 62
     3
100
AcDbLine
 10
98.81776200000003
 20
-71.20826138598815
 30
0.0
 11
98.81776200000003
 21
-85.54959275037061
 31
0.0
  0
SOLID
  5
327
330
321
100
AcDbEntity
  8
1
 62
     3
100
AcDbTrace
 10
90.06776200000003
 20
-84.70155210426032
 30
0.0
 11
90.06776200000003
 21
-82.3976333964809
 31
0.0
 12
98.81776200000003
 22
-83.54959275037061
 32
0.0
 13
98.81776200000003
 23
-83.54959275037061
 33
0.0
  0
SOLID
  5
328
330
321
100
AcDbEntity
  8
1
 62
     3
100
AcDbTrace
 10
110.567762
 20
-82.3976333964809
 30
0.0
 11
110.567762
 21
-84.70155210426032
 31
0.0
 12
101.817762
 22
-83.54959275037061
 32
0.0
 13
101.817762
 23
-83.54959275037061
 33
0.0
  0
MTEXT
  5
329
330
321
100
AcDbEntity
  8
1
 62
     2
100
AcDbMText
 10
83.17501200571172
 20
-81.04959275037061
 30
0.0
 40
8.75
 41
0.0
 71
     7
 72
     1
  1
3
  7
CONVERTER_1
 11
0.9999999999970621
 21
2.424068405545307E-6
 31
0.0
1001
ACAD
1000
MTEXTBEGIN
1070
    44
1040
0.60024009603842
1000
MTEXTEND
  0
ENDBLK
  5
32B
330
321
100
AcDbEntity
  8
0
100
AcDbBlockEnd
  0
BLOCK
  5
337
330
32E
100
AcDbEntity
  8
0
100
AcDbBlockBegin
  2
*D2629
 70
     1
 71
     0
 10
0.0
 20
0.0
 30
0.0
  3
*D2629
  1

  0
LINE
  5
32F
330
32E
100
AcDbEntity
  8
1
  6
CONTINUOUS
 62
     3
100
AcDbLine
 10
358.636600189984
 20
91.0772006844245
 30
0.0
 11
380.6333711892663
 21
91.0772006844245
 31
0.0
  0
LINE
  5
330
330
32E
100
AcDbEntity
  8
1
  6
CONTINUOUS
 62
     3
100
AcDbLine
 10
380.6333711892663
 20
91.0772006844245
 30
0.0
 11
387.4333711892663
 21
91.0772006844245
 31
0.0
  0
LINE
  5
331
330
32E
100
AcDbEntity
  8
1
  6
CONTINUOUS
 62
     3
100
AcDbLine
 10
387.4333711892663
 20
91.0772006844245
 30
0.0
 11
404.9333711892663
 21
91.0772006844245
 31
0.0
  0
LINE
  5
332
330
32E
100
AcDbEntity
  8
1
  6
CONTINUOUS
 62
     3
100
AcDbLine
 10
387.4333711892663
 20
97.24289499999999
 30
0.0
 11
387.4333711892663
 21
89.0772006844245
 31
0.0
  0
LINE
  5
333
330
32E
100
AcDbEntity
  8
1
  6
CONTINUOUS
 62
     3
100
AcDbLine
 10
380.6333711892663
 20
44.24289499999998
 30
0.0
 11
380.6333711892663
 21
93.0772006844245
 31
0.0
  0
SOLID
  5
334
330
32E
100
AcDbEntity
  8
1
 62
     3
100
AcDbTrace
 10
371.8833711892663
 20
89.92524133053479
 30
0.0
 11
371.8833711892663
 21
92.22916003831421
 31
0.0
 12
380.6333711892663
 22
91.0772006844245
 32
0.0
 13
380.6333711892663
 23
91.0772006844245
 33
0.0
  0
SOLID
  5
335
330
32E
100
AcDbEntity
  8
1
 62
     3
100
AcDbTrace
 10
396.1833711892663
 20
92.22916003831421
 30
0.0
 11
396.1833711892663
 21
89.92524133053479
 31
0.0
 12
387.4333711892663
 22
91.0772006844245
 32
0.0
 13
387.4333711892663
 23
91.0772006844245
 33
0.0
  0
MTEXT
  5
336
330
32E
100
AcDbEntity
  8
1
 62
     2
100
AcDbMText
 10
358.636600189984
 20
94.4522006844245
 30
0.0
 40
8.75
 41
0.0
 71
     7
 72
     1
  1
6,8
  7
CONVERTER_1
 11
0.9999999999970621
 21
2.424068405545307E-6
 31
0.0
1001
ACAD
1000
MTEXTBEGIN
1070
    44
1040
0.60024009603842
1000
MTEXTEND
  0
ENDBLK
  5
338
330
32E
100
AcDbEntity
  8
0
100
AcDbBlockEnd
  0
BLOCK
  5
344
330
33B
100
AcDbEntity
  8
0
100
AcDbBlockBegin
  2
*D2730
 70
     1
 71
     0
 10
0.0
 20
0.0
 30
0.0
  3
*D2730
  1

  0
LINE
  5
33C
330
33B
100
AcDbEntity
  8
1
  6
CONTINUOUS
 62
     3
100
AcDbLine
 10
360.2809385243969
 20
243.451562784178
 30
0.0
 11
380.6333711892661
 21
243.451562784178
 31
0.0
  0
LINE
  5
33D
330
33B
100
AcDbEntity
  8
1
  6
CONTINUOUS
 62
     3
100
AcDbLine
 10
380.6333711892661
 20
243.451562784178
 30
0.0
 11
386.8333711892661
 21
243.451562784178
 31
0.0
  0
LINE
  5
33E
330
33B
100
AcDbEntity
  8
1
  6
CONTINUOUS
 62
     3
100
AcDbLine
 10
386.8333711892661
 20
243.451562784178
 30
0.0
 11
404.3333711892661
 21
243.451562784178
 31
0.0
  0
LINE
  5
33F
330
33B
100
AcDbEntity
  8
1
  6
CONTINUOUS
 62
     3
100
AcDbLine
 10
386.8333711892661
 20
214.242895
 30
0.0
 11
386.8333711892661
 21
245.451562784178
 31
0.0
  0
LINE
  5
340
330
33B
100
AcDbEntity
  8
1
  6
CONTINUOUS
 62
     3
100
AcDbLine
 10
380.6333711892661
 20
255.242895
 30
0.0
 11
380.6333711892661
 21
241.451562784178
 31
0.0
  0
SOLID
  5
341
330
33B
100
AcDbEntity
  8
1
 62
     3
100
AcDbTrace
 10
371.8833711892661
 20
242.2996034302883
 30
0.0
 11
371.8833711892661
 21
244.6035221380677
 31
0.0
 12
380.6333711892661
 22
243.451562784178
 32
0.0
 13
380.6333711892661
 23
243.451562784178
 33
0.0
  0
SOLID
  5
342
330
33B
100
AcDbEntity
  8
1
 62
     3
100
AcDbTrace
 10
395.5833711892661
 20
244.6035221380677
 30
0.0
 11
395.5833711892661
 21
242.2996034302883
 31
0.0
 12
386.8333711892661
 22
243.451562784178
 32
0.0
 13
386.8333711892661
 23
243.451562784178
 33
0.0
  0
MTEXT
  5
343
330
33B
100
AcDbEntity
  8
1
 62
     2
100
AcDbMText
 10
360.2809385243969
 20
246.826562784178
 30
0.0
 40
8.75
 41
0.0
 71
     7
 72
     1
  1
6,2
  7
CONVERTER_1
 11
0.9999999999970621
 21
2.424068405545307E-6
 31
0.0
1001
ACAD
1000
MTEXTBEGIN
1070
    44
1040
0.60024009603842
1000
MTEXTEND
  0
ENDBLK
  5
345
330
33B
100
AcDbEntity
  8
0
100
AcDbBlockEnd
  0
BLOCK
  5
351
330
348
100
AcDbEntity
  8
0
100
AcDbBlockBegin
  2
*D2831
 70
     1
 71
     0
 10
0.0
 20
0.0
 30
0.0
  3
*D2831
  1

  0
LINE
  5
349
330
348
100
AcDbEntity
  8
1
  6
CONTINUOUS
 62
     3
100
AcDbLine
 10
404.6333711892662
 20
5.0225042943051
 30
0.0
 11
422.1333711892662
 21
5.0225042943051
 31
0.0
  0
LINE
  5
34A
330
348
100
AcDbEntity
  8
1
  6
CONTINUOUS
 62
     3
100
AcDbLine
 10
380.6333711892662
 20
5.0225042943051
 30
0.0
 11
363.1333711892662
 21
5.0225042943051
 31
0.0
  0
LINE
  5
34B
330
348
100
AcDbEntity
  8
1
  6
CONTINUOUS
 62
     3
100
AcDbLine
 10
380.6333711892662
 20
5.0225042943051
 30
0.0
 11
404.6333711892662
 21
5.0225042943051
 31
0.0
  0
LINE
  5
34C
330
348
100
AcDbEntity
  8
1
  6
CONTINUOUS
 62
     3
100
AcDbLine
 10
404.6333711892662
 20
44.24289499999998
 30
0.0
 11
404.6333711892662
 21
3.0225042943051
 31
0.0
  0
LINE
  5
34D
330
348
100
AcDbEntity
  8
1
  6
CONTINUOUS
 62
     3
100
AcDbLine
 10
380.6333711892662
 20
44.24289499999998
 30
0.0
 11
380.6333711892662
 21
3.0225042943051
 31
0.0
  0
SOLID
  5
34E
330
348
100
AcDbEntity
  8
1
 62
     3
100
AcDbTrace
 10
371.8833711892662
 20
3.87054494041539
 30
0.0
 11
371.8833711892662
 21
6.17446364819481
 31
0.0
 12
380.6333711892662
 22
5.0225042943051
 32
0.0
 13
380.6333711892662
 23
5.0225042943051
 33
0.0
  0
SOLID
  5
34F
330
348
100
AcDbEntity
  8
1
 62
     3
100
AcDbTrace
 10
413.3833711892662
 20
6.17446364819481
 30
0.0
 11
413.3833711892662
 21
3.87054494041539
 31
0.0
 12
404.6333711892662
 22
5.0225042943051
 32
0.0
 13
404.6333711892662
 23
5.0225042943051
 33
0.0
  0
MTEXT
  5
350
330
348
100
AcDbEntity
  8
1
 62
     2
100
AcDbMText
 10
387.815351875003
 20
7.5225042943051
 30
0.0
 40
8.75
 41
0.0
 71
     7
 72
     1
  1
24
  7
CONVERTER_1
 11
0.9999999999970621
 21
2.424068405545307E-6
 31
0.0
1001
ACAD
1000
MTEXTBEGIN
1070
    44
1040
0.60024009603842
1000
MTEXTEND
  0
ENDBLK
  5
352
330
348
100
AcDbEntity
  8
0
100
AcDbBlockEnd
  0
BLOCK
  5
35E
330
355
100
AcDbEntity
  8
0
100
AcDbBlockBegin
  2
*D2932
 70
     1
 71
     0
 10
0.0
 20
0.0
 30
0.0
  3
*D2932
  1

  0
LINE
  5
356
330
355
100
AcDbEntity
  8
1
  6
CONTINUOUS
 62
     3
100
AcDbLine
 10
361.220353784327
 20
142.919526077013
 30
0.0
 11
387.4333711892661
 21
142.919526077013
 31
0.0
  0
LINE
  5
357
330
355
100
AcDbEntity
  8
1
  6
CONTINUOUS
 62
     3
100
AcDbLine
 10
387.4333711892661
 20
142.919526077013
 30
0.0
 11
395.933371189266
 21
142.919526077013
 31
0.0
  0
LINE
  5
358
330
355
100
AcDbEntity
  8
1
  6
CONTINUOUS
 62
     3
100
AcDbLine
 10
395.933371189266
 20
142.919526077013
 30
0.0
 11
413.433371189266
 21
142.919526077013
 31
0.0
  0
LINE
  5
359
330
355
100
AcDbEntity
  8
1
  6
CONTINUOUS
 62
     3
100
AcDbLine
 10
395.933371189266
 20
132.242895
 30
0.0
 11
395.933371189266
 21
144.919526077013
 31
0.0
  0
LINE
  5
35A
330
355
100
AcDbEntity
  8
1
  6
CONTINUOUS
 62
     3
100
AcDbLine
 10
387.4333711892661
 20
132.242895
 30
0.0
 11
387.4333711892661
 21
144.919526077013
 31
0.0
  0
SOLID
  5
35B
330
355
100
AcDbEntity
  8
1
 62
     3
100
AcDbTrace
 10
378.6833711892661
 20
141.7675667231233
 30
0.0
 11
378.6833711892661
 21
144.0714854309027
 31
0.0
 12
387.4333711892661
 22
142.919526077013
 32
0.0
 13
387.4333711892661
 23
142.919526077013
 33
0.0
  0
SOLID
  5
35C
330
355
100
AcDbEntity
  8
1
 62
     3
100
AcDbTrace
 10
404.683371189266
 20
144.0714854309027
 30
0.0
 11
404.683371189266
 21
141.7675667231233
 31
0.0
 12
395.933371189266
 22
142.919526077013
 32
0.0
 13
395.933371189266
 23
142.919526077013
 33
0.0
  0
MTEXT
  5
35D
330
355
100
AcDbEntity
  8
1
 62
     2
100
AcDbMText
 10
361.220353784327
 20
146.294526077013
 30
0.0
 40
8.75
 41
0.0
 71
     7
 72
     1
  1
8,5
  7
CONVERTER_1
 11
0.9999999999970621
 21
2.424068405545307E-6
 31
0.0
1001
ACAD
1000
MTEXTBEGIN
1070
    44
1040
0.60024009603842
1000
MTEXTEND
  0
ENDBLK
  5
35F
330
355
100
AcDbEntity
  8
0
100
AcDbBlockEnd
  0
BLOCK
  5
36B
330
362
100
AcDbEntity
  8
0
100
AcDbBlockBegin
  2
*D3033
 70
     1
 71
     0
 10
0.0
 20
0.0
 30
0.0
  3
*D3033
  1

  0
LINE
  5
363
330
362
100
AcDbEntity
  8
1
  6
CONTINUOUS
 62
     3
100
AcDbLine
 10
369.3333711892662
 20
223.030580352148
 30
0.0
 11
386.8333711892662
 21
223.030580352148
 31
0.0
  0
LINE
  5
364
330
362
100
AcDbEntity
  8
1
  6
CONTINUOUS
 62
     3
100
AcDbLine
 10
386.8333711892662
 20
223.030580352148
 30
0.0
 11
398.8333711892662
 21
223.030580352148
 31
0.0
  0
LINE
  5
365
330
362
100
AcDbEntity
  8
1
  6
CONTINUOUS
 62
     3
100
AcDbLine
 10
398.8333711892662
 20
223.030580352148
 30
0.0
 11
416.3333711892662
 21
223.030580352148
 31
0.0
  0
LINE
  5
366
330
362
100
AcDbEntity
  8
1
  6
CONTINUOUS
 62
     3
100
AcDbLine
 10
398.8333711892662
 20
211.242895
 30
0.0
 11
398.8333711892662
 21
225.030580352148
 31
0.0
  0
LINE
  5
367
330
362
100
AcDbEntity
  8
1
  6
CONTINUOUS
 62
     3
100
AcDbLine
 10
386.8333711892662
 20
182.242895
 30
0.0
 11
386.8333711892662
 21
225.030580352148
 31
0.0
  0
SOLID
  5
368
330
362
100
AcDbEntity
  8
1
 62
     3
100
AcDbTrace
 10
378.0833711892662
 20
221.8786209982583
 30
0.0
 11
378.0833711892662
 21
224.1825397060377
 31
0.0
 12
386.8333711892662
 22
223.030580352148
 32
0.0
 13
386.8333711892662
 23
223.030580352148
 33
0.0
  0
SOLID
  5
369
330
362
100
AcDbEntity
  8
1
 62
     3
100
AcDbTrace
 10
407.5833711892662
 20
224.1825397060377
 30
0.0
 11
407.5833711892662
 21
221.8786209982583
 31
0.0
 12
398.8333711892662
 22
223.030580352148
 32
0.0
 13
398.8333711892662
 23
223.030580352148
 33
0.0
  0
MTEXT
  5
36A
330
362
100
AcDbEntity
  8
1
 62
     2
100
AcDbMText
 10
388.8030620374211
 20
225.530580352148
 30
0.0
 40
8.75
 41
0.0
 71
     7
 72
     1
  1
12
  7
CONVERTER_1
 11
0.9999999999970621
 21
2.424068405545307E-6
 31
0.0
1001
ACAD
1000
MTEXTBEGIN
1070
    44
1040
0.60024009603842
1000
MTEXTEND
  0
ENDBLK
  5
36C
330
362
100
AcDbEntity
  8
0
100
AcDbBlockEnd
  0
BLOCK
  5
376
330
36F
100
AcDbEntity
  8
0
100
AcDbBlockBegin
  2
*D3134
 70
     1
 71
     0
 10
0.0
 20
0.0
 30
0.0
  3
*D3134
  1

  0
LINE
  5
370
330
36F
100
AcDbEntity
  8
1
  6
CONTINUOUS
 62
     3
100
AcDbLine
 10
449.8226095941561
 20
267.242895
 30
0.0
 11
449.8226095941561
 21
32.24289499999999
 31
0.0
  0
LINE
  5
371
330
36F
100
AcDbEntity
  8
1
  6
CONTINUOUS
 62
     3
100
AcDbLine
 10
410.6722833231571
 20
32.24289499999999
 30
0.0
 11
451.8226095941561
 21
32.24289499999999
 31
0.0
  0
LINE
  5
372
330
36F
100
AcDbEntity
  8
1
  6
CONTINUOUS
 62
     3
100
AcDbLine
 10
416.6526703524452
 20
267.242895
 30
0.0
 11
451.8226095941561
 21
267.242895
 31
0.0
  0
SOLID
  5
373
330
36F
100
AcDbEntity
  8
1
 62
     3
100
AcDbTrace
 10
450.9745689480458
 20
258.492895
 30
0.0
 11
448.6706502402664
 21
258.492895
 31
0.0
 12
449.8226095941561
 22
267.242895
 32
0.0
 13
449.8226095941561
 23
267.242895
 33
0.0
  0
SOLID
  5
374
330
36F
100
AcDbEntity
  8
1
 62
     3
100
AcDbTrace
 10
448.6706502402664
 20
40.99289499999999
 30
0.0
 11
450.9745689480458
 21
40.99289499999999
 31
0.0
 12
449.8226095941561
 22
32.24289499999999
 32
0.0
 13
449.8226095941561
 23
32.24289499999999
 33
0.0
  0
MTEXT
  5
375
330
36F
100
AcDbEntity
  8
1
 62
     2
100
AcDbMText
 10
447.3226095941561
 20
145.543075151683
 30
0.0
 40
8.75
 41
0.0
 71
     7
 72
     1
  1
235
  7
CONVERTER_1
 11
0.0
 21
1.0
 31
0.0
1001
ACAD
1000
MTEXTBEGIN
1070
    44
1040
0.60024009603842
1000
MTEXTEND
  0
ENDBLK
  5
377
330
36F
100
AcDbEntity
  8
0
100
AcDbBlockEnd
  0
BLOCK
  5
383
330
37A
100
AcDbEntity
  8
0
100
AcDbBlockBegin
  2
*D3235
 70
     1
 71
     0
 10
0.0
 20
0.0
 30
0.0
  3
*D3235
  1

  0
LINE
  5
37B
330
37A
100
AcDbEntity
  8
1
  6
CONTINUOUS
 62
     3
100
AcDbLine
 10
207.282909614276
 20
97.242895
 30
0.0
 11
207.282909614276
 21
114.742895
 31
0.0
  0
LINE
  5
37C
330
37A
100
AcDbEntity
  8
1
  6
CONTINUOUS
 62
     3
100
AcDbLine
 10
207.282909614276
 20
89.242895
 30
0.0
 11
207.282909614276
 21
71.742895
 31
0.0
  0
LINE
  5
37D
330
37A
100
AcDbEntity
  8
1
  6
CONTINUOUS
 62
     3
100
AcDbLine
 10
207.282909614276
 20
89.242895
 30
0.0
 11
207.282909614276
 21
97.242895
 31
0.0
  0
LINE
  5
37E
330
37A
100
AcDbEntity
  8
1
  6
CONTINUOUS
 62
     3
100
AcDbLine
 10
164.930722490206
 20
97.242895
 30
0.0
 11
209.282909614276
 21
97.242895
 31
0.0
  0
LINE
  5
37F
330
37A
100
AcDbEntity
  8
1
  6
CONTINUOUS
 62
     3
100
AcDbLine
 10
181.817762
 20
89.242895
 30
0.0
 11
209.282909614276
 21
89.242895
 31
0.0
  0
SOLID
  5
380
330
37A
100
AcDbEntity
  8
1
 62
     3
100
AcDbTrace
 10
208.4348689681657
 20
80.492895
 30
0.0
 11
206.1309502603863
 21
80.492895
 31
0.0
 12
207.282909614276
 22
89.242895
 32
0.0
 13
207.282909614276
 23
89.242895
 33
0.0
  0
SOLID
  5
381
330
37A
100
AcDbEntity
  8
1
 62
     3
100
AcDbTrace
 10
206.1309502603863
 20
105.992895
 30
0.0
 11
208.4348689681657
 21
105.992895
 31
0.0
 12
207.282909614276
 22
97.242895
 32
0.0
 13
207.282909614276
 23
97.242895
 33
0.0
  0
MTEXT
  5
382
330
37A
100
AcDbEntity
  8
1
 62
     2
100
AcDbMText
 10
204.782909614276
 20
90.66677851044291
 30
0.0
 40
8.75
 41
0.0
 71
     7
 72
     1
  1
8
  7
CONVERTER_1
 11
0.0
 21
1.0
 31
0.0
1001
ACAD
1000
MTEXTBEGIN
1070
    44
1040
0.60024009603842
1000
MTEXTEND
  0
ENDBLK
  5
384
330
37A
100
AcDbEntity
  8
0
100
AcDbBlockEnd
  0
BLOCK
  5
38E
330
387
100
AcDbEntity
  8
0
100
AcDbBlockBegin
  2
*D3336
 70
     1
 71
     0
 10
0.0
 20
0.0
 30
0.0
  3
*D3336
  1

  0
LINE
  5
388
330
387
100
AcDbEntity
  8
1
  6
CONTINUOUS
 62
     3
100
AcDbLine
 10
236.977515144641
 20
67.242895
 30
0.0
 11
236.977515144641
 21
232.242895
 31
0.0
  0
LINE
  5
389
330
387
100
AcDbEntity
  8
1
  6
CONTINUOUS
 62
     3
100
AcDbLine
 10
178.817762
 20
232.242895
 30
0.0
 11
238.977515144641
 21
232.242895
 31
0.0
  0
LINE
  5
38A
330
387
100
AcDbEntity
  8
1
  6
CONTINUOUS
 62
     3
100
AcDbLine
 10
178.817762
 20
67.242895
 30
0.0
 11
238.977515144641
 21
67.242895
 31
0.0
  0
SOLID
  5
38B
330
387
100
AcDbEntity
  8
1
 62
     3
100
AcDbTrace
 10
235.8255557907513
 20
75.992895
 30
0.0
 11
238.1294744985307
 21
75.992895
 31
0.0
 12
236.977515144641
 22
67.242895
 32
0.0
 13
236.977515144641
 23
67.242895
 33
0.0
  0
SOLID
  5
38C
330
387
100
AcDbEntity
  8
1
 62
     3
100
AcDbTrace
 10
238.1294744985307
 20
223.492895
 30
0.0
 11
235.8255557907513
 21
223.492895
 31
0.0
 12
236.977515144641
 22
232.242895
 32
0.0
 13
236.977515144641
 23
232.242895
 33
0.0
  0
MTEXT
  5
38D
330
387
100
AcDbEntity
  8
1
 62
     2
100
AcDbMText
 10
234.477515144641
 20
138.741598300888
 30
0.0
 40
8.75
 41
0.0
 71
     7
 72
     1
  1
165
  7
CONVERTER_1
 11
0.0
 21
1.0
 31
0.0
1001
ACAD
1000
MTEXTBEGIN
1070
    44
1040
0.60024009603842
1000
MTEXTEND
  0
ENDBLK
  5
38F
330
387
100
AcDbEntity
  8
0
100
AcDbBlockEnd
  0
BLOCK
  5
39B
330
392
100
AcDbEntity
  8
0
100
AcDbBlockBegin
  2
*D3437
 70
     1
 71
     0
 10
0.0
 20
0.0
 30
0.0
  3
*D3437
  1

  0
LINE
  5
393
330
392
100
AcDbEntity
  8
1
  6
CONTINUOUS
 62
     3
100
AcDbLine
 10
59.317762
 20
79.88020439584452
 30
0.0
 11
76.817762
 21
79.88020439584452
 31
0.0
  0
LINE
  5
394
330
392
100
AcDbEntity
  8
1
  6
CONTINUOUS
 62
     3
100
AcDbLine
 10
76.817762
 20
79.88020439584452
 30
0.0
 11
98.817762
 21
79.88020439584452
 31
0.0
  0
LINE
  5
395
330
392
100
AcDbEntity
  8
1
  6
CONTINUOUS
 62
     3
100
AcDbLine
 10
98.817762
 20
79.88020439584452
 30
0.0
 11
116.317762
 21
79.88020439584452
 31
0.0
  0
LINE
  5
396
330
392
100
AcDbEntity
  8
1
  6
CONTINUOUS
 62
     3
100
AcDbLine
 10
98.817762
 20
97.242895
 30
0.0
 11
98.817762
 21
77.88020439584452
 31
0.0
  0
LINE
  5
397
330
392
100
AcDbEntity
  8
1
  6
CONTINUOUS
 62
     3
100
AcDbLine
 10
76.817762
 20
97.242895
 30
0.0
 11
76.817762
 21
77.88020439584452
 31
0.0
  0
SOLID
  5
398
330
392
100
AcDbEntity
  8
1
 62
     3
100
AcDbTrace
 10
68.067762
 20
78.72824504195481
 30
0.0
 11
68.067762
 21
81.03216374973422
 31
0.0
 12
76.817762
 22
79.88020439584452
 32
0.0
 13
76.817762
 23
79.88020439584452
 33
0.0
  0
SOLID
  5
399
330
392
100
AcDbEntity
  8
1
 62
     3
100
AcDbTrace
 10
107.567762
 20
81.03216374973422
 30
0.0
 11
107.567762
 21
78.72824504195481
 31
0.0
 12
98.817762
 22
79.88020439584452
 32
0.0
 13
98.817762
 23
79.88020439584452
 33
0.0
  0
MTEXT
  5
39A
330
392
100
AcDbEntity
  8
1
 62
     2
100
AcDbMText
 10
82.66314402008175
 20
82.38020439584452
 30
0.0
 40
8.75
 41
0.0
 71
     7
 72
     1
  1
22
  7
CONVERTER_1
 11
0.9999999999970621
 21
2.424068405545307E-6
 31
0.0
1001
ACAD
1000
MTEXTBEGIN
1070
    44
1040
0.60024009603842
1000
MTEXTEND
  0
ENDBLK
  5
39C
330
392
100
AcDbEntity
  8
0
100
AcDbBlockEnd
  0
BLOCK
  5
3A6
330
39F
100
AcDbEntity
  8
0
100
AcDbBlockBegin
  2
*D3538
 70
     1
 71
     0
 10
0.0
 20
0.0
 30
0.0
  3
*D3538
  1

  0
LINE
  5
3A0
330
39F
100
AcDbEntity
  8
1
  6
CONTINUOUS
 62
     3
100
AcDbLine
 10
134.817762
 20
111.791092029114
 30
0.0
 11
172.817762
 21
111.791092029114
 31
0.0
  0
LINE
  5
3A1
330
39F
100
AcDbEntity
  8
1
  6
CONTINUOUS
 62
     3
100
AcDbLine
 10
134.817762
 20
98.242895
 30
0.0
 11
134.817762
 21
113.791092029114
 31
0.0
  0
LINE
  5
3A2
330
39F
100
AcDbEntity
  8
1
  6
CONTINUOUS
 62
     3
100
AcDbLine
 10
172.817762
 20
98.242895
 30
0.0
 11
172.817762
 21
113.791092029114
 31
0.0
  0
SOLID
  5
3A3
330
39F
100
AcDbEntity
  8
1
 62
     3
100
AcDbTrace
 10
143.567762
 20
112.9430513830037
 30
0.0
 11
143.567762
 21
110.6391326752243
 31
0.0
 12
134.817762
 22
111.791092029114
 32
0.0
 13
134.817762
 23
111.791092029114
 33
0.0
  0
SOLID
  5
3A4
330
39F
100
AcDbEntity
  8
1
 62
     3
100
AcDbTrace
 10
164.067762
 20
110.6391326752243
 30
0.0
 11
164.067762
 21
112.9430513830037
 31
0.0
 12
172.817762
 22
111.791092029114
 32
0.0
 13
172.817762
 23
111.791092029114
 33
0.0
  0
MTEXT
  5
3A5
330
39F
100
AcDbEntity
  8
1
 62
     2
100
AcDbMText
 10
148.567762
 20
114.291092029114
 30
0.0
 40
8.75
 41
0.0
 71
     7
 72
     1
  1
38
  7
CONVERTER_1
 11
0.9999999999970621
 21
2.424068405545307E-6
 31
0.0
1001
ACAD
1000
MTEXTBEGIN
1070
    44
1040
0.60024009603842
1000
MTEXTEND
  0
ENDBLK
  5
3A7
330
39F
100
AcDbEntity
  8
0
100
AcDbBlockEnd
  0
BLOCK
  5
3B1
330
3AA
100
AcDbEntity
  8
0
100
AcDbBlockBegin
  2
*D3639
 70
     1
 71
     0
 10
0.0
 20
0.0
 30
0.0
  3
*D3639
  1

  0
LINE
  5
3AB
330
3AA
100
AcDbEntity
  8
1
  6
CONTINUOUS
 62
     3
100
AcDbLine
 10
345.843603166214
 20
267.242895
 30
0.0
 11
345.843603166214
 21
32.242895
 31
0.0
  0
LINE
  5
3AC
330
3AA
100
AcDbEntity
  8
1
  6
CONTINUOUS
 62
     3
100
AcDbLine
 10
313.555366602511
 20
32.242895
 30
0.0
 11
347.843603166214
 21
32.242895
 31
0.0
  0
LINE
  5
3AD
330
3AA
100
AcDbEntity
  8
1
  6
CONTINUOUS
 62
     3
100
AcDbLine
 10
319.5357536317991
 20
267.242895
 30
0.0
 11
347.843603166214
 21
267.242895
 31
0.0
  0
SOLID
  5
3AE
330
3AA
100
AcDbEntity
  8
1
 62
     3
100
AcDbTrace
 10
346.9955625201037
 20
258.492895
 30
0.0
 11
344.6916438123243
 21
258.492895
 31
0.0
 12
345.843603166214
 22
267.242895
 32
0.0
 13
345.843603166214
 23
267.242895
 33
0.0
  0
SOLID
  5
3AF
330
3AA
100
AcDbEntity
  8
1
 62
     3
100
AcDbTrace
 10
344.6916438123243
 20
40.992895
 30
0.0
 11
346.9955625201037
 21
40.992895
 31
0.0
 12
345.843603166214
 22
32.242895
 32
0.0
 13
345.843603166214
 23
32.242895
 33
0.0
  0
MTEXT
  5
3B0
330
3AA
100
AcDbEntity
  8
1
 62
     2
100
AcDbMText
 10
343.343603166214
 20
148.857013056407
 30
0.0
 40
8.75
 41
0.0
 71
     7
 72
     1
  1
235
  7
CONVERTER_1
 11
0.0
 21
1.0
 31
0.0
1001
ACAD
1000
MTEXTBEGIN
1070
    44
1040
0.60024009603842
1000
MTEXTEND
  0
ENDBLK
  5
3B2
330
3AA
100
AcDbEntity
  8
0
100
AcDbBlockEnd
  0
BLOCK
  5
3BE
330
3B5
100
AcDbEntity
  8
0
100
AcDbBlockBegin
  2
*D3740
 70
     1
 71
     0
 10
0.0
 20
0.0
 30
0.0
  3
*D3740
  1

  0
LINE
  5
3B6
330
3B5
100
AcDbEntity
  8
1
  6
CONTINUOUS
 62
     3
100
AcDbLine
 10
262.235060011021
 20
242.040955805134
 30
0.0
 11
286.21645446862
 21
242.040955805134
 31
0.0
  0
LINE
  5
3B7
330
3B5
100
AcDbEntity
  8
1
  6
CONTINUOUS
 62
     3
100
AcDbLine
 10
286.21645446862
 20
242.040955805134
 30
0.0
 11
289.4164544686201
 21
242.040955805134
 31
0.0
  0
LINE
  5
3B8
330
3B5
100
AcDbEntity
  8
1
  6
CONTINUOUS
 62
     3
100
AcDbLine
 10
289.4164544686201
 20
242.040955805134
 30
0.0
 11
306.9164544686201
 21
242.040955805134
 31
0.0
  0
LINE
  5
3B9
330
3B5
100
AcDbEntity
  8
1
  6
CONTINUOUS
 62
     3
100
AcDbLine
 10
289.4164544686201
 20
214.242895
 30
0.0
 11
289.4164544686201
 21
244.040955805134
 31
0.0
  0
LINE
  5
3BA
330
3B5
100
AcDbEntity
  8
1
  6
CONTINUOUS
 62
     3
100
AcDbLine
 10
286.21645446862
 20
257.242895
 30
0.0
 11
286.21645446862
 21
240.040955805134
 31
0.0
  0
SOLID
  5
3BB
330
3B5
100
AcDbEntity
  8
1
 62
     3
100
AcDbTrace
 10
277.46645446862
 20
240.8889964512443
 30
0.0
 11
277.46645446862
 21
243.1929151590237
 31
0.0
 12
286.21645446862
 22
242.040955805134
 32
0.0
 13
286.21645446862
 23
242.040955805134
 33
0.0
  0
SOLID
  5
3BC
330
3B5
100
AcDbEntity
  8
1
 62
     3
100
AcDbTrace
 10
298.1664544686201
 20
243.1929151590237
 30
0.0
 11
298.1664544686201
 21
240.8889964512443
 31
0.0
 12
289.4164544686201
 22
242.040955805134
 32
0.0
 13
289.4164544686201
 23
242.040955805134
 33
0.0
  0
MTEXT
  5
3BD
330
3B5
100
AcDbEntity
  8
1
 62
     2
100
AcDbMText
 10
262.235060011021
 20
245.415955805134
 30
0.0
 40
8.75
 41
0.0
 71
     7
 72
     1
  1
3,2
  7
CONVERTER_1
 11
0.9999999999970621
 21
2.424068405545307E-6
 31
0.0
1001
ACAD
1000
MTEXTBEGIN
1070
    44
1040
0.60024009603842
1000
MTEXTEND
  0
ENDBLK
  5
3BF
330
3B5
100
AcDbEntity
  8
0
100
AcDbBlockEnd
  0
BLOCK
  5
3CB
330
3C2
100
AcDbEntity
  8
0
100
AcDbBlockBegin
  2
*D3841
 70
     1
 71
     0
 10
0.0
 20
0.0
 30
0.0
  3
*D3841
  1

  0
LINE
  5
3C3
330
3C2
100
AcDbEntity
  8
1
  6
CONTINUOUS
 62
     3
100
AcDbLine
 10
271.9164544686201
 20
223.030580352148
 30
0.0
 11
289.4164544686201
 21
223.030580352148
 31
0.0
  0
LINE
  5
3C4
330
3C2
100
AcDbEntity
  8
1
  6
CONTINUOUS
 62
     3
100
AcDbLine
 10
289.4164544686201
 20
223.030580352148
 30
0.0
 11
301.4164544686201
 21
223.030580352148
 31
0.0
  0
LINE
  5
3C5
330
3C2
100
AcDbEntity
  8
1
  6
CONTINUOUS
 62
     3
100
AcDbLine
 10
301.4164544686201
 20
223.030580352148
 30
0.0
 11
318.9164544686201
 21
223.030580352148
 31
0.0
  0
LINE
  5
3C6
330
3C2
100
AcDbEntity
  8
1
  6
CONTINUOUS
 62
     3
100
AcDbLine
 10
301.4164544686201
 20
211.242895
 30
0.0
 11
301.4164544686201
 21
225.030580352148
 31
0.0
  0
LINE
  5
3C7
330
3C2
100
AcDbEntity
  8
1
  6
CONTINUOUS
 62
     3
100
AcDbLine
 10
289.4164544686201
 20
182.242895
 30
0.0
 11
289.4164544686201
 21
225.030580352148
 31
0.0
  0
SOLID
  5
3C8
330
3C2
100
AcDbEntity
  8
1
 62
     3
100
AcDbTrace
 10
280.6664544686201
 20
221.8786209982583
 30
0.0
 11
280.6664544686201
 21
224.1825397060377
 31
0.0
 12
289.4164544686201
 22
223.030580352148
 32
0.0
 13
289.4164544686201
 23
223.030580352148
 33
0.0
  0
SOLID
  5
3C9
330
3C2
100
AcDbEntity
  8
1
 62
     3
100
AcDbTrace
 10
310.1664544686201
 20
224.1825397060377
 30
0.0
 11
310.1664544686201
 21
221.8786209982583
 31
0.0
 12
301.4164544686201
 22
223.030580352148
 32
0.0
 13
301.4164544686201
 23
223.030580352148
 33
0.0
  0
MTEXT
  5
3CA
330
3C2
100
AcDbEntity
  8
1
 62
     2
100
AcDbMText
 10
291.386145316775
 20
225.530580352148
 30
0.0
 40
8.75
 41
0.0
 71
     7
 72
     1
  1
12
  7
CONVERTER_1
 11
0.9999999999970621
 21
2.424068405545307E-6
 31
0.0
1001
ACAD
1000
MTEXTBEGIN
1070
    44
1040
0.60024009603842
1000
MTEXTEND
  0
ENDBLK
  5
3CC
330
3C2
100
AcDbEntity
  8
0
100
AcDbBlockEnd
  0
BLOCK
  5
3D8
330
3CF
100
AcDbEntity
  8
0
100
AcDbBlockBegin
  2
*D3942
 70
     1
 71
     0
 10
0.0
 20
0.0
 30
0.0
  3
*D3942
  1

  0
LINE
  5
3D0
330
3CF
100
AcDbEntity
  8
1
  6
CONTINUOUS
 62
     3
100
AcDbLine
 10
307.5164544686201
 20
89.90838169709969
 30
0.0
 11
290.0164544686201
 21
89.90838169709969
 31
0.0
  0
LINE
  5
3D1
330
3CF
100
AcDbEntity
  8
1
  6
CONTINUOUS
 62
     3
100
AcDbLine
 10
286.21645446862
 20
89.90838169709969
 30
0.0
 11
290.0164544686201
 21
89.90838169709969
 31
0.0
  0
LINE
  5
3D2
330
3CF
100
AcDbEntity
  8
1
  6
CONTINUOUS
 62
     3
100
AcDbLine
 10
286.21645446862
 20
89.90838169709969
 30
0.0
 11
262.548735421553
 21
89.90838169709969
 31
0.0
  0
LINE
  5
3D3
330
3CF
100
AcDbEntity
  8
1
  6
CONTINUOUS
 62
     3
100
AcDbLine
 10
286.21645446862
 20
42.24289499999998
 30
0.0
 11
286.21645446862
 21
91.90838169709969
 31
0.0
  0
LINE
  5
3D4
330
3CF
100
AcDbEntity
  8
1
  6
CONTINUOUS
 62
     3
100
AcDbLine
 10
290.0164544686201
 20
97.24289499999999
 30
0.0
 11
290.0164544686201
 21
87.90838169709969
 31
0.0
  0
SOLID
  5
3D5
330
3CF
100
AcDbEntity
  8
1
 62
     3
100
AcDbTrace
 10
277.46645446862
 20
88.75642234320998
 30
0.0
 11
277.46645446862
 21
91.06034105098939
 31
0.0
 12
286.21645446862
 22
89.90838169709969
 32
0.0
 13
286.21645446862
 23
89.90838169709969
 33
0.0
  0
SOLID
  5
3D6
330
3CF
100
AcDbEntity
  8
1
 62
     3
100
AcDbTrace
 10
298.7664544686201
 20
91.06034105098939
 30
0.0
 11
298.7664544686201
 21
88.75642234320998
 31
0.0
 12
290.0164544686201
 22
89.90838169709969
 32
0.0
 13
290.0164544686201
 23
89.90838169709969
 33
0.0
  0
MTEXT
  5
3D7
330
3CF
100
AcDbEntity
  8
1
 62
     2
100
AcDbMText
 10
262.548735421553
 20
93.28338169709969
 30
0.0
 40
8.75
 41
0.0
 71
     7
 72
     1
  1
3,8
  7
CONVERTER_1
 11
0.9999999999970621
 21
2.424068405545307E-6
 31
0.0
1001
ACAD
1000
MTEXTBEGIN
1070
    44
1040
0.60024009603842
1000
MTEXTEND
  0
ENDBLK
  5
3D9
330
3CF
100
AcDbEntity
  8
0
100
AcDbBlockEnd
  0
BLOCK
  5
3E5
330
3DC
100
AcDbEntity
  8
0
100
AcDbBlockBegin
  2
*D4043
 70
     1
 71
     0
 10
0.0
 20
0.0
 30
0.0
  3
*D4043
  1

  0
LINE
  5
3DD
330
3DC
100
AcDbEntity
  8
1
  6
CONTINUOUS
 62
     3
100
AcDbLine
 10
263.803437063681
 20
142.919526077013
 30
0.0
 11
290.0164544686201
 21
142.919526077013
 31
0.0
  0
LINE
  5
3DE
330
3DC
100
AcDbEntity
  8
1
  6
CONTINUOUS
 62
     3
100
AcDbLine
 10
290.0164544686201
 20
142.919526077013
 30
0.0
 11
298.5164544686201
 21
142.919526077013
 31
0.0
  0
LINE
  5
3DF
330
3DC
100
AcDbEntity
  8
1
  6
CONTINUOUS
 62
     3
100
AcDbLine
 10
298.5164544686201
 20
142.919526077013
 30
0.0
 11
316.0164544686201
 21
142.919526077013
 31
0.0
  0
LINE
  5
3E0
330
3DC
100
AcDbEntity
  8
1
  6
CONTINUOUS
 62
     3
100
AcDbLine
 10
298.5164544686201
 20
132.242895
 30
0.0
 11
298.5164544686201
 21
144.919526077013
 31
0.0
  0
LINE
  5
3E1
330
3DC
100
AcDbEntity
  8
1
  6
CONTINUOUS
 62
     3
100
AcDbLine
 10
290.0164544686201
 20
132.242895
 30
0.0
 11
290.0164544686201
 21
144.919526077013
 31
0.0
  0
SOLID
  5
3E2
330
3DC
100
AcDbEntity
  8
1
 62
     3
100
AcDbTrace
 10
281.2664544686201
 20
141.7675667231233
 30
0.0
 11
281.2664544686201
 21
144.0714854309027
 31
0.0
 12
290.0164544686201
 22
142.919526077013
 32
0.0
 13
290.0164544686201
 23
142.919526077013
 33
0.0
  0
SOLID
  5
3E3
330
3DC
100
AcDbEntity
  8
1
 62
     3
100
AcDbTrace
 10
307.2664544686201
 20
144.0714854309027
 30
0.0
 11
307.2664544686201
 21
141.7675667231233
 31
0.0
 12
298.5164544686201
 22
142.919526077013
 32
0.0
 13
298.5164544686201
 23
142.919526077013
 33
0.0
  0
MTEXT
  5
3E4
330
3DC
100
AcDbEntity
  8
1
 62
     2
100
AcDbMText
 10
263.803437063681
 20
146.294526077013
 30
0.0
 40
8.75
 41
0.0
 71
     7
 72
     1
  1
8,5
  7
CONVERTER_1
 11
0.9999999999970621
 21
2.424068405545307E-6
 31
0.0
1001
ACAD
1000
MTEXTBEGIN
1070
    44
1040
0.60024009603842
1000
MTEXTEND
  0
ENDBLK
  5
3E6
330
3DC
100
AcDbEntity
  8
0
100
AcDbBlockEnd
  0
BLOCK
  5
3F2
330
3E9
100
AcDbEntity
  8
0
100
AcDbBlockBegin
  2
*D4144
 70
     1
 71
     0
 10
0.0
 20
0.0
 30
0.0
  3
*D4144
  1

  0
LINE
  5
3EA
330
3E9
100
AcDbEntity
  8
1
  6
CONTINUOUS
 62
     3
100
AcDbLine
 10
286.21645446862
 20
5.03421299163218
 30
0.0
 11
306.21645446862
 21
5.03421299163218
 31
0.0
  0
LINE
  5
3EB
330
3E9
100
AcDbEntity
  8
1
  6
CONTINUOUS
 62
     3
100
AcDbLine
 10
286.21645446862
 20
5.03421299163218
 30
0.0
 11
268.71645446862
 21
5.03421299163218
 31
0.0
  0
LINE
  5
3EC
330
3E9
100
AcDbEntity
  8
1
  6
CONTINUOUS
 62
     3
100
AcDbLine
 10
306.21645446862
 20
5.03421299163218
 30
0.0
 11
323.71645446862
 21
5.03421299163218
 31
0.0
  0
LINE
  5
3ED
330
3E9
100
AcDbEntity
  8
1
  6
CONTINUOUS
 62
     3
100
AcDbLine
 10
286.21645446862
 20
42.24289499999997
 30
0.0
 11
286.21645446862
 21
3.03421299163218
 31
0.0
  0
LINE
  5
3EE
330
3E9
100
AcDbEntity
  8
1
  6
CONTINUOUS
 62
     3
100
AcDbLine
 10
306.21645446862
 20
42.24289499999997
 30
0.0
 11
306.21645446862
 21
3.03421299163218
 31
0.0
  0
SOLID
  5
3EF
330
3E9
100
AcDbEntity
  8
1
 62
     3
100
AcDbTrace
 10
277.46645446862
 20
3.88225363774247
 30
0.0
 11
277.46645446862
 21
6.18617234552189
 31
0.0
 12
286.21645446862
 22
5.03421299163218
 32
0.0
 13
286.21645446862
 23
5.03421299163218
 33
0.0
  0
SOLID
  5
3F0
330
3E9
100
AcDbEntity
  8
1
 62
     3
100
AcDbTrace
 10
314.96645446862
 20
6.18617234552189
 30
0.0
 11
314.96645446862
 21
3.88225363774247
 31
0.0
 12
306.21645446862
 22
5.03421299163218
 32
0.0
 13
306.21645446862
 23
5.03421299163218
 33
0.0
  0
MTEXT
  5
3F1
330
3E9
100
AcDbEntity
  8
1
 62
     2
100
AcDbMText
 10
292.072887523013
 20
7.53421299163218
 30
0.0
 40
8.75
 41
0.0
 71
     7
 72
     1
  1
20
  7
CONVERTER_1
 11
0.9999999999970621
 21
2.424068405545307E-6
 31
0.0
1001
ACAD
1000
MTEXTBEGIN
1070
    44
1040
0.60024009603842
1000
MTEXTEND
  0
ENDBLK
  5
3F3
330
3E9
100
AcDbEntity
  8
0
100
AcDbBlockEnd
  0
BLOCK
  5
3FF
330
3F6
100
AcDbEntity
  8
0
100
AcDbBlockBegin
  2
*D4245
 70
     1
 71
     0
 10
0.0
 20
0.0
 30
0.0
  3
*D4245
  1

  0
LINE
  5
3F7
330
3F6
100
AcDbEntity
  8
1
  6
CONTINUOUS
 62
     3
100
AcDbLine
 10
131.817762
 20
191.351502987868
 30
0.0
 11
149.317762
 21
191.351502987868
 31
0.0
  0
LINE
  5
3F8
330
3F6
100
AcDbEntity
  8
1
  6
CONTINUOUS
 62
     3
100
AcDbLine
 10
149.317762
 20
191.351502987868
 30
0.0
 11
158.317762
 21
191.351502987868
 31
0.0
  0
LINE
  5
3F9
330
3F6
100
AcDbEntity
  8
1
  6
CONTINUOUS
 62
     3
100
AcDbLine
 10
158.317762
 20
191.351502987868
 30
0.0
 11
175.817762
 21
191.351502987868
 31
0.0
  0
LINE
  5
3FA
330
3F6
100
AcDbEntity
  8
1
  6
CONTINUOUS
 62
     3
100
AcDbLine
 10
158.317762
 20
173.742895
 30
0.0
 11
158.317762
 21
193.351502987868
 31
0.0
  0
LINE
  5
3FB
330
3F6
100
AcDbEntity
  8
1
  6
CONTINUOUS
 62
     3
100
AcDbLine
 10
149.317762
 20
173.742895
 30
0.0
 11
149.317762
 21
193.351502987868
 31
0.0
  0
SOLID
  5
3FC
330
3F6
100
AcDbEntity
  8
1
 62
     3
100
AcDbTrace
 10
140.567762
 20
190.1995436339783
 30
0.0
 11
140.567762
 21
192.5034623417577
 31
0.0
 12
149.317762
 22
191.351502987868
 32
0.0
 13
149.317762
 23
191.351502987868
 33
0.0
  0
SOLID
  5
3FD
330
3F6
100
AcDbEntity
  8
1
 62
     3
100
AcDbTrace
 10
167.067762
 20
192.5034623417577
 30
0.0
 11
167.067762
 21
190.1995436339783
 31
0.0
 12
158.317762
 22
191.351502987868
 32
0.0
 13
158.317762
 23
191.351502987868
 33
0.0
  0
MTEXT
  5
3FE
330
3F6
100
AcDbEntity
  8
1
 62
     2
100
AcDbMText
 10
143.0818657125844
 20
193.8514682024864
 30
0.0
 40
8.75
 41
0.0
 71
     7
 72
     1
  1
\C2;\C2;\C2;9\C7;\H6.25;
  7
CONVERTER_1
 11
0.9999999999970621
 21
2.424068405545307E-6
 31
0.0
1001
ACAD
1000
MTEXTBEGIN
1070
    44
1040
0.60024009603842
1000
MTEXTEND
  0
ENDBLK
  5
400
330
3F6
100
AcDbEntity
  8
0
100
AcDbBlockEnd
  0
ENDSEC
  0
SECTION
  2
ENTITIES
  0
INSERT
  5
40
330
1F
100
AcDbEntity
  8
0
100
AcDbBlockReference
  2
_RAHMEN
 10
220.5862243430983
 20
3.90476738493959
 30
0.0
 41
2.5
 42
2.5
 43
2.5
  0
POINT
  5
122
330
1F
100
AcDbEntity
  8
1
 62
     3
 60
     1
100
AcDbPoint
 10
143.067762
 20
169.242895
 30
0.0
  0
POINT
  5
123
330
1F
100
AcDbEntity
  8
1
 62
     3
 60
     1
100
AcDbPoint
 10
164.567762
 20
169.242895
 30
0.0
  0
POINT
  5
124
330
1F
100
AcDbEntity
  8
1
 62
     3
 60
     1
100
AcDbPoint
 10
143.067762
 20
-52.20826138598838
 30
0.0
  0
POINT
  5
125
330
1F
100
AcDbEntity
  8
1
 62
     3
 60
     1
100
AcDbPoint
 10
164.567762
 20
-52.20826138598852
 30
0.0
  0
POINT
  5
126
330
1F
100
AcDbEntity
  8
1
 62
     3
 60
     1
100
AcDbPoint
 10
164.567762
 20
-66.20826138598852
 30
0.0
  0
POINT
  5
127
330
1F
100
AcDbEntity
  8
1
 62
     3
 60
     1
100
AcDbPoint
 10
164.567762
 20
-66.95826138598852
 30
0.0
  0
POINT
  5
128
330
1F
100
AcDbEntity
  8
1
 62
     3
 60
     1
100
AcDbPoint
 10
143.067762
 20
-66.95826138598839
 30
0.0
  0
POINT
  5
129
330
1F
100
AcDbEntity
  8
1
 62
     3
 60
     1
100
AcDbPoint
 10
143.067762
 20
-66.20826138598841
 30
0.0
  0
POINT
  5
12A
330
1F
100
AcDbEntity
  8
1
 62
     3
 60
     1
100
AcDbPoint
 10
143.067762
 20
-136.0647706333671
 30
0.0
  0
POINT
  5
12B
330
1F
100
AcDbEntity
  8
1
 62
     3
 60
     1
100
AcDbPoint
 10
143.067762
 20
-135.3147706333671
 30
0.0
  0
POINT
  5
12C
330
1F
100
AcDbEntity
  8
1
 62
     3
 60
     1
100
AcDbPoint
 10
164.567762
 20
-135.3147706333672
 30
0.0
  0
POINT
  5
12D
330
1F
100
AcDbEntity
  8
1
 62
     3
 60
     1
100
AcDbPoint
 10
164.567762
 20
-136.0647706333672
 30
0.0
  0
POINT
  5
12E
330
1F
100
AcDbEntity
  8
1
 62
     3
 60
     1
100
AcDbPoint
 10
164.567762
 20
-150.0647706333672
 30
0.0
  0
POINT
  5
12F
330
1F
100
AcDbEntity
  8
1
 62
     3
 60
     1
100
AcDbPoint
 10
164.567762
 20
-150.8147706333672
 30
0.0
  0
POINT
  5
130
330
1F
100
AcDbEntity
  8
1
 62
     3
 60
     1
100
AcDbPoint
 10
143.067762
 20
-150.814770633367
 30
0.0
  0
POINT
  5
131
330
1F
100
AcDbEntity
  8
1
 62
     3
 60
     1
100
AcDbPoint
 10
143.067762
 20
-150.0647706333671
 30
0.0
  0
LINE
  5
132
330
1F
100
AcDbEntity
  8
1
  6
DOT_CENTER
 62
     3
100
AcDbLine
 10
153.817762
 20
-133.2479669726291
 30
0.0
 11
153.817762
 21
-153.5056868419615
 31
0.0
  0
LINE
  5
133
330
1F
100
AcDbEntity
  8
1
  6
CONTINUOUS
 62
     4
100
AcDbLine
 10
185.817762
 20
-136.0647706333674
 30
0.0
 11
185.817762
 21
-150.0647706333674
 31
0.0
  0
LINE
  5
134
330
1F
100
AcDbEntity
  8
1
  6
CONTINUOUS
 62
     4
100
AcDbLine
 10
101.817762
 20
-149.5647706333667
 30
0.0
 11
101.817762
 21
-156.5647706333667
 31
0.0
  0
LINE
  5
135
330
1F
100
AcDbEntity
  8
1
  6
CONTINUOUS
 62
     4
100
AcDbLine
 10
101.817762
 20
-150.0647706333667
 30
0.0
 11
143.067762
 21
-150.0647706333671
 31
0.0
  0
LINE
  5
136
330
1F
100
AcDbEntity
  8
1
  6
CONTINUOUS
 62
     4
100
AcDbLine
 10
101.817762
 20
-136.0647706333667
 30
0.0
 11
101.817762
 21
-150.0647706333667
 31
0.0
  0
LINE
  5
137
330
1F
100
AcDbEntity
  8
1
  6
CONTINUOUS
 62
     4
100
AcDbLine
 10
101.817762
 20
-136.0647706333667
 30
0.0
 11
143.067762
 21
-136.0647706333671
 31
0.0
  0
LINE
  5
138
330
1F
100
AcDbEntity
  8
1
  6
CONTINUOUS
 62
     4
100
AcDbLine
 10
98.81776200000003
 20
-150.2647706333668
 30
0.0
 11
98.81776200000003
 21
-141.2647706333668
 31
0.0
  0
LINE
  5
139
330
1F
100
AcDbEntity
  8
1
  6
CONTINUOUS
 62
     4
100
AcDbLine
 10
88.81776200000003
 20
-141.2647706333668
 30
0.0
 11
98.81776200000003
 21
-150.2647706333668
 31
0.0
  0
LINE
  5
13A
330
1F
100
AcDbEntity
  8
1
  6
CONTINUOUS
 62
     4
100
AcDbLine
 10
98.81776200000003
 20
-141.2647706333668
 30
0.0
 11
98.81776200000003
 21
-138.2647706333668
 31
0.0
  0
LINE
  5
13B
330
1F
100
AcDbEntity
  8
1
  6
CONTINUOUS
 62
     4
100
AcDbLine
 10
88.81776200000003
 20
-141.2647706333668
 30
0.0
 11
98.81776200000003
 21
-141.2647706333668
 31
0.0
  0
LINE
  5
13C
330
1F
100
AcDbEntity
  8
1
  6
CONTINUOUS
 62
     4
100
AcDbLine
 10
88.81776200000003
 20
-138.2647706333668
 30
0.0
 11
88.81776200000003
 21
-141.2647706333668
 31
0.0
  0
LINE
  5
13D
330
1F
100
AcDbEntity
  8
1
  6
CONTINUOUS
 62
     4
100
AcDbLine
 10
98.81776200000003
 20
-138.2647706333668
 30
0.0
 11
98.81776200000005
 21
-132.0647706333667
 31
0.0
  0
LINE
  5
13E
330
1F
100
AcDbEntity
  8
1
  6
CONTINUOUS
 62
     4
100
AcDbLine
 10
98.81776200000003
 20
-138.2647706333668
 30
0.0
 11
88.81776200000003
 21
-138.2647706333668
 31
0.0
  0
LINE
  5
13F
330
1F
100
AcDbEntity
  8
1
  6
CONTINUOUS
 62
     4
100
AcDbLine
 10
98.8177620000001
 20
-156.0647706333667
 30
0.0
 11
98.81776200000003
 21
-150.2647706333668
 31
0.0
  0
LINE
  5
140
330
1F
100
AcDbEntity
  8
1
  6
CONTINUOUS
 62
     4
100
AcDbLine
 10
101.817762
 20
-156.0647706333667
 30
0.0
 11
98.8177620000001
 21
-156.0647706333667
 31
0.0
  0
LINE
  5
141
330
1F
100
AcDbEntity
  8
1
  6
CONTINUOUS
 62
     4
100
AcDbLine
 10
101.817762
 20
-132.0647706333667
 30
0.0
 11
101.817762
 21
-136.0647706333667
 31
0.0
  0
LINE
  5
142
330
1F
100
AcDbEntity
  8
1
  6
CONTINUOUS
 62
     4
100
AcDbLine
 10
98.81776200000005
 20
-132.0647706333667
 30
0.0
 11
101.817762
 21
-132.0647706333667
 31
0.0
  0
LINE
  5
143
330
1F
100
AcDbEntity
  8
1
  6
DOT_CENTER
 62
     3
100
AcDbLine
 10
153.817762
 20
-49.39145772525041
 30
0.0
 11
153.817762
 21
-69.6491775945828
 31
0.0
  0
LINE
  5
144
330
1F
100
AcDbEntity
  8
1
  6
CONTINUOUS
 62
     4
100
AcDbLine
 10
185.817762
 20
-52.20826138598864
 30
0.0
 11
185.817762
 21
-66.20826138598864
 31
0.0
  0
LINE
  5
145
330
1F
100
AcDbEntity
  8
1
  6
CONTINUOUS
 62
     4
100
AcDbLine
 10
101.817762
 20
-66.20826138598814
 30
0.0
 11
101.817762
 21
-71.20826138598812
 31
0.0
  0
LINE
  5
146
330
1F
100
AcDbEntity
  8
1
  6
CONTINUOUS
 62
     4
100
AcDbLine
 10
101.817762
 20
-66.20826138598814
 30
0.0
 11
143.067762
 21
-66.20826138598841
 31
0.0
  0
LINE
  5
147
330
1F
100
AcDbEntity
  8
1
  6
CONTINUOUS
 62
     4
100
AcDbLine
 10
101.817762
 20
-52.20826138598812
 30
0.0
 11
101.817762
 21
-66.20826138598814
 31
0.0
  0
LINE
  5
148
330
1F
100
AcDbEntity
  8
1
  6
CONTINUOUS
 62
     4
100
AcDbLine
 10
101.817762
 20
-52.20826138598812
 30
0.0
 11
143.067762
 21
-52.20826138598838
 31
0.0
  0
LINE
  5
149
330
1F
100
AcDbEntity
  8
1
  6
CONTINUOUS
 62
     4
100
AcDbLine
 10
98.81776200000005
 20
-66.40826138598814
 30
0.0
 11
98.81776200000003
 21
-57.40826138598811
 31
0.0
  0
LINE
  5
14A
330
1F
100
AcDbEntity
  8
1
  6
CONTINUOUS
 62
     4
100
AcDbLine
 10
88.81776200000003
 20
-57.40826138598814
 30
0.0
 11
98.81776200000005
 21
-66.40826138598814
 31
0.0
  0
LINE
  5
14B
330
1F
100
AcDbEntity
  8
1
  6
CONTINUOUS
 62
     4
100
AcDbLine
 10
98.81776200000003
 20
-57.40826138598811
 30
0.0
 11
98.81776200000003
 21
-54.40826138598811
 31
0.0
  0
LINE
  5
14C
330
1F
100
AcDbEntity
  8
1
  6
CONTINUOUS
 62
     4
100
AcDbLine
 10
88.81776200000003
 20
-57.40826138598814
 30
0.0
 11
98.81776200000003
 21
-57.40826138598811
 31
0.0
  0
LINE
  5
14D
330
1F
100
AcDbEntity
  8
1
  6
CONTINUOUS
 62
     4
100
AcDbLine
 10
88.81776200000003
 20
-54.40826138598814
 30
0.0
 11
88.81776200000003
 21
-57.40826138598814
 31
0.0
  0
LINE
  5
14E
330
1F
100
AcDbEntity
  8
1
  6
CONTINUOUS
 62
     4
100
AcDbLine
 10
98.81776200000003
 20
-54.40826138598811
 30
0.0
 11
98.81776200000003
 21
-51.2082613859881
 31
0.0
  0
LINE
  5
14F
330
1F
100
AcDbEntity
  8
1
  6
CONTINUOUS
 62
     4
100
AcDbLine
 10
98.81776200000003
 20
-54.40826138598811
 30
0.0
 11
88.81776200000003
 21
-54.40826138598814
 31
0.0
  0
LINE
  5
150
330
1F
100
AcDbEntity
  8
1
  6
CONTINUOUS
 62
     4
100
AcDbLine
 10
98.81776200000003
 20
-71.20826138598815
 30
0.0
 11
98.81776200000005
 21
-66.40826138598814
 31
0.0
  0
LINE
  5
151
330
1F
100
AcDbEntity
  8
1
  6
CONTINUOUS
 62
     4
100
AcDbLine
 10
101.817762
 20
-71.20826138598812
 30
0.0
 11
98.81776200000003
 21
-71.20826138598815
 31
0.0
  0
LINE
  5
152
330
1F
100
AcDbEntity
  8
1
  6
CONTINUOUS
 62
     4
100
AcDbLine
 10
101.817762
 20
-51.20826138598812
 30
0.0
 11
101.817762
 21
-52.20826138598812
 31
0.0
  0
LINE
  5
153
330
1F
100
AcDbEntity
  8
1
  6
CONTINUOUS
 62
     4
100
AcDbLine
 10
98.81776200000003
 20
-51.2082613859881
 30
0.0
 11
101.817762
 21
-51.20826138598812
 31
0.0
  0
LINE
  5
154
330
1F
100
AcDbEntity
  8
1
  6
CONTINUOUS
 62
     4
100
AcDbLine
 10
404.6333711892662
 20
255.242895
 30
0.0
 11
404.6333711892662
 21
44.24289499999998
 31
0.0
  0
LINE
  5
155
330
1F
100
AcDbEntity
  8
1
  6
CONTINUOUS
 62
     4
100
AcDbLine
 10
380.6333711892662
 20
255.242895
 30
0.0
 11
380.6333711892662
 21
44.24289499999998
 31
0.0
  0
LINE
  5
156
330
1F
100
AcDbEntity
  8
1
  6
CONTINUOUS
 62
     4
100
AcDbLine
 10
386.8333711892661
 20
214.242895
 30
0.0
 11
389.8333711892661
 21
214.242895
 31
0.0
  0
LINE
  5
157
330
1F
100
AcDbEntity
  8
1
  6
CONTINUOUS
 62
     4
100
AcDbLine
 10
389.8333711892661
 20
214.242895
 30
0.0
 11
389.8333711892661
 21
211.242895
 31
0.0
  0
LINE
  5
158
330
1F
100
AcDbEntity
  8
1
  6
CONTINUOUS
 62
     4
100
AcDbLine
 10
389.8333711892661
 20
182.242895
 30
0.0
 11
386.8333711892661
 21
182.242895
 31
0.0
  0
LINE
  5
159
330
1F
100
AcDbEntity
  8
1
  6
CONTINUOUS
 62
     4
100
AcDbLine
 10
386.8333711892661
 20
182.242895
 30
0.0
 11
386.8333711892661
 21
214.242895
 31
0.0
  0
LINE
  5
15A
330
1F
100
AcDbEntity
  8
1
  6
CONTINUOUS
 62
     4
100
AcDbLine
 10
389.8333711892661
 20
211.242895
 30
0.0
 11
389.8333711892661
 21
185.242895
 31
0.0
  0
LINE
  5
15B
330
1F
100
AcDbEntity
  8
1
  6
CONTINUOUS
 62
     4
100
AcDbLine
 10
398.8333711892661
 20
211.242895
 30
0.0
 11
398.8333711892661
 21
185.242895
 31
0.0
  0
LINE
  5
15C
330
1F
100
AcDbEntity
  8
1
  6
CONTINUOUS
 62
     4
100
AcDbLine
 10
389.8333711892661
 20
185.242895
 30
0.0
 11
389.8333711892661
 21
182.242895
 31
0.0
  0
LINE
  5
15D
330
1F
100
AcDbEntity
  8
1
  6
CONTINUOUS
 62
     4
100
AcDbLine
 10
387.4333711892662
 20
132.242895
 30
0.0
 11
395.9333711892662
 21
132.242895
 31
0.0
  0
LINE
  5
15E
330
1F
100
AcDbEntity
  8
1
  6
CONTINUOUS
 62
     4
100
AcDbLine
 10
395.9333711892662
 20
132.242895
 30
0.0
 11
395.9333711892662
 21
97.24289499999999
 31
0.0
  0
LINE
  5
15F
330
1F
100
AcDbEntity
  8
1
  6
CONTINUOUS
 62
     4
100
AcDbLine
 10
395.9333711892662
 20
97.24289499999999
 30
0.0
 11
387.4333711892662
 21
97.24289499999999
 31
0.0
  0
LINE
  5
160
330
1F
100
AcDbEntity
  8
1
  6
CONTINUOUS
 62
     4
100
AcDbLine
 10
387.4333711892662
 20
97.24289499999999
 30
0.0
 11
387.4333711892662
 21
132.242895
 31
0.0
  0
LINE
  5
161
330
1F
100
AcDbEntity
  8
1
  6
DOT_CENTER
 62
     3
100
AcDbLine
 10
385.6833711892662
 20
254.242895
 30
0.0
 11
400.9833711892661
 21
254.242895
 31
0.0
  0
LINE
  5
162
330
1F
100
AcDbEntity
  8
1
  6
DOT_CENTER
 62
     3
100
AcDbLine
 10
392.6333711892662
 20
261.892895
 30
0.0
 11
392.6333711892662
 21
246.592895
 31
0.0
  0
LINE
  5
163
330
1F
100
AcDbEntity
  8
1
  6
DOT_CENTER
 62
     3
100
AcDbLine
 10
400.2833711892664
 20
45.24289499999998
 30
0.0
 11
384.9833711892663
 21
45.24289499999998
 31
0.0
  0
LINE
  5
164
330
1F
100
AcDbEntity
  8
1
  6
DOT_CENTER
 62
     3
100
AcDbLine
 10
392.6333711892662
 20
37.592895
 30
0.0
 11
392.6333711892662
 21
52.89289499999998
 31
0.0
  0
LINE
  5
165
330
1F
100
AcDbEntity
  8
1
  6
DOT_CENTER
 62
     3
100
AcDbLine
 10
383.9333711892662
 20
78.24289499999999
 30
0.0
 11
399.9333711892662
 21
78.24289499999999
 31
0.0
  0
LINE
  5
166
330
1F
100
AcDbEntity
  8
1
  6
DOT_CENTER
 62
     3
100
AcDbLine
 10
391.9333711892662
 20
86.24289499999999
 30
0.0
 11
391.9333711892662
 21
70.24289499999999
 31
0.0
  0
LINE
  5
167
330
1F
100
AcDbEntity
  8
1
  6
CONTINUOUS
 62
     3
100
AcDbLine
 10
416.6526703524452
 20
267.242895
 30
0.0
 11
392.6333711892662
 21
267.242895
 31
0.0
  0
LINE
  5
168
330
1F
100
AcDbEntity
  8
1
  6
CONTINUOUS
 62
     3
100
AcDbLine
 10
410.6722833231571
 20
32.24289499999998
 30
0.0
 11
392.6333711892662
 21
32.24289499999998
 31
0.0
  0
LINE
  5
169
330
1F
100
AcDbEntity
  8
VB
  6
CONTINUOUS
 62
     4
100
AcDbLine
 10
101.817762
 20
67.24289500000002
 30
0.0
 11
101.817762
 21
32.242895
 31
0.0
  0
LINE
  5
16A
330
1F
100
AcDbEntity
  8
MN
  6
DOT_CENTER
 62
     3
100
AcDbLine
 10
153.817762
 20
232.242895
 30
0.0
 11
153.817762
 21
204.6032331418391
 31
0.0
  0
LINE
  5
16B
330
1F
100
AcDbEntity
  8
1
  6
CONTINUOUS
 62
     4
100
AcDbLine
 10
98.817762
 20
211.242895
 30
0.0
 11
98.817762
 21
185.242895
 31
0.0
  0
LINE
  5
16C
330
1F
100
AcDbEntity
  8
VB
  6
CONTINUOUS
 62
     4
100
AcDbLine
 10
86.81776200000002
 20
185.242895
 30
0.0
 11
98.817762
 21
185.242895
 31
0.0
  0
LINE
  5
16D
330
1F
100
AcDbEntity
  8
VB
  6
CONTINUOUS
 62
     4
100
AcDbLine
 10
86.81776200000002
 20
211.242895
 30
0.0
 11
98.817762
 21
211.242895
 31
0.0
  0
LINE
  5
16E
330
1F
100
AcDbEntity
  8
1
  6
CONTINUOUS
 62
     4
100
AcDbLine
 10
86.81776200000002
 20
185.242895
 30
0.0
 11
86.81776200000002
 21
182.242895
 31
0.0
  0
LINE
  5
16F
330
1F
100
AcDbEntity
  8
1
  6
CONTINUOUS
 62
     4
100
AcDbLine
 10
86.81776200000002
 20
211.242895
 30
0.0
 11
86.81776200000002
 21
185.242895
 31
0.0
  0
LINE
  5
170
330
1F
100
AcDbEntity
  8
1
  6
CONTINUOUS
 62
     4
100
AcDbLine
 10
86.81776200000002
 20
214.242895
 30
0.0
 11
86.81776200000002
 21
211.242895
 31
0.0
  0
LINE
  5
171
330
1F
100
AcDbEntity
  8
MK
  6
CONTINUOUS
 62
     3
100
AcDbLine
 10
95.308521
 20
254.242895
 30
0.0
 11
104.817762
 21
254.242895
 31
0.0
  0
LINE
  5
172
330
1F
100
AcDbEntity
  8
VB
  6
CONTINUOUS
 62
     4
100
AcDbLine
 10
98.817762
 20
267.242895
 30
0.0
 11
101.817762
 21
267.242895
 31
0.0
  0
LINE
  5
173
330
1F
100
AcDbEntity
  8
MK
  6
CONTINUOUS
 62
     3
100
AcDbLine
 10
95.308521
 20
45.242895
 30
0.0
 11
105.39202209143
 21
45.242895
 31
0.0
  0
LINE
  5
174
330
1F
100
AcDbEntity
  8
VB
  6
CONTINUOUS
 62
     4
100
AcDbLine
 10
86.81776200000002
 20
182.242895
 30
0.0
 11
98.817762
 21
182.242895
 31
0.0
  0
LINE
  5
175
330
1F
100
AcDbEntity
  8
VB
  6
CONTINUOUS
 62
     4
100
AcDbLine
 10
86.81776200000002
 20
214.242895
 30
0.0
 11
98.817762
 21
214.242895
 31
0.0
  0
LINE
  5
176
330
1F
100
AcDbEntity
  8
VB
  6
CONTINUOUS
 62
     4
100
AcDbLine
 10
98.817762
 20
267.242895
 30
0.0
 11
98.817762
 21
214.242895
 31
0.0
  0
LINE
  5
177
330
1F
100
AcDbEntity
  8
VB
  6
CONTINUOUS
 62
     4
100
AcDbLine
 10
101.817762
 20
267.242895
 30
0.0
 11
101.817762
 21
232.242895
 31
0.0
  0
LINE
  5
178
330
1F
100
AcDbEntity
  8
VB
  6
CONTINUOUS
 62
     4
100
AcDbLine
 10
98.817762
 20
32.242895
 30
0.0
 11
101.817762
 21
32.242895
 31
0.0
  0
LINE
  5
179
330
1F
100
AcDbEntity
  8
VB
  6
CONTINUOUS
 62
     4
100
AcDbLine
 10
101.817762
 20
232.242895
 30
0.0
 11
153.817762
 21
232.242895
 31
0.0
  0
LINE
  5
17A
330
1F
100
AcDbEntity
  8
VB
  6
CONTINUOUS
 62
     4
100
AcDbLine
 10
178.817762
 20
67.242895
 30
0.0
 11
186.817762
 21
75.24289500000002
 31
0.0
  0
LINE
  5
17B
330
1F
100
AcDbEntity
  8
VB
  6
CONTINUOUS
 62
     4
100
AcDbLine
 10
178.817762
 20
232.242895
 30
0.0
 11
186.817762
 21
224.242895
 31
0.0
  0
LINE
  5
17C
330
1F
100
AcDbEntity
  8
VB
  6
CONTINUOUS
 62
     4
100
AcDbLine
 10
101.817762
 20
67.24289500000002
 30
0.0
 11
178.817762
 21
67.242895
 31
0.0
  0
LINE
  5
17D
330
1F
100
AcDbEntity
  8
VB
  6
CONTINUOUS
 62
     4
100
AcDbLine
 10
186.817762
 20
224.242895
 30
0.0
 11
186.817762
 21
75.24289500000002
 31
0.0
  0
LINE
  5
17E
330
1F
100
AcDbEntity
  8
1
  6
CONTINUOUS
 62
     4
100
AcDbLine
 10
148.667762
 20
77.242895
 30
0.0
 11
148.667762
 21
90.29307485844237
 31
0.0
  0
LINE
  5
17F
330
1F
100
AcDbEntity
  8
1
  6
CONTINUOUS
 62
     4
100
AcDbLine
 10
158.967762
 20
77.242895
 30
0.0
 11
158.967762
 21
90.29307485844238
 31
0.0
  0
LINE
  5
180
330
1F
100
AcDbEntity
  8
1
  6
DOT_CENTER
 62
     3
100
AcDbLine
 10
142.312754843696
 20
97.242895
 30
0.0
 11
164.930722490206
 21
97.242895
 31
0.0
  0
LINE
  5
181
330
1F
100
AcDbEntity
  8
VB
  6
CONTINUOUS
 62
     4
100
AcDbLine
 10
153.817762
 20
232.242895
 30
0.0
 11
178.817762
 21
232.242895
 31
0.0
  0
LINE
  5
182
330
1F
100
AcDbEntity
  8
1
  6
CONTINUOUS
 62
     4
100
AcDbLine
 10
149.317762
 20
173.742895
 30
0.0
 11
158.317762
 21
173.742895
 31
0.0
  0
LINE
  5
183
330
1F
100
AcDbEntity
  8
1
  6
CONTINUOUS
 62
     4
100
AcDbLine
 10
158.317762
 20
173.742895
 30
0.0
 11
158.317762
 21
164.742895
 31
0.0
  0
LINE
  5
184
330
1F
100
AcDbEntity
  8
1
  6
CONTINUOUS
 62
     4
100
AcDbLine
 10
158.317762
 20
164.742895
 30
0.0
 11
149.317762
 21
164.742895
 31
0.0
  0
LINE
  5
185
330
1F
100
AcDbEntity
  8
1
  6
CONTINUOUS
 62
     4
100
AcDbLine
 10
149.317762
 20
164.742895
 30
0.0
 11
149.317762
 21
173.742895
 31
0.0
  0
LINE
  5
186
330
1F
100
AcDbEntity
  8
1
  6
DOT_CENTER
 62
     3
100
AcDbLine
 10
125.817762
 20
169.242895
 30
0.0
 11
143.817762
 21
169.242895
 31
0.0
  0
LINE
  5
187
330
1F
100
AcDbEntity
  8
1
  6
DOT_CENTER
 62
     3
100
AcDbLine
 10
134.817762
 20
178.242895
 30
0.0
 11
134.817762
 21
160.242895
 31
0.0
  0
LINE
  5
188
330
1F
100
AcDbEntity
  8
1
  6
DOT_CENTER
 62
     3
100
AcDbLine
 10
163.817762
 20
169.242895
 30
0.0
 11
181.817762
 21
169.242895
 31
0.0
  0
LINE
  5
189
330
1F
100
AcDbEntity
  8
1
  6
DOT_CENTER
 62
     3
100
AcDbLine
 10
172.817762
 20
178.242895
 30
0.0
 11
172.817762
 21
160.242895
 31
0.0
  0
LINE
  5
18A
330
1F
100
AcDbEntity
  8
1
  6
DOT_CENTER
 62
     3
100
AcDbLine
 10
163.817762
 20
89.242895
 30
0.0
 11
181.817762
 21
89.242895
 31
0.0
  0
LINE
  5
18B
330
1F
100
AcDbEntity
  8
1
  6
DOT_CENTER
 62
     3
100
AcDbLine
 10
172.817762
 20
98.242895
 30
0.0
 11
172.817762
 21
80.242895
 31
0.0
  0
LINE
  5
18C
330
1F
100
AcDbEntity
  8
1
  6
DOT_CENTER
 62
     3
100
AcDbLine
 10
125.817762
 20
89.242895
 30
0.0
 11
143.817762
 21
89.242895
 31
0.0
  0
LINE
  5
18D
330
1F
100
AcDbEntity
  8
1
  6
DOT_CENTER
 62
     3
100
AcDbLine
 10
134.817762
 20
98.242895
 30
0.0
 11
134.817762
 21
80.242895
 31
0.0
  0
LINE
  5
18E
330
1F
100
AcDbEntity
  8
1
  6
DOT_CENTER
 62
     3
100
AcDbLine
 10
76.817762
 20
132.242895
 30
0.0
 11
87.817762
 21
132.242895
 31
0.0
  0
LINE
  5
18F
330
1F
100
AcDbEntity
  8
VB
  6
CONTINUOUS
 62
     4
100
AcDbLine
 10
98.817762
 20
132.242895
 30
0.0
 11
98.817762
 21
97.242895
 31
0.0
  0
LINE
  5
190
330
1F
100
AcDbEntity
  8
1
  6
DOT_CENTER
 62
     3
100
AcDbLine
 10
76.817762
 20
97.242895
 30
0.0
 11
87.817762
 21
97.24289499999999
 31
0.0
  0
LINE
  5
191
330
1F
100
AcDbEntity
  8
VB
  6
CONTINUOUS
 62
     4
100
AcDbLine
 10
98.817762
 20
97.242895
 30
0.0
 11
98.817762
 21
32.242895
 31
0.0
  0
LINE
  5
192
330
1F
100
AcDbEntity
  8
1
  6
DOT_CENTER
 62
     3
100
AcDbLine
 10
76.817762
 20
132.242895
 30
0.0
 11
76.817762
 21
97.242895
 31
0.0
  0
LINE
  5
193
330
1F
100
AcDbEntity
  8
1
  6
DOT_CENTER
 62
     3
100
AcDbLine
 10
87.817762
 20
132.242895
 30
0.0
 11
87.817762
 21
97.24289499999999
 31
0.0
  0
LINE
  5
194
330
1F
100
AcDbEntity
  8
1
  6
DOT_CENTER
 62
     3
100
AcDbLine
 10
87.817762
 20
132.242895
 30
0.0
 11
98.817762
 21
132.242895
 31
0.0
  0
LINE
  5
195
330
1F
100
AcDbEntity
  8
1
  6
DOT_CENTER
 62
     3
100
AcDbLine
 10
87.817762
 20
97.24289499999999
 30
0.0
 11
98.817762
 21
97.242895
 31
0.0
  0
LINE
  5
196
330
1F
100
AcDbEntity
  8
VB
  6
CONTINUOUS
 62
     4
100
AcDbLine
 10
101.817762
 20
232.242895
 30
0.0
 11
101.817762
 21
212.242895
 31
0.0
  0
LINE
  5
197
330
1F
100
AcDbEntity
  8
1
  6
CONTINUOUS
 62
     4
100
AcDbLine
 10
101.817762
 20
212.242895
 30
0.0
 11
114.817762
 21
212.242895
 31
0.0
  0
LINE
  5
198
330
1F
100
AcDbEntity
  8
VB
  6
CONTINUOUS
 62
     4
100
AcDbLine
 10
101.817762
 20
212.242895
 30
0.0
 11
101.817762
 21
184.242895
 31
0.0
  0
LINE
  5
199
330
1F
100
AcDbEntity
  8
1
  6
CONTINUOUS
 62
     4
100
AcDbLine
 10
101.817762
 20
184.242895
 30
0.0
 11
114.817762
 21
184.242895
 31
0.0
  0
LINE
  5
19A
330
1F
100
AcDbEntity
  8
VB
  6
CONTINUOUS
 62
     4
100
AcDbLine
 10
101.817762
 20
184.242895
 30
0.0
 11
101.817762
 21
67.24289500000002
 31
0.0
  0
LINE
  5
19B
330
1F
100
AcDbEntity
  8
1
  6
DOT_CENTER
 62
     3
100
AcDbLine
 10
143.817762
 20
169.242895
 30
0.0
 11
163.817762
 21
169.242895
 31
0.0
  0
LINE
  5
19C
330
1F
100
AcDbEntity
  8
1
  6
DOT_CENTER
 62
     3
100
AcDbLine
 10
144.817762
 20
215.242895
 30
0.0
 11
162.817762
 21
215.242895
 31
0.0
  0
LINE
  5
19D
330
1F
100
AcDbEntity
  8
1
  6
DOT_CENTER
 62
     3
100
AcDbLine
 10
153.817762
 20
164.242895
 30
0.0
 11
153.817762
 21
125.985117815582
 31
0.0
  0
LINE
  5
19E
330
1F
100
AcDbEntity
  8
1
  6
DOT_CENTER
 62
     3
100
AcDbLine
 10
149.097967725565
 20
147.742895
 30
0.0
 11
158.403488024579
 21
147.742895
 31
0.0
  0
LINE
  5
19F
330
1F
100
AcDbEntity
  8
VB
  6
CONTINUOUS
 62
     4
100
AcDbLine
 10
98.817762
 20
182.242895
 30
0.0
 11
98.817762
 21
132.242895
 31
0.0
  0
LINE
  5
1A0
330
1F
100
AcDbEntity
  8
1
  6
CONTINUOUS
 62
     4
100
AcDbLine
 10
286.21645446862
 20
257.242895
 30
0.0
 11
286.21645446862
 21
42.24289499999998
 31
0.0
  0
LINE
  5
1A1
330
1F
100
AcDbEntity
  8
1
  6
CONTINUOUS
 62
     4
100
AcDbLine
 10
306.21645446862
 20
257.242895
 30
0.0
 11
306.21645446862
 21
42.24289499999998
 31
0.0
  0
LINE
  5
1A2
330
1F
100
AcDbEntity
  8
1
  6
CONTINUOUS
 62
     4
100
AcDbLine
 10
289.4164544686201
 20
214.242895
 30
0.0
 11
292.4164544686201
 21
214.242895
 31
0.0
  0
LINE
  5
1A3
330
1F
100
AcDbEntity
  8
1
  6
CONTINUOUS
 62
     4
100
AcDbLine
 10
292.4164544686201
 20
214.242895
 30
0.0
 11
292.4164544686201
 21
211.242895
 31
0.0
  0
LINE
  5
1A4
330
1F
100
AcDbEntity
  8
1
  6
CONTINUOUS
 62
     4
100
AcDbLine
 10
292.4164544686201
 20
182.242895
 30
0.0
 11
289.4164544686201
 21
182.242895
 31
0.0
  0
LINE
  5
1A5
330
1F
100
AcDbEntity
  8
1
  6
CONTINUOUS
 62
     4
100
AcDbLine
 10
289.4164544686201
 20
182.242895
 30
0.0
 11
289.4164544686201
 21
214.242895
 31
0.0
  0
LINE
  5
1A6
330
1F
100
AcDbEntity
  8
1
  6
CONTINUOUS
 62
     4
100
AcDbLine
 10
292.4164544686201
 20
211.242895
 30
0.0
 11
292.4164544686201
 21
185.242895
 31
0.0
  0
LINE
  5
1A7
330
1F
100
AcDbEntity
  8
1
  6
CONTINUOUS
 62
     4
100
AcDbLine
 10
301.4164544686201
 20
211.242895
 30
0.0
 11
301.4164544686201
 21
185.242895
 31
0.0
  0
LINE
  5
1A8
330
1F
100
AcDbEntity
  8
1
  6
CONTINUOUS
 62
     4
100
AcDbLine
 10
292.4164544686201
 20
185.242895
 30
0.0
 11
292.4164544686201
 21
182.242895
 31
0.0
  0
LINE
  5
1A9
330
1F
100
AcDbEntity
  8
1
  6
CONTINUOUS
 62
     4
100
AcDbLine
 10
290.0164544686201
 20
132.242895
 30
0.0
 11
298.5164544686201
 21
132.242895
 31
0.0
  0
LINE
  5
1AA
330
1F
100
AcDbEntity
  8
1
  6
CONTINUOUS
 62
     4
100
AcDbLine
 10
298.5164544686201
 20
132.242895
 30
0.0
 11
298.5164544686201
 21
97.24289499999999
 31
0.0
  0
LINE
  5
1AB
330
1F
100
AcDbEntity
  8
1
  6
CONTINUOUS
 62
     4
100
AcDbLine
 10
298.5164544686201
 20
97.24289499999999
 30
0.0
 11
290.0164544686201
 21
97.24289499999999
 31
0.0
  0
LINE
  5
1AC
330
1F
100
AcDbEntity
  8
1
  6
CONTINUOUS
 62
     4
100
AcDbLine
 10
290.0164544686201
 20
97.24289499999999
 30
0.0
 11
290.0164544686201
 21
132.242895
 31
0.0
  0
LINE
  5
1AD
330
1F
100
AcDbEntity
  8
1
  6
DOT_CENTER
 62
     3
100
AcDbLine
 10
288.5664544686201
 20
254.242895
 30
0.0
 11
303.8664544686201
 21
254.242895
 31
0.0
  0
LINE
  5
1AE
330
1F
100
AcDbEntity
  8
1
  6
DOT_CENTER
 62
     3
100
AcDbLine
 10
296.21645446862
 20
261.892895
 30
0.0
 11
296.21645446862
 21
246.592895
 31
0.0
  0
LINE
  5
1AF
330
1F
100
AcDbEntity
  8
1
  6
DOT_CENTER
 62
     3
100
AcDbLine
 10
303.8664544686201
 20
45.24289499999998
 30
0.0
 11
288.5664544686201
 21
45.24289499999998
 31
0.0
  0
LINE
  5
1B0
330
1F
100
AcDbEntity
  8
1
  6
DOT_CENTER
 62
     3
100
AcDbLine
 10
296.21645446862
 20
37.592895
 30
0.0
 11
296.21645446862
 21
52.89289499999998
 31
0.0
  0
LINE
  5
1B1
330
1F
100
AcDbEntity
  8
1
  6
DOT_CENTER
 62
     3
100
AcDbLine
 10
286.5164544686201
 20
78.24289499999999
 30
0.0
 11
302.5164544686201
 21
78.24289499999999
 31
0.0
  0
LINE
  5
1B2
330
1F
100
AcDbEntity
  8
1
  6
DOT_CENTER
 62
     3
100
AcDbLine
 10
294.5164544686201
 20
86.24289499999999
 30
0.0
 11
294.5164544686201
 21
70.24289499999999
 31
0.0
  0
LINE
  5
1B3
330
1F
100
AcDbEntity
  8
VB
  6
CONTINUOUS
 62
     4
100
AcDbLine
 10
98.817762
 20
214.242895
 30
0.0
 11
98.817762
 21
211.242895
 31
0.0
  0
LINE
  5
1B4
330
1F
100
AcDbEntity
  8
VB
  6
CONTINUOUS
 62
     4
100
AcDbLine
 10
98.817762
 20
185.242895
 30
0.0
 11
98.817762
 21
182.242895
 31
0.0
  0
LINE
  5
1B5
330
1F
100
AcDbEntity
  8
MN
  6
DOT_CENTER
 62
     3
100
AcDbLine
 10
153.817762
 20
108.769677509936
 30
0.0
 11
153.817762
 21
67.242895
 31
0.0
  0
LINE
  5
1B6
330
1F
100
AcDbEntity
  8
1
  6
CONTINUOUS
 62
     3
100
AcDbLine
 10
319.5357536317991
 20
267.242895
 30
0.0
 11
296.21645446862
 21
267.242895
 31
0.0
  0
LINE
  5
1B7
330
1F
100
AcDbEntity
  8
1
  6
CONTINUOUS
 62
     3
100
AcDbLine
 10
313.555366602511
 20
32.24289499999998
 30
0.0
 11
296.21645446862
 21
32.24289499999998
 31
0.0
  0
LINE
  5
1B8
330
1F
100
AcDbEntity
  8
MN
  6
DOT_CENTER
 62
     3
100
AcDbLine
 10
153.817762
 20
189.168794351815
 30
0.0
 11
153.817762
 21
154.412060018119
 31
0.0
  0
LINE
  5
1B9
330
1F
100
AcDbEntity
  8
1
  6
CONTINUOUS
 62
     4
100
AcDbLine
 10
114.817762
 20
212.242895
 30
0.0
 11
114.817762
 21
184.242895
 31
0.0
  0
LINE
  5
1BA
330
1F
100
AcDbEntity
  8
1
  6
CONTINUOUS
 62
     4
100
AcDbLine
 10
292.4164544686201
 20
211.242895
 30
0.0
 11
301.4164544686201
 21
211.242895
 31
0.0
  0
LINE
  5
1BB
330
1F
100
AcDbEntity
  8
1
  6
CONTINUOUS
 62
     4
100
AcDbLine
 10
292.4164544686201
 20
185.242895
 30
0.0
 11
301.4164544686201
 21
185.242895
 31
0.0
  0
LINE
  5
1BC
330
1F
100
AcDbEntity
  8
1
  6
CONTINUOUS
 62
     4
100
AcDbLine
 10
389.8333711892661
 20
211.242895
 30
0.0
 11
398.8333711892661
 21
211.242895
 31
0.0
  0
LINE
  5
1BD
330
1F
100
AcDbEntity
  8
1
  6
CONTINUOUS
 62
     4
100
AcDbLine
 10
389.8333711892661
 20
185.242895
 30
0.0
 11
398.8333711892661
 21
185.242895
 31
0.0
  0
LINE
  5
1BE
330
1F
100
AcDbEntity
  8
1
  6
CONTINUOUS
 62
     4
100
AcDbLine
 10
143.067762
 20
-52.20826138598838
 30
0.0
 11
143.067762
 21
-51.45826138598839
 31
0.0
  0
LINE
  5
1BF
330
1F
100
AcDbEntity
  8
1
  6
CONTINUOUS
 62
     4
100
AcDbLine
 10
143.067762
 20
-52.20826138598838
 30
0.0
 11
164.567762
 21
-52.20826138598852
 31
0.0
  0
LINE
  5
1C0
330
1F
100
AcDbEntity
  8
1
  6
CONTINUOUS
 62
     4
100
AcDbLine
 10
143.067762
 20
-51.45826138598839
 30
0.0
 11
164.567762
 21
-51.45826138598852
 31
0.0
  0
LINE
  5
1C1
330
1F
100
AcDbEntity
  8
1
  6
CONTINUOUS
 62
     4
100
AcDbLine
 10
164.567762
 20
-51.45826138598852
 30
0.0
 11
164.567762
 21
-52.20826138598852
 31
0.0
  0
LINE
  5
1C2
330
1F
100
AcDbEntity
  8
1
  6
CONTINUOUS
 62
     4
100
AcDbLine
 10
164.567762
 20
-52.20826138598852
 30
0.0
 11
185.817762
 21
-52.20826138598864
 31
0.0
  0
LINE
  5
1C3
330
1F
100
AcDbEntity
  8
1
  6
CONTINUOUS
 62
     4
100
AcDbLine
 10
164.567762
 20
-66.20826138598852
 30
0.0
 11
164.567762
 21
-66.95826138598852
 31
0.0
  0
LINE
  5
1C4
330
1F
100
AcDbEntity
  8
1
  6
CONTINUOUS
 62
     4
100
AcDbLine
 10
164.567762
 20
-66.20826138598852
 30
0.0
 11
185.817762
 21
-66.20826138598864
 31
0.0
  0
LINE
  5
1C5
330
1F
100
AcDbEntity
  8
1
  6
CONTINUOUS
 62
     4
100
AcDbLine
 10
164.567762
 20
-66.95826138598852
 30
0.0
 11
143.067762
 21
-66.95826138598839
 31
0.0
  0
LINE
  5
1C6
330
1F
100
AcDbEntity
  8
1
  6
CONTINUOUS
 62
     4
100
AcDbLine
 10
143.067762
 20
-66.95826138598839
 30
0.0
 11
143.067762
 21
-66.20826138598841
 31
0.0
  0
LINE
  5
1C7
330
1F
100
AcDbEntity
  8
1
  6
CONTINUOUS
 62
     4
100
AcDbLine
 10
143.067762
 20
-66.20826138598841
 30
0.0
 11
164.567762
 21
-66.20826138598852
 31
0.0
  0
LINE
  5
1C8
330
1F
100
AcDbEntity
  8
1
  6
CONTINUOUS
 62
     4
100
AcDbLine
 10
143.067762
 20
-136.0647706333671
 30
0.0
 11
143.067762
 21
-135.3147706333671
 31
0.0
  0
LINE
  5
1C9
330
1F
100
AcDbEntity
  8
1
  6
CONTINUOUS
 62
     4
100
AcDbLine
 10
143.067762
 20
-136.0647706333671
 30
0.0
 11
164.567762
 21
-136.0647706333672
 31
0.0
  0
LINE
  5
1CA
330
1F
100
AcDbEntity
  8
1
  6
CONTINUOUS
 62
     4
100
AcDbLine
 10
143.067762
 20
-135.3147706333671
 30
0.0
 11
164.567762
 21
-135.3147706333672
 31
0.0
  0
LINE
  5
1CB
330
1F
100
AcDbEntity
  8
1
  6
CONTINUOUS
 62
     4
100
AcDbLine
 10
164.567762
 20
-135.3147706333672
 30
0.0
 11
164.567762
 21
-136.0647706333672
 31
0.0
  0
LINE
  5
1CC
330
1F
100
AcDbEntity
  8
1
  6
CONTINUOUS
 62
     4
100
AcDbLine
 10
164.567762
 20
-136.0647706333672
 30
0.0
 11
185.817762
 21
-136.0647706333674
 31
0.0
  0
LINE
  5
1CD
330
1F
100
AcDbEntity
  8
1
  6
CONTINUOUS
 62
     4
100
AcDbLine
 10
164.567762
 20
-150.0647706333672
 30
0.0
 11
164.567762
 21
-150.8147706333672
 31
0.0
  0
LINE
  5
1CE
330
1F
100
AcDbEntity
  8
1
  6
CONTINUOUS
 62
     4
100
AcDbLine
 10
164.567762
 20
-150.0647706333672
 30
0.0
 11
185.817762
 21
-150.0647706333674
 31
0.0
  0
LINE
  5
1CF
330
1F
100
AcDbEntity
  8
1
  6
CONTINUOUS
 62
     4
100
AcDbLine
 10
164.567762
 20
-150.8147706333672
 30
0.0
 11
143.067762
 21
-150.814770633367
 31
0.0
  0
LINE
  5
1D0
330
1F
100
AcDbEntity
  8
1
  6
CONTINUOUS
 62
     4
100
AcDbLine
 10
143.067762
 20
-150.814770633367
 30
0.0
 11
143.067762
 21
-150.0647706333671
 31
0.0
  0
LINE
  5
1D1
330
1F
100
AcDbEntity
  8
1
  6
CONTINUOUS
 62
     4
100
AcDbLine
 10
143.067762
 20
-150.0647706333671
 30
0.0
 11
164.567762
 21
-150.0647706333672
 31
0.0
  0
ARC
  5
1D2
330
1F
100
AcDbEntity
  8
1
  6
CONTINUOUS
 62
     4
100
AcDbCircle
 10
392.6333711892662
 20
44.24289499999998
 30
0.0
 40
12.0
100
AcDbArc
 50
-90.0
 51
0.0
  0
ARC
  5
1D3
330
1F
100
AcDbEntity
  8
1
  6
CONTINUOUS
 62
     4
100
AcDbCircle
 10
392.6333711892662
 20
44.24289499999998
 30
0.0
 40
12.0
100
AcDbArc
 50
180.0
 51
-90.0
  0
ARC
  5
1D4
330
1F
100
AcDbEntity
  8
1
  6
CONTINUOUS
 62
     4
100
AcDbCircle
 10
392.6333711892662
 20
255.242895
 30
0.0
 40
11.99999999999997
100
AcDbArc
 50
90.0
 51
180.0
  0
ARC
  5
1D5
330
1F
100
AcDbEntity
  8
1
  6
CONTINUOUS
 62
     4
100
AcDbCircle
 10
392.6333711892662
 20
255.242895
 30
0.0
 40
12.0
100
AcDbArc
 50
0.0
 51
90.0
  0
ARC
  5
1D6
330
1F
100
AcDbEntity
  8
VB
  6
CONTINUOUS
 62
     4
100
AcDbCircle
 10
153.817762
 20
77.242895
 30
0.0
 40
5.149999999999977
100
AcDbArc
 50
180.0
 51
0.0
  0
ARC
  5
1D7
330
1F
100
AcDbEntity
  8
1
  6
CONTINUOUS
 62
     4
100
AcDbCircle
 10
153.817762
 20
97.242895
 30
0.0
 40
8.650000000000004
100
AcDbArc
 50
-53.46057885684658
 51
0.0
  0
ARC
  5
1D8
330
1F
100
AcDbEntity
  8
1
  6
CONTINUOUS
 62
     4
100
AcDbCircle
 10
153.817762
 20
97.242895
 30
0.0
 40
8.650000000000006
100
AcDbArc
 50
0.0
 51
-126.5394211431532
  0
ARC
  5
1D9
330
1F
100
AcDbEntity
  8
1
  6
CONTINUOUS
 62
     4
100
AcDbCircle
 10
296.21645446862
 20
257.242895
 30
0.0
 40
10.0
100
AcDbArc
 50
0.0
 51
90.0
  0
ARC
  5
1DA
330
1F
100
AcDbEntity
  8
1
  6
CONTINUOUS
 62
     4
100
AcDbCircle
 10
296.21645446862
 20
42.24289499999998
 30
0.0
 40
10.0
100
AcDbArc
 50
180.0
 51
-90.0
  0
ARC
  5
1DB
330
1F
100
AcDbEntity
  8
1
  6
CONTINUOUS
 62
     4
100
AcDbCircle
 10
296.21645446862
 20
257.242895
 30
0.0
 40
10.0
100
AcDbArc
 50
90.0
 51
180.0
  0
ARC
  5
1DC
330
1F
100
AcDbEntity
  8
1
  6
CONTINUOUS
 62
     4
100
AcDbCircle
 10
296.21645446862
 20
42.24289499999998
 30
0.0
 40
10.0
100
AcDbArc
 50
-90.0
 51
0.0
  0
CIRCLE
  5
1DD
330
1F
100
AcDbEntity
  8
1
  6
CONTINUOUS
 62
     4
100
AcDbCircle
 10
392.6333711892662
 20
254.242895
 30
0.0
 40
2.650000000000205
  0
CIRCLE
  5
1DE
330
1F
100
AcDbEntity
  8
1
  6
CONTINUOUS
 62
     4
100
AcDbCircle
 10
392.6333711892662
 20
45.24289499999998
 30
0.0
 40
2.650000000000205
  0
CIRCLE
  5
1DF
330
1F
100
AcDbEntity
  8
1
  6
CONTINUOUS
 62
     4
100
AcDbCircle
 10
392.6333711892662
 20
254.242895
 30
0.0
 40
4.25
  0
CIRCLE
  5
1E0
330
1F
100
AcDbEntity
  8
1
  6
CONTINUOUS
 62
     4
100
AcDbCircle
 10
392.6333711892662
 20
45.24289499999998
 30
0.0
 40
4.25
  0
CIRCLE
  5
1E1
330
1F
100
AcDbEntity
  8
1
  6
CONTINUOUS
 62
     4
100
AcDbCircle
 10
391.9333711892662
 20
78.24289499999999
 30
0.0
 40
3.0
  0
CIRCLE
  5
1E2
330
1F
100
AcDbEntity
  8
1
  6
CONTINUOUS
 62
     4
100
AcDbCircle
 10
391.9333711892662
 20
78.24289499999999
 30
0.0
 40
4.75
  0
CIRCLE
  5
1E3
330
1F
100
AcDbEntity
  8
1
  6
CONTINUOUS
 62
     4
100
AcDbCircle
 10
153.817762
 20
169.242895
 30
0.0
 40
10.75
  0
CIRCLE
  5
1E4
330
1F
100
AcDbEntity
  8
1
  6
CONTINUOUS
 62
     4
100
AcDbCircle
 10
134.817762
 20
169.242895
 30
0.0
 40
4.0
  0
CIRCLE
  5
1E5
330
1F
100
AcDbEntity
  8
1
  6
CONTINUOUS
 62
     4
100
AcDbCircle
 10
172.817762
 20
169.242895
 30
0.0
 40
4.0
  0
CIRCLE
  5
1E6
330
1F
100
AcDbEntity
  8
1
  6
CONTINUOUS
 62
     4
100
AcDbCircle
 10
172.817762
 20
89.242895
 30
0.0
 40
4.0
  0
CIRCLE
  5
1E7
330
1F
100
AcDbEntity
  8
1
  6
CONTINUOUS
 62
     4
100
AcDbCircle
 10
134.817762
 20
89.242895
 30
0.0
 40
4.0
  0
CIRCLE
  5
1E8
330
1F
100
AcDbEntity
  8
1
  6
CONTINUOUS
 62
     4
100
AcDbCircle
 10
153.817762
 20
147.742895
 30
0.0
 40
4.0
  0
CIRCLE
  5
1E9
330
1F
100
AcDbEntity
  8
1
  6
CONTINUOUS
 62
     4
100
AcDbCircle
 10
153.817762
 20
215.242895
 30
0.0
 40
4.0
  0
CIRCLE
  5
1EA
330
1F
100
AcDbEntity
  8
1
  6
CONTINUOUS
 62
     4
100
AcDbCircle
 10
296.21645446862
 20
254.242895
 30
0.0
 40
2.650000000000091
  0
CIRCLE
  5
1EB
330
1F
100
AcDbEntity
  8
1
  6
CONTINUOUS
 62
     4
100
AcDbCircle
 10
296.21645446862
 20
45.24289499999998
 30
0.0
 40
2.650000000000091
  0
CIRCLE
  5
1EC
330
1F
100
AcDbEntity
  8
1
  6
CONTINUOUS
 62
     4
100
AcDbCircle
 10
296.21645446862
 20
254.242895
 30
0.0
 40
4.25
  0
CIRCLE
  5
1ED
330
1F
100
AcDbEntity
  8
1
  6
CONTINUOUS
 62
     4
100
AcDbCircle
 10
296.21645446862
 20
45.24289499999998
 30
0.0
 40
4.25
  0
CIRCLE
  5
1EE
330
1F
100
AcDbEntity
  8
1
  6
CONTINUOUS
 62
     4
100
AcDbCircle
 10
294.5164544686201
 20
78.24289499999999
 30
0.0
 40
3.0
  0
CIRCLE
  5
1EF
330
1F
100
AcDbEntity
  8
1
  6
CONTINUOUS
 62
     4
100
AcDbCircle
 10
294.5164544686201
 20
78.24289499999999
 30
0.0
 40
4.75
  0
MTEXT
  5
1F0
330
1F
100
AcDbEntity
  8
1
 62
     2
100
AcDbMText
 10
392.6858987850596
 20
298.8107226835474
 30
0.0
 40
8.75
 41
0.0
 71
     5
 72
     1
  1
18352W0...
  7
CONVERTER_1
1001
ACAD
1000
MTEXTBEGIN
1070
    44
1040
1.32052821128451
1000
MTEXTEND
  0
MTEXT
  5
1F1
330
1F
100
AcDbEntity
  8
1
 62
     2
100
AcDbMText
 10
298.7280725085545
 20
298.8107226835474
 30
0.0
 40
8.75
 41
0.0
 71
     5
 72
     1
  1
18354W0...
  7
CONVERTER_1
1001
ACAD
1000
MTEXTBEGIN
1070
    44
1040
1.32052821128451
1000
MTEXTEND
  0
MTEXT
  5
1F2
330
1F
100
AcDbEntity
  8
1
 62
     2
100
AcDbMText
 10
345.1384134387442
 20
316.7962583639366
 30
0.0
 40
8.75
 41
0.0
 71
     5
 72
     1
  1
Artikel-Nr.
  7
CONVERTER_1
1001
ACAD
1000
MTEXTBEGIN
1070
    44
1040
1.32052821128451
1000
MTEXTEND
  0
MTEXT
  5
1F3
330
1F
100
AcDbEntity
  8
1
 62
     2
100
AcDbMText
 10
265.7280725085545
 20
-59.38927731645265
 30
0.0
 40
8.75
 41
0.0
 71
     5
 72
     1
  1
18354W0...
  7
CONVERTER_1
1001
ACAD
1000
MTEXTBEGIN
1070
    44
1040
1.32052821128451
1000
MTEXTEND
  0
MTEXT
  5
1F4
330
1F
100
AcDbEntity
  8
1
 62
     2
100
AcDbMText
 10
265.7280725085545
 20
-143.2457865638313
 30
0.0
 40
8.75
 41
0.0
 71
     5
 72
     1
  1
18352W0...
  7
CONVERTER_1
1001
ACAD
1000
MTEXTBEGIN
1070
    44
1040
1.32052821128451
1000
MTEXTEND
  0
TEXT
  5
1F5
330
1F
100
AcDbEntity
  8
1
 62
     2
100
AcDbText
 10
89.99923455908001
 20
-209.4942520466
 30
0.0
 40
8.75
  1
Schloss baugleich mit BMH Art. 1000, jedoch Fallendicke 12mm
 41
0.72
  7
CONVERTER_1
100
AcDbText
  0
DIMENSION
  5
202
330
1F
100
AcDbEntity
  8
1
100
AcDbDimension
  2
*D03
 10
86.81776200000002
 20
228.696792756518
 30
0.0
 11
69.32778529484851
 21
235.571792756518
 31
0.0
 70
    32
  1
<>
 53
0.00013888888889
  3
ME10_DIM_0
100
AcDbAlignedDimension
 13
98.817762
 23
267.242895
 33
0.0
 14
86.81776200000002
 24
214.242895
 34
0.0
100
AcDbRotatedDimension
  0
DIMENSION
  5
20D
330
1F
100
AcDbEntity
  8
1
100
AcDbDimension
  2
*D14
 10
56.96948548251122
 20
267.242895
 30
0.0
 11
50.09448548251122
 21
241.260889319608
 31
0.0
 70
    32
  1
<>
 53
90.0
  3
ME10_DIM_1
100
AcDbAlignedDimension
 13
86.81776200000002
 23
214.242895
 33
0.0
 14
98.817762
 24
267.242895
 34
0.0
 50
90.0
100
AcDbRotatedDimension
  0
DIMENSION
  5
21A
330
1F
100
AcDbEntity
  8
1
100
AcDbDimension
  2
*D25
 10
121.591577925505
 20
-51.20826138598813
 30
0.0
 11
114.716577925505
 21
-35.5556374778935
 31
0.0
 70
    32
  1
<>
 53
90.0
  3
ME10_DIM_2
100
AcDbAlignedDimension
 13
101.817762
 23
-52.20826138598812
 33
0.0
 14
101.817762
 24
-51.20826138598812
 34
0.0
 50
90.0
100
AcDbRotatedDimension
  0
DIMENSION
  5
227
330
1F
100
AcDbEntity
  8
1
100
AcDbDimension
  2
*D36
 10
204.244062589019
 20
-52.20826138598864
 30
0.0
 11
197.369062589019
 21
-36.3122389791397
 31
0.0
 70
    32
  1
<>
 53
90.0
  3
ME10_DIM_3
100
AcDbAlignedDimension
 13
185.817762
 23
-66.20826138598864
 33
0.0
 14
185.817762
 24
-52.20826138598864
 34
0.0
 50
90.0
100
AcDbRotatedDimension
  0
DIMENSION
  5
234
330
1F
100
AcDbEntity
  8
1
100
AcDbDimension
  2
*D47
 10
125.098255453964
 20
-132.0647706333668
 30
0.0
 11
118.223255453964
 21
-118.4518750688142
 31
0.0
 70
    32
  1
<>
 53
90.0
  3
ME10_DIM_4
100
AcDbAlignedDimension
 13
101.817762
 23
-136.0647706333667
 33
0.0
 14
101.817762
 24
-132.0647706333667
 34
0.0
 50
90.0
100
AcDbRotatedDimension
  0
DIMENSION
  5
241
330
1F
100
AcDbEntity
  8
1
100
AcDbDimension
  2
*D58
 10
204.827711009239
 20
-136.0647706333673
 30
0.0
 11
197.952711009239
 21
-119.2457363397341
 31
0.0
 70
    32
  1
<>
 53
90.0
  3
ME10_DIM_5
100
AcDbAlignedDimension
 13
185.817762
 23
-150.0647706333674
 33
0.0
 14
185.817762
 24
-136.0647706333674
 34
0.0
 50
90.0
100
AcDbRotatedDimension
  0
DIMENSION
  5
24E
330
1F
100
AcDbEntity
  8
1
100
AcDbDimension
  2
*D69
 10
225.436402706245
 20
-51.45826138598852
 30
0.0
 11
218.123902706245
 21
-36.3122389791397
 31
0.0
 70
    32
  1
<>
 53
90.0
  3
ME10_DIM_6
100
AcDbAlignedDimension
 13
164.567762
 23
-66.95826138598852
 33
0.0
 14
164.567762
 24
-51.45826138598852
 34
0.0
 50
90.0
100
AcDbRotatedDimension
  0
DIMENSION
  5
25B
330
1F
100
AcDbEntity
  8
1
100
AcDbDimension
  2
*D710
 10
225.4364027062451
 20
-135.3147706333672
 30
0.0
 11
218.1239027062451
 21
-118.2169318909671
 31
0.0
 70
    32
  1
<>
 53
90.0
  3
ME10_DIM_7
100
AcDbAlignedDimension
 13
164.567762
 23
-150.8147706333672
 33
0.0
 14
164.567762
 24
-135.3147706333672
 34
0.0
 50
90.0
100
AcDbRotatedDimension
  0
DIMENSION
  5
268
330
1F
100
AcDbEntity
  8
1
100
AcDbDimension
  2
*D811
 10
98.817762
 20
149.124258008009
 30
0.0
 11
75.52963318077201
 21
155.999258008009
 31
0.0
 70
    32
  1
<>
 53
0.00013888888889
  3
ME10_DIM_8
100
AcDbAlignedDimension
 13
87.817762
 23
132.242895
 33
0.0
 14
98.817762
 24
132.242895
 34
0.0
100
AcDbRotatedDimension
  0
DIMENSION
  5
273
330
1F
100
AcDbEntity
  8
1
100
AcDbDimension
  2
*D912
 10
56.91799921573561
 20
32.24289499999999
 30
0.0
 11
50.04299921573561
 21
49.2535664255707
 31
0.0
 70
    32
  1
<>
 53
90.0
  3
ME10_DIM_9
100
AcDbAlignedDimension
 13
101.817762
 23
67.24289500000002
 33
0.0
 14
98.817762
 24
32.242895
 34
0.0
 50
90.0
100
AcDbRotatedDimension
  0
DIMENSION
  5
27E
330
1F
100
AcDbEntity
  8
1
100
AcDbDimension
  2
*D1013
 10
56.91799921573561
 20
182.242895
 30
0.0
 11
50.04299921573561
 21
198.242895
 31
0.0
 70
    32
  1
<>
 53
90.0
  3
ME10_DIM_10
100
AcDbAlignedDimension
 13
86.81776200000002
 23
214.242895
 33
0.0
 14
86.81776200000002
 24
182.242895
 34
0.0
 50
90.0
100
AcDbRotatedDimension
  0
DIMENSION
  5
289
330
1F
100
AcDbEntity
  8
1
100
AcDbDimension
  2
*D1114
 10
56.91799921573561
 20
132.242895
 30
0.0
 11
50.04299921573561
 21
157.242895
 31
0.0
 70
    32
  1
<>
 53
90.0
  3
ME10_DIM_11
100
AcDbAlignedDimension
 13
86.81776200000002
 23
182.242895
 33
0.0
 14
76.817762
 24
132.242895
 34
0.0
 50
90.0
100
AcDbRotatedDimension
  0
DIMENSION
  5
294
330
1F
100
AcDbEntity
  8
1
100
AcDbDimension
  2
*D1215
 10
56.91799921573561
 20
97.242895
 30
0.0
 11
50.04299921573561
 21
114.742895
 31
0.0
 70
    32
  1
<>
 53
90.0
  3
ME10_DIM_12
100
AcDbAlignedDimension
 13
76.817762
 23
132.242895
 33
0.0
 14
76.817762
 24
97.242895
 34
0.0
 50
90.0
100
AcDbRotatedDimension
  0
DIMENSION
  5
29F
330
1F
100
AcDbEntity
  8
1
100
AcDbDimension
  2
*D1316
 10
56.91799921573561
 20
67.24289500000002
 30
0.0
 11
50.04299921573561
 21
82.242895
 31
0.0
 70
    32
  1
<>
 53
90.0
  3
ME10_DIM_13
100
AcDbAlignedDimension
 13
76.817762
 23
97.242895
 33
0.0
 14
101.817762
 24
67.24289500000002
 34
0.0
 50
90.0
100
AcDbRotatedDimension
  0
DIMENSION
  5
2AC
330
1F
100
AcDbEntity
  8
1
100
AcDbDimension
  2
*D1417
 10
206.883941852857
 20
147.742895
 30
0.0
 11
199.571441852857
 21
158.429497781814
 31
0.0
 70
    32
  1
<>
 53
90.0
  3
ME10_DIM_14
100
AcDbAlignedDimension
 13
181.817762
 23
169.242895
 33
0.0
 14
158.403488024579
 24
147.742895
 34
0.0
 50
90.0
100
AcDbRotatedDimension
  0
DIMENSION
  5
2B7
330
1F
100
AcDbEntity
  8
1
100
AcDbDimension
  2
*D1518
 10
206.864675733566
 20
169.242895
 30
0.0
 11
199.989675733566
 21
192.097325178919
 31
0.0
 70
    32
  1
<>
 53
90.0
  3
ME10_DIM_15
100
AcDbAlignedDimension
 13
162.817762
 23
215.242895
 33
0.0
 14
181.817762
 24
169.242895
 34
0.0
 50
90.0
100
AcDbRotatedDimension
  0
DIMENSION
  5
2C2
330
1F
100
AcDbEntity
  8
1
100
AcDbDimension
  2
*D1619
 10
222.339329319813
 20
67.242895
 30
0.0
 11
215.464329319813
 21
83.35651619448211
 31
0.0
 70
    32
  1
<>
 53
90.0
  3
ME10_DIM_16
100
AcDbAlignedDimension
 13
164.930722490206
 23
97.242895
 33
0.0
 14
178.817762
 24
67.242895
 34
0.0
 50
90.0
100
AcDbRotatedDimension
  0
DIMENSION
  5
2CD
330
1F
100
AcDbEntity
  8
1
100
AcDbDimension
  2
*D1720
 10
222.339329319813
 20
97.242895
 30
0.0
 11
215.464329319813
 21
130.198710833932
 31
0.0
 70
    32
  1
<>
 53
90.0
  3
ME10_DIM_17
100
AcDbAlignedDimension
 13
181.817762
 23
169.242895
 33
0.0
 14
164.930722490206
 24
97.242895
 34
0.0
 50
90.0
100
AcDbRotatedDimension
  0
DIMENSION
  5
2D8
330
1F
100
AcDbEntity
  8
1
100
AcDbDimension
  2
*D1821
 10
98.81776199999999
 20
11.868941025105
 30
0.0
 11
126.454686686193
 21
18.743941025105
 31
0.0
 70
    32
  1
DornmaÞ
 53
0.00013888888889
  3
ME10_DIM_18
100
AcDbAlignedDimension
 13
153.817762
 23
67.242895
 33
0.0
 14
98.817762
 24
32.242895
 34
0.0
100
AcDbRotatedDimension
  0
DIMENSION
  5
2E3
330
1F
100
AcDbEntity
  8
1
100
AcDbDimension
  2
*D1922
 10
153.817762
 20
11.868941025105
 30
0.0
 11
170.317762
 21
18.743941025105
 31
0.0
 70
    32
  1
<>
 53
0.00013888888889
  3
ME10_DIM_19
100
AcDbAlignedDimension
 13
186.817762
 23
75.24289500000002
 33
0.0
 14
153.817762
 24
67.242895
 34
0.0
100
AcDbRotatedDimension
  0
DIMENSION
  5
2F0
330
1F
100
AcDbEntity
  8
1
100
AcDbDimension
  2
*D2023
 10
329.221108941338
 20
267.242895
 30
0.0
 11
322.346108941338
 21
260.397772208862
 31
0.0
 70
    32
  1
<>
 53
90.0
  3
ME10_DIM_20
100
AcDbAlignedDimension
 13
303.8664544686201
 23
254.242895
 33
0.0
 14
296.21645446862
 24
267.242895
 34
0.0
 50
90.0
100
AcDbRotatedDimension
  0
DIMENSION
  5
2FB
330
1F
100
AcDbEntity
  8
1
100
AcDbDimension
  2
*D2124
 10
329.221108941338
 20
254.242895
 30
0.0
 11
322.346108941338
 21
149.742895
 31
0.0
 70
    32
  1
<>
 53
90.0
  3
ME10_DIM_21
100
AcDbAlignedDimension
 13
303.8664544686201
 23
45.24289499999998
 33
0.0
 14
303.8664544686201
 24
254.242895
 34
0.0
 50
90.0
100
AcDbRotatedDimension
  0
DIMENSION
  5
308
330
1F
100
AcDbEntity
  8
1
100
AcDbDimension
  2
*D2225
 10
430.3707546501531
 20
267.242895
 30
0.0
 11
423.4957546501531
 21
259.69043202908
 31
0.0
 70
    32
  1
<>
 53
90.0
  3
ME10_DIM_22
100
AcDbAlignedDimension
 13
400.9833711892661
 23
254.242895
 33
0.0
 14
392.6333711892662
 24
267.242895
 34
0.0
 50
90.0
100
AcDbRotatedDimension
  0
DIMENSION
  5
313
330
1F
100
AcDbEntity
  8
1
100
AcDbDimension
  2
*D2326
 10
430.3707546501531
 20
254.242895
 30
0.0
 11
423.4957546501531
 21
149.742895
 31
0.0
 70
    32
  1
<>
 53
90.0
  3
ME10_DIM_23
100
AcDbAlignedDimension
 13
400.2833711892664
 23
45.24289499999998
 33
0.0
 14
400.9833711892661
 24
254.242895
 34
0.0
 50
90.0
100
AcDbRotatedDimension
  0
DIMENSION
  5
320
330
1F
100
AcDbEntity
  8
1
100
AcDbDimension
  2
*D2427
 10
98.8177620000001
 20
-167.4061019977493
 30
0.0
 11
85.27501200571179
 21
-160.5311019977493
 31
0.0
 70
    32
  1
<>
 53
0.00013888888889
  3
ME10_DIM_24
100
AcDbAlignedDimension
 13
101.817762
 23
-156.0647706333667
 33
0.0
 14
98.8177620000001
 24
-156.0647706333667
 34
0.0
100
AcDbRotatedDimension
  0
DIMENSION
  5
32D
330
1F
100
AcDbEntity
  8
1
100
AcDbDimension
  2
*D2528
 10
98.81776200000003
 20
-83.54959275037061
 30
0.0
 11
85.27501200571172
 21
-76.67459275037061
 31
0.0
 70
    32
  1
<>
 53
0.00013888888889
  3
ME10_DIM_25
100
AcDbAlignedDimension
 13
101.817762
 23
-71.20826138598812
 33
0.0
 14
98.81776200000003
 24
-71.20826138598815
 34
0.0
100
AcDbRotatedDimension
  0
DIMENSION
  5
33A
330
1F
100
AcDbEntity
  8
1
100
AcDbDimension
  2
*D2629
 10
380.6333711892663
 20
91.0772006844245
 30
0.0
 11
365.111600189984
 21
98.3897006844245
 31
0.0
 70
    32
  1
<>
 53
0.00013888888889
  3
ME10_DIM_26
100
AcDbAlignedDimension
 13
387.4333711892662
 23
97.24289499999999
 33
0.0
 14
380.6333711892662
 24
44.24289499999998
 34
0.0
100
AcDbRotatedDimension
  0
DIMENSION
  5
347
330
1F
100
AcDbEntity
  8
1
100
AcDbDimension
  2
*D2730
 10
380.6333711892661
 20
243.451562784178
 30
0.0
 11
366.7559385243969
 21
250.764062784178
 31
0.0
 70
    32
  1
<>
 53
0.00013888888889
  3
ME10_DIM_27
100
AcDbAlignedDimension
 13
386.8333711892661
 23
214.242895
 33
0.0
 14
380.6333711892662
 24
255.242895
 34
0.0
100
AcDbRotatedDimension
  0
DIMENSION
  5
354
330
1F
100
AcDbEntity
  8
1
100
AcDbDimension
  2
*D2831
 10
380.6333711892662
 20
5.0225042943051
 30
0.0
 11
393.065351875003
 21
11.8975042943051
 31
0.0
 70
    32
  1
<>
 53
0.00013888888889
  3
ME10_DIM_28
100
AcDbAlignedDimension
 13
404.6333711892662
 23
44.24289499999998
 33
0.0
 14
380.6333711892662
 24
44.24289499999998
 34
0.0
100
AcDbRotatedDimension
  0
DIMENSION
  5
361
330
1F
100
AcDbEntity
  8
1
100
AcDbDimension
  2
*D2932
 10
387.4333711892661
 20
142.919526077013
 30
0.0
 11
367.695353784327
 21
150.232026077013
 31
0.0
 70
    32
  1
<>
 53
0.00013888888889
  3
ME10_DIM_29
100
AcDbAlignedDimension
 13
395.9333711892662
 23
132.242895
 33
0.0
 14
387.4333711892662
 24
132.242895
 34
0.0
100
AcDbRotatedDimension
  0
DIMENSION
  5
36E
330
1F
100
AcDbEntity
  8
1
100
AcDbDimension
  2
*D3033
 10
386.8333711892662
 20
223.030580352148
 30
0.0
 11
393.0030620374211
 21
229.905580352148
 31
0.0
 70
    32
  1
<>
 53
0.00013888888889
  3
ME10_DIM_30
100
AcDbAlignedDimension
 13
398.8333711892661
 23
211.242895
 33
0.0
 14
386.8333711892661
 24
182.242895
 34
0.0
100
AcDbRotatedDimension
  0
DIMENSION
  5
379
330
1F
100
AcDbEntity
  8
1
100
AcDbDimension
  2
*D3134
 10
449.8226095941561
 20
267.242895
 30
0.0
 11
442.9476095941561
 21
153.943075151683
 31
0.0
 70
    32
  1
<>
 53
90.0
  3
ME10_DIM_31
100
AcDbAlignedDimension
 13
410.6722833231571
 23
32.24289499999998
 33
0.0
 14
416.6526703524452
 24
267.242895
 34
0.0
 50
90.0
100
AcDbRotatedDimension
  0
DIMENSION
  5
386
330
1F
100
AcDbEntity
  8
1
100
AcDbDimension
  2
*D3235
 10
207.282909614276
 20
89.242895
 30
0.0
 11
200.407909614276
 21
92.7667785104429
 31
0.0
 70
    32
  1
<>
 53
90.0
  3
ME10_DIM_32
100
AcDbAlignedDimension
 13
164.930722490206
 23
97.242895
 33
0.0
 14
181.817762
 24
89.242895
 34
0.0
 50
90.0
100
AcDbRotatedDimension
  0
DIMENSION
  5
391
330
1F
100
AcDbEntity
  8
1
100
AcDbDimension
  2
*D3336
 10
236.977515144641
 20
67.242895
 30
0.0
 11
230.102515144641
 21
146.091598300888
 31
0.0
 70
    32
  1
<>
 53
90.0
  3
ME10_DIM_33
100
AcDbAlignedDimension
 13
178.817762
 23
232.242895
 33
0.0
 14
178.817762
 24
67.242895
 34
0.0
 50
90.0
100
AcDbRotatedDimension
  0
DIMENSION
  5
39E
330
1F
100
AcDbEntity
  8
1
100
AcDbDimension
  2
*D3437
 10
76.817762
 20
79.88020439584452
 30
0.0
 11
87.91314402008175
 21
86.75520439584452
 31
0.0
 70
    32
  1
<>
 53
0.00013888888889
  3
ME10_DIM_34
100
AcDbAlignedDimension
 13
98.817762
 23
97.242895
 33
0.0
 14
76.817762
 24
97.242895
 34
0.0
100
AcDbRotatedDimension
  0
DIMENSION
  5
3A9
330
1F
100
AcDbEntity
  8
1
100
AcDbDimension
  2
*D3538
 10
134.817762
 20
111.791092029114
 30
0.0
 11
153.817762
 21
118.666092029114
 31
0.0
 70
    32
  1
<>
 53
0.00013888888889
  3
ME10_DIM_35
100
AcDbAlignedDimension
 13
172.817762
 23
98.242895
 33
0.0
 14
134.817762
 24
98.242895
 34
0.0
100
AcDbRotatedDimension
  0
DIMENSION
  5
3B4
330
1F
100
AcDbEntity
  8
1
100
AcDbDimension
  2
*D3639
 10
345.843603166214
 20
267.242895
 30
0.0
 11
338.968603166214
 21
157.257013056407
 31
0.0
 70
    32
  1
<>
 53
90.0
  3
ME10_DIM_36
100
AcDbAlignedDimension
 13
313.555366602511
 23
32.24289499999998
 33
0.0
 14
319.5357536317991
 24
267.242895
 34
0.0
 50
90.0
100
AcDbRotatedDimension
  0
DIMENSION
  5
3C1
330
1F
100
AcDbEntity
  8
1
100
AcDbDimension
  2
*D3740
 10
286.21645446862
 20
242.040955805134
 30
0.0
 11
268.710060011021
 21
249.353455805134
 31
0.0
 70
    32
  1
<>
 53
0.00013888888889
  3
ME10_DIM_37
100
AcDbAlignedDimension
 13
289.4164544686201
 23
214.242895
 33
0.0
 14
286.21645446862
 24
257.242895
 34
0.0
100
AcDbRotatedDimension
  0
DIMENSION
  5
3CE
330
1F
100
AcDbEntity
  8
1
100
AcDbDimension
  2
*D3841
 10
289.4164544686201
 20
223.030580352148
 30
0.0
 11
295.586145316775
 21
229.905580352148
 31
0.0
 70
    32
  1
<>
 53
0.00013888888889
  3
ME10_DIM_38
100
AcDbAlignedDimension
 13
301.4164544686201
 23
211.242895
 33
0.0
 14
289.4164544686201
 24
182.242895
 34
0.0
100
AcDbRotatedDimension
  0
DIMENSION
  5
3DB
330
1F
100
AcDbEntity
  8
1
100
AcDbDimension
  2
*D3942
 10
286.21645446862
 20
89.90838169709969
 30
0.0
 11
269.023735421553
 21
97.22088169709969
 31
0.0
 70
    32
  1
<>
 53
0.00013888888889
  3
ME10_DIM_39
100
AcDbAlignedDimension
 13
290.0164544686201
 23
97.24289499999999
 33
0.0
 14
286.21645446862
 24
42.24289499999998
 34
0.0
100
AcDbRotatedDimension
  0
DIMENSION
  5
3E8
330
1F
100
AcDbEntity
  8
1
100
AcDbDimension
  2
*D4043
 10
290.0164544686201
 20
142.919526077013
 30
0.0
 11
270.278437063681
 21
150.232026077013
 31
0.0
 70
    32
  1
<>
 53
0.00013888888889
  3
ME10_DIM_40
100
AcDbAlignedDimension
 13
298.5164544686201
 23
132.242895
 33
0.0
 14
290.0164544686201
 24
132.242895
 34
0.0
100
AcDbRotatedDimension
  0
DIMENSION
  5
3F5
330
1F
100
AcDbEntity
  8
1
100
AcDbDimension
  2
*D4144
 10
286.21645446862
 20
5.03421299163218
 30
0.0
 11
297.322887523013
 21
11.90921299163218
 31
0.0
 70
    32
  1
<>
 53
0.00013888888889
  3
ME10_DIM_41
100
AcDbAlignedDimension
 13
306.21645446862
 23
42.24289499999998
 33
0.0
 14
286.21645446862
 24
42.24289499999998
 34
0.0
100
AcDbRotatedDimension
  0
DIMENSION
  5
402
330
1F
100
AcDbEntity
  8
1
100
AcDbDimension
  2
*D4245
 10
149.317762
 20
191.351502987868
 30
0.0
 11
153.8443657125422
 21
198.226502987868
 31
0.0
 70
    32
  1
<>
 53
0.00013888888889
  3
ME10_DIM_42
100
AcDbAlignedDimension
 13
158.317762
 23
173.742895
 33
0.0
 14
149.317762
 24
173.742895
 34
0.0
100
AcDbRotatedDimension
  0
ENDSEC
  0
SECTION
  2
OBJECTS
  0
DICTIONARY
  5
C
330
0
100
AcDbDictionary
  3
ACAD_GROUP
350
D
  3
ACAD_LAYOUT
350
1A
  3
ACAD_MLINESTYLE
350
17
  3
ACAD_PLOTSETTINGS
350
19
  3
ACDBHEADERROUNDTRIPXREC
350
403
  0
DICTIONARY
  5
D
102
{ACAD_REACTORS
330
C
102
}
330
C
100
AcDbDictionary
  0
DICTIONARY
  5
1A
102
{ACAD_REACTORS
330
C
102
}
330
C
100
AcDbDictionary
  0
DICTIONARY
  5
17
102
{ACAD_REACTORS
330
C
102
}
330
C
100
AcDbDictionary
  3
STANDARD
350
18
  0
DICTIONARY
  5
19
102
{ACAD_REACTORS
330
C
102
}
330
C
100
AcDbDictionary
  0
DICTIONARY
  5
403
102
{ACAD_REACTORS
330
C
102
}
330
C
100
AcDbDictionary
  3
CEPSNTYPE
350
40C
  3
DIMSTYLEDATA
350
422
  3
FINGERPRINTGUID
350
40D
  3
HYPERLINKBASE
350
406
  3
INSUNITS
350
40B
  3
LAYOUTDICT
350
408
  3
LWETCUNION
350
40A
  3
PLOTSETDICT
350
409
  3
PSVPSCALE
350
40F
  3
PUCSBASE
350
412
  3
PUCSORGBACK
350
418
  3
PUCSORGBOTTOM
350
414
  3
PUCSORGFRONT
350
417
  3
PUCSORGLEFT
350
415
  3
PUCSORGRIGHT
350
416
  3
PUCSORGTOP
350
413
  3
PUCSORTHOREF
350
410
  3
PUCSORTHOVIEW
350
411
  3
STYLESHEET
350
407
  3
TSTACKALIGN
350
404
  3
TSTACKSIZE
350
405
  3
UCSBASE
350
41B
  3
UCSORGBACK
350
421
  3
UCSORGBOTTOM
350
41D
  3
UCSORGFRONT
350
420
  3
UCSORGLEFT
350
41E
  3
UCSORGRIGHT
350
41F
  3
UCSORGTOP
350
41C
  3
UCSORTHOREF
350
419
  3
UCSORTHOVIEW
350
41A
  3
VERSIONGUID
350
40E
  0
MLINESTYLE
  5
18
102
{ACAD_REACTORS
330
17
102
}
330
17
100
AcDbMlineStyle
  2
Standard
 70
     0
  3

 62
   256
 51
90.0
 52
90.0
 71
     2
 49
0.5
 62
   256
  6
BYLAYER
 49
-0.5
 62
   256
  6
BYLAYER
  0
XRECORD
  5
40C
102
{ACAD_REACTORS
330
403
102
}
330
403
100
AcDbXrecord
 90
        0
  0
XRECORD
  5
422
102
{ACAD_REACTORS
330
403
102
}
330
403
100
AcDbXrecord
1000
DSTYLE
1002
{
1070
   171
 70
     2
1070
   143
 40
25.4
1070
   274
 70
     2
1070
    41
 40
0.18
1070
   141
 40
0.09
1070
   271
 70
     4
1070
    43
 40
0.38
1070
    44
 40
0.18
1070
   278
 70
    46
1070
    42
 40
0.0625
1070
   147
 40
0.09
1070
    77
 70
     0
1070
   272
 70
     4
1070
    73
 70
     1
1070
   172
 70
     0
1070
    74
 70
     1
1070
   283
 70
     1
1070
   340
340
11
1070
   140
 40
0.18
1070
   284
 70
     0
1070
    78
 70
     0
1002
}
  0
XRECORD
  5
40D
102
{ACAD_REACTORS
330
403
102
}
330
403
100
AcDbXrecord
  1
{013450C1-335A-45D5-82F2-FD47D53299B5}
  0
XRECORD
  5
406
102
{ACAD_REACTORS
330
403
102
}
330
403
100
AcDbXrecord
  1

  0
XRECORD
  5
40B
102
{ACAD_REACTORS
330
403
102
}
330
403
100
AcDbXrecord
 90
        1
  0
XRECORD
  5
408
102
{ACAD_REACTORS
330
403
102
}
330
403
100
AcDbXrecord
340
1A
  0
XRECORD
  5
40A
102
{ACAD_REACTORS
330
403
102
}
330
403
100
AcDbXrecord
 90
    10781
  0
XRECORD
  5
409
102
{ACAD_REACTORS
330
403
102
}
330
403
100
AcDbXrecord
340
19
  0
XRECORD
  5
40F
102
{ACAD_REACTORS
330
403
102
}
330
403
100
AcDbXrecord
 40
0.0
  0
XRECORD
  5
412
102
{ACAD_REACTORS
330
403
102
}
330
403
100
AcDbXrecord
340
0
  0
XRECORD
  5
418
102
{ACAD_REACTORS
330
403
102
}
330
403
100
AcDbXrecord
 10
0.0
 20
0.0
 30
0.0
  0
XRECORD
  5
414
102
{ACAD_REACTORS
330
403
102
}
330
403
100
AcDbXrecord
 10
0.0
 20
0.0
 30
0.0
  0
XRECORD
  5
417
102
{ACAD_REACTORS
330
403
102
}
330
403
100
AcDbXrecord
 10
0.0
 20
0.0
 30
0.0
  0
XRECORD
  5
415
102
{ACAD_REACTORS
330
403
102
}
330
403
100
AcDbXrecord
 10
0.0
 20
0.0
 30
0.0
  0
XRECORD
  5
416
102
{ACAD_REACTORS
330
403
102
}
330
403
100
AcDbXrecord
 10
0.0
 20
0.0
 30
0.0
  0
XRECORD
  5
413
102
{ACAD_REACTORS
330
403
102
}
330
403
100
AcDbXrecord
 10
0.0
 20
0.0
 30
0.0
  0
XRECORD
  5
410
102
{ACAD_REACTORS
330
403
102
}
330
403
100
AcDbXrecord
340
0
  0
XRECORD
  5
411
102
{ACAD_REACTORS
330
403
102
}
330
403
100
AcDbXrecord
 70
     0
  0
XRECORD
  5
407
102
{ACAD_REACTORS
330
403
102
}
330
403
100
AcDbXrecord
  1

  0
XRECORD
  5
404
102
{ACAD_REACTORS
330
403
102
}
330
403
100
AcDbXrecord
 90
        1
  0
XRECORD
  5
405
102
{ACAD_REACTORS
330
403
102
}
330
403
100
AcDbXrecord
 90
       70
  0
XRECORD
  5
41B
102
{ACAD_REACTORS
330
403
102
}
330
403
100
AcDbXrecord
340
0
  0
XRECORD
  5
421
102
{ACAD_REACTORS
330
403
102
}
330
403
100
AcDbXrecord
 10
0.0
 20
0.0
 30
0.0
  0
XRECORD
  5
41D
102
{ACAD_REACTORS
330
403
102
}
330
403
100
AcDbXrecord
 10
0.0
 20
0.0
 30
0.0
  0
XRECORD
  5
420
102
{ACAD_REACTORS
330
403
102
}
330
403
100
AcDbXrecord
 10
0.0
 20
0.0
 30
0.0
  0
XRECORD
  5
41E
102
{ACAD_REACTORS
330
403
102
}
330
403
100
AcDbXrecord
 10
0.0
 20
0.0
 30
0.0
  0
XRECORD
  5
41F
102
{ACAD_REACTORS
330
403
102
}
330
403
100
AcDbXrecord
 10
0.0
 20
0.0
 30
0.0
  0
XRECORD
  5
41C
102
{ACAD_REACTORS
330
403
102
}
330
403
100
AcDbXrecord
 10
0.0
 20
0.0
 30
0.0
  0
XRECORD
  5
419
102
{ACAD_REACTORS
330
403
102
}
330
403
100
AcDbXrecord
340
0
  0
XRECORD
  5
41A
102
{ACAD_REACTORS
330
403
102
}
330
403
100
AcDbXrecord
 70
     0
  0
XRECORD
  5
40E
102
{ACAD_REACTORS
330
403
102
}
330
403
100
AcDbXrecord
  1
{FAEB1C32-E019-11D5-929B-00C0DF256EC4}
  0
ENDSEC
  0
EOF
