  0
SECTION
  2
HEADER
  9
$ACADVER
  1
AC1018
  9
$ACADMAINTVER
 70
     0
  9
$DWGCODEPAGE
  3
ANSI_1252
  9
$INSBASE
 10
0.0
 20
0.0
 30
0.0
  9
$EXTMIN
 10
-43.75539401113929
 20
-95.28725543175824
 30
0.0
  9
$EXTMAX
 10
166.2446059888607
 20
201.7127445682418
 30
0.0
  9
$LIMMIN
 10
0.0
 20
0.0
  9
$LIMMAX
 10
12.0
 20
9.0
  9
$ORTHOMODE
 70
     0
  9
$REGENMODE
 70
     1
  9
$FILLMODE
 70
     1
  9
$QTEXTMODE
 70
     0
  9
$MIRRTEXT
 70
     1
  9
$LTSCALE
 40
1.0
  9
$ATTMODE
 70
     1
  9
$TEXTSIZE
 40
0.2
  9
$TRACEWID
 40
0.05
  9
$TEXTSTYLE
  7
Standard
  9
$CLAYER
  8
0
  9
$CELTYPE
  6
ByLayer
  9
$CECOLOR
 62
   256
  9
$CELTSCALE
 40
1.0
  9
$DISPSILH
 70
     0
  9
$DIMSCALE
 40
1.0
  9
$DIMASZ
 40
0.18
  9
$DIMEXO
 40
0.0625
  9
$DIMDLI
 40
0.38
  9
$DIMRND
 40
0.0
  9
$DIMDLE
 40
0.0
  9
$DIMEXE
 40
0.18
  9
$DIMTP
 40
0.0
  9
$DIMTM
 40
0.0
  9
$DIMTXT
 40
0.18
  9
$DIMCEN
 40
0.09
  9
$DIMTSZ
 40
0.0
  9
$DIMTOL
 70
     0
  9
$DIMLIM
 70
     0
  9
$DIMTIH
 70
     1
  9
$DIMTOH
 70
     1
  9
$DIMSE1
 70
     0
  9
$DIMSE2
 70
     0
  9
$DIMTAD
 70
     0
  9
$DIMZIN
 70
     0
  9
$DIMBLK
  1

  9
$DIMASO
 70
     1
  9
$DIMSHO
 70
     1
  9
$DIMPOST
  1

  9
$DIMAPOST
  1

  9
$DIMALT
 70
     0
  9
$DIMALTD
 70
     2
  9
$DIMALTF
 40
25.4
  9
$DIMLFAC
 40
1.0
  9
$DIMTOFL
 70
     0
  9
$DIMTVP
 40
0.0
  9
$DIMTIX
 70
     0
  9
$DIMSOXD
 70
     0
  9
$DIMSAH
 70
     0
  9
$DIMBLK1
  1

  9
$DIMBLK2
  1

  9
$DIMSTYLE
  2
Standard
  9
$DIMCLRD
 70
     0
  9
$DIMCLRE
 70
     0
  9
$DIMCLRT
 70
     0
  9
$DIMTFAC
 40
1.0
  9
$DIMGAP
 40
0.09
  9
$DIMJUST
 70
     0
  9
$DIMSD1
 70
     0
  9
$DIMSD2
 70
     0
  9
$DIMTOLJ
 70
     1
  9
$DIMTZIN
 70
     0
  9
$DIMALTZ
 70
     0
  9
$DIMALTTZ
 70
     0
  9
$DIMUPT
 70
     0
  9
$DIMDEC
 70
     4
  9
$DIMTDEC
 70
     4
  9
$DIMALTU
 70
     2
  9
$DIMALTTD
 70
     2
  9
$DIMTXSTY
  7
Standard
  9
$DIMAUNIT
 70
     0
  9
$DIMADEC
 70
     0
  9
$DIMALTRND
 40
0.0
  9
$DIMAZIN
 70
     0
  9
$DIMDSEP
 70
    46
  9
$DIMATFIT
 70
     3
  9
$DIMFRAC
 70
     0
  9
$DIMLDRBLK
  1

  9
$DIMLUNIT
 70
     2
  9
$DIMLWD
 70
    -2
  9
$DIMLWE
 70
    -2
  9
$DIMTMOVE
 70
     0
  9
$LUNITS
 70
     2
  9
$LUPREC
 70
     4
  9
$SKETCHINC
 40
0.1
  9
$FILLETRAD
 40
0.5
  9
$AUNITS
 70
     0
  9
$AUPREC
 70
     0
  9
$MENU
  1
.
  9
$ELEVATION
 40
0.0
  9
$PELEVATION
 40
0.0
  9
$THICKNESS
 40
0.0
  9
$LIMCHECK
 70
     0
  9
$CHAMFERA
 40
0.5
  9
$CHAMFERB
 40
0.5
  9
$CHAMFERC
 40
1.0
  9
$CHAMFERD
 40
0.0
  9
$SKPOLY
 70
     0
  9
$TDCREATE
 40
2457161.537008553
  9
$TDUCREATE
 40
2457161.45367522
  9
$TDUPDATE
 40
2457161.537008565
  9
$TDUUPDATE
 40
2457161.453675231
  9
$TDINDWG
 40
0.0000000116
  9
$TDUSRTIMER
 40
0.0000000116
  9
$USRTIMER
 70
     1
  9
$ANGBASE
 50
0.0
  9
$ANGDIR
 70
     0
  9
$PDMODE
 70
     0
  9
$PDSIZE
 40
0.0
  9
$PLINEWID
 40
0.0
  9
$SPLFRAME
 70
     0
  9
$SPLINETYPE
 70
     6
  9
$SPLINESEGS
 70
     8
  9
$HANDSEED
  5
541
  9
$SURFTAB1
 70
     6
  9
$SURFTAB2
 70
     6
  9
$SURFTYPE
 70
     6
  9
$SURFU
 70
     6
  9
$SURFV
 70
     6
  9
$UCSBASE
  2

  9
$UCSNAME
  2

  9
$UCSORG
 10
0.0
 20
0.0
 30
0.0
  9
$UCSXDIR
 10
1.0
 20
0.0
 30
0.0
  9
$UCSYDIR
 10
0.0
 20
1.0
 30
0.0
  9
$UCSORTHOREF
  2

  9
$UCSORTHOVIEW
 70
     0
  9
$UCSORGTOP
 10
0.0
 20
0.0
 30
0.0
  9
$UCSORGBOTTOM
 10
0.0
 20
0.0
 30
0.0
  9
$UCSORGLEFT
 10
0.0
 20
0.0
 30
0.0
  9
$UCSORGRIGHT
 10
0.0
 20
0.0
 30
0.0
  9
$UCSORGFRONT
 10
0.0
 20
0.0
 30
0.0
  9
$UCSORGBACK
 10
0.0
 20
0.0
 30
0.0
  9
$PUCSBASE
  2

  9
$PUCSNAME
  2

  9
$PUCSORG
 10
0.0
 20
0.0
 30
0.0
  9
$PUCSXDIR
 10
1.0
 20
0.0
 30
0.0
  9
$PUCSYDIR
 10
0.0
 20
1.0
 30
0.0
  9
$PUCSORTHOREF
  2

  9
$PUCSORTHOVIEW
 70
     0
  9
$PUCSORGTOP
 10
0.0
 20
0.0
 30
0.0
  9
$PUCSORGBOTTOM
 10
0.0
 20
0.0
 30
0.0
  9
$PUCSORGLEFT
 10
0.0
 20
0.0
 30
0.0
  9
$PUCSORGRIGHT
 10
0.0
 20
0.0
 30
0.0
  9
$PUCSORGFRONT
 10
0.0
 20
0.0
 30
0.0
  9
$PUCSORGBACK
 10
0.0
 20
0.0
 30
0.0
  9
$USERI1
 70
     0
  9
$USERI2
 70
     0
  9
$USERI3
 70
     0
  9
$USERI4
 70
     0
  9
$USERI5
 70
     0
  9
$USERR1
 40
17.0
  9
$USERR2
 40
0.0
  9
$USERR3
 40
0.0
  9
$USERR4
 40
0.0
  9
$USERR5
 40
0.0
  9
$WORLDVIEW
 70
     1
  9
$SHADEDGE
 70
     3
  9
$SHADEDIF
 70
    70
  9
$TILEMODE
 70
     1
  9
$MAXACTVP
 70
    64
  9
$PINSBASE
 10
0.0
 20
0.0
 30
0.0
  9
$PLIMCHECK
 70
     0
  9
$PEXTMIN
 10
1.00000000000000E+20
 20
1.00000000000000E+20
 30
1.00000000000000E+20
  9
$PEXTMAX
 10
-1.00000000000000E+20
 20
-1.00000000000000E+20
 30
-1.00000000000000E+20
  9
$PLIMMIN
 10
0.0
 20
0.0
  9
$PLIMMAX
 10
12.0
 20
9.0
  9
$UNITMODE
 70
     0
  9
$VISRETAIN
 70
     1
  9
$PLINEGEN
 70
     0
  9
$PSLTSCALE
 70
     1
  9
$TREEDEPTH
 70
  3020
  9
$CMLSTYLE
  2
Standard
  9
$CMLJUST
 70
     0
  9
$CMLSCALE
 40
1.0
  9
$PROXYGRAPHICS
 70
     1
  9
$MEASUREMENT
 70
     1
  9
$CELWEIGHT
370
    -1
  9
$ENDCAPS
280
     0
  9
$JOINSTYLE
280
     0
  9
$LWDISPLAY
290
     0
  9
$INSUNITS
 70
     1
  9
$HYPERLINKBASE
  1

  9
$STYLESHEET
  1

  9
$XEDIT
290
     1
  9
$CEPSNTYPE
380
     0
  9
$PSTYLEMODE
290
     1
  9
$FINGERPRINTGUID
  2
{7B2BC72A-804D-489C-B62A-7AA750634880}
  9
$VERSIONGUID
  2
{FAEB1C32-E019-11D5-929B-00C0DF256EC4}
  9
$EXTNAMES
290
     1
  9
$PSVPSCALE
 40
0.0
  9
$OLESTARTUP
290
     0
  9
$SORTENTS
280
   127
  9
$INDEXCTL
280
     0
  9
$HIDETEXT
280
     1
  9
$XCLIPFRAME
290
     0
  9
$HALOGAP
280
     0
  9
$OBSCOLOR
 70
   257
  9
$OBSLTYPE
280
     0
  9
$INTERSECTIONDISPLAY
280
     0
  9
$INTERSECTIONCOLOR
 70
   257
  9
$DIMASSOC
280
     2
  9
$PROJECTNAME
  1

  0
ENDSEC
  0
SECTION
  2
CLASSES
  0
CLASS
  1
ACDBDICTIONARYWDFLT
  2
AcDbDictionaryWithDefault
  3
ObjectDBX Classes
 90
        0
 91
        4
280
     0
281
     0
  0
CLASS
  1
VISUALSTYLE
  2
AcDbVisualStyle
  3
ObjectDBX Classes
 90
     4095
 91
        4
280
     0
281
     0
  0
CLASS
  1
MATERIAL
  2
AcDbMaterial
  3
ObjectDBX Classes
 90
     1153
 91
        4
280
     0
281
     0
  0
CLASS
  1
SCALE
  2
AcDbScale
  3
ObjectDBX Classes
 90
     1153
 91
        4
280
     0
281
     0
  0
CLASS
  1

  2
exOdDbCircle
  3

 90
        0
 91
        4
280
     0
281
     1
  0
CLASS
  1

  2
exOdDbPolyline
  3

 90
        0
 91
        4
280
     0
281
     1
  0
CLASS
  1
DICTIONARYVAR
  2
AcDbDictionaryVar
  3
ObjectDBX Classes
 90
        0
 91
        4
280
     0
281
     0
  0
ENDSEC
  0
SECTION
  2
TABLES
  0
TABLE
  2
VPORT
  5
8
330
0
100
AcDbSymbolTable
 70
     1
  0
VPORT
  5
29
330
8
100
AcDbSymbolTableRecord
100
AcDbViewportTableRecord
  2
*Active
 70
     0
 10
0.0
 20
0.0
 11
1.0
 21
1.0
 12
61.24460598886071
 22
53.21274456824177
 13
0.0
 23
0.0
 14
0.5
 24
0.5
 15
0.5
 25
0.5
 16
0.0
 26
0.0
 36
1.0
 17
0.0
 27
0.0
 37
0.0
 40
326.7
 41
1.60267857142857
 42
50.0
 43
0.0
 44
0.0
 50
0.0
 51
0.0
 71
     0
 72
   100
 73
     1
 74
     3
 75
     0
 76
     0
 77
     0
 78
     0
281
     0
 65
     1
110
0.0
120
0.0
130
0.0
111
1.0
121
0.0
131
0.0
112
0.0
122
1.0
132
0.0
 79
     0
146
0.0
  0
ENDTAB
  0
TABLE
  2
LTYPE
  5
5
330
0
100
AcDbSymbolTable
 70
     8
  0
LTYPE
  5
14
330
5
100
AcDbSymbolTableRecord
100
AcDbLinetypeTableRecord
  2
ByBlock
 70
     0
  3

 72
    65
 73
     0
 40
0.0
  0
LTYPE
  5
15
330
5
100
AcDbSymbolTableRecord
100
AcDbLinetypeTableRecord
  2
ByLayer
 70
     0
  3

 72
    65
 73
     0
 40
0.0
  0
LTYPE
  5
16
330
5
100
AcDbSymbolTableRecord
100
AcDbLinetypeTableRecord
  2
Continuous
 70
     0
  3
Solid line
 72
    65
 73
     0
 40
0.0
  0
LTYPE
  5
3F
330
5
100
AcDbSymbolTableRecord
100
AcDbLinetypeTableRecord
  2
DASHED
 70
     0
  3
Dashed
 72
    65
 73
     2
 40
15.0
 49
7.0
 74
     0
 49
-8.0
 74
     0
  0
LTYPE
  5
40
330
5
100
AcDbSymbolTableRecord
100
AcDbLinetypeTableRecord
  2
DOTTED
 70
     0
  3
Dotted
 72
    65
 73
     2
 40
1.0
 49
0.0
 74
     0
 49
-1.0
 74
     0
  0
LTYPE
  5
41
330
5
100
AcDbSymbolTableRecord
100
AcDbLinetypeTableRecord
  2
DOT_CENTER
 70
     0
  3
Dot_Center
 72
    65
 73
     4
 40
14.0
 49
12.0
 74
     0
 49
-1.0
 74
     0
 49
0.0
 74
     0
 49
-1.0
 74
     0
  0
LTYPE
  5
42
330
5
100
AcDbSymbolTableRecord
100
AcDbLinetypeTableRecord
  2
LONG_DASHED
 70
     0
  3
Long_Dashed
 72
    65
 73
     2
 40
15.0
 49
10.0
 74
     0
 49
-5.0
 74
     0
  0
LTYPE
  5
43
330
5
100
AcDbSymbolTableRecord
100
AcDbLinetypeTableRecord
  2
DASH_CENTER
 70
     0
  3
Dash_Center
 72
    65
 73
     4
 40
14.0
 49
11.0
 74
     0
 49
-1.0
 74
     0
 49
1.0
 74
     0
 49
-1.0
 74
     0
  0
LTYPE
  5
44
330
5
100
AcDbSymbolTableRecord
100
AcDbLinetypeTableRecord
  2
PHANTOM
 70
     0
  3
Phantom
 72
    65
 73
     6
 40
13.0
 49
10.0
 74
     0
 49
-1.0
 74
     0
 49
0.0
 74
     0
 49
-1.0
 74
     0
 49
0.0
 74
     0
 49
-1.0
 74
     0
  0
LTYPE
  5
45
330
5
100
AcDbSymbolTableRecord
100
AcDbLinetypeTableRecord
  2
CENTER_DASH_DASH
 70
     0
  3
Center_Dash_Dash
 72
    65
 73
     6
 40
14.0
 49
9.0
 74
     0
 49
-1.0
 74
     0
 49
1.0
 74
     0
 49
-1.0
 74
     0
 49
1.0
 74
     0
 49
-1.0
 74
     0
  0
ENDTAB
  0
TABLE
  2
LAYER
  5
2
330
0
100
AcDbSymbolTable
 70
     6
  0
LAYER
  5
10
330
2
100
AcDbSymbolTableRecord
100
AcDbLayerTableRecord
  2
0
 70
     0
 62
     7
  6
Continuous
370
    -3
390
F
  0
LAYER
  5
46
330
2
100
AcDbSymbolTableRecord
100
AcDbLayerTableRecord
  2
1
 70
     0
 62
     7
  6
Continuous
370
    -3
390
F
  0
LAYER
  5
47
330
2
100
AcDbSymbolTableRecord
100
AcDbLayerTableRecord
  2
Z1
 70
     0
 62
     7
  6
Continuous
370
    -3
390
F
  0
LAYER
  5
48
330
2
100
AcDbSymbolTableRecord
100
AcDbLayerTableRecord
  2
Z2
 70
     0
 62
     7
  6
Continuous
370
    -3
390
F
  0
LAYER
  5
49
330
2
100
AcDbSymbolTableRecord
100
AcDbLayerTableRecord
  2
Z4
 70
     0
 62
     7
  6
Continuous
370
    -3
390
F
  0
LAYER
  5
4A
330
2
100
AcDbSymbolTableRecord
100
AcDbLayerTableRecord
  2
Z5
 70
     0
 62
     7
  6
Continuous
370
    -3
390
F
  0
ENDTAB
  0
TABLE
  2
STYLE
  5
3
330
0
100
AcDbSymbolTable
 70
    11
  0
STYLE
  5
11
330
3
100
AcDbSymbolTableRecord
100
AcDbTextStyleTableRecord
  2
Standard
 70
     0
 40
0.0
 41
1.0
 50
0.0
 71
     0
 42
0.2
  3
txt
  4

  0
STYLE
  5
1CF
330
3
100
AcDbSymbolTableRecord
100
AcDbTextStyleTableRecord
  2
CONVERTER_11
 70
     0
 40
0.0
 41
0.72
 50
0.0
 71
     0
 42
0.2
  3
txt.shx
  4

  0
STYLE
  5
1D1
330
3
100
AcDbSymbolTableRecord
100
AcDbTextStyleTableRecord
  2
CONVERTER_12
 70
     0
 40
0.0
 41
0.9
 50
0.0
 71
     0
 42
0.2
  3
txt.shx
  4

  0
STYLE
  5
433
330
3
100
AcDbSymbolTableRecord
100
AcDbTextStyleTableRecord
  2
CONVERTER_13
 70
     0
 40
0.0
 41
0.7125
 50
0.0
 71
     0
 42
0.2
  3
complex.shx
  4

  0
STYLE
  5
435
330
3
100
AcDbSymbolTableRecord
100
AcDbTextStyleTableRecord
  2
CONVERTER_14
 70
     0
 40
0.0
 41
0.76
 50
0.0
 71
     0
 42
0.2
  3
complex.shx
  4

  0
STYLE
  5
4DF
330
3
100
AcDbSymbolTableRecord
100
AcDbTextStyleTableRecord
  2
CONVERTER_15
 70
     0
 40
0.0
 41
0.63
 50
0.0
 71
     0
 42
0.2
  3
txt.shx
  4

  0
STYLE
  5
4E2
330
3
100
AcDbSymbolTableRecord
100
AcDbTextStyleTableRecord
  2
CONVERTER_16
 70
     0
 40
0.0
 41
0.585
 50
0.0
 71
     0
 42
0.2
  3
txt.shx
  4

  0
STYLE
  5
4EE
330
3
100
AcDbSymbolTableRecord
100
AcDbTextStyleTableRecord
  2
CONVERTER_17
 70
     0
 40
0.0
 41
0.8415
 50
0.0
 71
     0
 42
0.2
  3
txt.shx
  4

  0
STYLE
  5
4F9
330
3
100
AcDbSymbolTableRecord
100
AcDbTextStyleTableRecord
  2
CONVERTER_18
 70
     0
 40
0.0
 41
0.675
 50
0.0
 71
     0
 42
0.2
  3
txt.shx
  4

  0
STYLE
  5
4FD
330
3
100
AcDbSymbolTableRecord
100
AcDbTextStyleTableRecord
  2
CONVERTER_19
 70
     0
 40
0.0
 41
0.7425
 50
0.0
 71
     0
 42
0.2
  3
txt.shx
  4

  0
STYLE
  5
511
330
3
100
AcDbSymbolTableRecord
100
AcDbTextStyleTableRecord
  2
CONVERTER_20
 70
     0
 40
0.0
 41
0.95
 50
0.0
 71
     0
 42
0.2
  3
complex.shx
  4

  0
ENDTAB
  0
TABLE
  2
VIEW
  5
6
330
0
100
AcDbSymbolTable
 70
     0
  0
ENDTAB
  0
TABLE
  2
UCS
  5
7
330
0
100
AcDbSymbolTable
 70
     0
  0
ENDTAB
  0
TABLE
  2
APPID
  5
9
330
0
100
AcDbSymbolTable
 70
     1
  0
APPID
  5
12
330
9
100
AcDbSymbolTableRecord
100
AcDbRegAppTableRecord
  2
ACAD
 70
     0
  0
ENDTAB
  0
TABLE
  2
DIMSTYLE
  5
A
330
0
100
AcDbSymbolTable
 70
    42
100
AcDbDimStyleTable
  0
DIMSTYLE
105
27
330
A
100
AcDbSymbolTableRecord
100
AcDbDimStyleTableRecord
  2
Standard
 70
     0
340
11
  0
DIMSTYLE
105
1E2
102
{ACAD_REACTORS
330
1E3
102
}
330
A
100
AcDbSymbolTableRecord
100
AcDbDimStyleTableRecord
  2
ME10_DIM_10
 70
     0
 41
10.0
 42
0.0
 44
2.5
 73
     0
 74
     0
 77
     1
 78
     8
140
6.25
147
2.5
172
     1
173
     1
174
     1
175
     1
176
     3
177
     3
178
     3
271
     3
340
1D1
  0
DIMSTYLE
105
1EE
102
{ACAD_REACTORS
330
1EF
102
}
330
A
100
AcDbSymbolTableRecord
100
AcDbDimStyleTableRecord
  2
ME10_DIM_11
 70
     0
 41
10.0
 42
0.0
 44
2.5
 73
     0
 74
     0
 77
     1
 78
     8
140
6.25
147
2.5
172
     1
173
     1
174
     1
175
     1
176
     3
177
     3
178
     3
271
     3
340
1D1
  0
DIMSTYLE
105
1FD
102
{ACAD_REACTORS
330
1FE
102
}
330
A
100
AcDbSymbolTableRecord
100
AcDbDimStyleTableRecord
  2
ME10_DIM_12
 70
     0
 41
10.0
 42
0.0
 44
2.5
 73
     0
 74
     0
 77
     1
 78
     8
140
6.25
147
2.5
172
     1
173
     1
174
     1
175
     1
176
     3
177
     3
178
     3
271
     3
340
1D1
  0
DIMSTYLE
105
209
102
{ACAD_REACTORS
330
20A
102
}
330
A
100
AcDbSymbolTableRecord
100
AcDbDimStyleTableRecord
  2
ME10_DIM_13
 70
     0
 41
10.0
 42
0.0
 44
2.5
 73
     0
 74
     0
 77
     1
 78
     8
140
6.25
147
2.5
172
     1
173
     1
174
     1
175
     1
176
     3
177
     3
178
     3
271
     3
340
1D1
  0
DIMSTYLE
105
214
102
{ACAD_REACTORS
330
215
102
}
330
A
100
AcDbSymbolTableRecord
100
AcDbDimStyleTableRecord
  2
ME10_DIM_14
 70
     0
 41
10.0
 42
0.0
 44
2.5
 73
     0
 74
     0
 77
     1
 78
     8
140
6.25
147
2.5
172
     1
173
     1
174
     1
175
     1
176
     3
177
     3
178
     3
271
     3
340
1D1
  0
DIMSTYLE
105
223
102
{ACAD_REACTORS
330
224
102
}
330
A
100
AcDbSymbolTableRecord
100
AcDbDimStyleTableRecord
  2
ME10_DIM_15
 70
     0
  3
\U+25A0<>
 41
10.0
 42
0.0
 44
2.5
 73
     0
 74
     0
 77
     1
 78
     8
140
6.25
147
2.5
172
     1
173
     1
174
     1
175
     1
176
     3
177
     3
178
     3
271
     3
340
1D1
  0
DIMSTYLE
105
230
102
{ACAD_REACTORS
330
231
102
}
330
A
100
AcDbSymbolTableRecord
100
AcDbDimStyleTableRecord
  2
ME10_DIM_16
 70
     0
 41
10.0
 42
0.0
 44
2.5
 73
     0
 74
     0
 77
     1
 78
     8
140
6.25
147
2.5
172
     1
173
     1
174
     1
175
     1
176
     3
177
     3
178
     3
271
     3
340
1D1
  0
DIMSTYLE
105
23E
102
{ACAD_REACTORS
330
23F
102
}
330
A
100
AcDbSymbolTableRecord
100
AcDbDimStyleTableRecord
  2
ME10_DIM_17
 70
     0
 41
10.0
 42
0.0
 44
2.5
 73
     0
 74
     0
 77
     1
 78
     8
140
6.25
147
2.5
172
     1
173
     1
174
     1
175
     1
176
     3
177
     3
178
     3
271
     3
340
1D1
  0
DIMSTYLE
105
24B
102
{ACAD_REACTORS
330
24C
102
}
330
A
100
AcDbSymbolTableRecord
100
AcDbDimStyleTableRecord
  2
ME10_DIM_18
 70
     0
 41
10.0
 42
0.0
 44
2.5
 73
     0
 74
     0
 77
     1
 78
     8
140
6.25
147
2.5
172
     1
173
     1
174
     1
175
     1
176
     3
177
     3
178
     3
271
     3
340
1D1
  0
DIMSTYLE
105
258
102
{ACAD_REACTORS
330
259
102
}
330
A
100
AcDbSymbolTableRecord
100
AcDbDimStyleTableRecord
  2
ME10_DIM_19
 70
     0
 41
10.0
 42
0.0
 44
2.5
 73
     0
 74
     0
 77
     1
 78
     8
140
6.25
147
2.5
172
     1
173
     1
174
     1
175
     1
176
     3
177
     3
178
     3
271
     3
340
1D1
  0
DIMSTYLE
105
267
102
{ACAD_REACTORS
330
268
102
}
330
A
100
AcDbSymbolTableRecord
100
AcDbDimStyleTableRecord
  2
ME10_DIM_20
 70
     0
 41
10.0
 42
0.0
 44
2.5
 73
     0
 74
     0
 77
     1
 78
     8
140
6.25
147
2.5
172
     1
173
     1
174
     1
175
     1
176
     3
177
     3
178
     3
271
     3
340
1D1
  0
DIMSTYLE
105
275
102
{ACAD_REACTORS
330
276
102
}
330
A
100
AcDbSymbolTableRecord
100
AcDbDimStyleTableRecord
  2
ME10_DIM_21
 70
     0
 41
10.0
 42
0.0
 44
2.5
 73
     0
 74
     0
 77
     1
 78
     8
140
6.25
147
2.5
172
     1
173
     1
174
     1
175
     1
176
     3
177
     3
178
     3
271
     3
340
1D1
  0
DIMSTYLE
105
283
102
{ACAD_REACTORS
330
284
102
}
330
A
100
AcDbSymbolTableRecord
100
AcDbDimStyleTableRecord
  2
ME10_DIM_22
 70
     0
 41
10.0
 42
0.0
 44
2.5
 73
     0
 74
     0
 77
     1
 78
     8
140
6.25
147
2.5
172
     1
173
     1
174
     1
175
     1
176
     3
177
     3
178
     3
271
     3
340
1D1
  0
DIMSTYLE
105
290
102
{ACAD_REACTORS
330
291
102
}
330
A
100
AcDbSymbolTableRecord
100
AcDbDimStyleTableRecord
  2
ME10_DIM_23
 70
     0
 41
10.0
 42
0.0
 44
2.5
 73
     0
 74
     0
 77
     1
 78
     8
140
6.25
147
2.5
172
     1
173
     1
174
     1
175
     1
176
     3
177
     3
178
     3
271
     3
340
1D1
  0
DIMSTYLE
105
29D
102
{ACAD_REACTORS
330
29E
102
}
330
A
100
AcDbSymbolTableRecord
100
AcDbDimStyleTableRecord
  2
ME10_DIM_24
 70
     0
 41
10.0
 42
0.0
 44
2.5
 73
     0
 74
     0
 77
     1
 78
     8
140
6.25
147
2.5
172
     1
173
     1
174
     1
175
     1
176
     3
177
     3
178
     3
271
     3
340
1D1
  0
DIMSTYLE
105
2A9
102
{ACAD_REACTORS
330
2AA
102
}
330
A
100
AcDbSymbolTableRecord
100
AcDbDimStyleTableRecord
  2
ME10_DIM_25
 70
     0
 41
10.0
 42
0.0
 44
2.5
 73
     0
 74
     0
 77
     1
 78
     8
140
6.25
147
2.5
172
     1
173
     1
174
     1
175
     1
176
     3
177
     3
178
     3
271
     3
340
1D1
  0
DIMSTYLE
105
2BE
102
{ACAD_REACTORS
330
2BF
102
}
330
A
100
AcDbSymbolTableRecord
100
AcDbDimStyleTableRecord
  2
ME10_DIM_26
 70
     0
 41
10.0
 42
0.0
 44
2.5
 73
     0
 74
     0
 77
     1
 78
     8
140
6.25
147
2.5
172
     1
173
     1
174
     1
175
     1
176
     3
177
     3
178
     3
271
     3
340
1D1
343
2B6
  0
DIMSTYLE
105
2CB
102
{ACAD_REACTORS
330
2CC
102
}
330
A
100
AcDbSymbolTableRecord
100
AcDbDimStyleTableRecord
  2
ME10_DIM_27
 70
     0
 41
2.5
 42
0.0
 44
2.5
 73
     0
 74
     0
 77
     1
 78
     8
140
6.25
147
2.5
172
     1
173
     1
174
     1
175
     1
176
     3
177
     3
178
     3
271
     3
340
1D1
344
2B6
  0
DIMSTYLE
105
2D7
102
{ACAD_REACTORS
330
2D8
102
}
330
A
100
AcDbSymbolTableRecord
100
AcDbDimStyleTableRecord
  2
ME10_DIM_28
 70
     0
 41
10.0
 42
0.0
 44
2.5
 73
     0
 74
     0
 77
     1
 78
     8
140
6.25
147
2.5
172
     1
173
     1
174
     1
175
     1
176
     3
177
     3
178
     3
271
     3
340
1D1
  0
DIMSTYLE
105
2E4
102
{ACAD_REACTORS
330
2E5
102
}
330
A
100
AcDbSymbolTableRecord
100
AcDbDimStyleTableRecord
  2
ME10_DIM_29
 70
     0
 41
10.0
 42
0.0
 44
2.5
 73
     0
 74
     0
 77
     1
 78
     8
140
6.25
147
2.5
172
     1
173
     1
174
     1
175
     1
176
     3
177
     3
178
     3
271
     3
340
1D1
  0
DIMSTYLE
105
2F1
102
{ACAD_REACTORS
330
2F2
102
}
330
A
100
AcDbSymbolTableRecord
100
AcDbDimStyleTableRecord
  2
ME10_DIM_30
 70
     0
 41
10.0
 42
0.0
 44
2.5
 73
     0
 74
     0
 77
     1
 78
     8
140
6.25
147
2.5
172
     1
173
     1
174
     1
175
     1
176
     3
177
     3
178
     3
271
     3
340
1D1
  0
DIMSTYLE
105
2FE
102
{ACAD_REACTORS
330
2FF
102
}
330
A
100
AcDbSymbolTableRecord
100
AcDbDimStyleTableRecord
  2
ME10_DIM_31
 70
     0
 41
10.0
 42
0.0
 44
2.5
 73
     0
 74
     0
 77
     1
 78
     8
140
6.25
147
2.5
172
     1
173
     1
174
     1
175
     1
176
     3
177
     3
178
     3
271
     3
340
1D1
  0
DIMSTYLE
105
30B
102
{ACAD_REACTORS
330
30C
102
}
330
A
100
AcDbSymbolTableRecord
100
AcDbDimStyleTableRecord
  2
ME10_DIM_32
 70
     0
 41
10.0
 42
0.0
 44
2.5
 73
     0
 74
     0
 77
     1
 78
     8
140
6.25
147
2.5
172
     1
173
     1
174
     1
175
     1
176
     3
177
     3
178
     3
271
     3
340
1D1
  0
DIMSTYLE
105
318
102
{ACAD_REACTORS
330
319
102
}
330
A
100
AcDbSymbolTableRecord
100
AcDbDimStyleTableRecord
  2
ME10_DIM_33
 70
     0
 41
10.0
 42
0.0
 44
2.5
 73
     0
 74
     0
 77
     1
 78
     8
140
6.25
147
2.5
172
     1
173
     1
174
     1
175
     1
176
     3
177
     3
178
     3
271
     3
340
1D1
  0
DIMSTYLE
105
325
102
{ACAD_REACTORS
330
326
102
}
330
A
100
AcDbSymbolTableRecord
100
AcDbDimStyleTableRecord
  2
ME10_DIM_34
 70
     0
 41
10.0
 42
0.0
 44
2.5
 73
     0
 74
     0
 77
     1
 78
     8
140
6.25
147
2.5
172
     1
173
     1
174
     1
175
     1
176
     3
177
     3
178
     3
271
     3
340
1D1
  0
DIMSTYLE
105
332
102
{ACAD_REACTORS
330
333
102
}
330
A
100
AcDbSymbolTableRecord
100
AcDbDimStyleTableRecord
  2
ME10_DIM_35
 70
     0
 41
10.0
 42
0.0
 44
2.5
 73
     0
 74
     0
 77
     1
 78
     8
140
6.25
147
2.5
172
     1
173
     1
174
     1
175
     1
176
     3
177
     3
178
     3
271
     3
340
1D1
  0
DIMSTYLE
105
33F
102
{ACAD_REACTORS
330
340
102
}
330
A
100
AcDbSymbolTableRecord
100
AcDbDimStyleTableRecord
  2
ME10_DIM_36
 70
     0
 41
10.0
 42
0.0
 44
2.5
 73
     0
 74
     0
 77
     1
 78
     8
140
6.25
147
2.5
172
     1
173
     1
174
     1
175
     1
176
     3
177
     3
178
     3
271
     3
340
1D1
  0
DIMSTYLE
105
34C
102
{ACAD_REACTORS
330
34D
102
}
330
A
100
AcDbSymbolTableRecord
100
AcDbDimStyleTableRecord
  2
ME10_DIM_37
 70
     0
 41
10.0
 42
0.0
 44
2.5
 73
     0
 74
     0
 77
     1
 78
     8
140
6.25
147
2.5
172
     1
173
     1
174
     1
175
     1
176
     3
177
     3
178
     3
271
     3
340
1D1
  0
DIMSTYLE
105
35A
102
{ACAD_REACTORS
330
35B
102
}
330
A
100
AcDbSymbolTableRecord
100
AcDbDimStyleTableRecord
  2
ME10_DIM_38
 70
     0
 41
10.0
 42
0.0
 44
2.5
 73
     0
 74
     0
 77
     1
 78
     8
140
6.25
147
2.5
172
     1
173
     1
174
     1
175
     1
176
     3
177
     3
178
     3
271
     3
340
1D1
  0
DIMSTYLE
105
368
102
{ACAD_REACTORS
330
369
102
}
330
A
100
AcDbSymbolTableRecord
100
AcDbDimStyleTableRecord
  2
ME10_DIM_39
 70
     0
 41
10.0
 42
0.0
 44
2.5
 73
     0
 74
     0
 77
     1
 78
     8
140
6.25
147
2.5
172
     1
173
     1
174
     1
175
     1
176
     3
177
     3
178
     3
271
     3
340
1D1
  0
DIMSTYLE
105
375
102
{ACAD_REACTORS
330
376
102
}
330
A
100
AcDbSymbolTableRecord
100
AcDbDimStyleTableRecord
  2
ME10_DIM_40
 70
     0
 41
10.0
 42
0.0
 44
2.5
 73
     0
 74
     0
 77
     1
 78
     8
140
6.25
147
2.5
172
     1
173
     1
174
     1
175
     1
176
     3
177
     3
178
     3
271
     3
340
1D1
  0
DIMSTYLE
105
383
102
{ACAD_REACTORS
330
384
102
}
330
A
100
AcDbSymbolTableRecord
100
AcDbDimStyleTableRecord
  2
ME10_DIM_41
 70
     0
 41
10.0
 42
0.0
 44
2.5
 73
     0
 74
     0
 77
     1
 78
     8
140
6.25
147
2.5
172
     1
173
     1
174
     1
175
     1
176
     3
177
     3
178
     3
271
     3
340
1D1
  0
DIMSTYLE
105
38E
102
{ACAD_REACTORS
330
38F
102
}
330
A
100
AcDbSymbolTableRecord
100
AcDbDimStyleTableRecord
  2
ME10_DIM_42
 70
     0
 41
10.0
 42
0.0
 44
2.5
 73
     0
 74
     0
 77
     1
 78
     8
140
6.25
147
2.5
172
     1
173
     1
174
     1
175
     1
176
     3
177
     3
178
     3
271
     3
340
1D1
  0
DIMSTYLE
105
39B
102
{ACAD_REACTORS
330
39C
102
}
330
A
100
AcDbSymbolTableRecord
100
AcDbDimStyleTableRecord
  2
ME10_DIM_43
 70
     0
 41
10.0
 42
0.0
 44
2.5
 73
     0
 74
     0
 77
     1
 78
     8
140
6.25
147
2.5
172
     1
173
     1
174
     1
175
     1
176
     3
177
     3
178
     3
271
     3
340
1D1
  0
DIMSTYLE
105
3AB
102
{ACAD_REACTORS
330
3AC
102
}
330
A
100
AcDbSymbolTableRecord
100
AcDbDimStyleTableRecord
  2
ME10_DIM_44
 70
     0
 41
10.0
 42
0.0
 44
2.5
 73
     0
 74
     0
 77
     1
 78
     8
140
6.25
147
2.5
172
     1
173
     1
174
     1
175
     1
176
     3
177
     3
178
     3
271
     3
340
1D1
  0
DIMSTYLE
105
3B6
102
{ACAD_REACTORS
330
3B7
102
}
330
A
100
AcDbSymbolTableRecord
100
AcDbDimStyleTableRecord
  2
ME10_DIM_45
 70
     0
 41
10.0
 42
0.0
 44
2.5
 73
     0
 74
     0
 77
     1
 78
     8
140
6.25
147
2.5
172
     1
173
     1
174
     1
175
     1
176
     3
177
     3
178
     3
271
     3
340
1D1
  0
DIMSTYLE
105
3C1
102
{ACAD_REACTORS
330
3C2
102
}
330
A
100
AcDbSymbolTableRecord
100
AcDbDimStyleTableRecord
  2
ME10_DIM_46
 70
     0
 41
10.0
 42
0.0
 44
2.5
 73
     0
 74
     0
 77
     1
 78
     8
140
6.25
147
2.5
172
     1
173
     1
174
     1
175
     1
176
     3
177
     3
178
     3
271
     3
340
1D1
  0
DIMSTYLE
105
3CF
102
{ACAD_REACTORS
330
3D0
102
}
330
A
100
AcDbSymbolTableRecord
100
AcDbDimStyleTableRecord
  2
ME10_DIM_47
 70
     0
 41
10.0
 42
0.0
 44
2.5
 73
     0
 74
     0
 77
     1
 78
     8
140
6.25
147
2.5
172
     1
173
     1
174
     1
175
     1
176
     3
177
     3
178
     3
271
     3
340
1D1
  0
DIMSTYLE
105
3DB
102
{ACAD_REACTORS
330
3DC
102
}
330
A
100
AcDbSymbolTableRecord
100
AcDbDimStyleTableRecord
  2
ME10_DIM_48
 70
     0
 41
10.0
 42
0.0
 44
2.5
 73
     0
 74
     0
 77
     1
 78
     8
140
6.25
147
2.5
172
     1
173
     1
174
     1
175
     1
176
     3
177
     3
178
     3
271
     3
340
1D1
  0
DIMSTYLE
105
3E8
102
{ACAD_REACTORS
330
3E9
102
}
330
A
100
AcDbSymbolTableRecord
100
AcDbDimStyleTableRecord
  2
ME10_DIM_49
 70
     0
 41
10.0
 42
0.0
 44
2.5
 73
     0
 74
     0
 77
     1
 78
     8
140
6.25
147
2.5
172
     1
173
     1
174
     1
175
     1
176
     3
177
     3
178
     3
271
     3
340
1D1
  0
DIMSTYLE
105
3F3
102
{ACAD_REACTORS
330
3F4
102
}
330
A
100
AcDbSymbolTableRecord
100
AcDbDimStyleTableRecord
  2
ME10_DIM_50
 70
     0
 41
10.0
 42
0.0
 44
2.5
 73
     0
 74
     0
 77
     1
 78
     8
140
6.25
147
2.5
172
     1
173
     1
174
     1
175
     1
176
     3
177
     3
178
     3
271
     3
340
1D1
  0
ENDTAB
  0
TABLE
  2
BLOCK_RECORD
  5
1
330
0
100
AcDbSymbolTable
 70
    52
  0
BLOCK_RECORD
  5
1F
330
1
100
AcDbSymbolTableRecord
100
AcDbBlockTableRecord
  2
*Model_Space
340
22
  0
BLOCK_RECORD
  5
1B
330
1
100
AcDbSymbolTableRecord
100
AcDbBlockTableRecord
  2
*Paper_Space
340
1E
  0
BLOCK_RECORD
  5
23
330
1
100
AcDbSymbolTableRecord
100
AcDbBlockTableRecord
  2
*Paper_Space0
340
26
  0
BLOCK_RECORD
  5
4B
330
1
100
AcDbSymbolTableRecord
100
AcDbBlockTableRecord
  2
Einfügen1
340
0
102
{BLKREFS
331
78
102
}
  0
BLOCK_RECORD
  5
4E
330
1
100
AcDbSymbolTableRecord
100
AcDbBlockTableRecord
  2
_rahmen
340
0
102
{BLKREFS
331
74
102
}
  0
BLOCK_RECORD
  5
51
330
1
100
AcDbSymbolTableRecord
100
AcDbBlockTableRecord
  2
_sfeld_rahmen_A4h_KD
340
0
102
{BLKREFS
331
79
102
}
  0
BLOCK_RECORD
  5
77
330
1
100
AcDbSymbolTableRecord
100
AcDbBlockTableRecord
  2
1
340
0
102
{BLKREFS
331
7C
102
}
  0
BLOCK_RECORD
  5
1D7
330
1
100
AcDbSymbolTableRecord
100
AcDbBlockTableRecord
  2
*D5
340
0
  0
BLOCK_RECORD
  5
1E4
330
1
100
AcDbSymbolTableRecord
100
AcDbBlockTableRecord
  2
*D6
340
0
  0
BLOCK_RECORD
  5
1F0
330
1
100
AcDbSymbolTableRecord
100
AcDbBlockTableRecord
  2
*D7
340
0
  0
BLOCK_RECORD
  5
1FF
330
1
100
AcDbSymbolTableRecord
100
AcDbBlockTableRecord
  2
*D8
340
0
  0
BLOCK_RECORD
  5
20B
330
1
100
AcDbSymbolTableRecord
100
AcDbBlockTableRecord
  2
*D9
340
0
  0
BLOCK_RECORD
  5
216
330
1
100
AcDbSymbolTableRecord
100
AcDbBlockTableRecord
  2
*D10
340
0
  0
BLOCK_RECORD
  5
225
330
1
100
AcDbSymbolTableRecord
100
AcDbBlockTableRecord
  2
*D11
340
0
  0
BLOCK_RECORD
  5
232
330
1
100
AcDbSymbolTableRecord
100
AcDbBlockTableRecord
  2
*D12
340
0
  0
BLOCK_RECORD
  5
240
330
1
100
AcDbSymbolTableRecord
100
AcDbBlockTableRecord
  2
*D13
340
0
  0
BLOCK_RECORD
  5
24D
330
1
100
AcDbSymbolTableRecord
100
AcDbBlockTableRecord
  2
*D14
340
0
  0
BLOCK_RECORD
  5
25A
330
1
100
AcDbSymbolTableRecord
100
AcDbBlockTableRecord
  2
*D15
340
0
  0
BLOCK_RECORD
  5
269
330
1
100
AcDbSymbolTableRecord
100
AcDbBlockTableRecord
  2
*D16
340
0
  0
BLOCK_RECORD
  5
277
330
1
100
AcDbSymbolTableRecord
100
AcDbBlockTableRecord
  2
*D17
340
0
  0
BLOCK_RECORD
  5
285
330
1
100
AcDbSymbolTableRecord
100
AcDbBlockTableRecord
  2
*D18
340
0
  0
BLOCK_RECORD
  5
292
330
1
100
AcDbSymbolTableRecord
100
AcDbBlockTableRecord
  2
*D19
340
0
  0
BLOCK_RECORD
  5
29F
330
1
100
AcDbSymbolTableRecord
100
AcDbBlockTableRecord
  2
*D20
340
0
  0
BLOCK_RECORD
  5
2AB
330
1
100
AcDbSymbolTableRecord
100
AcDbBlockTableRecord
  2
*D21
340
0
  0
BLOCK_RECORD
  5
2B6
330
1
100
AcDbSymbolTableRecord
100
AcDbBlockTableRecord
  2
_DOT
340
0
  0
BLOCK_RECORD
  5
2C0
330
1
100
AcDbSymbolTableRecord
100
AcDbBlockTableRecord
  2
*D23
340
0
  0
BLOCK_RECORD
  5
2CD
330
1
100
AcDbSymbolTableRecord
100
AcDbBlockTableRecord
  2
*D24
340
0
  0
BLOCK_RECORD
  5
2D9
330
1
100
AcDbSymbolTableRecord
100
AcDbBlockTableRecord
  2
*D25
340
0
  0
BLOCK_RECORD
  5
2E6
330
1
100
AcDbSymbolTableRecord
100
AcDbBlockTableRecord
  2
*D26
340
0
  0
BLOCK_RECORD
  5
2F3
330
1
100
AcDbSymbolTableRecord
100
AcDbBlockTableRecord
  2
*D27
340
0
  0
BLOCK_RECORD
  5
300
330
1
100
AcDbSymbolTableRecord
100
AcDbBlockTableRecord
  2
*D28
340
0
  0
BLOCK_RECORD
  5
30D
330
1
100
AcDbSymbolTableRecord
100
AcDbBlockTableRecord
  2
*D29
340
0
  0
BLOCK_RECORD
  5
31A
330
1
100
AcDbSymbolTableRecord
100
AcDbBlockTableRecord
  2
*D30
340
0
  0
BLOCK_RECORD
  5
327
330
1
100
AcDbSymbolTableRecord
100
AcDbBlockTableRecord
  2
*D31
340
0
  0
BLOCK_RECORD
  5
334
330
1
100
AcDbSymbolTableRecord
100
AcDbBlockTableRecord
  2
*D32
340
0
  0
BLOCK_RECORD
  5
341
330
1
100
AcDbSymbolTableRecord
100
AcDbBlockTableRecord
  2
*D33
340
0
  0
BLOCK_RECORD
  5
34E
330
1
100
AcDbSymbolTableRecord
100
AcDbBlockTableRecord
  2
*D34
340
0
  0
BLOCK_RECORD
  5
35C
330
1
100
AcDbSymbolTableRecord
100
AcDbBlockTableRecord
  2
*D35
340
0
  0
BLOCK_RECORD
  5
36A
330
1
100
AcDbSymbolTableRecord
100
AcDbBlockTableRecord
  2
*D36
340
0
  0
BLOCK_RECORD
  5
377
330
1
100
AcDbSymbolTableRecord
100
AcDbBlockTableRecord
  2
*D37
340
0
  0
BLOCK_RECORD
  5
385
330
1
100
AcDbSymbolTableRecord
100
AcDbBlockTableRecord
  2
*D38
340
0
  0
BLOCK_RECORD
  5
390
330
1
100
AcDbSymbolTableRecord
100
AcDbBlockTableRecord
  2
*D39
340
0
  0
BLOCK_RECORD
  5
39D
330
1
100
AcDbSymbolTableRecord
100
AcDbBlockTableRecord
  2
*D40
340
0
  0
BLOCK_RECORD
  5
3AD
330
1
100
AcDbSymbolTableRecord
100
AcDbBlockTableRecord
  2
*D41
340
0
  0
BLOCK_RECORD
  5
3B8
330
1
100
AcDbSymbolTableRecord
100
AcDbBlockTableRecord
  2
*D42
340
0
  0
BLOCK_RECORD
  5
3C3
330
1
100
AcDbSymbolTableRecord
100
AcDbBlockTableRecord
  2
*D43
340
0
  0
BLOCK_RECORD
  5
3D1
330
1
100
AcDbSymbolTableRecord
100
AcDbBlockTableRecord
  2
*D44
340
0
  0
BLOCK_RECORD
  5
3DD
330
1
100
AcDbSymbolTableRecord
100
AcDbBlockTableRecord
  2
*D45
340
0
  0
BLOCK_RECORD
  5
3EA
330
1
100
AcDbSymbolTableRecord
100
AcDbBlockTableRecord
  2
*D46
340
0
  0
BLOCK_RECORD
  5
3F5
330
1
100
AcDbSymbolTableRecord
100
AcDbBlockTableRecord
  2
*D47
340
0
102
{BLKREFS
331
400
102
}
  0
BLOCK_RECORD
  5
401
330
1
100
AcDbSymbolTableRecord
100
AcDbBlockTableRecord
  2
*D48
340
0
102
{BLKREFS
331
40E
102
}
  0
BLOCK_RECORD
  5
40F
330
1
100
AcDbSymbolTableRecord
100
AcDbBlockTableRecord
  2
*D49
340
0
102
{BLKREFS
331
41A
102
}
  0
BLOCK_RECORD
  5
41B
330
1
100
AcDbSymbolTableRecord
100
AcDbBlockTableRecord
  2
*D50
340
0
102
{BLKREFS
331
426
102
}
  0
BLOCK_RECORD
  5
427
330
1
100
AcDbSymbolTableRecord
100
AcDbBlockTableRecord
  2
*D51
340
0
102
{BLKREFS
331
432
102
}
  0
ENDTAB
  0
ENDSEC
  0
SECTION
  2
BLOCKS
  0
BLOCK
  5
20
330
1F
100
AcDbEntity
  8
0
100
AcDbBlockBegin
  2
*Model_Space
 70
     0
 10
0.0
 20
0.0
 30
0.0
  3
*Model_Space
  1

  0
ENDBLK
  5
21
330
1F
100
AcDbEntity
  8
0
100
AcDbBlockEnd
  0
BLOCK
  5
1C
330
1B
100
AcDbEntity
 67
     1
  8
0
100
AcDbBlockBegin
  2
*Paper_Space
 70
     0
 10
0.0
 20
0.0
 30
0.0
  3
*Paper_Space
  1

  0
ENDBLK
  5
1D
330
1B
100
AcDbEntity
 67
     1
  8
0
100
AcDbBlockEnd
  0
BLOCK
  5
24
330
23
100
AcDbEntity
  8
0
100
AcDbBlockBegin
  2
*Paper_Space0
 70
     0
 10
0.0
 20
0.0
 30
0.0
  3
*Paper_Space0
  1

  0
ENDBLK
  5
25
330
23
100
AcDbEntity
  8
0
100
AcDbBlockEnd
  0
BLOCK
  5
4C
330
4B
100
AcDbEntity
  8
0
100
AcDbBlockBegin
  2
Einfügen1
 70
     0
 10
172.5
 20
202.5
 30
0.0
  3
Einfügen1
  1

  0
POINT
  5
7D
330
4B
100
AcDbEntity
  8
1
 62
     3
 60
     1
100
AcDbPoint
 10
147.203204467827
 20
380.7078557938889
 30
0.0
  0
POINT
  5
7E
330
4B
100
AcDbEntity
  8
1
 62
     3
 60
     1
100
AcDbPoint
 10
147.2587665489608
 20
384.2078557938889
 30
0.0
  0
POINT
  5
7F
330
4B
100
AcDbEntity
  8
1
 62
     3
 60
     1
100
AcDbPoint
 10
38.66396853393229
 20
208.8198681948083
 30
0.0
  0
POINT
  5
80
330
4B
100
AcDbEntity
  8
1
 62
     3
 60
     1
100
AcDbPoint
 10
46.32996853393229
 20
208.8198681948083
 30
0.0
  0
LINE
  5
81
330
4B
100
AcDbEntity
  8
1
  6
Continuous
 62
     4
100
AcDbLine
 10
147.2587665489608
 20
384.2078557938889
 30
0.0
 11
141.1965887224686
 21
380.7078557938889
 31
0.0
  0
LINE
  5
82
330
4B
100
AcDbEntity
  8
1
  6
Continuous
 62
     4
100
AcDbLine
 10
141.1965887224686
 20
380.7078557938889
 30
0.0
 11
148.1965887224686
 21
380.7078557938889
 31
0.0
  0
LINE
  5
83
330
4B
100
AcDbEntity
  8
1
  6
DOT_CENTER
 62
     3
100
AcDbLine
 10
71.83699434900068
 20
299.8198681948091
 30
0.0
 11
80.53699434900088
 21
299.8198681948091
 31
0.0
  0
LINE
  5
84
330
4B
100
AcDbEntity
  8
1
  6
DOT_CENTER
 62
     3
100
AcDbLine
 10
99.78699434900089
 20
278.3198681948091
 30
0.0
 11
101.0409660470077
 21
278.3198681948091
 31
0.0
  0
LINE
  5
85
330
4B
100
AcDbEntity
  8
1
  6
DOT_CENTER
 62
     3
100
AcDbLine
 10
90.5869943490006
 20
278.3198681948091
 30
0.0
 11
99.78699434900089
 21
278.3198681948091
 31
0.0
  0
LINE
  5
86
330
4B
100
AcDbEntity
  8
1
  6
DOT_CENTER
 62
     3
100
AcDbLine
 10
80.28699434900088
 20
219.819868194809
 30
0.0
 11
81.77966540866367
 21
219.8198681948091
 31
0.0
  0
LINE
  5
87
330
4B
100
AcDbEntity
  8
1
  6
DOT_CENTER
 62
     3
100
AcDbLine
 10
72.08699434900068
 20
219.8198681948091
 30
0.0
 11
80.28699434900088
 21
219.819868194809
 31
0.0
  0
LINE
  5
88
330
4B
100
AcDbEntity
  8
1
  6
DOT_CENTER
 62
     3
100
AcDbLine
 10
43.28699434899977
 20
175.8198681948094
 30
0.0
 11
38.39277584329449
 21
175.8198681948094
 31
0.0
  0
LINE
  5
89
330
4B
100
AcDbEntity
  8
1
  6
Continuous
 62
     4
100
AcDbLine
 10
50.48699434899869
 20
342.31986819481
 30
0.0
 11
55.98699434900098
 21
342.3198681948099
 31
0.0
  0
LINE
  5
8A
330
4B
100
AcDbEntity
  8
1
  6
Continuous
 62
     4
100
AcDbLine
 10
117.1869943490007
 20
68.16862171165161
 30
0.0
 11
117.1869943490007
 21
56.6846217116516
 31
0.0
  0
LINE
  5
8B
330
4B
100
AcDbEntity
  8
1
  6
Continuous
 62
     4
100
AcDbLine
 10
117.1869943490007
 20
69.91862171165161
 30
0.0
 11
125.1869943490008
 21
69.91862171165161
 31
0.0
  0
LINE
  5
8C
330
4B
100
AcDbEntity
  8
1
  6
Continuous
 62
     4
100
AcDbLine
 10
117.1869943490007
 20
69.91862171165161
 30
0.0
 11
117.1869943490007
 21
68.16862171165161
 31
0.0
  0
LINE
  5
8D
330
4B
100
AcDbEntity
  8
1
  6
Continuous
 62
     4
100
AcDbLine
 10
43.28699434899977
 20
197.8198681948091
 30
0.0
 11
43.28699434899977
 21
209.7185621791235
 31
0.0
  0
LINE
  5
8E
330
4B
100
AcDbEntity
  8
1
  6
Continuous
 62
     4
100
AcDbLine
 10
68.76199434900079
 20
68.16862171165161
 30
0.0
 11
117.1869943490007
 21
68.16862171165161
 31
0.0
  0
LINE
  5
8F
330
4B
100
AcDbEntity
  8
1
  6
DOT_CENTER
 62
     3
100
AcDbLine
 10
80.53699434900088
 20
299.8198681948091
 30
0.0
 11
105.3199943490008
 21
299.8198681948091
 31
0.0
  0
LINE
  5
90
330
4B
100
AcDbEntity
  8
1
  6
DOT_CENTER
 62
     3
100
AcDbLine
 10
99.78699434900079
 20
345.819868194809
 30
0.0
 11
100.9950047435907
 21
345.819868194809
 31
0.0
  0
LINE
  5
91
330
4B
100
AcDbEntity
  8
1
  6
Continuous
 62
     4
100
AcDbLine
 10
68.76199434900079
 20
68.16862171165161
 30
0.0
 11
68.76199434900079
 21
68.06862171165062
 31
0.0
  0
LINE
  5
92
330
4B
100
AcDbEntity
  8
1
  6
Continuous
 62
     4
100
AcDbLine
 10
117.1869943490007
 20
362.819868194809
 30
0.0
 11
43.28699434899977
 21
362.819868194809
 31
0.0
  0
LINE
  5
93
330
4B
100
AcDbEntity
  8
1
  6
Continuous
 62
     4
100
AcDbLine
 10
117.1869943490007
 20
197.8198681948091
 30
0.0
 11
125.1869943490008
 21
205.8198681948091
 31
0.0
  0
LINE
  5
94
330
4B
100
AcDbEntity
  8
1
  6
Continuous
 62
     4
100
AcDbLine
 10
125.1869943490008
 20
354.819868194809
 30
0.0
 11
117.1869943490007
 21
362.819868194809
 31
0.0
  0
LINE
  5
95
330
4B
100
AcDbEntity
  8
1
  6
DOT_CENTER
 62
     3
100
AcDbLine
 10
114.1869943490008
 20
224.9579090395202
 30
0.0
 11
114.1869943490008
 21
214.5955582412615
 31
0.0
  0
LINE
  5
96
330
4B
100
AcDbEntity
  8
1
  6
DOT_CENTER
 62
     3
100
AcDbLine
 10
76.18699434900078
 20
225.4711532218882
 30
0.0
 11
76.18699434900078
 21
214.6113960987342
 31
0.0
  0
LINE
  5
97
330
4B
100
AcDbEntity
  8
1
  6
DOT_CENTER
 62
     3
100
AcDbLine
 10
89.47432068532773
 20
278.3198681948091
 30
0.0
 11
99.78699434900089
 21
278.3198681948091
 31
0.0
  0
LINE
  5
98
330
4B
100
AcDbEntity
  8
1
  6
DOT_CENTER
 62
     3
100
AcDbLine
 10
69.79119932128319
 20
219.8198681948091
 30
0.0
 11
72.08699434900068
 21
219.8198681948091
 31
0.0
  0
LINE
  5
99
330
4B
100
AcDbEntity
  8
1
  6
Continuous
 62
     4
100
AcDbLine
 10
43.28699434899977
 20
359.5198681948094
 30
0.0
 11
43.28699434899977
 21
362.819868194809
 31
0.0
  0
LINE
  5
9A
330
4B
100
AcDbEntity
  8
1
  6
Continuous
 62
     4
100
AcDbLine
 10
43.28699434899977
 20
226.5198681948094
 30
0.0
 11
43.28699434899977
 21
264.2427524184314
 31
0.0
  0
LINE
  5
9B
330
4B
100
AcDbEntity
  8
1
  6
Continuous
 62
     4
100
AcDbLine
 10
43.28699434899977
 20
308.2494500242274
 30
0.0
 11
43.28699434899977
 21
343.6198681948093
 31
0.0
  0
LINE
  5
9C
330
4B
100
AcDbEntity
  8
1
  6
Continuous
 62
     4
100
AcDbLine
 10
90.03699434899976
 20
207.9198681948094
 30
0.0
 11
90.03699434899976
 21
220.8700480532514
 31
0.0
  0
LINE
  5
9D
330
4B
100
AcDbEntity
  8
1
  6
Continuous
 62
     4
100
AcDbLine
 10
100.3369943489997
 20
207.9198681948094
 30
0.0
 11
100.3369943489997
 21
220.8700480532514
 31
0.0
  0
LINE
  5
9E
330
4B
100
AcDbEntity
  8
1
  6
DOT_CENTER
 62
     3
100
AcDbLine
 10
88.14880470633466
 20
207.9198681948094
 30
0.0
 11
102.3450412128848
 21
207.9198681948094
 31
0.0
  0
LINE
  5
9F
330
4B
100
AcDbEntity
  8
1
  6
Continuous
 62
     4
100
AcDbLine
 10
45.1869943490008
 20
68.16862171165161
 30
0.0
 11
68.76199434900079
 21
68.16862171165161
 31
0.0
  0
LINE
  5
A0
330
4B
100
AcDbEntity
  8
1
  6
Continuous
 62
     4
100
AcDbLine
 10
43.28699434899977
 20
69.91862171165161
 30
0.0
 11
117.1869943490007
 21
69.91862171165161
 31
0.0
  0
LINE
  5
A1
330
4B
100
AcDbEntity
  8
1
  6
Continuous
 62
     4
100
AcDbLine
 10
43.28699434899977
 20
69.91862171165161
 30
0.0
 11
43.28699434899977
 21
68.16862171165161
 31
0.0
  0
LINE
  5
A2
330
4B
100
AcDbEntity
  8
1
  6
Continuous
 62
     4
100
AcDbLine
 10
43.28699434899977
 20
69.91862171165161
 30
0.0
 11
43.28699434899977
 21
68.16862171165161
 31
0.0
  0
LINE
  5
A3
330
4B
100
AcDbEntity
  8
1
  6
Continuous
 62
     4
100
AcDbLine
 10
43.28699434899977
 20
68.16862171165161
 30
0.0
 11
43.28699434899977
 21
58.16862171165161
 31
0.0
  0
LINE
  5
A4
330
4B
100
AcDbEntity
  8
1
  6
Continuous
 62
     4
100
AcDbLine
 10
125.1869943490008
 20
68.16862171165161
 30
0.0
 11
125.1869943490008
 21
69.91862171165161
 31
0.0
  0
LINE
  5
A5
330
4B
100
AcDbEntity
  8
1
  6
Continuous
 62
     4
100
AcDbLine
 10
105.7814314820209
 20
197.8198681948091
 30
0.0
 11
117.1869943490007
 21
197.8198681948091
 31
0.0
  0
LINE
  5
A6
330
4B
100
AcDbEntity
  8
1
  6
DOT_CENTER
 62
     3
100
AcDbLine
 10
95.18699434900076
 20
221.7439841951095
 30
0.0
 11
95.18699434900076
 21
200.1971943899854
 31
0.0
  0
LINE
  5
A7
330
4B
100
AcDbEntity
  8
1
  6
Continuous
 62
     4
100
AcDbLine
 10
43.28699434899977
 20
197.8198681948091
 30
0.0
 11
105.7814314820209
 21
197.8198681948091
 31
0.0
  0
LINE
  5
A8
330
4B
100
AcDbEntity
  8
1
  6
DOT_CENTER
 62
     3
100
AcDbLine
 10
95.18699434900076
 20
239.3104815430685
 30
0.0
 11
95.18699434900076
 21
221.7439841951095
 31
0.0
  0
LINE
  5
A9
330
4B
100
AcDbEntity
  8
1
  6
Continuous
 62
     4
100
AcDbLine
 10
43.28699434899977
 20
278.537647123809
 30
0.0
 11
43.28699434899977
 21
302.9916617497924
 31
0.0
  0
LINE
  5
AA
330
4B
100
AcDbEntity
  8
1
  6
DOT_CENTER
 62
     3
100
AcDbLine
 10
45.69779682637298
 20
175.8198681948094
 30
0.0
 11
43.28699434899977
 21
175.8198681948094
 31
0.0
  0
LINE
  5
AB
330
4B
100
AcDbEntity
  8
1
  6
Continuous
 62
     4
100
AcDbLine
 10
43.28699434899977
 20
162.8198681948105
 30
0.0
 11
43.28699434899977
 21
184.5842898208025
 31
0.0
  0
LINE
  5
AC
330
4B
100
AcDbEntity
  8
1
  6
Continuous
 62
     4
100
AcDbLine
 10
40.2869943489998
 20
397.8198681948095
 30
0.0
 11
40.2869943489998
 21
162.8198681948105
 31
0.0
  0
LINE
  5
AD
330
4B
100
AcDbEntity
  8
1
  6
Continuous
 62
     4
100
AcDbLine
 10
40.2869943489998
 20
162.8198681948105
 30
0.0
 11
43.28699434899977
 21
162.8198681948105
 31
0.0
  0
LINE
  5
AE
330
4B
100
AcDbEntity
  8
1
  6
Continuous
 62
     4
100
AcDbLine
 10
43.28699434899977
 20
397.8198681948095
 30
0.0
 11
40.2869943489998
 21
397.8198681948095
 31
0.0
  0
LINE
  5
AF
330
4B
100
AcDbEntity
  8
1
  6
DOT_CENTER
 62
     3
100
AcDbLine
 10
44.89995010490678
 20
384.8198681948095
 30
0.0
 11
38.85923715401458
 21
384.8198681948095
 31
0.0
  0
LINE
  5
B0
330
4B
100
AcDbEntity
  8
1
  6
DOT_CENTER
 62
     3
100
AcDbLine
 10
95.1869943490008
 20
337.7164407585545
 30
0.0
 11
95.1869943490008
 21
354.0751509476099
 31
0.0
  0
LINE
  5
B1
330
4B
100
AcDbEntity
  8
1
  6
Continuous
 62
     4
100
AcDbLine
 10
43.28699434899977
 20
69.91862171165161
 30
0.0
 11
43.28699434899977
 21
71.26862171165158
 31
0.0
  0
LINE
  5
B2
330
4B
100
AcDbEntity
  8
1
  6
Continuous
 62
     4
100
AcDbLine
 10
43.28699434899977
 20
71.26862171165158
 30
0.0
 11
40.2869943489998
 21
71.26862171165158
 31
0.0
  0
LINE
  5
B3
330
4B
100
AcDbEntity
  8
1
  6
Continuous
 62
     4
100
AcDbLine
 10
40.2869943489998
 20
71.26862171165158
 30
0.0
 11
40.2869943489998
 21
51.26862171165158
 31
0.0
  0
LINE
  5
B4
330
4B
100
AcDbEntity
  8
1
  6
Continuous
 62
     4
100
AcDbLine
 10
40.2869943489998
 20
51.26862171165158
 30
0.0
 11
43.28699434899977
 21
51.26862171165158
 31
0.0
  0
LINE
  5
B5
330
4B
100
AcDbEntity
  8
1
  6
Continuous
 62
     4
100
AcDbLine
 10
43.28699434899977
 20
51.26862171165158
 30
0.0
 11
43.28699434899977
 21
58.16862171165161
 31
0.0
  0
LINE
  5
B6
330
4B
100
AcDbEntity
  8
1
  6
Continuous
 62
     4
100
AcDbLine
 10
63.96199434900058
 20
68.16862171165161
 30
0.0
 11
63.96199434900058
 21
68.06862171165062
 31
0.0
  0
LINE
  5
B7
330
4B
100
AcDbEntity
  8
1
  6
DOT_CENTER
 62
     3
100
AcDbLine
 10
94.31738923722853
 20
227.8198681948099
 30
0.0
 11
85.45252140606475
 21
227.8198681948099
 31
0.0
  0
LINE
  5
B8
330
4B
100
AcDbEntity
  8
1
  6
DOT_CENTER
 62
     3
100
AcDbLine
 10
100.3369943490009
 20
345.819868194809
 30
0.0
 11
88.81578574188403
 21
345.8198681948093
 31
0.0
  0
LINE
  5
B9
330
4B
100
AcDbEntity
  8
1
  6
Continuous
 62
     4
100
AcDbLine
 10
56.48699434900098
 20
325.5198681948102
 30
0.0
 11
56.48699434900098
 21
315.2198681948103
 31
0.0
  0
LINE
  5
BA
330
4B
100
AcDbEntity
  8
1
  6
Continuous
 62
     4
100
AcDbLine
 10
55.98699434900098
 20
314.7198681948103
 30
0.0
 11
43.33699434900086
 21
314.7198681948103
 31
0.0
  0
LINE
  5
BB
330
4B
100
AcDbEntity
  8
1
  6
Continuous
 62
     4
100
AcDbLine
 10
56.48699434900098
 20
341.8198681948099
 30
0.0
 11
56.48699434900098
 21
331.5198681948102
 31
0.0
  0
LINE
  5
BC
330
4B
100
AcDbEntity
  8
1
  6
Continuous
 62
     4
100
AcDbLine
 10
43.33699434900086
 20
342.31986819481
 30
0.0
 11
50.48699434899869
 21
342.31986819481
 31
0.0
  0
LINE
  5
BD
330
4B
100
AcDbEntity
  8
1
  6
DOT_CENTER
 62
     3
100
AcDbLine
 10
104.6826646318447
 20
227.8198681948099
 30
0.0
 11
94.31738923722853
 21
227.8198681948099
 31
0.0
  0
LINE
  5
BE
330
4B
100
AcDbEntity
  8
1
  6
DOT_CENTER
 62
     3
100
AcDbLine
 10
89.4239035000529
 20
278.3198681948091
 30
0.0
 11
90.5869943490006
 21
278.3198681948091
 31
0.0
  0
LINE
  5
BF
330
4B
100
AcDbEntity
  8
1
  6
DOT_CENTER
 62
     3
100
AcDbLine
 10
76.18699434900078
 20
305.2376345071412
 30
0.0
 11
76.18699434900078
 21
293.846133421844
 31
0.0
  0
LINE
  5
C0
330
4B
100
AcDbEntity
  8
1
  6
DOT_CENTER
 62
     3
100
AcDbLine
 10
119.9246991087168
 20
219.8198681948099
 30
0.0
 11
118.2869943490009
 21
219.8198681948099
 31
0.0
  0
LINE
  5
C1
330
4B
100
AcDbEntity
  8
1
  6
DOT_CENTER
 62
     3
100
AcDbLine
 10
70.72561120685198
 20
299.8198681948091
 30
0.0
 11
71.83699434900068
 21
299.8198681948091
 31
0.0
  0
LINE
  5
C2
330
4B
100
AcDbEntity
  8
1
  6
DOT_CENTER
 62
     3
100
AcDbLine
 10
95.18699434900076
 20
287.8198681948091
 30
0.0
 11
95.18699434900076
 21
271.6448411963879
 31
0.0
  0
LINE
  5
C3
330
4B
100
AcDbEntity
  8
1
  6
DOT_CENTER
 62
     3
100
AcDbLine
 10
95.18699434900076
 20
310.8198681948091
 30
0.0
 11
95.18699434900076
 21
287.8198681948091
 31
0.0
  0
LINE
  5
C4
330
4B
100
AcDbEntity
  8
1
  6
DOT_CENTER
 62
     3
100
AcDbLine
 10
118.2869943490009
 20
219.8198681948099
 30
0.0
 11
108.1723827278824
 21
219.8198681948099
 31
0.0
  0
LINE
  5
C5
330
4B
100
AcDbEntity
  8
1
  6
DOT_CENTER
 62
     3
100
AcDbLine
 10
95.18699434900076
 20
319.5508100595417
 30
0.0
 11
95.18699434900076
 21
310.8198681948091
 31
0.0
  0
LINE
  5
C6
330
4B
100
AcDbEntity
  8
1
  6
DOT_CENTER
 62
     3
100
AcDbLine
 10
114.1869943490007
 20
293.274343892979
 30
0.0
 11
114.1869943490007
 21
306.142564276918
 31
0.0
  0
LINE
  5
C7
330
4B
100
AcDbEntity
  8
1
  6
Continuous
 62
     4
100
AcDbLine
 10
45.4369943490008
 20
362.819868194809
 30
0.0
 11
116.7869943490008
 21
362.819868194809
 31
0.0
  0
LINE
  5
C8
330
4B
100
AcDbEntity
  8
1
  6
Continuous
 62
     4
100
AcDbLine
 10
125.1869943490008
 20
205.8198681948091
 30
0.0
 11
125.1869943490007
 21
354.619868194809
 31
0.0
  0
LINE
  5
C9
330
4B
100
AcDbEntity
  8
1
  6
DOT_CENTER
 62
     3
100
AcDbLine
 10
71.93699434900078
 20
299.8198681948091
 30
0.0
 11
72.58699434900078
 21
299.8198681948091
 31
0.0
  0
LINE
  5
CA
330
4B
100
AcDbEntity
  8
1
  6
Continuous
 62
     4
100
AcDbLine
 10
125.1869943490008
 20
54.41862171165161
 30
0.0
 11
125.1869943490008
 21
68.16862171165161
 31
0.0
  0
LINE
  5
CB
330
4B
100
AcDbEntity
  8
1
  6
Continuous
 62
     4
100
AcDbLine
 10
117.1869943490007
 20
68.16862171165161
 30
0.0
 11
45.4369943490006
 21
68.16862171165161
 31
0.0
  0
LINE
  5
CC
330
4B
100
AcDbEntity
  8
1
  6
Continuous
 62
     4
100
AcDbLine
 10
121.1869943483958
 20
54.41862171165161
 30
0.0
 11
125.1869943490008
 21
54.41862171165161
 31
0.0
  0
LINE
  5
CD
330
4B
100
AcDbEntity
  8
1
  6
Continuous
 62
     4
100
AcDbLine
 10
91.50426438286677
 20
54.41862171165161
 30
0.0
 11
123.4369943490008
 21
54.41862171165161
 31
0.0
  0
LINE
  5
CE
330
4B
100
AcDbEntity
  8
1
  6
Continuous
 62
     4
100
AcDbLine
 10
43.33699434900075
 20
54.41862171165161
 30
0.0
 11
91.50426438286677
 21
54.41862171165161
 31
0.0
  0
LINE
  5
CF
330
4B
100
AcDbEntity
  8
1
  6
Continuous
 62
     4
100
AcDbLine
 10
39.28699434839405
 20
282.3200039494601
 30
0.0
 11
39.28699434839405
 21
277.3200039494601
 31
0.0
  0
LINE
  5
D0
330
4B
100
AcDbEntity
  8
1
  6
Continuous
 62
     4
100
AcDbLine
 10
40.2869943489998
 20
282.3200039494601
 30
0.0
 11
39.28699434839405
 21
282.3200039494601
 31
0.0
  0
LINE
  5
D1
330
4B
100
AcDbEntity
  8
1
  6
Continuous
 62
     4
100
AcDbLine
 10
30.28699434899977
 20
284.3200039494601
 30
0.0
 11
31.28699434839405
 21
284.3200039494601
 31
0.0
  0
LINE
  5
D2
330
4B
100
AcDbEntity
  8
1
  6
Continuous
 62
     4
100
AcDbLine
 10
30.28699434899977
 20
284.3200039494601
 30
0.0
 11
30.28699434899977
 21
275.3200039494601
 31
0.0
  0
LINE
  5
D3
330
4B
100
AcDbEntity
  8
1
  6
Continuous
 62
     4
100
AcDbLine
 10
40.2869943489998
 20
275.3200039494601
 30
0.0
 11
31.28699434839405
 21
275.3200039494601
 31
0.0
  0
LINE
  5
D4
330
4B
100
AcDbEntity
  8
1
  6
Continuous
 62
     4
100
AcDbLine
 10
31.28699434839405
 20
277.3200039494601
 30
0.0
 11
31.28699434839405
 21
275.3200039494601
 31
0.0
  0
LINE
  5
D5
330
4B
100
AcDbEntity
  8
1
  6
Continuous
 62
     4
100
AcDbLine
 10
31.28699434839405
 20
277.3200039494601
 30
0.0
 11
39.28699434839405
 21
277.3200039494601
 31
0.0
  0
LINE
  5
D6
330
4B
100
AcDbEntity
  8
1
  6
Continuous
 62
     4
100
AcDbLine
 10
31.28699434839405
 20
275.3200039494601
 30
0.0
 11
30.28699434899977
 21
275.3200039494601
 31
0.0
  0
LINE
  5
D7
330
4B
100
AcDbEntity
  8
1
  6
Continuous
 62
     4
100
AcDbLine
 10
31.28699434839405
 20
284.3200039494601
 30
0.0
 11
31.28699434839405
 21
282.3200039494601
 31
0.0
  0
LINE
  5
D8
330
4B
100
AcDbEntity
  8
1
  6
Continuous
 62
     4
100
AcDbLine
 10
31.28699434839405
 20
284.3200039494601
 30
0.0
 11
40.2869943489998
 21
284.3200039494601
 31
0.0
  0
LINE
  5
D9
330
4B
100
AcDbEntity
  8
1
  6
Continuous
 62
     4
100
AcDbLine
 10
39.28699434839405
 20
282.3200039494601
 30
0.0
 11
31.28699434839405
 21
282.3200039494601
 31
0.0
  0
LINE
  5
DA
330
4B
100
AcDbEntity
  8
1
  6
Continuous
 62
     4
100
AcDbLine
 10
39.28699434839405
 20
277.3200039494601
 30
0.0
 11
40.2869943489998
 21
277.3200039494601
 31
0.0
  0
LINE
  5
DB
330
4B
100
AcDbEntity
  8
1
  6
Continuous
 62
     4
100
AcDbLine
 10
34.641152334445
 20
58.21862171165017
 30
0.0
 11
20.78699434900176
 21
58.21862171165017
 31
0.0
  0
LINE
  5
DC
330
4B
100
AcDbEntity
  8
1
  6
Continuous
 62
     4
100
AcDbLine
 10
40.2869943489998
 20
262.31986819481
 30
0.0
 11
20.78699434899809
 21
262.31986819481
 31
0.0
  0
LINE
  5
DD
330
4B
100
AcDbEntity
  8
1
  6
Continuous
 62
     4
100
AcDbLine
 10
20.28699434899809
 20
261.81986819481
 30
0.0
 11
20.28699434899991
 21
227.8198681948082
 31
0.0
  0
LINE
  5
DE
330
4B
100
AcDbEntity
  8
1
  6
Continuous
 62
     4
100
AcDbLine
 10
20.28699434899809
 20
261.81986819481
 30
0.0
 11
20.78699434899809
 21
262.31986819481
 31
0.0
  0
LINE
  5
DF
330
4B
100
AcDbEntity
  8
1
  6
Continuous
 62
     4
100
AcDbLine
 10
20.78699434900176
 20
227.3198681948064
 30
0.0
 11
20.28699434899991
 21
227.8198681948082
 31
0.0
  0
LINE
  5
E0
330
4B
100
AcDbEntity
  8
1
  6
Continuous
 62
     4
100
AcDbLine
 10
20.78699434900176
 20
58.21862171165017
 30
0.0
 11
20.78699434900176
 21
66.2186217116502
 31
0.0
  0
LINE
  5
E1
330
4B
100
AcDbEntity
  8
1
  6
Continuous
 62
     4
100
AcDbLine
 10
20.78699434900176
 20
66.2186217116502
 30
0.0
 11
20.57060964480428
 21
65.12172715892817
 31
0.0
  0
LINE
  5
E2
330
4B
100
AcDbEntity
  8
1
  6
Continuous
 62
     4
100
AcDbLine
 10
20.78699434900176
 20
58.21862171165017
 30
0.0
 11
20.57060964480061
 21
59.31551626436854
 31
0.0
  0
LINE
  5
E3
330
4B
100
AcDbEntity
  8
1
  6
Continuous
 62
     4
100
AcDbLine
 10
20.78699434900176
 20
227.3198681948064
 30
0.0
 11
40.2869943489998
 21
227.319868194811
 31
0.0
  0
LINE
  5
E4
330
4B
100
AcDbEntity
  8
1
  6
Continuous
 62
     4
100
AcDbLine
 10
20.78699434900176
 20
66.2186217116502
 30
0.0
 11
29.74541449454043
 21
66.21862171164946
 31
0.0
  0
LINE
  5
E5
330
4B
100
AcDbEntity
  8
1
  6
Continuous
 62
     4
100
AcDbLine
 10
40.2869943489998
 20
66.0727796970954
 30
0.0
 11
28.28699434899977
 21
66.0727796970954
 31
0.0
  0
LINE
  5
E6
330
4B
100
AcDbEntity
  8
1
  6
Continuous
 62
     4
100
AcDbLine
 10
40.2869943489998
 20
63.87277969709649
 30
0.0
 11
28.98699434899871
 21
63.87277969709649
 31
0.0
  0
LINE
  5
E7
330
4B
100
AcDbEntity
  8
1
  6
Continuous
 62
     4
100
AcDbLine
 10
40.2869943489998
 20
63.37277969709649
 30
0.0
 11
29.48699434899871
 21
63.37277969709649
 31
0.0
  0
LINE
  5
E8
330
4B
100
AcDbEntity
  8
1
  6
Continuous
 62
     4
100
AcDbLine
 10
28.28699434899977
 20
66.0727796970954
 30
0.0
 11
29.74541449454043
 21
66.21862171164946
 31
0.0
  0
LINE
  5
E9
330
4B
100
AcDbEntity
  8
1
  6
Continuous
 62
     4
100
AcDbLine
 10
39.18699434899941
 20
53.67277969709576
 30
0.0
 11
40.2869943489998
 21
53.67277969709576
 31
0.0
  0
LINE
  5
EA
330
4B
100
AcDbEntity
  8
1
  6
Continuous
 62
     4
100
AcDbLine
 10
28.28699434899977
 20
64.5727796970954
 30
0.0
 11
34.641152334445
 21
58.21862171165017
 31
0.0
  0
LINE
  5
EB
330
4B
100
AcDbEntity
  8
1
  6
Continuous
 62
     4
100
AcDbLine
 10
28.28699434899977
 20
66.0727796970954
 30
0.0
 11
28.28699434899977
 21
64.5727796970954
 31
0.0
  0
LINE
  5
EC
330
4B
100
AcDbEntity
  8
1
  6
Continuous
 62
     4
100
AcDbLine
 10
33.2869943489998
 20
66.5727796970954
 30
0.0
 11
40.2869943489998
 21
66.5727796970954
 31
0.0
  0
LINE
  5
ED
330
4B
100
AcDbEntity
  8
1
  6
Continuous
 62
     4
100
AcDbLine
 10
28.98699434899871
 20
344.3198681948102
 30
0.0
 11
33.08699434899904
 21
344.3198681948102
 31
0.0
  0
LINE
  5
EE
330
4B
100
AcDbEntity
  8
1
  6
Continuous
 62
     4
100
AcDbLine
 10
28.98699434899871
 20
343.8198681948102
 30
0.0
 11
29.48699434899871
 21
343.8198681948102
 31
0.0
  0
LINE
  5
EF
330
4B
100
AcDbEntity
  8
1
  6
Continuous
 62
     4
100
AcDbLine
 10
28.98699434899871
 20
344.3198681948102
 30
0.0
 11
28.98699434899871
 21
343.8198681948102
 31
0.0
  0
LINE
  5
F0
330
4B
100
AcDbEntity
  8
1
  6
Continuous
 62
     4
100
AcDbLine
 10
29.48699434899871
 20
343.8198681948102
 30
0.0
 11
40.2869943489998
 21
343.8198681948102
 31
0.0
  0
LINE
  5
F1
330
4B
100
AcDbEntity
  8
1
  6
Continuous
 62
     4
100
AcDbLine
 10
29.48699434899871
 20
343.8198681948102
 30
0.0
 11
29.48699434899871
 21
341.8198681948102
 31
0.0
  0
LINE
  5
F2
330
4B
100
AcDbEntity
  8
1
  6
Continuous
 62
     4
100
AcDbLine
 10
28.98699434899871
 20
312.3198681948102
 30
0.0
 11
28.28699434899977
 21
312.3198681948102
 31
0.0
  0
LINE
  5
F3
330
4B
100
AcDbEntity
  8
1
  6
Continuous
 62
     4
100
AcDbLine
 10
28.98699434899871
 20
312.8198681948102
 30
0.0
 11
29.48699434899871
 21
312.8198681948102
 31
0.0
  0
LINE
  5
F4
330
4B
100
AcDbEntity
  8
1
  6
Continuous
 62
     4
100
AcDbLine
 10
28.98699434899871
 20
312.8198681948102
 30
0.0
 11
28.98699434899871
 21
312.3198681948102
 31
0.0
  0
LINE
  5
F5
330
4B
100
AcDbEntity
  8
1
  6
Continuous
 62
     4
100
AcDbLine
 10
29.48699434899871
 20
312.8198681948102
 30
0.0
 11
40.2869943489998
 21
312.8198681948102
 31
0.0
  0
LINE
  5
F6
330
4B
100
AcDbEntity
  8
1
  6
Continuous
 62
     4
100
AcDbLine
 10
29.48699434899871
 20
314.8198681948102
 30
0.0
 11
29.48699434899871
 21
312.8198681948102
 31
0.0
  0
LINE
  5
F7
330
4B
100
AcDbEntity
  8
1
  6
Continuous
 62
     4
100
AcDbLine
 10
28.28699434899977
 20
312.3198681948102
 30
0.0
 11
28.28699434899977
 21
344.3198681948102
 31
0.0
  0
LINE
  5
F8
330
4B
100
AcDbEntity
  8
1
  6
Continuous
 62
     4
100
AcDbLine
 10
28.28699434899977
 20
344.3198681948102
 30
0.0
 11
28.98699434899871
 21
344.3198681948102
 31
0.0
  0
LINE
  5
F9
330
4B
100
AcDbEntity
  8
1
  6
Continuous
 62
     4
100
AcDbLine
 10
33.08699434899904
 20
344.3198681948102
 30
0.0
 11
40.2869943489998
 21
344.3198681948102
 31
0.0
  0
LINE
  5
FA
330
4B
100
AcDbEntity
  8
1
  6
Continuous
 62
     4
100
AcDbLine
 10
33.08699434899904
 20
312.3198681948102
 30
0.0
 11
28.98699434899871
 21
312.3198681948102
 31
0.0
  0
LINE
  5
FB
330
4B
100
AcDbEntity
  8
1
  6
Continuous
 62
     4
100
AcDbLine
 10
39.18699434899941
 20
341.8198681948102
 30
0.0
 11
39.18699434899941
 21
341.3198681948102
 31
0.0
  0
LINE
  5
FC
330
4B
100
AcDbEntity
  8
1
  6
Continuous
 62
     4
100
AcDbLine
 10
39.18699434899941
 20
314.8198681948102
 30
0.0
 11
40.2869943489998
 21
314.8198681948102
 31
0.0
  0
LINE
  5
FD
330
4B
100
AcDbEntity
  8
1
  6
Continuous
 62
     4
100
AcDbLine
 10
39.18699434899941
 20
341.8198681948102
 30
0.0
 11
29.48699434899871
 21
341.8198681948102
 31
0.0
  0
LINE
  5
FE
330
4B
100
AcDbEntity
  8
1
  6
Continuous
 62
     4
100
AcDbLine
 10
39.18699434899941
 20
314.8198681948102
 30
0.0
 11
29.48699434899871
 21
314.8198681948102
 31
0.0
  0
LINE
  5
FF
330
4B
100
AcDbEntity
  8
1
  6
Continuous
 62
     4
100
AcDbLine
 10
39.18699434899941
 20
341.3198681948102
 30
0.0
 11
40.2869943489998
 21
341.3198681948102
 31
0.0
  0
LINE
  5
100
330
4B
100
AcDbEntity
  8
1
  6
Continuous
 62
     4
100
AcDbLine
 10
39.18699434899941
 20
341.3198681948102
 30
0.0
 11
39.18699434899941
 21
315.3198681948102
 31
0.0
  0
LINE
  5
101
330
4B
100
AcDbEntity
  8
1
  6
Continuous
 62
     4
100
AcDbLine
 10
39.18699434899941
 20
315.3198681948102
 30
0.0
 11
40.2869943489998
 21
315.3198681948102
 31
0.0
  0
LINE
  5
102
330
4B
100
AcDbEntity
  8
1
  6
Continuous
 62
     4
100
AcDbLine
 10
39.18699434899941
 20
315.3198681948102
 30
0.0
 11
39.18699434899941
 21
314.8198681948102
 31
0.0
  0
LINE
  5
103
330
4B
100
AcDbEntity
  8
1
  6
Continuous
 62
     4
100
AcDbLine
 10
43.28699434899977
 20
341.8198681948102
 30
0.0
 11
49.98699434899869
 21
341.8198681948102
 31
0.0
  0
LINE
  5
104
330
4B
100
AcDbEntity
  8
1
  6
Continuous
 62
     4
100
AcDbLine
 10
49.98699434899869
 20
314.8198681948102
 30
0.0
 11
43.28699434899977
 21
314.8198681948102
 31
0.0
  0
LINE
  5
105
330
4B
100
AcDbEntity
  8
1
  6
Continuous
 62
     4
100
AcDbLine
 10
40.2869943489998
 20
341.8198681948102
 30
0.0
 11
39.18699434899941
 21
341.8198681948102
 31
0.0
  0
LINE
  5
106
330
4B
100
AcDbEntity
  8
1
  6
Continuous
 62
     4
100
AcDbLine
 10
40.2869943489998
 20
312.3198681948102
 30
0.0
 11
33.08699434899904
 21
312.3198681948102
 31
0.0
  0
LINE
  5
107
330
4B
100
AcDbEntity
  8
1
  6
Continuous
 62
     4
100
AcDbLine
 10
34.641152334445
 20
58.21862171165017
 30
0.0
 11
39.18699434899941
 21
53.67277969709576
 31
0.0
  0
LINE
  5
108
330
4B
100
AcDbEntity
  8
1
  6
Continuous
 62
     4
100
AcDbLine
 10
29.74541449454043
 20
66.21862171164946
 30
0.0
 11
33.2869943489998
 21
66.5727796970954
 31
0.0
  0
LINE
  5
109
330
4B
100
AcDbEntity
  8
1
  6
Continuous
 62
     4
100
AcDbLine
 10
90.68699434900076
 20
304.3198681948091
 30
0.0
 11
99.68699434900077
 21
304.3198681948091
 31
0.0
  0
LINE
  5
10A
330
4B
100
AcDbEntity
  8
1
  6
Continuous
 62
     4
100
AcDbLine
 10
99.68699434900077
 20
304.3198681948091
 30
0.0
 11
99.68699434900077
 21
295.3198681948091
 31
0.0
  0
LINE
  5
10B
330
4B
100
AcDbEntity
  8
1
  6
Continuous
 62
     4
100
AcDbLine
 10
99.68699434900077
 20
295.3198681948091
 30
0.0
 11
90.68699434900076
 21
295.3198681948091
 31
0.0
  0
LINE
  5
10C
330
4B
100
AcDbEntity
  8
1
  6
Continuous
 62
     4
100
AcDbLine
 10
90.68699434900076
 20
295.3198681948091
 30
0.0
 11
90.68699434900076
 21
304.3198681948091
 31
0.0
  0
LINE
  5
10D
330
4B
100
AcDbEntity
  8
1
  6
DOT_CENTER
 62
     3
100
AcDbLine
 10
105.3199943490008
 20
299.8198681948091
 30
0.0
 11
119.6222221441588
 21
299.8198681948091
 31
0.0
  0
LINE
  5
10E
330
4B
100
AcDbEntity
  8
1
  6
Continuous
 62
     4
100
AcDbLine
 10
43.28699434899977
 20
184.5842898208025
 30
0.0
 11
43.28699434899977
 21
197.8198681948091
 31
0.0
  0
LINE
  5
10F
330
4B
100
AcDbEntity
  8
1
  6
Continuous
 62
     4
100
AcDbLine
 10
43.28699434899977
 20
216.0143958864945
 30
0.0
 11
43.28699434899977
 21
261.9014312580415
 31
0.0
  0
LINE
  5
110
330
4B
100
AcDbEntity
  8
1
  6
Continuous
 62
     4
100
AcDbLine
 10
43.28699434899977
 20
271.0716058029035
 30
0.0
 11
43.28699434899977
 21
278.537647123809
 31
0.0
  0
LINE
  5
111
330
4B
100
AcDbEntity
  8
1
  6
Continuous
 62
     4
100
AcDbLine
 10
43.28699434899977
 20
302.9916617497924
 30
0.0
 11
43.28699434899977
 21
353.2561633899547
 31
0.0
  0
LINE
  5
112
330
4B
100
AcDbEntity
  8
1
  6
Continuous
 62
     4
100
AcDbLine
 10
43.28699434899977
 20
357.4725096163146
 30
0.0
 11
43.28699434899977
 21
397.8198681948095
 31
0.0
  0
LINE
  5
113
330
4B
100
AcDbEntity
  8
1
  6
Continuous
 62
     4
100
AcDbLine
 10
353.8327674049923
 20
292.9912676167516
 30
0.0
 11
353.8327674049923
 21
300.4990296374935
 31
0.0
  0
LINE
  5
114
330
4B
100
AcDbEntity
  8
1
  6
Continuous
 62
     4
100
AcDbLine
 10
353.8327674049923
 20
311.6312284958355
 30
0.0
 11
353.8327674049923
 21
385.8198681948036
 31
0.0
  0
LINE
  5
115
330
4B
100
AcDbEntity
  8
1
  6
Continuous
 62
     4
100
AcDbLine
 10
329.8327674049928
 20
300.7579179830365
 30
0.0
 11
329.8327674049933
 21
276.7842542865904
 31
0.0
  0
LINE
  5
116
330
4B
100
AcDbEntity
  8
1
  6
Continuous
 62
     4
100
AcDbLine
 10
234.5707814166733
 20
298.6868112186935
 30
0.0
 11
234.5707814166746
 21
272.1878497702306
 31
0.0
  0
LINE
  5
117
330
4B
100
AcDbEntity
  8
1
  6
Continuous
 62
     4
100
AcDbLine
 10
254.5707814166778
 20
299.7223646008645
 30
0.0
 11
254.5707814166778
 21
292.2146025801225
 31
0.0
  0
LINE
  5
118
330
4B
100
AcDbEntity
  8
1
  6
Continuous
 62
     4
100
AcDbLine
 10
254.5707814166778
 20
285.7423939415515
 30
0.0
 11
254.5707814166778
 21
272.3876934448546
 31
0.0
  0
LINE
  5
119
330
4B
100
AcDbEntity
  8
1
  6
Continuous
 62
     4
100
AcDbLine
 10
353.8327674049923
 20
276.5844106119665
 30
0.0
 11
353.8327674049923
 21
286.5190589781804
 31
0.0
  0
LINE
  5
11A
330
4B
100
AcDbEntity
  8
1
  6
Continuous
 62
     4
100
AcDbLine
 10
246.570781416677
 20
237.8147377348425
 30
0.0
 11
246.5707814166766
 21
227.3302418496481
 31
0.0
  0
LINE
  5
11B
330
4B
100
AcDbEntity
  8
1
  6
Continuous
 62
     4
100
AcDbLine
 10
345.0327674049938
 20
237.0153630363456
 30
0.0
 11
345.0327674049938
 21
227.3302418496463
 31
0.0
  0
LINE
  5
11C
330
4B
100
AcDbEntity
  8
1
  6
Continuous
 62
     4
100
AcDbLine
 10
329.8327674049936
 20
265.9926958568756
 30
0.0
 11
329.8327674049948
 21
220.4283380425245
 31
0.0
  0
LINE
  5
11D
330
4B
100
AcDbEntity
  8
1
  6
Continuous
 62
     4
100
AcDbLine
 10
254.5707814166778
 20
263.7944154360074
 30
0.0
 11
254.5707814166778
 21
219.6289633440265
 31
0.0
  0
LINE
  5
11E
330
4B
100
AcDbEntity
  8
1
  6
Continuous
 62
     4
100
AcDbLine
 10
234.570781416675
 20
264.1941027852565
 30
0.0
 11
234.5707814166758
 21
247.2073904421865
 31
0.0
  0
LINE
  5
11F
330
4B
100
AcDbEntity
  8
1
  6
Continuous
 62
     4
100
AcDbLine
 10
234.5707814166758
 20
247.2073904421865
 30
0.0
 11
234.5707814166774
 21
218.2300576216565
 31
0.0
  0
LINE
  5
120
330
4B
100
AcDbEntity
  8
1
  6
Continuous
 62
     4
100
AcDbLine
 10
353.8327674049923
 20
221.8272437648945
 30
0.0
 11
353.8327674049923
 21
265.9926958568756
 31
0.0
  0
LINE
  5
121
330
4B
100
AcDbEntity
  8
1
  6
Continuous
 62
     4
100
AcDbLine
 10
329.8327674049951
 20
213.0027538532097
 30
0.0
 11
329.832767404996
 21
174.8198681948036
 31
0.0
  0
LINE
  5
122
330
4B
100
AcDbEntity
  8
1
  6
Continuous
 62
     4
100
AcDbLine
 10
254.5707814166778
 20
212.8029101785847
 30
0.0
 11
254.5707814166778
 21
172.8198681948091
 31
0.0
  0
LINE
  5
123
330
4B
100
AcDbEntity
  8
1
  6
Continuous
 62
     4
100
AcDbLine
 10
234.5707814166778
 20
213.6022848770827
 30
0.0
 11
234.5707814166795
 21
172.8198681948073
 31
0.0
  0
LINE
  5
124
330
4B
100
AcDbEntity
  8
1
  6
Continuous
 62
     4
100
AcDbLine
 10
339.7326094195474
 20
342.1198681948109
 30
0.0
 11
339.7326094195474
 21
315.1198681948109
 31
0.0
  0
LINE
  5
125
330
4B
100
AcDbEntity
  8
1
  6
Continuous
 62
     4
100
AcDbLine
 10
241.2706234312329
 20
342.1198681948109
 30
0.0
 11
241.2706234312329
 21
315.1198681948109
 31
0.0
  0
LINE
  5
126
330
4B
100
AcDbEntity
  8
1
  6
DOT_CENTER
 62
     3
100
AcDbLine
 10
341.8327674049939
 20
378.4581031832794
 30
0.0
 11
341.8327674049923
 21
382.1198681948065
 31
0.0
  0
LINE
  5
127
330
4B
100
AcDbEntity
  8
1
  6
DOT_CENTER
 62
     3
100
AcDbLine
 10
341.8327674049942
 20
183.3883446004732
 30
0.0
 11
341.8327674049923
 21
178.519868194808
 31
0.0
  0
LINE
  5
128
330
4B
100
AcDbEntity
  8
1
  6
Continuous
 62
     4
100
AcDbLine
 10
329.8327674049905
 20
385.8198681948032
 30
0.0
 11
329.8327674049925
 21
310.8545634592065
 31
0.0
  0
LINE
  5
129
330
4B
100
AcDbEntity
  8
1
  6
DOT_CENTER
 62
     3
100
AcDbLine
 10
341.8327674049923
 20
178.519868194808
 30
0.0
 11
341.8327674049923
 21
173.1198681948065
 31
0.0
  0
LINE
  5
12A
330
4B
100
AcDbEntity
  8
1
  6
DOT_CENTER
 62
     3
100
AcDbLine
 10
341.8327674049923
 20
173.1198681948065
 30
0.0
 11
341.8327674049923
 21
167.7961031832795
 31
0.0
  0
LINE
  5
12B
330
4B
100
AcDbEntity
  8
1
  6
DOT_CENTER
 62
     3
100
AcDbLine
 10
341.8327674049923
 20
387.5198681948044
 30
0.0
 11
341.8327674049929
 21
392.0321031832794
 31
0.0
  0
LINE
  5
12C
330
4B
100
AcDbEntity
  8
1
  6
DOT_CENTER
 62
     3
100
AcDbLine
 10
341.8327674049923
 20
382.1198681948065
 30
0.0
 11
341.8327674049923
 21
387.5198681948044
 31
0.0
  0
LINE
  5
12D
330
4B
100
AcDbEntity
  8
1
  6
Continuous
 62
     4
100
AcDbLine
 10
345.0327674049938
 20
262.5094945399635
 30
0.0
 11
345.0327674049938
 21
244.6094226720705
 31
0.0
  0
LINE
  5
12E
330
4B
100
AcDbEntity
  8
1
  6
DOT_CENTER
 62
     3
100
AcDbLine
 10
336.5231903556959
 20
175.8198681948054
 30
0.0
 11
347.2641883063589
 21
175.8198681948054
 31
0.0
  0
LINE
  5
12F
330
4B
100
AcDbEntity
  8
1
  6
DOT_CENTER
 62
     3
100
AcDbLine
 10
347.3311606885417
 20
384.8198681948036
 30
0.0
 11
336.1871150654132
 21
384.8198681948036
 31
0.0
  0
LINE
  5
130
330
4B
100
AcDbEntity
  8
1
  6
Continuous
 62
     4
100
AcDbLine
 10
337.0327674049931
 20
262.5094945399635
 30
0.0
 11
337.0327674049931
 21
227.3302418496463
 31
0.0
  0
LINE
  5
131
330
4B
100
AcDbEntity
  8
1
  6
Continuous
 62
     4
100
AcDbLine
 10
339.2327674049921
 20
276.8698681948047
 30
0.0
 11
339.2327674049921
 21
275.259360737193
 31
0.0
  0
LINE
  5
132
330
4B
100
AcDbEntity
  8
1
  6
Continuous
 62
     4
100
AcDbLine
 10
339.2327674049921
 20
282.7698681948061
 30
0.0
 11
339.2327674049956
 21
284.380375652416
 31
0.0
  0
LINE
  5
133
330
4B
100
AcDbEntity
  8
1
  6
Continuous
 62
     4
100
AcDbLine
 10
347.0327674049964
 20
277.2698681948025
 30
0.0
 11
347.0327674049945
 21
282.3698681948029
 31
0.0
  0
LINE
  5
134
330
4B
100
AcDbEntity
  8
1
  6
Continuous
 62
     4
100
AcDbLine
 10
336.5327674049967
 20
275.2593607371912
 30
0.0
 11
336.5327674049967
 21
284.380375652416
 31
0.0
  0
LINE
  5
135
330
4B
100
AcDbEntity
  8
1
  6
Continuous
 62
     4
100
AcDbLine
 10
353.8327674049923
 20
174.8198681948054
 30
0.0
 11
353.8327674049923
 21
211.6038481308387
 31
0.0
  0
LINE
  5
136
330
4B
100
AcDbEntity
  8
1
  6
Continuous
 62
     4
100
AcDbLine
 10
346.8327674049956
 20
282.5698681948054
 30
0.0
 11
345.3741209355353
 21
282.5698681948036
 31
0.0
  0
LINE
  5
137
330
4B
100
AcDbEntity
  8
1
  6
Continuous
 62
     4
100
AcDbLine
 10
346.8327674049956
 20
277.0698681948017
 30
0.0
 11
345.3741209355317
 21
277.0698681948036
 31
0.0
  0
LINE
  5
138
330
4B
100
AcDbEntity
  8
1
  6
Continuous
 62
     4
100
AcDbLine
 10
342.891413874453
 20
277.0698681948036
 30
0.0
 11
339.4327674049945
 21
277.0698681948036
 31
0.0
  0
LINE
  5
139
330
4B
100
AcDbEntity
  8
1
  6
Continuous
 62
     4
100
AcDbLine
 10
342.8914138744566
 20
282.5698681948036
 30
0.0
 11
339.4327674049963
 21
282.5698681948054
 31
0.0
  0
LINE
  5
13A
330
4B
100
AcDbEntity
  8
1
  6
Continuous
 62
     4
100
AcDbLine
 10
339.4327674049963
 20
282.5698681948054
 30
0.0
 11
339.4327674049963
 21
277.0698681948036
 31
0.0
  0
LINE
  5
13B
330
4B
100
AcDbEntity
  8
1
  6
Continuous
 62
     4
100
AcDbLine
 10
240.9707814166781
 20
282.5698681948073
 30
0.0
 11
240.9707814166781
 21
277.0698681948108
 31
0.0
  0
LINE
  5
13C
330
4B
100
AcDbEntity
  8
1
  6
Continuous
 62
     4
100
AcDbLine
 10
337.0326094195485
 20
312.6198681948109
 30
0.0
 11
339.2326094195474
 21
312.6198681948109
 31
0.0
  0
LINE
  5
13D
330
4B
100
AcDbEntity
  8
1
  6
Continuous
 62
     4
100
AcDbLine
 10
339.7326094195474
 20
313.1198681948109
 30
0.0
 11
339.7326094195474
 21
315.1198681948109
 31
0.0
  0
LINE
  5
13E
330
4B
100
AcDbEntity
  8
1
  6
Continuous
 62
     4
100
AcDbLine
 10
339.2326094195474
 20
344.6198681948109
 30
0.0
 11
337.0326094195485
 21
344.6198681948109
 31
0.0
  0
LINE
  5
13F
330
4B
100
AcDbEntity
  8
1
  6
Continuous
 62
     4
100
AcDbLine
 10
336.5326094195485
 20
344.1198681948109
 30
0.0
 11
336.5326094195485
 21
313.1198681948109
 31
0.0
  0
LINE
  5
140
330
4B
100
AcDbEntity
  8
1
  6
Continuous
 62
     4
100
AcDbLine
 10
339.7326094195474
 20
315.1198681948109
 30
0.0
 11
348.932609419548
 21
315.1198681948109
 31
0.0
  0
LINE
  5
141
330
4B
100
AcDbEntity
  8
1
  6
Continuous
 62
     4
100
AcDbLine
 10
349.432609419548
 20
315.6198681948109
 30
0.0
 11
349.432609419548
 21
341.6198681948109
 31
0.0
  0
LINE
  5
142
330
4B
100
AcDbEntity
  8
1
  6
Continuous
 62
     4
100
AcDbLine
 10
348.932609419548
 20
342.1198681948109
 30
0.0
 11
339.7326094195474
 21
342.1198681948109
 31
0.0
  0
LINE
  5
143
330
4B
100
AcDbEntity
  8
1
  6
Continuous
 62
     4
100
AcDbLine
 10
336.5326094195485
 20
344.1198681948109
 30
0.0
 11
337.0326094195485
 21
344.6198681948109
 31
0.0
  0
LINE
  5
144
330
4B
100
AcDbEntity
  8
1
  6
Continuous
 62
     4
100
AcDbLine
 10
339.2326094195474
 20
344.6198681948109
 30
0.0
 11
339.7326094195474
 21
344.1198681948109
 31
0.0
  0
LINE
  5
145
330
4B
100
AcDbEntity
  8
1
  6
Continuous
 62
     4
100
AcDbLine
 10
339.7326094195474
 20
313.1198681948109
 30
0.0
 11
339.2326094195474
 21
312.6198681948109
 31
0.0
  0
LINE
  5
146
330
4B
100
AcDbEntity
  8
1
  6
Continuous
 62
     4
100
AcDbLine
 10
336.5326094195485
 20
313.1198681948109
 30
0.0
 11
337.0326094195485
 21
312.6198681948109
 31
0.0
  0
LINE
  5
147
330
4B
100
AcDbEntity
  8
1
  6
Continuous
 62
     4
100
AcDbLine
 10
349.432609419548
 20
315.6198681948109
 30
0.0
 11
348.932609419548
 21
315.1198681948109
 31
0.0
  0
LINE
  5
148
330
4B
100
AcDbEntity
  8
1
  6
Continuous
 62
     4
100
AcDbLine
 10
348.932609419548
 20
342.1198681948109
 30
0.0
 11
349.432609419548
 21
341.6198681948109
 31
0.0
  0
LINE
  5
149
330
4B
100
AcDbEntity
  8
1
  6
Continuous
 62
     4
100
AcDbLine
 10
339.7326094195474
 20
342.1198681948109
 30
0.0
 11
339.7326094195474
 21
344.1198681948109
 31
0.0
  0
LINE
  5
14A
330
4B
100
AcDbEntity
  8
1
  6
Continuous
 62
     4
100
AcDbLine
 10
238.570623431234
 20
312.6198681948109
 30
0.0
 11
240.7706234312329
 21
312.6198681948109
 31
0.0
  0
LINE
  5
14B
330
4B
100
AcDbEntity
  8
1
  6
Continuous
 62
     4
100
AcDbLine
 10
241.2706234312329
 20
313.1198681948109
 30
0.0
 11
241.2706234312329
 21
315.1198681948109
 31
0.0
  0
LINE
  5
14C
330
4B
100
AcDbEntity
  8
1
  6
Continuous
 62
     4
100
AcDbLine
 10
240.7706234312329
 20
344.6198681948109
 30
0.0
 11
238.570623431234
 21
344.6198681948109
 31
0.0
  0
LINE
  5
14D
330
4B
100
AcDbEntity
  8
1
  6
Continuous
 62
     4
100
AcDbLine
 10
238.070623431234
 20
344.1198681948109
 30
0.0
 11
238.070623431234
 21
313.1198681948109
 31
0.0
  0
LINE
  5
14E
330
4B
100
AcDbEntity
  8
1
  6
Continuous
 62
     4
100
AcDbLine
 10
241.2706234312329
 20
315.1198681948109
 30
0.0
 11
250.4706234312336
 21
315.1198681948109
 31
0.0
  0
LINE
  5
14F
330
4B
100
AcDbEntity
  8
1
  6
Continuous
 62
     4
100
AcDbLine
 10
250.9706234312336
 20
315.6198681948109
 30
0.0
 11
250.9706234312336
 21
341.6198681948109
 31
0.0
  0
LINE
  5
150
330
4B
100
AcDbEntity
  8
1
  6
Continuous
 62
     4
100
AcDbLine
 10
250.4706234312336
 20
342.1198681948109
 30
0.0
 11
241.2706234312329
 21
342.1198681948109
 31
0.0
  0
LINE
  5
151
330
4B
100
AcDbEntity
  8
1
  6
Continuous
 62
     4
100
AcDbLine
 10
238.070623431234
 20
344.1198681948109
 30
0.0
 11
238.570623431234
 21
344.6198681948109
 31
0.0
  0
LINE
  5
152
330
4B
100
AcDbEntity
  8
1
  6
Continuous
 62
     4
100
AcDbLine
 10
240.7706234312329
 20
344.6198681948109
 30
0.0
 11
241.2706234312329
 21
344.1198681948109
 31
0.0
  0
LINE
  5
153
330
4B
100
AcDbEntity
  8
1
  6
Continuous
 62
     4
100
AcDbLine
 10
241.2706234312329
 20
313.1198681948109
 30
0.0
 11
240.7706234312329
 21
312.6198681948109
 31
0.0
  0
LINE
  5
154
330
4B
100
AcDbEntity
  8
1
  6
Continuous
 62
     4
100
AcDbLine
 10
238.070623431234
 20
313.1198681948109
 30
0.0
 11
238.570623431234
 21
312.6198681948109
 31
0.0
  0
LINE
  5
155
330
4B
100
AcDbEntity
  8
1
  6
Continuous
 62
     4
100
AcDbLine
 10
250.9706234312336
 20
315.6198681948109
 30
0.0
 11
250.4706234312336
 21
315.1198681948109
 31
0.0
  0
LINE
  5
156
330
4B
100
AcDbEntity
  8
1
  6
Continuous
 62
     4
100
AcDbLine
 10
250.4706234312336
 20
342.1198681948109
 30
0.0
 11
250.9706234312336
 21
341.6198681948109
 31
0.0
  0
LINE
  5
157
330
4B
100
AcDbEntity
  8
1
  6
Continuous
 62
     4
100
AcDbLine
 10
241.2706234312329
 20
342.1198681948109
 30
0.0
 11
241.2706234312329
 21
344.1198681948109
 31
0.0
  0
LINE
  5
158
330
4B
100
AcDbEntity
  8
1
  6
Continuous
 62
     4
100
AcDbLine
 10
254.5707814166778
 20
387.8198681948036
 30
0.0
 11
254.5707814166778
 21
308.7834566948636
 31
0.0
  0
LINE
  5
159
330
4B
100
AcDbEntity
  8
1
  6
Continuous
 62
     4
100
AcDbLine
 10
244.4294278861367
 20
282.5698681948073
 30
0.0
 11
240.9707814166781
 21
282.5698681948073
 31
0.0
  0
LINE
  5
15A
330
4B
100
AcDbEntity
  8
1
  6
Continuous
 62
     4
100
AcDbLine
 10
244.4294278861347
 20
277.0698681948091
 30
0.0
 11
240.9707814166746
 21
277.0698681948108
 31
0.0
  0
LINE
  5
15B
330
4B
100
AcDbEntity
  8
1
  6
Continuous
 62
     4
100
AcDbLine
 10
248.3707814166793
 20
277.0698681948054
 30
0.0
 11
246.9121349472116
 21
277.0698681948073
 31
0.0
  0
LINE
  5
15C
330
4B
100
AcDbEntity
  8
1
  6
Continuous
 62
     4
100
AcDbLine
 10
248.3707814166774
 20
282.5698681948073
 30
0.0
 11
246.9121349472153
 21
282.5698681948073
 31
0.0
  0
LINE
  5
15D
330
4B
100
AcDbEntity
  8
1
  6
Continuous
 62
     4
100
AcDbLine
 10
254.5707814166778
 20
387.8198681948091
 30
0.0
 11
254.5707814166778
 21
387.8198681948036
 31
0.0
  0
LINE
  5
15E
330
4B
100
AcDbEntity
  8
1
  6
Continuous
 62
     4
100
AcDbLine
 10
238.0707814166786
 20
275.2593607371967
 30
0.0
 11
238.0707814166786
 21
284.3803756524178
 31
0.0
  0
LINE
  5
15F
330
4B
100
AcDbEntity
  8
1
  6
Continuous
 62
     4
100
AcDbLine
 10
248.5707814166782
 20
277.2698681948044
 30
0.0
 11
248.5707814166799
 21
282.3698681948047
 31
0.0
  0
LINE
  5
160
330
4B
100
AcDbEntity
  8
1
  6
Continuous
 62
     4
100
AcDbLine
 10
240.7707814166755
 20
282.7698681948062
 30
0.0
 11
240.7707814166792
 21
284.3803756524178
 31
0.0
  0
LINE
  5
161
330
4B
100
AcDbEntity
  8
1
  6
Continuous
 62
     4
100
AcDbLine
 10
240.7707814166755
 20
276.869868194812
 30
0.0
 11
240.7707814166775
 21
275.2593607371949
 31
0.0
  0
LINE
  5
162
330
4B
100
AcDbEntity
  8
1
  6
Continuous
 62
     4
100
AcDbLine
 10
238.5707814166803
 20
262.5094945399672
 30
0.0
 11
238.5707814166803
 21
227.3302418496481
 31
0.0
  0
LINE
  5
163
330
4B
100
AcDbEntity
  8
1
  6
DOT_CENTER
 62
     3
100
AcDbLine
 10
250.0691747002253
 20
384.8198681948053
 30
0.0
 11
238.925129077095
 21
384.8198681948091
 31
0.0
  0
LINE
  5
164
330
4B
100
AcDbEntity
  8
1
  6
DOT_CENTER
 62
     3
100
AcDbLine
 10
239.2612043673795
 20
175.8198681948054
 30
0.0
 11
250.0022023180478
 21
175.8198681948109
 31
0.0
  0
LINE
  5
165
330
4B
100
AcDbEntity
  8
1
  6
Continuous
 62
     4
100
AcDbLine
 10
246.5707814166774
 20
262.5094945399672
 30
0.0
 11
246.5707814166771
 21
247.2073904421865
 31
0.0
  0
LINE
  5
166
330
4B
100
AcDbEntity
  8
1
  6
DOT_CENTER
 62
     3
100
AcDbLine
 10
244.570781416676
 20
378.4581031832794
 30
0.0
 11
244.570781416676
 21
387.5198681948079
 31
0.0
  0
LINE
  5
167
330
4B
100
AcDbEntity
  8
1
  6
DOT_CENTER
 62
     3
100
AcDbLine
 10
244.570781416676
 20
387.5198681948079
 30
0.0
 11
244.5707814166753
 21
392.0321031832794
 31
0.0
  0
LINE
  5
168
330
4B
100
AcDbEntity
  8
1
  6
DOT_CENTER
 62
     3
100
AcDbLine
 10
244.5707814166778
 20
173.1198681948083
 30
0.0
 11
244.570781416677
 21
167.7961031832795
 31
0.0
  0
LINE
  5
169
330
4B
100
AcDbEntity
  8
1
  6
DOT_CENTER
 62
     3
100
AcDbLine
 10
244.570781416676
 20
178.519868194808
 30
0.0
 11
244.5707814166778
 21
173.1198681948083
 31
0.0
  0
LINE
  5
16A
330
4B
100
AcDbEntity
  8
1
  6
Continuous
 62
     4
100
AcDbLine
 10
234.5707814166689
 20
387.8198681948086
 30
0.0
 11
234.5707814166728
 21
308.7834566948635
 31
0.0
  0
LINE
  5
16B
330
4B
100
AcDbEntity
  8
1
  6
DOT_CENTER
 62
     3
100
AcDbLine
 10
244.5707814166778
 20
183.3883446004732
 30
0.0
 11
244.570781416676
 21
178.519868194808
 31
0.0
  0
LINE
  5
16C
330
4B
100
AcDbEntity
  8
1
  6
DOT_CENTER
 62
     3
100
AcDbLine
 10
242.9707814166843
 20
214.3137503145112
 30
0.0
 11
242.9707814166843
 21
211.5198681948145
 31
0.0
  0
LINE
  5
16D
330
4B
100
AcDbEntity
  8
1
  6
DOT_CENTER
 62
     3
100
AcDbLine
 10
236.8153743680808
 20
208.8198681948101
 30
0.0
 11
249.0152009644965
 21
208.8198681948101
 31
0.0
  0
LINE
  5
16E
330
4B
100
AcDbEntity
  8
1
  6
DOT_CENTER
 62
     3
100
AcDbLine
 10
242.9707814166843
 20
206.119868194813
 30
0.0
 11
242.9707814166807
 21
202.2479599555786
 31
0.0
  0
LINE
  5
16F
330
4B
100
AcDbEntity
  8
1
  6
DOT_CENTER
 62
     3
100
AcDbLine
 10
242.9707814166843
 20
211.5198681948145
 30
0.0
 11
242.9707814166843
 21
206.119868194813
 31
0.0
  0
LINE
  5
170
330
4B
100
AcDbEntity
  8
1
  6
DOT_CENTER
 62
     3
100
AcDbLine
 10
341.7327674049883
 20
211.519868194809
 30
0.0
 11
341.7327674049901
 21
206.1198681948094
 31
0.0
  0
LINE
  5
171
330
4B
100
AcDbEntity
  8
1
  6
DOT_CENTER
 62
     3
100
AcDbLine
 10
341.7327674049901
 20
206.1198681948094
 30
0.0
 11
341.7327674049901
 21
202.2479599555749
 31
0.0
  0
LINE
  5
172
330
4B
100
AcDbEntity
  8
1
  6
DOT_CENTER
 62
     3
100
AcDbLine
 10
335.5773603563883
 20
208.8198681948101
 30
0.0
 11
347.7771869528041
 21
208.8198681948083
 31
0.0
  0
LINE
  5
173
330
4B
100
AcDbEntity
  8
1
  6
DOT_CENTER
 62
     3
100
AcDbLine
 10
341.7327674049883
 20
214.3137503145076
 30
0.0
 11
341.7327674049883
 21
211.519868194809
 31
0.0
  0
LINE
  5
174
330
4B
100
AcDbEntity
  8
1
  6
DOT_CENTER
 62
     3
100
AcDbLine
 10
38.66396853393229
 20
208.8198681948083
 30
0.0
 11
46.32996853393229
 21
208.8198681948083
 31
0.0
  0
ARC
  5
175
330
4B
100
AcDbEntity
  8
1
  6
Continuous
 62
     4
100
AcDbCircle
 10
141.3057098635053
 20
380.8722866019029
 30
0.0
 40
4.999999999999625
100
AcDbArc
 50
348.4630409671836
 51
41.53695903280602
  0
ARC
  5
176
330
4B
100
AcDbEntity
  8
1
  6
Continuous
 62
     4
100
AcDbCircle
 10
95.18699434900076
 20
278.3198681948091
 30
0.0
 40
4.600000000000151
100
AcDbArc
 50
180.0
 51
0.0
  0
ARC
  5
177
330
4B
100
AcDbEntity
  8
1
  6
Continuous
 62
     4
100
AcDbCircle
 10
95.18699434900076
 20
278.3198681948091
 30
0.0
 40
4.600000000000136
100
AcDbArc
 50
0.0
 51
180.0
  0
ARC
  5
178
330
4B
100
AcDbEntity
  8
1
  6
Continuous
 62
     4
100
AcDbCircle
 10
76.18699434900078
 20
219.8198681948091
 30
0.0
 40
4.100000000000108
100
AcDbArc
 50
180.0
 51
359.9999999999989
  0
ARC
  5
179
330
4B
100
AcDbEntity
  8
1
  6
Continuous
 62
     4
100
AcDbCircle
 10
76.18699434900078
 20
219.8198681948091
 30
0.0
 40
4.100000000000094
100
AcDbArc
 50
359.9999999999989
 51
180.0
  0
ARC
  5
17A
330
4B
100
AcDbEntity
  8
1
  6
Continuous
 62
     4
100
AcDbCircle
 10
95.18699434900076
 20
207.9198681948094
 30
0.0
 40
5.150000000001
100
AcDbArc
 50
180.0
 51
0.0
  0
ARC
  5
17B
330
4B
100
AcDbEntity
  8
1
  6
Continuous
 62
     4
100
AcDbCircle
 10
60.48699434900099
 20
328.5198681948102
 30
0.0
 40
5.000000000000005
100
AcDbArc
 50
143.130102354156
 51
180.0
  0
ARC
  5
17C
330
4B
100
AcDbEntity
  8
1
  6
Continuous
 62
     4
100
AcDbCircle
 10
60.48699434900099
 20
328.5198681948102
 30
0.0
 40
5.000000000000007
100
AcDbArc
 50
180.0
 51
216.8698976458439
  0
ARC
  5
17D
330
4B
100
AcDbEntity
  8
1
  6
Continuous
 62
     4
100
AcDbCircle
 10
95.18699434900076
 20
227.8198681948091
 30
0.0
 40
8.649999999999416
100
AcDbArc
 50
306.5394211431575
 51
233.4605788568446
  0
ARC
  5
17E
330
4B
100
AcDbEntity
  8
1
  6
Continuous
 62
     4
100
AcDbCircle
 10
35.28699434900176
 20
62.21862171165017
 30
0.0
 40
14.99999999999842
100
AcDbArc
 50
168.8405317264791
 51
191.1594682735318
  0
ARC
  5
17F
330
4B
100
AcDbEntity
  8
1
  6
Continuous
 62
     4
100
AcDbCircle
 10
341.8327674049923
 20
385.8198681948036
 30
0.0
 40
11.99999999999801
100
AcDbArc
 50
90.0
 51
179.9999999999919
  0
ARC
  5
180
330
4B
100
AcDbEntity
  8
1
  6
Continuous
 62
     4
100
AcDbCircle
 10
341.8327674049942
 20
174.8198681948054
 30
0.0
 40
12.0
100
AcDbArc
 50
270.0
 51
359.9999999999829
  0
ARC
  5
181
330
4B
100
AcDbEntity
  8
1
  6
Continuous
 62
     4
100
AcDbCircle
 10
341.0327674049981
 20
189.3765444423648
 30
0.0
 40
37.94345552769646
100
AcDbArc
 50
84.28169444307697
 51
89.8489967636239
  0
ARC
  5
182
330
4B
100
AcDbEntity
  8
1
  6
Continuous
 62
     4
100
AcDbCircle
 10
341.1327674049971
 20
302.5198681948061
 30
0.0
 40
40.00000000000077
100
AcDbArc
 50
264.432697679451
 51
269.9999999999947
  0
ARC
  5
183
330
4B
100
AcDbEntity
  8
1
  6
Continuous
 62
     4
100
AcDbCircle
 10
341.8327674049923
 20
175.8198681948073
 30
0.0
 40
2.700000000000699
100
AcDbArc
 50
90.0
 51
270.0
  0
ARC
  5
184
330
4B
100
AcDbEntity
  8
1
  6
Continuous
 62
     4
100
AcDbCircle
 10
341.8327674049923
 20
175.8198681948073
 30
0.0
 40
2.700000000000813
100
AcDbArc
 50
270.0
 51
90.0
  0
ARC
  5
185
330
4B
100
AcDbEntity
  8
1
  6
Continuous
 62
     4
100
AcDbCircle
 10
341.8327674049923
 20
384.8198681948036
 30
0.0
 40
2.700000000000841
100
AcDbArc
 50
90.0
 51
270.0
  0
ARC
  5
186
330
4B
100
AcDbEntity
  8
1
  6
Continuous
 62
     4
100
AcDbCircle
 10
341.8327674049923
 20
384.8198681948036
 30
0.0
 40
2.69999999999709
100
AcDbArc
 50
270.0
 51
90.0
  0
ARC
  5
187
330
4B
100
AcDbEntity
  8
1
  6
Continuous
 62
     4
100
AcDbCircle
 10
341.0327674049962
 20
300.4631919472467
 30
0.0
 40
37.94345552769963
100
AcDbArc
 50
270.1510032363762
 51
275.7183055569229
  0
ARC
  5
188
330
4B
100
AcDbEntity
  8
1
  6
Continuous
 62
     4
100
AcDbCircle
 10
341.1327674049988
 20
187.3198681948054
 30
0.0
 40
39.99999999999821
100
AcDbArc
 50
90.00000000000513
 51
95.56730232055192
  0
ARC
  5
189
330
4B
100
AcDbEntity
  8
1
  6
Continuous
 62
     4
100
AcDbCircle
 10
337.8827674049971
 20
288.419868194804
 30
0.0
 40
4.0000000000001
100
AcDbArc
 50
254.10891788131
 51
285.8910821185753
  0
ARC
  5
18A
330
4B
100
AcDbEntity
  8
1
  6
Continuous
 62
     4
100
AcDbCircle
 10
337.8827674049988
 20
271.2198681948031
 30
0.0
 40
3.999999999999555
100
AcDbArc
 50
74.1089178814415
 51
105.8910821186986
  0
ARC
  5
18B
330
4B
100
AcDbEntity
  8
1
  6
Continuous
 62
     4
100
AcDbCircle
 10
344.1327674049944
 20
288.4693727258073
 30
0.0
 40
6.028690761609224
100
AcDbArc
 50
258.1173629920942
 51
281.8826370079344
  0
ARC
  5
18C
330
4B
100
AcDbEntity
  8
1
  6
Continuous
 62
     4
100
AcDbCircle
 10
344.1327674049938
 20
271.1703636637999
 30
0.0
 40
6.028690761609191
100
AcDbArc
 50
78.11736299209304
 51
101.8826370079334
  0
ARC
  5
18D
330
4B
100
AcDbEntity
  8
1
  6
Continuous
 62
     4
100
AcDbCircle
 10
245.6707814166735
 20
271.1703636638074
 30
0.0
 40
6.028690761605556
100
AcDbArc
 50
78.1173629920841
 51
101.8826370079188
  0
ARC
  5
18E
330
4B
100
AcDbEntity
  8
1
  6
Continuous
 62
     4
100
AcDbCircle
 10
245.6707814166743
 20
288.4693727258109
 30
0.0
 40
6.028690761609011
100
AcDbArc
 50
258.1173629920959
 51
281.8826370079357
  0
ARC
  5
18F
330
4B
100
AcDbEntity
  8
1
  6
Continuous
 62
     4
100
AcDbCircle
 10
239.4207814166771
 20
271.2198681948105
 30
0.0
 40
3.999999999994142
100
AcDbArc
 50
74.10891788142239
 51
105.8910821186411
  0
ARC
  5
190
330
4B
100
AcDbEntity
  8
1
  6
Continuous
 62
     4
100
AcDbCircle
 10
239.4207814166789
 20
288.4198681948094
 30
0.0
 40
4.000000000002673
100
AcDbArc
 50
254.1089178813738
 51
285.891082118569
  0
ARC
  5
191
330
4B
100
AcDbEntity
  8
1
  6
Continuous
 62
     4
100
AcDbCircle
 10
242.6707814166752
 20
187.3198681948054
 30
0.0
 40
40.00000000000369
100
AcDbArc
 50
89.99999999999729
 51
95.56730232054346
  0
ARC
  5
192
330
4B
100
AcDbEntity
  8
1
  6
Continuous
 62
     4
100
AcDbCircle
 10
242.57078141668
 20
300.4631919472484
 30
0.0
 40
37.94345552769764
100
AcDbArc
 50
270.151003236376
 51
275.7183055569222
  0
ARC
  5
193
330
4B
100
AcDbEntity
  8
1
  6
Continuous
 62
     4
100
AcDbCircle
 10
244.570781416676
 20
384.8198681948073
 30
0.0
 40
2.700000000000841
100
AcDbArc
 50
270.0
 51
90.0
  0
ARC
  5
194
330
4B
100
AcDbEntity
  8
1
  6
Continuous
 62
     4
100
AcDbCircle
 10
244.570781416676
 20
384.8198681948073
 30
0.0
 40
2.700000000000557
100
AcDbArc
 50
90.0
 51
270.0
  0
ARC
  5
195
330
4B
100
AcDbEntity
  8
1
  6
Continuous
 62
     4
100
AcDbCircle
 10
244.570781416676
 20
175.8198681948073
 30
0.0
 40
2.699999999998994
100
AcDbArc
 50
270.000000000038
 51
90.0
  0
ARC
  5
196
330
4B
100
AcDbEntity
  8
1
  6
Continuous
 62
     4
100
AcDbCircle
 10
244.570781416676
 20
175.8198681948073
 30
0.0
 40
2.700000000000699
100
AcDbArc
 50
90.0
 51
270.000000000038
  0
ARC
  5
197
330
4B
100
AcDbEntity
  8
1
  6
Continuous
 62
     4
100
AcDbCircle
 10
242.6707814166789
 20
302.519868194808
 30
0.0
 40
40.00000000000082
100
AcDbArc
 50
264.432697679451
 51
269.9999999999974
  0
ARC
  5
198
330
4B
100
AcDbEntity
  8
1
  6
Continuous
 62
     4
100
AcDbCircle
 10
242.5707814166745
 20
189.376544442367
 30
0.0
 40
37.94345552769984
100
AcDbArc
 50
84.28169444307477
 51
89.84899676361563
  0
ARC
  5
199
330
4B
100
AcDbEntity
  8
1
  6
Continuous
 62
     4
100
AcDbCircle
 10
341.8327674049923
 20
385.8198681948036
 30
0.0
 40
12.0
100
AcDbArc
 50
0.0
 51
90.0
  0
ARC
  5
19A
330
4B
100
AcDbEntity
  8
1
  6
Continuous
 62
     4
100
AcDbCircle
 10
341.8327674049942
 20
174.8198681948054
 30
0.0
 40
11.99999999999818
100
AcDbArc
 50
180.0000000000086
 51
270.0
  0
CIRCLE
  5
19B
330
4B
100
AcDbEntity
  8
1
  6
Continuous
 62
     4
100
AcDbCircle
 10
95.18699434900076
 20
299.8198681948091
 30
0.0
 40
11.0
  0
CIRCLE
  5
19C
330
4B
100
AcDbEntity
  8
1
  6
Continuous
 62
     4
100
AcDbCircle
 10
114.1869943490008
 20
219.8198681948091
 30
0.0
 40
4.100000000000108
  0
CIRCLE
  5
19D
330
4B
100
AcDbEntity
  8
1
  6
Continuous
 62
     4
100
AcDbCircle
 10
114.1869943490008
 20
299.8198681948091
 30
0.0
 40
4.100000000000108
  0
CIRCLE
  5
19E
330
4B
100
AcDbEntity
  8
1
  6
Continuous
 62
     4
100
AcDbCircle
 10
76.18699434900078
 20
299.8198681948091
 30
0.0
 40
4.350000000000094
  0
CIRCLE
  5
19F
330
4B
100
AcDbEntity
  8
1
  6
Continuous
 62
     4
100
AcDbCircle
 10
95.1869943490008
 20
345.819868194809
 30
0.0
 40
5.150000000000105
  0
CIRCLE
  5
1A0
330
4B
100
AcDbEntity
  8
1
  6
Continuous
 62
     4
100
AcDbCircle
 10
95.18699434900076
 20
299.8198681948091
 30
0.0
 40
11.0
  0
CIRCLE
  5
1A1
330
4B
100
AcDbEntity
  8
1
  6
Continuous
 62
     4
100
AcDbCircle
 10
95.18699434900076
 20
299.8198681948091
 30
0.0
 40
10.13300000000004
  0
CIRCLE
  5
1A2
330
4B
100
AcDbEntity
  8
1
  6
Continuous
 62
     4
100
AcDbCircle
 10
341.8327674049923
 20
175.8198681948073
 30
0.0
 40
4.099999999996669
  0
CIRCLE
  5
1A3
330
4B
100
AcDbEntity
  8
1
  6
Continuous
 62
     4
100
AcDbCircle
 10
341.8327674049923
 20
384.8198681948036
 30
0.0
 40
4.099999999996669
  0
CIRCLE
  5
1A4
330
4B
100
AcDbEntity
  8
1
  6
Continuous
 62
     4
100
AcDbCircle
 10
244.570781416676
 20
384.8198681948073
 30
0.0
 40
4.100000000000506
  0
CIRCLE
  5
1A5
330
4B
100
AcDbEntity
  8
1
  6
Continuous
 62
     4
100
AcDbCircle
 10
244.570781416676
 20
175.8198681948073
 30
0.0
 40
4.100000000004002
  0
CIRCLE
  5
1A6
330
4B
100
AcDbEntity
  8
1
  6
Continuous
 62
     4
100
AcDbCircle
 10
242.9707814166843
 20
208.8198681948138
 30
0.0
 40
4.750000000003695
  0
CIRCLE
  5
1A7
330
4B
100
AcDbEntity
  8
1
  6
Continuous
 62
     4
100
AcDbCircle
 10
341.7327674049883
 20
208.8198681948083
 30
0.0
 40
4.75
  0
CIRCLE
  5
1A8
330
4B
100
AcDbEntity
  8
1
  6
Continuous
 62
     4
100
AcDbCircle
 10
242.9707814166843
 20
208.8198681948138
 30
0.0
 40
2.700000000000699
  0
CIRCLE
  5
1A9
330
4B
100
AcDbEntity
  8
1
  6
Continuous
 62
     4
100
AcDbCircle
 10
341.7327674049883
 20
208.8198681948083
 30
0.0
 40
2.700000000000699
  0
ARC
  5
1AA
330
4B
100
AcDbEntity
  8
1
  6
Continuous
 62
     4
100
AcDbCircle
 10
55.98699434900098
 20
315.2198681948103
 30
0.0
 40
0.5
100
AcDbArc
 50
270.0
 51
0.0
  0
ARC
  5
1AB
330
4B
100
AcDbEntity
  8
1
  6
Continuous
 62
     4
100
AcDbCircle
 10
55.98699434900098
 20
341.8198681948099
 30
0.0
 40
0.5
100
AcDbArc
 50
0.0
 51
90.0
  0
ARC
  5
1AC
330
4B
100
AcDbEntity
  8
1
  6
Continuous
 62
     4
100
AcDbCircle
 10
49.98699434899869
 20
314.3198681948102
 30
0.0
 40
0.4999999999999772
100
AcDbArc
 50
53.13010235417683
 51
90.0
  0
ARC
  5
1AD
330
4B
100
AcDbEntity
  8
1
  6
Continuous
 62
     4
100
AcDbCircle
 10
49.98699434899869
 20
342.3198681948102
 30
0.0
 40
0.5
100
AcDbArc
 50
270.0
 51
359.999999999974
  0
ARC
  5
1AE
330
4B
100
AcDbEntity
  8
1
  6
Continuous
 62
     4
100
AcDbCircle
 10
344.8327674049967
 20
227.3302418496444
 30
0.0
 40
0.2000000000010156
100
AcDbArc
 50
264.432697679268
 51
0.00000000054553
  0
ARC
  5
1AF
330
4B
100
AcDbEntity
  8
1
  6
Continuous
 62
     4
100
AcDbCircle
 10
337.2327674049921
 20
227.3302418496463
 30
0.0
 40
0.1999999999990223
100
AcDbArc
 50
180.0
 51
275.5673023211654
  0
ARC
  5
1B0
330
4B
100
AcDbEntity
  8
1
  6
Continuous
 62
     4
100
AcDbCircle
 10
337.2327674049921
 20
227.3302418496463
 30
0.0
 40
0.1999999999990223
100
AcDbArc
 50
180.0
 51
275.5673023211654
  0
ARC
  5
1B1
330
4B
100
AcDbEntity
  8
1
  6
Continuous
 62
     4
100
AcDbCircle
 10
344.8327674049967
 20
262.5094945399635
 30
0.0
 40
0.1999999999971465
100
AcDbArc
 50
0.0
 51
95.56730232119777
  0
ARC
  5
1B2
330
4B
100
AcDbEntity
  8
1
  6
Continuous
 62
     4
100
AcDbCircle
 10
337.2327674049921
 20
262.5094945399653
 30
0.0
 40
0.1999999999994555
100
AcDbArc
 50
84.43269767873353
 51
180.0000000005211
  0
ARC
  5
1B3
330
4B
100
AcDbEntity
  8
1
  6
Continuous
 62
     4
100
AcDbCircle
 10
339.4327674049945
 20
276.8698681948065
 30
0.0
 40
0.1999999999970896
100
AcDbArc
 50
90.0
 51
180.0000000005048
  0
ARC
  5
1B4
330
4B
100
AcDbEntity
  8
1
  6
Continuous
 62
     4
100
AcDbCircle
 10
339.4327674049945
 20
282.7698681948043
 30
0.0
 40
0.2000000000023761
100
AcDbArc
 50
179.9999999994789
 51
270.0000000005211
  0
ARC
  5
1B5
330
4B
100
AcDbEntity
  8
1
  6
Continuous
 62
     4
100
AcDbCircle
 10
339.0327674049948
 20
275.259360737193
 30
0.0
 40
0.2000000000021552
100
AcDbArc
 50
254.1089178812753
 51
0.0
  0
ARC
  5
1B6
330
4B
100
AcDbEntity
  8
1
  6
Continuous
 62
     4
100
AcDbCircle
 10
336.7327674049956
 20
275.2593607371893
 30
0.0
 40
0.1999999999989086
100
AcDbArc
 50
179.9999999994626
 51
285.8910821181861
  0
ARC
  5
1B7
330
4B
100
AcDbEntity
  8
1
  6
Continuous
 62
     4
100
AcDbCircle
 10
336.7327674049956
 20
284.3803756524142
 30
0.0
 40
0.2000000000029944
100
AcDbArc
 50
74.10891788239357
 51
179.9999999994952
  0
ARC
  5
1B8
330
4B
100
AcDbEntity
  8
1
  6
Continuous
 62
     4
100
AcDbCircle
 10
339.0327674049948
 20
284.3803756524178
 30
0.0
 40
0.2000000000008413
100
AcDbArc
 50
359.9999999994789
 51
105.8910821191482
  0
ARC
  5
1B9
330
4B
100
AcDbEntity
  8
1
  6
Continuous
 62
     4
100
AcDbCircle
 10
346.8327674049938
 20
277.2698681948043
 30
0.0
 40
0.2000000000026034
100
AcDbArc
 50
270.0000000005211
 51
359.9999999994789
  0
ARC
  5
1BA
330
4B
100
AcDbEntity
  8
1
  6
Continuous
 62
     4
100
AcDbCircle
 10
346.8327674049956
 20
282.3698681948047
 30
0.0
 40
0.1999999999989086
100
AcDbArc
 50
359.9999999994789
 51
90.0
  0
ARC
  5
1BB
330
4B
100
AcDbEntity
  8
1
  6
Continuous
 62
     4
100
AcDbCircle
 10
248.3707814166793
 20
282.3698681948047
 30
0.0
 40
0.2000000000005855
100
AcDbArc
 50
0.0
 51
90.00000000054553
  0
ARC
  5
1BC
330
4B
100
AcDbEntity
  8
1
  6
Continuous
 62
     4
100
AcDbCircle
 10
248.370781416681
 20
277.269868194808
 30
0.0
 40
0.2000000000026034
100
AcDbArc
 50
269.9999999995115
 51
359.999999998974
  0
ARC
  5
1BD
330
4B
100
AcDbEntity
  8
1
  6
Continuous
 62
     4
100
AcDbCircle
 10
240.5707814166766
 20
284.380375652416
 30
0.0
 40
0.2000000000026034
100
AcDbArc
 50
0.0000000005211
 51
105.8910821187079
  0
ARC
  5
1BE
330
4B
100
AcDbEntity
  8
1
  6
Continuous
 62
     4
100
AcDbCircle
 10
238.2707814166792
 20
284.3803756524178
 30
0.0
 40
0.2000000000016883
100
AcDbArc
 50
74.10891788174524
 51
180.0
  0
ARC
  5
1BF
330
4B
100
AcDbEntity
  8
1
  6
Continuous
 62
     4
100
AcDbCircle
 10
238.2707814166829
 20
275.2593607372003
 30
0.0
 40
0.2000000000042803
100
AcDbArc
 50
180.0000000010422
 51
285.8910821165839
  0
ARC
  5
1C0
330
4B
100
AcDbEntity
  8
1
  6
Continuous
 62
     4
100
AcDbCircle
 10
240.5707814166803
 20
275.2593607371949
 30
0.0
 40
0.200000000004288
100
AcDbArc
 50
254.1089178792482
 51
0.0
  0
ARC
  5
1C1
330
4B
100
AcDbEntity
  8
1
  6
Continuous
 62
     4
100
AcDbCircle
 10
240.97078141668
 20
282.7698681948098
 30
0.0
 40
0.2000000000045077
100
AcDbArc
 50
180.0000000010422
 51
269.9999999994545
  0
ARC
  5
1C2
330
4B
100
AcDbEntity
  8
1
  6
Continuous
 62
     4
100
AcDbCircle
 10
240.9707814166763
 20
276.869868194812
 30
0.0
 40
0.1999999999987949
100
AcDbArc
 50
90.0000000004804
 51
180.0
  0
ARC
  5
1C3
330
4B
100
AcDbEntity
  8
1
  6
Continuous
 62
     4
100
AcDbCircle
 10
238.7707814166775
 20
262.5094945399672
 30
0.0
 40
0.1999999999990515
100
AcDbArc
 50
84.43269767975303
 51
180.0
  0
ARC
  5
1C4
330
4B
100
AcDbEntity
  8
1
  6
Continuous
 62
     4
100
AcDbCircle
 10
246.3707814166748
 20
262.5094945399653
 30
0.0
 40
0.2000000000026034
100
AcDbArc
 50
0.00000000053739
 51
95.5673023197086
  0
ARC
  5
1C5
330
4B
100
AcDbEntity
  8
1
  6
Continuous
 62
     4
100
AcDbCircle
 10
238.7707814166755
 20
227.3302418496463
 30
0.0
 40
0.1999999999952138
100
AcDbArc
 50
179.999999999487
 51
275.5673023208616
  0
ARC
  5
1C6
330
4B
100
AcDbEntity
  8
1
  6
Continuous
 62
     4
100
AcDbCircle
 10
238.7707814166755
 20
227.3302418496463
 30
0.0
 40
0.1999999999952138
100
AcDbArc
 50
179.999999999487
 51
275.5673023208616
  0
ARC
  5
1C7
330
4B
100
AcDbEntity
  8
1
  6
Continuous
 62
     4
100
AcDbCircle
 10
246.3707814166766
 20
227.3302418496481
 30
0.0
 40
0.1999999999994866
100
AcDbArc
 50
264.4326976787262
 51
0.0
  0
ARC
  5
1C8
330
4B
100
AcDbEntity
  8
1
  6
Continuous
 62
     4
100
AcDbCircle
 10
244.5707814166741
 20
387.8198681948091
 30
0.0
 40
9.999999999992497
100
AcDbArc
 50
90.0
 51
180.0000000000101
  0
ARC
  5
1C9
330
4B
100
AcDbEntity
  8
1
  6
Continuous
 62
     4
100
AcDbCircle
 10
244.5707814166795
 20
172.8198681948073
 30
0.0
 40
10.0000000000019
100
AcDbArc
 50
270.0
 51
0.00000000001026
  0
ARC
  5
1CA
330
4B
100
AcDbEntity
  8
1
  6
Continuous
 62
     4
100
AcDbCircle
 10
244.5707814166741
 20
387.8198681948091
 30
0.0
 40
10.00000000000369
100
AcDbArc
 50
359.9999999999684
 51
90.0
  0
ARC
  5
1CB
330
4B
100
AcDbEntity
  8
1
  6
Continuous
 62
     4
100
AcDbCircle
 10
244.5707814166795
 20
172.8198681948073
 30
0.0
 40
10.0
100
AcDbArc
 50
180.0
 51
270.0
  0
CIRCLE
  5
1CC
102
{ACAD_REACTORS
330
1CD
102
}
330
4B
100
AcDbEntity
  8
1
 62
     3
100
AcDbCircle
 10
97.04645645977749
 20
307.0467256286811
 30
0.0
 40
0.6250000000000002
  0
HATCH
  5
1CD
330
4B
100
AcDbEntity
  8
1
 62
     3
100
AcDbHatch
 10
0.0
 20
0.0
 30
0.0
210
0.0
220
0.0
230
1.0
  2
SOLID
 70
     1
 71
     1
 91
        1
 92
        1
 93
        1
 72
     2
 10
97.04645645977749
 20
307.0467256286811
 40
0.6250000000000002
 50
0.0
 51
360.0
 73
     1
 97
        1
330
1CC
 75
     0
 76
     1
 98
        0
  0
LEADER
  5
1CE
330
4B
100
AcDbEntity
  8
1
  6
Continuous
 62
     3
100
AcDbLeader
  3
Standard
 71
     0
 76
     3
 10
97.04645645977749
 20
307.0467256286811
 30
0.0
 10
139.820938121845
 20
376.49898372554
 30
0.0
 10
162.9553353805543
 20
376.49898372554
 30
0.0
  0
MTEXT
  5
1D0
330
4B
100
AcDbEntity
  8
1
 62
     3
100
AcDbMText
 10
152.1076200943988
 20
379.6938990666944
 30
0.0
 40
6.25
 41
0.0
 71
     7
 72
     1
  1
25\U+00b0
  7
CONVERTER_11
 73
     1
 44
1.32052821128451
  0
TEXT
  5
1D2
330
4B
100
AcDbEntity
  8
1
 62
     3
100
AcDbText
 10
49.25985784383926
 20
122.275358438216
 30
0.0
 40
6.25
  1
Backset
 41
0.9
  7
CONVERTER_12
100
AcDbText
  0
TEXT
  5
1D3
330
4B
100
AcDbEntity
  8
1
 62
     3
100
AcDbText
 10
69.44503199703844
 20
80.44142766525005
 30
0.0
 40
6.25
  1
Width
 41
0.9
  7
CONVERTER_12
100
AcDbText
  0
MTEXT
  5
1D4
330
4B
100
AcDbEntity
  8
1
 62
     2
100
AcDbMText
 10
153.2807324270375
 20
-14.04437335247701
 30
0.0
 40
8.75
 41
0.0
 71
     7
 72
     1
  1
- wie gezeichnet DIN Links\P- entg. wie gezeichnet DIN Rechts
  7
CONVERTER_11
 73
     1
 44
1.32052821128451
  0
TEXT
  5
1D5
330
4B
100
AcDbEntity
  8
1
 62
     2
100
AcDbText
 10
227.871137396309
 20
412.919373352477
 30
0.0
 40
8.75
  1
18355...
 41
0.72
  7
CONVERTER_11
100
AcDbText
  0
TEXT
  5
1D6
330
4B
100
AcDbEntity
  8
1
 62
     2
100
AcDbText
 10
324.411663390025
 20
412.919373352477
 30
0.0
 40
8.75
  1
18357...
 41
0.72
  7
CONVERTER_11
100
AcDbText
  0
DIMENSION
  5
1E3
330
4B
100
AcDbEntity
  8
1
100
AcDbDimension
  2
*D5
 10
40.28699434899978
 20
147.6530341865095
 30
0.0
 11
58.69840744833618
 21
153.2780341865095
 31
0.0
 70
    32
  1
<>
 71
     5
 42
-1.0
 53
0.00013888888889
  3
ME10_DIM_10
100
AcDbAlignedDimension
 13
43.28699434899977
 23
162.8198681948105
 33
0.0
 14
40.2869943489998
 24
162.8198681948105
 34
0.0
100
AcDbRotatedDimension
  0
DIMENSION
  5
1EF
330
4B
100
AcDbEntity
  8
1
100
AcDbDimension
  2
*D6
 10
95.18699434900076
 20
132.1647797169487
 30
0.0
 11
67.31403593785808
 21
137.7897797169487
 31
0.0
 70
    32
  1
Dornmaß
 71
     5
 42
-1.0
 53
0.00013888888889
  3
ME10_DIM_11
100
AcDbAlignedDimension
 13
40.2869943489998
 23
162.8198681948105
 33
0.0
 14
95.18699434900076
 24
200.1971943899854
 34
0.0
100
AcDbRotatedDimension
  0
DIMENSION
  5
1FE
330
4B
100
AcDbEntity
  8
1
100
AcDbDimension
  2
*D7
 10
76.18699434900077
 20
407.7819434007886
 30
0.0
 11
94.60164992886278
 21
413.4069434007886
 31
0.0
 70
    32
  1
<>
 71
     5
 42
-1.0
 53
0.00013888888889
  3
ME10_DIM_12
100
AcDbAlignedDimension
 13
114.1869943490007
 23
306.142564276918
 33
0.0
 14
76.18699434900078
 24
305.2376345071412
 34
0.0
100
AcDbRotatedDimension
  0
DIMENSION
  5
20A
330
4B
100
AcDbEntity
  8
1
100
AcDbDimension
  2
*D8
 10
76.18699434900077
 20
168.2336689216311
 30
0.0
 11
95.04588327704707
 21
173.8586689216311
 31
0.0
 70
    32
  1
<>
 71
     5
 42
-1.0
 53
0.00013888888889
  3
ME10_DIM_13
100
AcDbAlignedDimension
 13
114.1869943490008
 23
214.5955582412615
 33
0.0
 14
76.18699434900078
 24
214.6113960987342
 34
0.0
100
AcDbRotatedDimension
  0
DIMENSION
  5
215
330
4B
100
AcDbEntity
  8
1
100
AcDbDimension
  2
*D9
 10
125.1869943490008
 20
90.09633360405013
 30
0.0
 11
83.01843542476338
 21
94.8110105273913
 31
0.0
 70
    32
  1
Kastenbreite
 71
     5
 42
-1.0
 53
0.00013888888889
  3
ME10_DIM_14
100
AcDbAlignedDimension
 13
40.2869943489998
 23
71.26862171165158
 33
0.0
 14
125.1869943490008
 24
68.16862171165161
 34
0.0
100
AcDbRotatedDimension
  0
DIMENSION
  5
224
330
4B
100
AcDbEntity
  8
1
100
AcDbDimension
  2
*D10
 10
140.7433602156862
 20
295.319868194809
 30
0.0
 11
135.1183602156862
 21
319.4275861544427
 31
0.0
 70
    32
  1
<>
 71
     5
 42
-1.0
 53
90.0
  3
ME10_DIM_15
100
AcDbAlignedDimension
 13
99.68699434900077
 23
304.3198681948091
 33
0.0
 14
99.68699434900077
 24
295.3198681948091
 34
0.0
 50
90.0
100
AcDbRotatedDimension
  0
DIMENSION
  5
231
330
4B
100
AcDbEntity
  8
1
100
AcDbDimension
  2
*D11
 10
185.139940930292
 20
362.819868194809
 30
0.0
 11
179.514940930292
 21
280.7380612572327
 31
0.0
 70
    32
  1
<>
 71
     5
 42
-1.0
 53
90.0
  3
ME10_DIM_16
100
AcDbAlignedDimension
 13
117.1869943490007
 23
197.8198681948091
 33
0.0
 14
117.1869943490007
 24
362.819868194809
 34
0.0
 50
90.0
100
AcDbRotatedDimension
  0
DIMENSION
  5
23F
330
4B
100
AcDbEntity
  8
1
100
AcDbDimension
  2
*D12
 10
154.992653497205
 20
299.8198681948091
 30
0.0
 11
149.367653497205
 21
320.3957630178467
 31
0.0
 70
    32
  1
<>
 71
     5
 42
-1.0
 53
90.0
  3
ME10_DIM_17
100
AcDbAlignedDimension
 13
100.3369943490009
 23
345.819868194809
 33
0.0
 14
119.6222221441588
 24
299.8198681948091
 34
0.0
 50
90.0
100
AcDbRotatedDimension
  0
DIMENSION
  5
24C
330
4B
100
AcDbEntity
  8
1
100
AcDbDimension
  2
*D13
 10
170.339163420725
 20
299.8198681948091
 30
0.0
 11
164.714163420725
 21
266.0082933950807
 31
0.0
 70
    32
  1
<>
 71
     5
 42
-1.0
 53
90.0
  3
ME10_DIM_18
100
AcDbAlignedDimension
 13
104.6826646318447
 23
227.8198681948099
 33
0.0
 14
119.6222221441588
 24
299.8198681948091
 34
0.0
 50
90.0
100
AcDbRotatedDimension
  0
DIMENSION
  5
259
330
4B
100
AcDbEntity
  8
1
100
AcDbDimension
  2
*D14
 10
140.4962394904505
 20
69.91862171165161
 30
0.0
 11
134.5587394904505
 21
86.47666359762486
 31
0.0
 70
    32
  1
<>
 71
     5
 42
-1.0
 53
90.0
  3
ME10_DIM_19
100
AcDbAlignedDimension
 13
121.1869943483958
 23
54.41862171165161
 33
0.0
 14
125.1869943490008
 24
69.91862171165161
 34
0.0
 50
90.0
100
AcDbRotatedDimension
  0
DIMENSION
  5
268
330
4B
100
AcDbEntity
  8
1
100
AcDbDimension
  2
*D15
 10
154.972733271457
 20
299.819868194809
 30
0.0
 11
149.035233271457
 21
266.4438192325606
 31
0.0
 70
    32
  1
<>
 71
     5
 42
-1.0
 53
90.0
  3
ME10_DIM_20
100
AcDbAlignedDimension
 13
99.78699434900089
 23
278.3198681948091
 33
0.0
 14
119.6222221441588
 24
299.8198681948091
 34
0.0
 50
90.0
100
AcDbRotatedDimension
  0
DIMENSION
  5
276
330
4B
100
AcDbEntity
  8
1
100
AcDbDimension
  2
*D16
 10
140.2878806346284
 20
227.8198681948099
 30
0.0
 11
134.6628806346284
 21
212.4386153850827
 31
0.0
 70
    32
  1
<>
 71
     5
 42
-1.0
 53
90.0
  3
ME10_DIM_21
100
AcDbAlignedDimension
 13
119.9246991087168
 23
219.8198681948099
 33
0.0
 14
104.6826646318447
 24
227.8198681948099
 34
0.0
 50
90.0
100
AcDbRotatedDimension
  0
DIMENSION
  5
284
330
4B
100
AcDbEntity
  8
1
100
AcDbDimension
  2
*D17
 10
30.2869943489998
 20
267.4482134455978
 30
0.0
 11
56.36401105975699
 21
273.0732134455978
 31
0.0
 70
    32
  1
<>
 71
     5
 42
-1.0
 53
0.00013888888889
  3
ME10_DIM_22
100
AcDbAlignedDimension
 13
40.2869943489998
 23
162.8198681948105
 33
0.0
 14
30.28699434899977
 24
284.3200039494601
 34
0.0
100
AcDbRotatedDimension
  0
DIMENSION
  5
291
330
4B
100
AcDbEntity
  8
1
100
AcDbDimension
  2
*D18
 10
20.28699434899994
 20
211.7610833128354
 30
0.0
 11
30.99542955483196
 21
217.3860833128354
 31
0.0
 70
    32
  1
<>
 71
     5
 42
-1.0
 53
0.00013888888889
  3
ME10_DIM_23
100
AcDbAlignedDimension
 13
40.2869943489998
 23
162.8198681948105
 33
0.0
 14
20.28699434899991
 24
227.8198681948082
 34
0.0
100
AcDbRotatedDimension
  0
DIMENSION
  5
29E
330
4B
100
AcDbEntity
  8
1
100
AcDbDimension
  2
*D19
 10
185.147041895033
 20
162.8198681948105
 30
0.0
 11
179.522041895033
 21
179.7741775741083
 31
0.0
 70
    32
  1
<>
 71
     5
 42
-1.0
 53
90.0
  3
ME10_DIM_24
100
AcDbAlignedDimension
 13
117.1869943490007
 23
197.8198681948091
 33
0.0
 14
43.28699434899977
 24
162.8198681948105
 34
0.0
 50
90.0
100
AcDbRotatedDimension
  0
DIMENSION
  5
2AA
330
4B
100
AcDbEntity
  8
1
100
AcDbDimension
  2
*D20
 10
95.18699434900077
 20
131.9873690991444
 30
0.0
 11
110.6374579080911
 21
137.6123690991444
 31
0.0
 70
    32
  1
<>
 71
     5
 42
-1.0
 53
0.00013888888889
  3
ME10_DIM_25
100
AcDbAlignedDimension
 13
125.1869943490008
 23
205.8198681948091
 33
0.0
 14
95.18699434900076
 24
200.1971943899854
 34
0.0
100
AcDbRotatedDimension
  0
DIMENSION
  5
2BF
330
4B
100
AcDbEntity
  8
1
100
AcDbDimension
  2
*D21
 10
-0.81646644264464
 20
262.31986819481
 30
0.0
 11
-6.44146644264464
 21
247.2138385544665
 31
0.0
 70
    32
  1
<>
 71
     5
 42
-1.0
 53
90.0
  3
ME10_DIM_26
100
AcDbAlignedDimension
 13
31.28699434839405
 23
275.3200039494601
 33
0.0
 14
20.78699434899809
 24
262.31986819481
 34
0.0
 50
90.0
100
AcDbRotatedDimension
  0
DIMENSION
  5
2CC
330
4B
100
AcDbEntity
  8
1
100
AcDbDimension
  2
*D23
 10
-0.93533516154403
 20
275.32000394946
 30
0.0
 11
-6.56033516154403
 21
280.0216049707214
 31
0.0
 70
    32
  1
<>
 71
     5
 42
-1.0
 53
90.0
  3
ME10_DIM_27
100
AcDbAlignedDimension
 13
31.28699434839405
 23
284.3200039494601
 33
0.0
 14
31.28699434839405
 24
275.3200039494601
 34
0.0
 50
90.0
100
AcDbRotatedDimension
  0
DIMENSION
  5
2D8
330
4B
100
AcDbEntity
  8
1
100
AcDbDimension
  2
*D24
 10
170.300295669105
 20
197.8198681948091
 30
0.0
 11
164.675295669105
 21
214.0053843257877
 31
0.0
 70
    32
  1
<>
 71
     5
 42
-1.0
 53
90.0
  3
ME10_DIM_28
100
AcDbAlignedDimension
 13
104.6826646318447
 23
227.8198681948099
 33
0.0
 14
117.1869943490007
 24
197.8198681948091
 34
0.0
 50
90.0
100
AcDbRotatedDimension
  0
DIMENSION
  5
2E5
330
4B
100
AcDbEntity
  8
1
100
AcDbDimension
  2
*D25
 10
28.2869943489998
 20
355.3199464024037
 30
0.0
 11
34.36883140554619
 21
360.9449464024037
 31
0.0
 70
    32
  1
<>
 71
     5
 42
-1.0
 53
0.00013888888889
  3
ME10_DIM_29
100
AcDbAlignedDimension
 13
40.2869943489998
 23
397.8198681948095
 33
0.0
 14
28.28699434899977
 24
344.3198681948102
 34
0.0
100
AcDbRotatedDimension
  0
DIMENSION
  5
2F2
330
4B
100
AcDbEntity
  8
1
100
AcDbDimension
  2
*D26
 10
336.5327674049967
 20
271.3691757370404
 30
0.0
 11
365.0392913308
 21
277.3066757370404
 31
0.0
 70
    32
  1
<>
 71
     5
 42
-1.0
 53
0.00013888888889
  3
ME10_DIM_30
100
AcDbAlignedDimension
 13
347.0327674049964
 23
277.2698681948025
 33
0.0
 14
336.5327674049967
 24
275.2593607371912
 34
0.0
100
AcDbRotatedDimension
  0
DIMENSION
  5
2FF
330
4B
100
AcDbEntity
  8
1
100
AcDbDimension
  2
*D27
 10
336.5326094195485
 20
305.9301287944605
 30
0.0
 11
368.849854230391
 21
311.8676287944605
 31
0.0
 70
    32
  1
<>
 71
     5
 42
-1.0
 53
0.00013888888889
  3
ME10_DIM_31
100
AcDbAlignedDimension
 13
349.432609419548
 23
315.6198681948109
 33
0.0
 14
336.5326094195485
 24
313.1198681948109
 34
0.0
100
AcDbRotatedDimension
  0
DIMENSION
  5
30C
330
4B
100
AcDbEntity
  8
1
100
AcDbDimension
  2
*D28
 10
238.0706234312339
 20
303.3238550014035
 30
0.0
 11
213.2778586992775
 21
309.2613550014035
 31
0.0
 70
    32
  1
<>
 71
     5
 42
-1.0
 53
0.00013888888889
  3
ME10_DIM_32
100
AcDbAlignedDimension
 13
250.9706234312336
 23
315.6198681948109
 33
0.0
 14
238.070623431234
 24
313.1198681948109
 34
0.0
100
AcDbRotatedDimension
  0
DIMENSION
  5
319
330
4B
100
AcDbEntity
  8
1
100
AcDbDimension
  2
*D29
 10
329.8327674049905
 20
359.5449039659144
 30
0.0
 11
309.650206645243
 21
365.4824039659144
 31
0.0
 70
    32
  1
<>
 71
     5
 42
-1.0
 53
0.00013888888889
  3
ME10_DIM_33
100
AcDbAlignedDimension
 13
336.5326094195485
 23
344.1198681948109
 33
0.0
 14
329.8327674049905
 24
385.8198681948032
 34
0.0
100
AcDbRotatedDimension
  0
DIMENSION
  5
326
330
4B
100
AcDbEntity
  8
1
100
AcDbDimension
  2
*D30
 10
234.5707814166689
 20
361.0342032762334
 30
0.0
 11
215.8136535855376
 21
366.7535281593236
 31
0.0
 70
    32
  1
<>
 71
     5
 42
-1.0
 53
0.00013888888889
  3
ME10_DIM_34
100
AcDbAlignedDimension
 13
238.070623431234
 23
344.1198681948109
 33
0.0
 14
234.5707814166689
 24
387.8198681948086
 34
0.0
100
AcDbRotatedDimension
  0
DIMENSION
  5
333
330
4B
100
AcDbEntity
  8
1
100
AcDbDimension
  2
*D31
 10
238.0707814166785
 20
268.2207441282775
 30
0.0
 11
217.1622859141146
 21
274.1582441282775
 31
0.0
 70
    32
  1
<>
 71
     5
 42
-1.0
 53
0.00013888888889
  3
ME10_DIM_35
100
AcDbAlignedDimension
 13
248.5707814166799
 23
282.3698681948047
 33
0.0
 14
238.0707814166786
 24
275.2593607371967
 34
0.0
100
AcDbRotatedDimension
  0
DIMENSION
  5
340
330
4B
100
AcDbEntity
  8
1
100
AcDbDimension
  2
*D32
 10
337.0327674049931
 20
216.356768311311
 30
0.0
 11
341.218127484069
 21
221.981768311311
 31
0.0
 70
    32
  1
<>
 71
     5
 42
-1.0
 53
0.00013888888889
  3
ME10_DIM_36
100
AcDbAlignedDimension
 13
345.0327674049938
 23
227.3302418496463
 33
0.0
 14
337.0327674049931
 24
227.3302418496463
 34
0.0
100
AcDbRotatedDimension
  0
DIMENSION
  5
34D
330
4B
100
AcDbEntity
  8
1
100
AcDbDimension
  2
*D33
 10
238.5707814166803
 20
215.972400897219
 30
0.0
 11
243.396620597768
 21
221.597400897219
 31
0.0
 70
    32
  1
<>
 71
     5
 42
-1.0
 53
0.00013888888889
  3
ME10_DIM_37
100
AcDbAlignedDimension
 13
246.5707814166766
 23
227.3302418496481
 33
0.0
 14
238.5707814166803
 24
227.3302418496481
 34
0.0
100
AcDbRotatedDimension
  0
DIMENSION
  5
35B
330
4B
100
AcDbEntity
  8
1
100
AcDbDimension
  2
*D34
 10
329.8327674049906
 20
289.2313010988888
 30
0.0
 11
320.1850521816488
 21
295.1688010988888
 31
0.0
 70
    32
  1
<>
 71
     5
 42
-1.0
 53
0.00013888888889
  3
ME10_DIM_38
100
AcDbAlignedDimension
 13
336.5327674049967
 23
284.380375652416
 33
0.0
 14
329.8327674049905
 24
385.8198681948032
 34
0.0
100
AcDbRotatedDimension
  0
DIMENSION
  5
369
330
4B
100
AcDbEntity
  8
1
100
AcDbDimension
  2
*D35
 10
234.5707814166689
 20
288.6098115710811
 30
0.0
 11
216.9515770549736
 21
294.5473115710811
 31
0.0
 70
    32
  1
<>
 71
     5
 42
-1.0
 53
0.00013888888889
  3
ME10_DIM_39
100
AcDbAlignedDimension
 13
238.0707814166786
 23
284.3803756524178
 33
0.0
 14
234.5707814166689
 24
387.8198681948086
 34
0.0
100
AcDbRotatedDimension
  0
DIMENSION
  5
376
330
4B
100
AcDbEntity
  8
1
100
AcDbDimension
  2
*D36
 10
336.9141994653731
 20
240.8630795041591
 30
0.0
 11
318.6517577032077
 21
246.8005795041591
 31
0.0
 70
    32
  1
<>
 71
     5
 42
-1.0
 53
0.00013888888889
  3
ME10_DIM_40
100
AcDbAlignedDimension
 13
337.0327674049931
 23
262.5094945399635
 33
0.0
 14
329.832767404996
 24
174.8198681948036
 34
0.0
100
AcDbRotatedDimension
  0
DIMENSION
  5
384
330
4B
100
AcDbEntity
  8
1
100
AcDbDimension
  2
*D37
 10
234.5707814166795
 20
243.2042887139635
 30
0.0
 11
219.8508342541815
 21
248.8292887139635
 31
0.0
 70
    32
  1
<>
 71
     5
 42
-1.0
 53
0.00013888888889
  3
ME10_DIM_41
100
AcDbAlignedDimension
 13
238.5707814166803
 23
262.5094945399672
 33
0.0
 14
234.5707814166795
 24
172.8198681948073
 34
0.0
100
AcDbRotatedDimension
  0
DIMENSION
  5
38F
330
4B
100
AcDbEntity
  8
1
100
AcDbDimension
  2
*D38
 10
292.3397623753655
 20
397.8198681948016
 30
0.0
 11
286.7147623753655
 21
275.8064603328906
 31
0.0
 70
    32
  1
<>
 71
     5
 42
-1.0
 53
90.0
  3
ME10_DIM_42
100
AcDbAlignedDimension
 13
244.5707814166795
 23
162.8198681948054
 33
0.0
 14
244.5707814166741
 24
397.8198681948016
 34
0.0
 50
90.0
100
AcDbRotatedDimension
  0
DIMENSION
  5
39C
330
4B
100
AcDbEntity
  8
1
100
AcDbDimension
  2
*D39
 10
329.832767404996
 20
148.3263868268573
 30
0.0
 11
341.628340293246
 21
153.9513868268573
 31
0.0
 70
    32
  1
<>
 71
     5
 42
-1.0
 53
0.00013888888889
  3
ME10_DIM_43
100
AcDbAlignedDimension
 13
353.8327674049923
 23
174.8198681948054
 33
0.0
 14
329.832767404996
 24
174.8198681948036
 34
0.0
100
AcDbRotatedDimension
  0
DIMENSION
  5
3AC
330
4B
100
AcDbEntity
  8
1
100
AcDbDimension
  2
*D40
 10
234.5707814166795
 20
132.8479084571819
 30
0.0
 11
244.8493177968565
 21
138.4729084571819
 31
0.0
 70
    32
  1
<>
 71
     5
 42
-1.0
 53
0.00013888888889
  3
ME10_DIM_44
100
AcDbAlignedDimension
 13
254.5707814166778
 23
172.8198681948091
 33
0.0
 14
234.5707814166795
 24
172.8198681948073
 34
0.0
100
AcDbRotatedDimension
  0
DIMENSION
  5
3B7
330
4B
100
AcDbEntity
  8
1
100
AcDbDimension
  2
*D41
 10
-22.11900357743349
 20
227.3198681948064
 30
0.0
 11
-27.74400357743349
 21
245.7752222641955
 31
0.0
 70
    32
  1
<>
 71
     5
 42
-1.0
 53
90.0
  3
ME10_DIM_45
100
AcDbAlignedDimension
 13
20.78699434899809
 23
262.31986819481
 33
0.0
 14
20.78699434900176
 24
227.3198681948064
 34
0.0
 50
90.0
100
AcDbRotatedDimension
  0
DIMENSION
  5
3C2
330
4B
100
AcDbEntity
  8
1
100
AcDbDimension
  2
*D42
 10
-22.11900357743349
 20
312.3198681948102
 30
0.0
 11
-27.74400357743349
 21
327.0052280947065
 31
0.0
 70
    32
  1
<>
 71
     5
 42
-1.0
 53
90.0
  3
ME10_DIM_46
100
AcDbAlignedDimension
 13
28.98699434899871
 23
344.3198681948102
 33
0.0
 14
28.98699434899871
 24
312.3198681948102
 34
0.0
 50
90.0
100
AcDbRotatedDimension
  0
DIMENSION
  5
3D0
330
4B
100
AcDbEntity
  8
1
100
AcDbDimension
  2
*D43
 10
-22.131104230391
 20
312.3198681948102
 30
0.0
 11
-28.068604230391
 21
306.6455144965437
 31
0.0
 70
    32
  1
<>
 71
     5
 42
-1.0
 53
90.0
  3
ME10_DIM_47
100
AcDbAlignedDimension
 13
70.72561120685198
 23
299.8198681948091
 33
0.0
 14
33.08699434899904
 24
312.3198681948102
 34
0.0
 50
90.0
100
AcDbRotatedDimension
  0
DIMENSION
  5
3DC
330
4B
100
AcDbEntity
  8
1
100
AcDbDimension
  2
*D44
 10
-22.131104230391
 20
299.8198681948091
 30
0.0
 11
-28.068604230391
 21
281.0698681948096
 31
0.0
 70
    32
  1
<>
 71
     5
 42
-1.0
 53
90.0
  3
ME10_DIM_48
100
AcDbAlignedDimension
 13
20.78699434899809
 23
262.31986819481
 33
0.0
 14
70.72561120685198
 24
299.8198681948091
 34
0.0
 50
90.0
100
AcDbRotatedDimension
  0
DIMENSION
  5
3E9
330
4B
100
AcDbEntity
  8
1
100
AcDbDimension
  2
*D45
 10
277.1426700651105
 20
162.8198681948054
 30
0.0
 11
271.5176700651105
 21
169.0371451275126
 31
0.0
 70
    32
  1
<>
 71
     5
 42
-1.0
 53
90.0
  3
ME10_DIM_49
100
AcDbAlignedDimension
 13
250.0022023180478
 23
175.8198681948109
 33
0.0
 14
244.5707814166795
 24
162.8198681948054
 34
0.0
 50
90.0
100
AcDbRotatedDimension
  0
DIMENSION
  5
3F4
330
4B
100
AcDbEntity
  8
1
100
AcDbDimension
  2
*D46
 10
277.1426700651105
 20
175.8198681948109
 30
0.0
 11
271.5176700651105
 21
280.3198681948081
 31
0.0
 70
    32
  1
<>
 71
     5
 42
-1.0
 53
90.0
  3
ME10_DIM_50
100
AcDbAlignedDimension
 13
250.0691747002253
 23
384.8198681948053
 33
0.0
 14
250.0022023180478
 24
175.8198681948109
 34
0.0
 50
90.0
100
AcDbRotatedDimension
  0
INSERT
  5
400
330
4B
100
AcDbEntity
  8
1
100
AcDbBlockReference
  2
*D47
 10
0.0
 20
0.0
 30
0.0
  0
INSERT
  5
40E
330
4B
100
AcDbEntity
  8
1
100
AcDbBlockReference
  2
*D48
 10
0.0
 20
0.0
 30
0.0
  0
INSERT
  5
41A
330
4B
100
AcDbEntity
  8
1
100
AcDbBlockReference
  2
*D49
 10
0.0
 20
0.0
 30
0.0
  0
INSERT
  5
426
330
4B
100
AcDbEntity
  8
1
100
AcDbBlockReference
  2
*D50
 10
0.0
 20
0.0
 30
0.0
  0
INSERT
  5
432
330
4B
100
AcDbEntity
  8
1
100
AcDbBlockReference
  2
*D51
 10
0.0
 20
0.0
 30
0.0
  0
ENDBLK
  5
4D
330
4B
100
AcDbEntity
  8
0
100
AcDbBlockEnd
  0
BLOCK
  5
4F
330
4E
100
AcDbEntity
  8
0
100
AcDbBlockBegin
  2
_rahmen
 70
     0
 10
108.9936744852096
 20
81.26898107632289
 30
0.0
  3
_rahmen
  1

  0
MTEXT
  5
434
330
4E
100
AcDbEntity
  8
1
 62
     6
100
AcDbMText
 10
33.16641045351409
 20
-19.66624217417409
 30
0.0
 40
3.8
 41
0.0
 71
     4
 72
     1
  1
   Zeichnung wird bei\P\U+00c4nderung nicht ausgetauscht.
  7
CONVERTER_13
 73
     1
 44
1.08043217286915
  0
MTEXT
  5
436
330
4E
100
AcDbEntity
  8
1
 62
     6
100
AcDbMText
 10
22.12832488742005
 20
148.8429590724307
 30
0.0
 40
5.0
 41
0.0
 71
     5
 72
     1
  1
Technische \U+00c4nderungen vorbehalten.
  7
CONVERTER_14
 11
6.123031769111886E-17
 21
1.0
 31
0.0
 73
     1
 44
1.32052821128451
  0
ENDBLK
  5
50
330
4E
100
AcDbEntity
  8
0
100
AcDbBlockEnd
  0
BLOCK
  5
75
330
51
100
AcDbEntity
  8
0
100
AcDbBlockBegin
  2
_sfeld_rahmen_A4h_KD
 70
     0
 10
61.2446059888579
 20
53.2127445682451
 30
0.0
  3
_sfeld_rahmen_A4h_KD
  1

  0
INSERT
  5
74
330
51
100
AcDbEntity
  8
0
100
AcDbBlockReference
  2
_rahmen
 10
59.51142596449954
 20
53.75418817691459
 30
0.0
  0
POINT
  5
437
330
51
100
AcDbEntity
  8
1
 62
     3
 60
     1
100
AcDbPoint
 10
122.2446059888607
 20
-80.63725543176406
 30
0.0
  0
POINT
  5
438
330
51
100
AcDbEntity
  8
1
 62
     3
 60
     1
100
AcDbPoint
 10
122.2446059888607
 20
-72.13725543176406
 30
0.0
  0
POINT
  5
439
330
51
100
AcDbEntity
  8
1
 62
     3
 60
     1
100
AcDbPoint
 10
116.2446059888607
 20
-80.63725543176406
 30
0.0
  0
POINT
  5
43A
330
51
100
AcDbEntity
  8
1
 62
     3
 60
     1
100
AcDbPoint
 10
116.2446059888607
 20
-72.13725543176406
 30
0.0
  0
POINT
  5
43B
330
51
100
AcDbEntity
  8
1
 62
     3
 60
     1
100
AcDbPoint
 10
97.79655386490049
 20
-67.79425543175603
 30
0.0
  0
POINT
  5
43C
330
51
100
AcDbEntity
  8
1
 62
     3
 60
     1
100
AcDbPoint
 10
97.41602047662309
 20
-67.12874385372561
 30
0.0
  0
POINT
  5
43D
330
51
100
AcDbEntity
  8
1
 62
     3
 60
     1
100
AcDbPoint
 10
96.46341040699917
 20
-68.79475543176522
 30
0.0
  0
POINT
  5
43E
330
51
100
AcDbEntity
  8
1
 62
     3
 60
     1
100
AcDbPoint
 10
97.03548708836024
 20
-67.79425543175603
 30
0.0
  0
POINT
  5
43F
330
51
100
AcDbEntity
  8
1
 62
     3
 60
     1
100
AcDbPoint
 10
96.81849248507933
 20
-68.17375543176604
 30
0.0
  0
POINT
  5
440
330
51
100
AcDbEntity
  8
1
 62
     3
 60
     1
100
AcDbPoint
 10
98.0135484681814
 20
-68.17375543176604
 30
0.0
  0
POINT
  5
441
330
51
100
AcDbEntity
  8
1
 62
     3
 60
     1
100
AcDbPoint
 10
98.36863054626156
 20
-68.79475543176522
 30
0.0
  0
POINT
  5
442
330
51
100
AcDbEntity
  8
1
 62
     3
 60
     1
100
AcDbPoint
 10
98.69736806840228
 20
-68.60678634559736
 30
0.0
  0
POINT
  5
443
330
51
100
AcDbEntity
  8
1
 62
     3
 60
     1
100
AcDbPoint
 10
96.13467288485845
 20
-68.60678634559736
 30
0.0
  0
POINT
  5
444
330
51
100
AcDbEntity
  8
1
 62
     3
 60
     1
100
AcDbPoint
 10
97.41602047662309
 20
-66.365848535439
 30
0.0
  0
POINT
  5
445
330
51
100
AcDbEntity
  8
1
 62
     3
 60
     1
100
AcDbPoint
 10
92.86210598886828
 20
-69.03625543176895
 30
0.0
  0
POINT
  5
446
330
51
100
AcDbEntity
  8
1
 62
     3
 60
     1
100
AcDbPoint
 10
95.65140935144154
 20
-69.03625543176895
 30
0.0
  0
POINT
  5
447
330
51
100
AcDbEntity
  8
1
 62
     3
 60
     1
100
AcDbPoint
 10
95.50710598887235
 20
-69.31225543176697
 30
0.0
  0
POINT
  5
448
330
51
100
AcDbEntity
  8
1
 62
     3
 60
     1
100
AcDbPoint
 10
105.7399657692004
 20
-67.5978148066788
 30
0.0
  0
POINT
  5
449
330
51
100
AcDbEntity
  8
1
 62
     3
 60
     1
100
AcDbPoint
 10
105.2735581715097
 20
-68.23976979170402
 30
0.0
  0
POINT
  5
44A
330
51
100
AcDbEntity
  8
1
 62
     3
 60
     1
100
AcDbPoint
 10
102.9767682249221
 20
-65.59023427746433
 30
0.0
  0
POINT
  5
44B
330
51
100
AcDbEntity
  8
1
 62
     3
 60
     1
100
AcDbPoint
 10
102.5103606272169
 20
-66.23218926250411
 30
0.0
  0
POINT
  5
44C
330
51
100
AcDbEntity
  8
1
 62
     3
 60
     1
100
AcDbPoint
 10
105.1316080330871
 20
-68.43514739585225
 30
0.0
  0
POINT
  5
44D
330
51
100
AcDbEntity
  8
1
 62
     3
 60
     1
100
AcDbPoint
 10
104.8274291650159
 20
-68.85381369043898
 30
0.0
  0
POINT
  5
44E
330
51
100
AcDbEntity
  8
1
 62
     3
 60
     1
100
AcDbPoint
 10
93.3113481020846
 20
-59.84722586390853
 30
0.0
  0
POINT
  5
44F
330
51
100
AcDbEntity
  8
1
 62
     3
 60
     1
100
AcDbPoint
 10
93.00716923402797
 20
-60.26589215849526
 30
0.0
  0
POINT
  5
450
330
51
100
AcDbEntity
  8
1
 62
     3
 60
     1
100
AcDbPoint
 10
103.2121059888596
 20
-67.68021270648751
 30
0.0
  0
POINT
  5
451
330
51
100
AcDbEntity
  8
1
 62
     3
 60
     1
100
AcDbPoint
 10
101.6596059888689
 20
-66.55225543175766
 30
0.0
  0
POINT
  5
452
330
51
100
AcDbEntity
  8
1
 62
     3
 60
     1
100
AcDbPoint
 10
101.6596059888689
 20
-69.03625543176895
 30
0.0
  0
POINT
  5
453
330
51
100
AcDbEntity
  8
1
 62
     3
 60
     1
100
AcDbPoint
 10
92.51710598886712
 20
-69.31225543176697
 30
0.0
  0
POINT
  5
454
330
51
100
AcDbEntity
  8
1
 62
     3
 60
     1
100
AcDbPoint
 10
92.51710598886712
 20
-69.03625543176895
 30
0.0
  0
POINT
  5
455
330
51
100
AcDbEntity
  8
1
 62
     3
 60
     1
100
AcDbPoint
 10
92.51710598886712
 20
-70.86475543175766
 30
0.0
  0
POINT
  5
456
330
51
100
AcDbEntity
  8
1
 62
     3
 60
     1
100
AcDbPoint
 10
105.9721059888689
 20
-69.04580490542867
 30
0.0
  0
POINT
  5
457
330
51
100
AcDbEntity
  8
1
 62
     3
 60
     1
100
AcDbPoint
 10
105.9721059888689
 20
-69.31225543176697
 30
0.0
  0
POINT
  5
458
330
51
100
AcDbEntity
  8
1
 62
     3
 60
     1
100
AcDbPoint
 10
105.9721059888689
 20
-70.86475543175766
 30
0.0
  0
POINT
  5
459
330
51
100
AcDbEntity
  8
1
 62
     3
 60
     1
100
AcDbPoint
 10
105.9721059888689
 20
-58.68870727127069
 30
0.0
  0
POINT
  5
45A
330
51
100
AcDbEntity
  8
1
 62
     3
 60
     1
100
AcDbPoint
 10
92.51710598886712
 20
-57.40975543175591
 30
0.0
  0
POINT
  5
45B
330
51
100
AcDbEntity
  8
1
 62
     3
 60
     1
100
AcDbPoint
 10
104.6931541493541
 20
-57.40975543175591
 30
0.0
  0
POINT
  5
45C
330
51
100
AcDbEntity
  8
1
 62
     3
 60
     1
100
AcDbPoint
 10
106.1446059888694
 20
-71.03725543175824
 30
0.0
  0
POINT
  5
45D
330
51
100
AcDbEntity
  8
1
 62
     3
 60
     1
100
AcDbPoint
 10
106.1446059888694
 20
-58.61725543175999
 30
0.0
  0
POINT
  5
45E
330
51
100
AcDbEntity
  8
1
 62
     3
 60
     1
100
AcDbPoint
 10
104.7646059888648
 20
-57.23725543175533
 30
0.0
  0
POINT
  5
45F
330
51
100
AcDbEntity
  8
1
 62
     3
 60
     1
100
AcDbPoint
 10
92.34460598886653
 20
-71.03725543175824
 30
0.0
  0
POINT
  5
460
330
51
100
AcDbEntity
  8
1
 62
     3
 60
     1
100
AcDbPoint
 10
92.34460598886653
 20
-57.23725543175533
 30
0.0
  0
POINT
  5
461
330
51
100
AcDbEntity
  8
1
 62
     3
 60
     1
100
AcDbPoint
 10
93.06607617942791
 20
-69.32991306620534
 30
0.0
  0
POINT
  5
462
330
51
100
AcDbEntity
  8
1
 62
     3
 60
     1
100
AcDbPoint
 10
94.21607617942209
 20
-65.83264363142371
 30
0.0
  0
POINT
  5
463
330
51
100
AcDbEntity
  8
1
 62
     3
 60
     1
100
AcDbPoint
 10
94.2775734384195
 20
-68.0182720041048
 30
0.0
  0
POINT
  5
464
330
51
100
AcDbEntity
  8
1
 62
     3
 60
     1
100
AcDbPoint
 10
94.39707399993495
 20
-69.04645175753103
 30
0.0
  0
POINT
  5
465
330
51
100
AcDbEntity
  8
1
 62
     3
 60
     1
100
AcDbPoint
 10
95.35908042629308
 20
-69.05043848059722
 30
0.0
  0
POINT
  5
466
330
51
100
AcDbEntity
  8
1
 62
     3
 60
     1
100
AcDbPoint
 10
95.06781575949572
 20
-67.77355284463556
 30
0.0
  0
POINT
  5
467
330
51
100
AcDbEntity
  8
1
 62
     3
 60
     1
100
AcDbPoint
 10
94.80121662864985
 20
-68.50602793668804
 30
0.0
  0
POINT
  5
468
330
51
100
AcDbEntity
  8
1
 62
     3
 60
     1
100
AcDbPoint
 10
95.03499449162337
 20
-68.72378411436512
 30
0.0
  0
POINT
  5
469
330
51
100
AcDbEntity
  8
1
 62
     3
 60
     1
100
AcDbPoint
 10
100.9094946308032
 20
-66.7896210316103
 30
0.0
  0
POINT
  5
46A
330
51
100
AcDbEntity
  8
1
 62
     3
 60
     1
100
AcDbPoint
 10
100.9191621300706
 20
-68.38125963696803
 30
0.0
  0
POINT
  5
46B
330
51
100
AcDbEntity
  8
1
 62
     3
 60
     1
100
AcDbPoint
 10
99.97643568245985
 20
-67.59113702758623
 30
0.0
  0
POINT
  5
46C
330
51
100
AcDbEntity
  8
1
 62
     3
 60
     1
100
AcDbPoint
 10
100.6268913908571
 20
-67.02675330602506
 30
0.0
  0
POINT
  5
46D
330
51
100
AcDbEntity
  8
1
 62
     3
 60
     1
100
AcDbPoint
 10
100.5741621300695
 20
-68.21109243531828
 30
0.0
  0
LINE
  5
46E
330
51
100
AcDbEntity
  8
Z4
  6
Continuous
 62
     6
100
AcDbLine
 10
-1.75539401113929
 20
-89.13725543176406
 30
0.0
 11
159.2446059888607
 21
-89.13725543176406
 31
0.0
  0
LINE
  5
46F
330
51
100
AcDbEntity
  8
Z4
  6
Continuous
 62
     6
100
AcDbLine
 10
-20.75539401113929
 20
-72.13725543176406
 30
0.0
 11
-20.75539401113929
 21
-89.13725543176406
 31
0.0
  0
LINE
  5
470
102
{ACAD_REACTORS
330
513
102
}
330
51
100
AcDbEntity
  8
1
  6
Continuous
 62
     2
100
AcDbLine
 10
-20.75539401113929
 20
-89.13725543176406
 30
0.0
 11
-20.75539401113929
 21
-72.13725543176406
 31
0.0
  0
LINE
  5
471
330
51
100
AcDbEntity
  8
1
  6
Continuous
 62
     2
100
AcDbLine
 10
-1.75539401113929
 20
-89.13725543176406
 30
0.0
 11
-20.75539401113929
 21
-89.13725543176406
 31
0.0
  0
LINE
  5
472
102
{ACAD_REACTORS
330
513
102
}
330
51
100
AcDbEntity
  8
1
  6
Continuous
 62
     2
100
AcDbLine
 10
-1.75539401113929
 20
-72.13725543176406
 30
0.0
 11
-1.75539401113929
 21
-89.13725543176406
 31
0.0
  0
LINE
  5
473
102
{ACAD_REACTORS
330
513
102
}
330
51
100
AcDbEntity
  8
1
  6
Continuous
 62
     2
100
AcDbLine
 10
-20.75539401113929
 20
-72.13725543176406
 30
0.0
 11
-1.75539401113929
 21
-72.13725543176406
 31
0.0
  0
LINE
  5
474
330
51
100
AcDbEntity
  8
Z4
  6
Continuous
 62
     6
100
AcDbLine
 10
159.2446059888607
 20
195.562744568233
 30
0.0
 11
-20.75539401113929
 21
195.562744568233
 31
0.0
  0
LINE
  5
475
330
51
100
AcDbEntity
  8
Z4
  6
Continuous
 62
     6
100
AcDbLine
 10
159.2446059888607
 20
-89.13725543176406
 30
0.0
 11
159.2446059888607
 21
195.562744568233
 31
0.0
  0
LINE
  5
476
102
{ACAD_REACTORS
330
513
102
}
330
51
100
AcDbEntity
  8
Z4
  6
Continuous
 62
     6
100
AcDbLine
 10
-20.75539401113929
 20
-89.13725543176406
 30
0.0
 11
-1.75539401113929
 21
-89.13725543176406
 31
0.0
  0
LINE
  5
477
330
51
100
AcDbEntity
  8
Z4
  6
Continuous
 62
     6
100
AcDbLine
 10
-20.75539401113929
 20
195.562744568233
 30
0.0
 11
-20.75539401113929
 21
-72.13725543176406
 31
0.0
  0
LINE
  5
478
330
51
100
AcDbEntity
  8
Z1
  6
Continuous
 62
     7
100
AcDbLine
 10
-43.75539401113929
 20
201.7127445682418
 30
0.0
 11
-43.75539401113929
 21
-95.28725543175824
 31
0.0
  0
LINE
  5
479
330
51
100
AcDbEntity
  8
Z1
  6
Continuous
 62
     7
100
AcDbLine
 10
-43.75539401113929
 20
53.21274456824176
 30
0.0
 11
-23.75539401113929
 21
53.21274456824176
 31
0.0
  0
LINE
  5
47A
330
51
100
AcDbEntity
  8
Z1
  6
Continuous
 62
     7
100
AcDbLine
 10
166.2446059888607
 20
201.7127445682418
 30
0.0
 11
-43.75539401113929
 21
201.7127445682418
 31
0.0
  0
LINE
  5
47B
330
51
100
AcDbEntity
  8
Z1
  6
Continuous
 62
     7
100
AcDbLine
 10
166.2446059888607
 20
-95.28725543175824
 30
0.0
 11
166.2446059888607
 21
201.7127445682418
 31
0.0
  0
LINE
  5
47C
330
51
100
AcDbEntity
  8
Z1
  6
Continuous
 62
     7
100
AcDbLine
 10
-43.75539401113929
 20
-95.28725543175824
 30
0.0
 11
166.2446059888607
 21
-95.28725543175824
 31
0.0
  0
LINE
  5
47D
330
51
100
AcDbEntity
  8
1
  6
Continuous
 62
     6
100
AcDbLine
 10
116.2446059888607
 20
-72.13725543176406
 30
0.0
 11
116.2446059888607
 21
-80.63725543176406
 31
0.0
  0
LINE
  5
47E
330
51
100
AcDbEntity
  8
1
  6
Continuous
 62
     6
100
AcDbLine
 10
122.2446059888607
 20
-72.13725543176406
 30
0.0
 11
122.2446059888607
 21
-80.63725543176406
 31
0.0
  0
LINE
  5
47F
102
{ACAD_REACTORS
330
515
102
}
330
51
100
AcDbEntity
  8
1
  6
Continuous
 62
     5
100
AcDbLine
 10
92.34460598886653
 20
-71.03725543175824
 30
0.0
 11
92.34460598886653
 21
-57.23725543175533
 31
0.0
  0
LINE
  5
480
102
{ACAD_REACTORS
330
515
102
}
330
51
100
AcDbEntity
  8
1
  6
Continuous
 62
     5
100
AcDbLine
 10
92.34460598886653
 20
-57.23725543175533
 30
0.0
 11
104.7646059888648
 21
-57.23725543175533
 31
0.0
  0
LINE
  5
481
102
{ACAD_REACTORS
330
515
102
}
330
51
100
AcDbEntity
  8
1
  6
Continuous
 62
     5
100
AcDbLine
 10
104.7646059888648
 20
-57.23725543175533
 30
0.0
 11
106.1446059888694
 21
-58.61725543175999
 31
0.0
  0
LINE
  5
482
102
{ACAD_REACTORS
330
515
102
}
330
51
100
AcDbEntity
  8
1
  6
Continuous
 62
     5
100
AcDbLine
 10
106.1446059888694
 20
-58.61725543175999
 30
0.0
 11
106.1446059888694
 21
-71.03725543175824
 31
0.0
  0
LINE
  5
483
102
{ACAD_REACTORS
330
515
102
}
330
51
100
AcDbEntity
  8
1
  6
Continuous
 62
     5
100
AcDbLine
 10
106.1446059888694
 20
-71.03725543175824
 30
0.0
 11
92.34460598886653
 21
-71.03725543175824
 31
0.0
  0
LINE
  5
484
102
{ACAD_REACTORS
330
515
102
}
330
51
100
AcDbEntity
  8
1
  6
Continuous
 62
     5
100
AcDbLine
 10
92.51710598886712
 20
-57.40975543175591
 30
0.0
 11
104.6931541493541
 21
-57.40975543175591
 31
0.0
  0
LINE
  5
485
102
{ACAD_REACTORS
330
515
102
}
330
51
100
AcDbEntity
  8
1
  6
Continuous
 62
     5
100
AcDbLine
 10
104.6931541493541
 20
-57.40975543175591
 30
0.0
 11
105.9721059888689
 21
-58.68870727127069
 31
0.0
  0
LINE
  5
486
102
{ACAD_REACTORS
330
515
102
}
330
51
100
AcDbEntity
  8
1
  6
Continuous
 62
     5
100
AcDbLine
 10
105.9721059888689
 20
-58.68870727127069
 30
0.0
 11
105.9721059888689
 21
-69.04580490542867
 31
0.0
  0
LINE
  5
487
102
{ACAD_REACTORS
330
515
102
}
330
51
100
AcDbEntity
  8
1
  6
Continuous
 62
     5
100
AcDbLine
 10
105.9721059888689
 20
-70.86475543175766
 30
0.0
 11
92.51710598886712
 21
-70.86475543175766
 31
0.0
  0
LINE
  5
488
102
{ACAD_REACTORS
330
515
102
}
330
51
100
AcDbEntity
  8
1
  6
Continuous
 62
     5
100
AcDbLine
 10
92.51710598886712
 20
-70.86475543175766
 30
0.0
 11
92.51710598886712
 21
-69.31225543176697
 31
0.0
  0
LINE
  5
489
102
{ACAD_REACTORS
330
515
102
}
330
51
100
AcDbEntity
  8
1
  6
Continuous
 62
     5
100
AcDbLine
 10
101.6596059888689
 20
-66.55225543175766
 30
0.0
 11
101.6596059888689
 21
-69.03625543176895
 31
0.0
  0
LINE
  5
48A
102
{ACAD_REACTORS
330
515
102
}
330
51
100
AcDbEntity
  8
1
  6
Continuous
 62
     5
100
AcDbLine
 10
103.2121059888596
 20
-67.68021270648751
 30
0.0
 11
103.2121059888596
 21
-69.04580490542867
 31
0.0
  0
LINE
  5
48B
102
{ACAD_REACTORS
330
515
102
}
330
51
100
AcDbEntity
  8
1
  6
Continuous
 62
     5
100
AcDbLine
 10
101.6596059888689
 20
-66.55225543175766
 30
0.0
 11
93.00716923402797
 21
-60.26589215849526
 31
0.0
  0
LINE
  5
48C
102
{ACAD_REACTORS
330
515
102
}
330
51
100
AcDbEntity
  8
1
  6
Continuous
 62
     5
100
AcDbLine
 10
93.3113481020846
 20
-59.84722586390853
 30
0.0
 11
93.00716923402797
 21
-60.26589215849526
 31
0.0
  0
LINE
  5
48D
102
{ACAD_REACTORS
330
515
102
}
330
51
100
AcDbEntity
  8
1
  6
Continuous
 62
     5
100
AcDbLine
 10
103.2121059888596
 20
-67.68021270648751
 30
0.0
 11
104.8274291650159
 21
-68.85381369043898
 31
0.0
  0
LINE
  5
48E
102
{ACAD_REACTORS
330
515
102
}
330
51
100
AcDbEntity
  8
1
  6
Continuous
 62
     5
100
AcDbLine
 10
105.1316080330871
 20
-68.43514739585225
 30
0.0
 11
93.3113481020846
 21
-59.84722586390853
 31
0.0
  0
LINE
  5
48F
102
{ACAD_REACTORS
330
516
102
}
330
51
100
AcDbEntity
  8
1
  6
Continuous
 62
     5
100
AcDbLine
 10
102.9767682249221
 20
-65.59023427746433
 30
0.0
 11
102.5103606272169
 21
-66.23218926250411
 31
0.0
  0
LINE
  5
490
102
{ACAD_REACTORS
330
516
102
}
330
51
100
AcDbEntity
  8
1
  6
Continuous
 62
     5
100
AcDbLine
 10
102.5103606272169
 20
-66.23218926250411
 30
0.0
 11
105.2735581715097
 21
-68.23976979170402
 31
0.0
  0
LINE
  5
491
102
{ACAD_REACTORS
330
516
102
}
330
51
100
AcDbEntity
  8
1
  6
Continuous
 62
     5
100
AcDbLine
 10
105.2735581715097
 20
-68.23976979170402
 30
0.0
 11
105.7399657692004
 21
-67.5978148066788
 31
0.0
  0
LINE
  5
492
102
{ACAD_REACTORS
330
516
102
}
330
51
100
AcDbEntity
  8
1
  6
Continuous
 62
     5
100
AcDbLine
 10
105.7399657692004
 20
-67.5978148066788
 30
0.0
 11
102.9767682249221
 21
-65.59023427746433
 31
0.0
  0
LINE
  5
493
102
{ACAD_REACTORS
330
515
102
}
330
51
100
AcDbEntity
  8
1
  6
Continuous
 62
     5
100
AcDbLine
 10
105.1316080330871
 20
-68.43514739585225
 30
0.0
 11
104.8274291650159
 21
-68.85381369043898
 31
0.0
  0
LINE
  5
494
102
{ACAD_REACTORS
330
515
102
}
330
51
100
AcDbEntity
  8
1
  6
Continuous
 62
     5
100
AcDbLine
 10
105.9721059888689
 20
-69.04580490542867
 30
0.0
 11
103.2121059888596
 21
-69.04580490542867
 31
0.0
  0
LINE
  5
495
102
{ACAD_REACTORS
330
515
102
}
330
51
100
AcDbEntity
  8
1
  6
Continuous
 62
     5
100
AcDbLine
 10
105.9721059888689
 20
-69.31225543176697
 30
0.0
 11
95.50710598887235
 21
-69.31225543176697
 31
0.0
  0
LINE
  5
496
102
{ACAD_REACTORS
330
515
102
}
330
51
100
AcDbEntity
  8
1
  6
Continuous
 62
     5
100
AcDbLine
 10
105.9721059888689
 20
-69.31225543176697
 30
0.0
 11
105.9721059888689
 21
-70.86475543175766
 31
0.0
  0
LINE
  5
497
102
{ACAD_REACTORS
330
515
102
}
330
51
100
AcDbEntity
  8
1
  6
Continuous
 62
     5
100
AcDbLine
 10
95.50710598887235
 20
-69.31225543176697
 30
0.0
 11
95.65140935144154
 21
-69.03625543176895
 31
0.0
  0
LINE
  5
498
102
{ACAD_REACTORS
330
515
102
}
330
51
100
AcDbEntity
  8
1
  6
Continuous
 62
     5
100
AcDbLine
 10
95.65140935144154
 20
-69.03625543176895
 30
0.0
 11
101.6596059888689
 21
-69.03625543176895
 31
0.0
  0
LINE
  5
499
102
{ACAD_REACTORS
330
515
102
}
330
51
100
AcDbEntity
  8
1
  6
Continuous
 62
     5
100
AcDbLine
 10
92.51710598886712
 20
-69.03625543176895
 30
0.0
 11
92.86210598886828
 21
-69.03625543176895
 31
0.0
  0
LINE
  5
49A
102
{ACAD_REACTORS
330
515
102
}
330
51
100
AcDbEntity
  8
1
  6
Continuous
 62
     5
100
AcDbLine
 10
92.51710598886712
 20
-69.03625543176895
 30
0.0
 11
92.51710598886712
 21
-57.40975543175591
 31
0.0
  0
LINE
  5
49B
102
{ACAD_REACTORS
330
515
102
}
330
51
100
AcDbEntity
  8
1
  6
Continuous
 62
     5
100
AcDbLine
 10
92.86210598886828
 20
-69.03625543176895
 30
0.0
 11
92.79313554764667
 21
-69.31225543176697
 31
0.0
  0
LINE
  5
49C
102
{ACAD_REACTORS
330
515
102
}
330
51
100
AcDbEntity
  8
1
  6
Continuous
 62
     5
100
AcDbLine
 10
92.51710598886712
 20
-69.31225543176697
 30
0.0
 11
92.79313554764667
 21
-69.31225543176697
 31
0.0
  0
LINE
  5
49D
330
51
100
AcDbEntity
  8
1
  6
Continuous
 62
     5
100
AcDbLine
 10
99.80278053290385
 20
-67.74522744993737
 30
0.0
 11
99.97643568245985
 21
-67.40441002907755
 31
0.0
  0
LINE
  5
49E
330
51
100
AcDbEntity
  8
1
  6
Continuous
 62
     5
100
AcDbLine
 10
100.5741621300695
 20
-67.74522744993737
 30
0.0
 11
99.80278053290385
 21
-67.74522744993737
 31
0.0
  0
LINE
  5
49F
330
51
100
AcDbEntity
  8
1
  6
Continuous
 62
     5
100
AcDbLine
 10
100.5741621300695
 20
-67.74522744993737
 30
0.0
 11
100.5741621300695
 21
-68.21109243531828
 31
0.0
  0
LINE
  5
4A0
330
51
100
AcDbEntity
  8
1
  6
Continuous
 62
     5
100
AcDbLine
 10
99.97643568245985
 20
-67.40441002907755
 30
0.0
 11
100.9191621300706
 21
-67.40441002907755
 31
0.0
  0
LINE
  5
4A1
330
51
100
AcDbEntity
  8
1
  6
Continuous
 62
     5
100
AcDbLine
 10
100.9191621300706
 20
-67.40441002907755
 30
0.0
 11
100.9191621300706
 21
-68.38125963696803
 31
0.0
  0
LINE
  5
4A2
330
51
100
AcDbEntity
  8
1
  6
Continuous
 62
     5
100
AcDbLine
 10
96.13467288485845
 20
-68.60678634559736
 30
0.0
 11
97.41602047662309
 21
-66.365848535439
 31
0.0
  0
LINE
  5
4A3
330
51
100
AcDbEntity
  8
1
  6
Continuous
 62
     5
100
AcDbLine
 10
97.41602047662309
 20
-66.365848535439
 30
0.0
 11
98.69736806840228
 21
-68.60678634559736
 31
0.0
  0
LINE
  5
4A4
330
51
100
AcDbEntity
  8
1
  6
Continuous
 62
     5
100
AcDbLine
 10
98.69736806840228
 20
-68.60678634559736
 30
0.0
 11
98.36863054626156
 21
-68.79475543176522
 31
0.0
  0
LINE
  5
4A5
330
51
100
AcDbEntity
  8
1
  6
Continuous
 62
     5
100
AcDbLine
 10
98.36863054626156
 20
-68.79475543176522
 30
0.0
 11
98.0135484681814
 21
-68.17375543176604
 31
0.0
  0
LINE
  5
4A6
330
51
100
AcDbEntity
  8
1
  6
Continuous
 62
     5
100
AcDbLine
 10
98.0135484681814
 20
-68.17375543176604
 30
0.0
 11
96.81849248507933
 21
-68.17375543176604
 31
0.0
  0
LINE
  5
4A7
330
51
100
AcDbEntity
  8
1
  6
Continuous
 62
     5
100
AcDbLine
 10
96.81849248507933
 20
-68.17375543176604
 30
0.0
 11
96.46341040699917
 21
-68.79475543176522
 31
0.0
  0
LINE
  5
4A8
330
51
100
AcDbEntity
  8
1
  6
Continuous
 62
     5
100
AcDbLine
 10
96.46341040699917
 20
-68.79475543176522
 30
0.0
 11
96.13467288485845
 21
-68.60678634559736
 31
0.0
  0
LINE
  5
4A9
330
51
100
AcDbEntity
  8
1
  6
Continuous
 62
     5
100
AcDbLine
 10
97.03548708836024
 20
-67.79425543175603
 30
0.0
 11
97.41602047662309
 21
-67.12874385372561
 31
0.0
  0
LINE
  5
4AA
330
51
100
AcDbEntity
  8
1
  6
Continuous
 62
     5
100
AcDbLine
 10
97.03548708836024
 20
-67.79425543175603
 30
0.0
 11
97.79655386490049
 21
-67.79425543175603
 31
0.0
  0
LINE
  5
4AB
330
51
100
AcDbEntity
  8
1
  6
Continuous
 62
     5
100
AcDbLine
 10
97.41602047662309
 20
-67.12874385372561
 30
0.0
 11
97.79655386490049
 21
-67.79425543175603
 31
0.0
  0
LINE
  5
4AC
330
51
100
AcDbEntity
  8
1
  6
Continuous
 62
     5
100
AcDbLine
 10
100.6268913908571
 20
-67.02675330602506
 30
0.0
 11
100.9094946308032
 21
-66.7896210316103
 31
0.0
  0
LINE
  5
4AD
102
{ACAD_REACTORS
330
514
102
}
330
51
100
AcDbEntity
  8
1
  6
Continuous
 62
     5
100
AcDbLine
 10
93.1785670734971
 20
-68.87975664829719
 30
0.0
 11
93.06607617942791
 21
-69.32991306620534
 31
0.0
  0
LINE
  5
4AE
102
{ACAD_REACTORS
330
514
102
}
330
51
100
AcDbEntity
  8
1
  6
Continuous
 62
     5
100
AcDbLine
 10
95.25358528534707
 20
-66.46702399353671
 30
0.0
 11
95.36607617941627
 21
-66.01686757561401
 31
0.0
  0
LINE
  5
4AF
102
{ACAD_REACTORS
330
514
102
}
330
51
100
AcDbEntity
  8
1
  6
Continuous
 62
     5
100
AcDbLine
 10
93.52166586527892
 20
-67.14096919161966
 30
0.0
 11
95.06781575949572
 21
-67.77355284463556
 31
0.0
  0
LINE
  5
4B0
102
{ACAD_REACTORS
330
514
102
}
330
51
100
AcDbEntity
  8
1
  6
Continuous
 62
     5
100
AcDbLine
 10
93.36433659934846
 20
-67.57322779718379
 30
0.0
 11
94.91048649356526
 21
-68.20581145019969
 31
0.0
  0
LINE
  5
4B1
330
51
100
AcDbEntity
  8
Z1
  6
Continuous
 62
     7
100
AcDbLine
 10
-20.75539401113929
 20
-38.13725543176406
 30
0.0
 11
159.2446059888607
 21
-38.13725543176406
 31
0.0
  0
LINE
  5
4B2
330
51
100
AcDbEntity
  8
Z4
  6
Continuous
 62
     6
100
AcDbLine
 10
-20.75539401113929
 20
-72.13725543176406
 30
0.0
 11
159.2446059888607
 21
-72.13725543176406
 31
0.0
  0
LINE
  5
4B3
330
51
100
AcDbEntity
  8
Z4
  6
Continuous
 62
     6
100
AcDbLine
 10
-1.75539401113929
 20
-72.13725543176406
 30
0.0
 11
-1.75539401113929
 21
-89.13725543176406
 31
0.0
  0
LINE
  5
4B4
330
51
100
AcDbEntity
  8
Z4
  6
Continuous
 62
     6
100
AcDbLine
 10
110.2446059888607
 20
-72.13725543176406
 30
0.0
 11
110.2446059888607
 21
-89.13725543176406
 31
0.0
  0
LINE
  5
4B5
330
51
100
AcDbEntity
  8
Z4
  6
Continuous
 62
     6
100
AcDbLine
 10
49.24460598886071
 20
-38.13725543176406
 30
0.0
 11
49.24460598886071
 21
-72.13725543176406
 31
0.0
  0
LINE
  5
4B6
330
51
100
AcDbEntity
  8
Z4
  6
Continuous
 62
     6
100
AcDbLine
 10
91.24460598886071
 20
-56.13725543176406
 30
0.0
 11
91.24460598886071
 21
-72.13725543176406
 31
0.0
  0
LINE
  5
4B7
330
51
100
AcDbEntity
  8
Z4
  6
Continuous
 62
     6
100
AcDbLine
 10
63.24460598886071
 20
-56.13725543176406
 30
0.0
 11
63.24460598886071
 21
-72.13725543176406
 31
0.0
  0
LINE
  5
4B8
330
51
100
AcDbEntity
  8
Z4
  6
Continuous
 62
     6
100
AcDbLine
 10
77.24460598886071
 20
-56.13725543176406
 30
0.0
 11
77.24460598886071
 21
-72.13725543176406
 31
0.0
  0
LINE
  5
4B9
330
51
100
AcDbEntity
  8
Z4
  6
Continuous
 62
     6
100
AcDbLine
 10
59.24460598886071
 20
-38.13725543176406
 30
0.0
 11
59.24460598886071
 21
-56.13725543176406
 31
0.0
  0
LINE
  5
4BA
330
51
100
AcDbEntity
  8
Z4
  6
Continuous
 62
     6
100
AcDbLine
 10
69.24460598886071
 20
-38.13725543176406
 30
0.0
 11
69.24460598886071
 21
-56.13725543176406
 31
0.0
  0
LINE
  5
4BB
330
51
100
AcDbEntity
  8
Z4
  6
Continuous
 62
     6
100
AcDbLine
 10
129.2446059888607
 20
-38.13725543176406
 30
0.0
 11
129.2446059888607
 21
-56.13725543176406
 31
0.0
  0
LINE
  5
4BC
330
51
100
AcDbEntity
  8
Z4
  6
Continuous
 62
     6
100
AcDbLine
 10
144.2446059888607
 20
-38.13725543176406
 30
0.0
 11
144.2446059888607
 21
-56.13725543176406
 31
0.0
  0
LINE
  5
4BD
330
51
100
AcDbEntity
  8
Z4
  6
Continuous
 62
     6
100
AcDbLine
 10
-20.75539401113929
 20
-56.13725543176406
 30
0.0
 11
9.24460598886071
 21
-56.13725543176406
 31
0.0
  0
LINE
  5
4BE
330
51
100
AcDbEntity
  8
Z4
  6
Continuous
 62
     6
100
AcDbLine
 10
49.24460598886071
 20
-51.63725543176406
 30
0.0
 11
159.2446059888607
 21
-51.63725543176406
 31
0.0
  0
LINE
  5
4BF
330
51
100
AcDbEntity
  8
Z1
  6
Continuous
 62
     7
100
AcDbLine
 10
49.24460598886071
 20
-47.13725543176406
 30
0.0
 11
159.2446059888607
 21
-47.13725543176406
 31
0.0
  0
LINE
  5
4C0
330
51
100
AcDbEntity
  8
Z1
  6
Continuous
 62
     7
100
AcDbLine
 10
49.24460598886071
 20
-42.63725543176406
 30
0.0
 11
159.2446059888607
 21
-42.63725543176406
 31
0.0
  0
LINE
  5
4C1
330
51
100
AcDbEntity
  8
Z1
  6
Continuous
 62
     7
100
AcDbLine
 10
110.2446059888607
 20
-80.63725543176406
 30
0.0
 11
159.2446059888607
 21
-80.63725543176406
 31
0.0
  0
LINE
  5
4C2
330
51
100
AcDbEntity
  8
Z1
  6
Continuous
 62
     7
100
AcDbLine
 10
110.2446059888607
 20
-84.88725543176406
 30
0.0
 11
159.2446059888607
 21
-84.88725543176406
 31
0.0
  0
LINE
  5
4C3
330
51
100
AcDbEntity
  8
Z1
  6
Continuous
 62
     7
100
AcDbLine
 10
49.24460598886071
 20
-64.13725543176406
 30
0.0
 11
91.24460598886071
 21
-64.13725543176406
 31
0.0
  0
LINE
  5
4C4
330
51
100
AcDbEntity
  8
Z1
  6
Continuous
 62
     7
100
AcDbLine
 10
49.24460598886071
 20
-68.13725543176406
 30
0.0
 11
91.24460598886071
 21
-68.13725543176406
 31
0.0
  0
LINE
  5
4C5
330
51
100
AcDbEntity
  8
Z1
  6
Continuous
 62
     6
100
AcDbLine
 10
49.24460598886071
 20
-60.13725543176406
 30
0.0
 11
91.24460598886071
 21
-60.13725543176406
 31
0.0
  0
LINE
  5
4C6
330
51
100
AcDbEntity
  8
Z4
  6
Continuous
 62
     6
100
AcDbLine
 10
9.24460598886071
 20
-56.13725543176406
 30
0.0
 11
9.24460598886071
 21
-72.13725543176406
 31
0.0
  0
LINE
  5
4C7
330
51
100
AcDbEntity
  8
Z4
  6
Continuous
 62
     6
100
AcDbLine
 10
9.24460598886071
 20
-56.13725543176406
 30
0.0
 11
159.2446059888607
 21
-56.13725543176406
 31
0.0
  0
ARC
  5
4C8
330
51
100
AcDbEntity
  8
1
  6
Continuous
 62
     5
100
AcDbCircle
 10
99.97643568245985
 20
-67.59113702758623
 30
0.0
 40
0.8611745547505456
100
AcDbArc
 50
40.94733722377511
 51
313.9541733401502
  0
ARC
  5
4C9
330
51
100
AcDbEntity
  8
1
  6
Continuous
 62
     5
100
AcDbCircle
 10
99.97643568245985
 20
-67.59113702758623
 30
0.0
 40
1.230051581393593
100
AcDbArc
 50
40.66322727606491
 51
320.0327851141883
  0
ARC
  5
4CA
102
{ACAD_REACTORS
330
514
102
}
330
51
100
AcDbEntity
  8
1
  6
Continuous
 62
     5
100
AcDbCircle
 10
94.80121662864985
 20
-68.50602793668804
 30
0.0
 40
0.3194837118430162
100
AcDbArc
 50
317.0321612641883
 51
70.00000000039391
  0
ARC
  5
4CB
102
{ACAD_REACTORS
330
514
102
}
330
51
100
AcDbEntity
  8
1
  6
Continuous
 62
     5
100
AcDbCircle
 10
94.80121662864985
 20
-68.50602793668804
 30
0.0
 40
0.7794837118506113
100
AcDbArc
 50
315.6992600299512
 51
70.00000000018225
  0
ARC
  5
4CC
102
{ACAD_REACTORS
330
514
102
}
330
51
100
AcDbEntity
  8
1
  6
Continuous
 62
     5
100
AcDbCircle
 10
94.2775734384195
 20
-68.0182720041048
 30
0.0
 40
1.035100956215446
100
AcDbArc
 50
276.6294782806643
 51
317.0321612640549
  0
ARC
  5
4CD
102
{ACAD_REACTORS
330
514
102
}
330
51
100
AcDbEntity
  8
1
  6
Continuous
 62
     5
100
AcDbCircle
 10
94.2775734384195
 20
-68.0182720041048
 30
0.0
 40
1.49500000000193
100
AcDbArc
 50
271.6117122298076
 51
316.3372404873639
  0
ARC
  5
4CE
102
{ACAD_REACTORS
330
514
102
}
330
51
100
AcDbEntity
  8
1
  6
Continuous
 62
     5
100
AcDbCircle
 10
94.21607617942209
 20
-65.83264363142371
 30
0.0
 40
3.218900881120304
100
AcDbArc
 50
251.1968452948057
 51
273.2234244588658
  0
ARC
  5
4CF
102
{ACAD_REACTORS
330
514
102
}
330
51
100
AcDbEntity
  8
1
  6
Continuous
 62
     5
100
AcDbCircle
 10
94.21607617942209
 20
-65.83264363142371
 30
0.0
 40
3.68149337897604
100
AcDbArc
 50
251.797688939178
 51
271.6117122295028
  0
ARC
  5
4D0
102
{ACAD_REACTORS
330
514
102
}
330
51
100
AcDbEntity
  8
1
  6
Continuous
 62
     5
100
AcDbCircle
 10
94.21607617942209
 20
-69.51413701039564
 30
0.0
 40
3.218900881106529
100
AcDbArc
 50
71.19684529472221
 51
93.22342445886582
  0
ARC
  5
4D1
102
{ACAD_REACTORS
330
514
102
}
330
51
100
AcDbEntity
  8
1
  6
Continuous
 62
     5
100
AcDbCircle
 10
94.21607617942209
 20
-69.51413701039564
 30
0.0
 40
3.68149337897604
100
AcDbArc
 50
71.79768893917802
 51
91.6117122295091
  0
ARC
  5
4D2
102
{ACAD_REACTORS
330
514
102
}
330
51
100
AcDbEntity
  8
1
  6
Continuous
 62
     5
100
AcDbCircle
 10
94.15457892042468
 20
-67.3285086377291
 30
0.0
 40
1.035100956229901
100
AcDbArc
 50
96.62947828057129
 51
137.0321612634655
  0
ARC
  5
4D3
102
{ACAD_REACTORS
330
514
102
}
330
51
100
AcDbEntity
  8
1
  6
Continuous
 62
     5
100
AcDbCircle
 10
93.63093573019432
 20
-66.84075270513131
 30
0.0
 40
0.3194837118430162
100
AcDbArc
 50
137.0321612641883
 51
250.0000000003939
  0
ARC
  5
4D4
102
{ACAD_REACTORS
330
514
102
}
330
51
100
AcDbEntity
  8
1
  6
Continuous
 62
     5
100
AcDbCircle
 10
94.15457892042468
 20
-67.3285086377291
 30
0.0
 40
1.49500000000193
100
AcDbArc
 50
91.61171222980755
 51
136.3372404873639
  0
ARC
  5
4D5
102
{ACAD_REACTORS
330
514
102
}
330
51
100
AcDbEntity
  8
1
  6
Continuous
 62
     5
100
AcDbCircle
 10
93.63093573019432
 20
-66.84075270513131
 30
0.0
 40
0.7794837118404478
100
AcDbArc
 50
135.6992600307167
 51
250.0000000001822
  0
XLINE
  5
4D6
330
51
100
AcDbEntity
  8
1
  6
DOT_CENTER
 62
     3
 60
     1
100
AcDbXline
 10
94.21607617942209
 20
-65.83264363142371
 30
0.0
 11
0.05622969678011738
 21
-0.9984178590149597
 31
0.0
  0
XLINE
  5
4D7
330
51
100
AcDbEntity
  8
1
  6
DOT_CENTER
 62
     3
 60
     1
100
AcDbXline
 10
94.21607617942209
 20
-65.83264363142371
 30
0.0
 11
-0.3123732359719131
 21
-0.9499594525285989
 31
0.0
  0
XLINE
  5
4D8
330
51
100
AcDbEntity
  8
1
  6
DOT_CENTER
 62
     3
 60
     1
100
AcDbXline
 10
94.2775734384195
 20
-68.0182720041048
 30
0.0
 11
0.7234160453956451
 21
-0.6904123588581871
 31
0.0
  0
XLINE
  5
4D9
330
51
100
AcDbEntity
  8
1
  6
DOT_CENTER
 62
     3
 60
     1
100
AcDbXline
 10
94.2775734384195
 20
-68.0182720041048
 30
0.0
 11
0.7317364056593275
 21
-0.6815877292269632
 31
0.0
  0
XLINE
  5
4DA
330
51
100
AcDbEntity
  8
1
  6
DOT_CENTER
 62
     3
 60
     1
100
AcDbXline
 10
94.80121662864985
 20
-68.50602793668804
 30
0.0
 11
0.342020143325682
 21
0.9396926207859037
 31
0.0
  0
XLINE
  5
4DB
330
51
100
AcDbEntity
  8
1
  6
DOT_CENTER
 62
     3
 60
     1
100
AcDbXline
 10
99.97643568245985
 20
-67.59113702758623
 30
0.0
 11
0.7585527001158179
 21
0.651611695066166
 31
0.0
  0
XLINE
  5
4DC
330
51
100
AcDbEntity
  8
1
  6
DOT_CENTER
 62
     3
 60
     1
100
AcDbXline
 10
99.97643568245985
 20
-67.59113702758623
 30
0.0
 11
0.7664121260197058
 21
-0.6423491675794052
 31
0.0
  0
XLINE
  5
4DD
330
51
100
AcDbEntity
  8
1
  6
DOT_CENTER
 62
     3
 60
     1
100
AcDbXline
 10
99.97643568245985
 20
-67.59113702758623
 30
0.0
 11
0.7553122706777713
 21
0.6553650690749311
 31
0.0
  0
XLINE
  5
4DE
330
51
100
AcDbEntity
  8
1
  6
DOT_CENTER
 62
     3
 60
     1
100
AcDbXline
 10
99.97643568245985
 20
-67.59113702758623
 30
0.0
 11
0.6940828015755927
 21
-0.7198951760895307
 31
0.0
  0
MTEXT
  5
4E0
330
51
100
AcDbEntity
  8
Z2
 62
     7
100
AcDbMText
 10
84.24460598886071
 20
-66.13725543176406
 30
0.0
 40
2.2
 41
0.0
 71
     5
 72
     1
  1
manteca
  7
CONVERTER_15
 73
     1
 44
0.60024009603842
  0
MTEXT
  5
4E1
330
51
100
AcDbEntity
  8
Z2
 62
     7
100
AcDbMText
 10
70.24460598886071
 20
-66.13725543176406
 30
0.0
 40
2.2
 41
0.0
 71
     5
 72
     1
  1
18.05.2015
  7
CONVERTER_15
 73
     1
 44
0.60024009603842
  0
MTEXT
  5
4E3
330
51
100
AcDbEntity
  8
1
 62
     6
100
AcDbMText
 10
113.2446059888607
 20
-79.13725543176406
 30
0.0
 40
5.0
 41
0.0
 71
     8
 72
     1
  1
K
  7
CONVERTER_16
 73
     1
 44
1.02040816326531
  0
MTEXT
  5
4E4
330
51
100
AcDbEntity
  8
1
 62
     6
100
AcDbMText
 10
119.2446059888607
 20
-79.13725543176406
 30
0.0
 40
5.0
 41
0.0
 71
     8
 72
     1
  1
E
  7
CONVERTER_16
 73
     1
 44
1.02040816326531
  0
MTEXT
  5
4E5
330
51
100
AcDbEntity
  8
1
 62
     7
100
AcDbMText
 10
84.74460598886071
 20
-63.13725543176406
 30
0.0
 40
2.2
 41
0.0
 71
     8
 72
     1
  1
halter
  7
CONVERTER_15
 73
     1
 44
1.32052821128451
  0
MTEXT
  5
4E6
330
51
100
AcDbEntity
  8
1
 62
     7
100
AcDbMText
 10
151.7446059888607
 20
-50.63725543176406
 30
0.0
 40
2.2
 41
0.0
 71
     8
 72
     1
  1
 
  7
CONVERTER_15
 73
     1
 44
1.32052821128451
  0
MTEXT
  5
4E7
330
51
100
AcDbEntity
  8
1
 62
     7
100
AcDbMText
 10
151.7446059888607
 20
-46.13725543176406
 30
0.0
 40
2.2
 41
0.0
 71
     8
 72
     1
  1
 
  7
CONVERTER_15
 73
     1
 44
1.32052821128451
  0
MTEXT
  5
4E8
330
51
100
AcDbEntity
  8
1
 62
     7
100
AcDbMText
 10
151.7446059888607
 20
-41.63725543176406
 30
0.0
 40
2.2
 41
0.0
 71
     8
 72
     1
  1
 
  7
CONVERTER_15
 73
     1
 44
1.32052821128451
  0
MTEXT
  5
4E9
330
51
100
AcDbEntity
  8
1
 62
     7
100
AcDbMText
 10
70.24460598886071
 20
-63.38725543176406
 30
0.0
 40
2.2
 41
0.0
 71
     8
 72
     1
  1
07.05.2015
  7
CONVERTER_15
 73
     1
 44
1.32052821128451
  0
TEXT
  5
4EA
330
51
100
AcDbEntity
  8
1
 62
     6
100
AcDbText
 10
123.7446059888607
 20
-79.13725543176406
 30
0.0
 40
5.0
  1
K1.8355-1.8357
 41
0.585
  7
CONVERTER_16
100
AcDbText
  0
TEXT
  5
4EB
330
51
100
AcDbEntity
  8
Z2
 62
     7
100
AcDbText
 10
50.24460598886071
 20
-63.13725543176406
 30
0.0
 40
2.0
  1
Gezeichn.
 41
0.72
  7
CONVERTER_11
100
AcDbText
  0
MTEXT
  5
4EC
330
51
100
AcDbEntity
  8
Z2
 62
     7
100
AcDbMText
 10
50.24460598886071
 20
-67.13725543176406
 30
0.0
 40
2.0
 41
0.0
 71
     7
 72
     1
  1
Gepr\U+00fcft
  7
CONVERTER_11
 73
     1
 44
0.60024009603842
  0
TEXT
  5
4ED
330
51
100
AcDbEntity
  8
Z2
 62
     7
100
AcDbText
 10
50.24460598886071
 20
-71.13725543176406
 30
0.0
 40
2.0
  1
Normgepr.
 41
0.72
  7
CONVERTER_11
100
AcDbText
  0
MTEXT
  5
4EF
330
51
100
AcDbEntity
  8
Z2
 62
     7
100
AcDbMText
 10
70.24460598886071
 20
-58.13725543176406
 30
0.0
 40
2.0
 41
0.0
 71
     5
 72
     1
  1
Datum
  7
CONVERTER_17
 73
     1
 44
0.60024009603842
  0
MTEXT
  5
4F0
330
51
100
AcDbEntity
  8
Z2
 62
     7
100
AcDbMText
 10
84.24460598886071
 20
-58.13725543176406
 30
0.0
 40
2.0
 41
0.0
 71
     5
 72
     1
  1
Name
  7
CONVERTER_17
 73
     1
 44
0.60024009603842
  0
MTEXT
  5
4F1
330
51
100
AcDbEntity
  8
Z2
 62
     7
100
AcDbMText
 10
54.24460598886071
 20
-53.63725543176406
 30
0.0
 40
2.0
 41
0.0
 71
     5
 72
     1
  1
Index
  7
CONVERTER_17
 73
     1
 44
0.60024009603842
  0
MTEXT
  5
4F2
330
51
100
AcDbEntity
  8
Z2
 62
     7
100
AcDbMText
 10
64.24460598886071
 20
-53.73725543175533
 30
0.0
 40
1.26
 41
0.0
 71
     8
 72
     1
  1
Buchstabe
  7
CONVERTER_17
 73
     1
 44
0.60024009603842
  0
MTEXT
  5
4F3
330
51
100
AcDbEntity
  8
Z2
 62
     7
100
AcDbMText
 10
64.24460598886071
 20
-55.43725543176697
 30
0.0
 40
1.26
 41
0.0
 71
     8
 72
     1
  1
kommt vor
  7
CONVERTER_17
 73
     1
 44
0.60024009603842
  0
MTEXT
  5
4F4
330
51
100
AcDbEntity
  8
Z2
 62
     7
100
AcDbMText
 10
98.24460598886071
 20
-54.63725543176406
 30
0.0
 40
2.0
 41
0.0
 71
     8
 72
     1
  1
\U+00c4nderung
  7
CONVERTER_17
 73
     1
 44
0.60024009603842
  0
MTEXT
  5
4F5
330
51
100
AcDbEntity
  8
Z2
 62
     7
100
AcDbMText
 10
136.2446059888607
 20
-54.63725543176406
 30
0.0
 40
2.0
 41
0.0
 71
     8
 72
     1
  1
Datum
  7
CONVERTER_17
 73
     1
 44
0.60024009603842
  0
MTEXT
  5
4F6
330
51
100
AcDbEntity
  8
Z2
 62
     7
100
AcDbMText
 10
151.2446059888607
 20
-54.63725543176406
 30
0.0
 40
2.0
 41
0.0
 71
     8
 72
     1
  1
Name
  7
CONVERTER_17
 73
     1
 44
0.60024009603842
  0
MTEXT
  5
4F7
330
51
100
AcDbEntity
  8
Z2
 62
     7
100
AcDbMText
 10
111.7446059888607
 20
-83.63725543176406
 30
0.0
 40
2.0
 41
0.0
 71
     7
 72
     1
  1
Ersatz f\U+00fcr
  7
CONVERTER_17
 73
     1
 44
0.60024009603842
  0
TEXT
  5
4F8
330
51
100
AcDbEntity
  8
Z2
 62
     7
100
AcDbText
 10
111.7446059888607
 20
-88.13725543176406
 30
0.0
 40
2.0
  1
Ersetzt durch
 41
0.8415
  7
CONVERTER_17
100
AcDbText
  0
TEXT
  5
4FA
330
51
100
AcDbEntity
  8
Z5
 62
     6
100
AcDbText
 10
108.7446059888607
 20
-68.13725543176406
 30
0.0
 40
3.5
  1
Schulte-Schlagbaum AG
 41
0.675
  7
CONVERTER_18
100
AcDbText
  0
TEXT
  5
4FB
330
51
100
AcDbEntity
  8
Z2
 62
     3
100
AcDbText
 10
-19.75539401113929
 20
-61.03725543175824
 30
0.0
 40
1.5
  1
ohne unsere Zustimmung
 41
0.9
  7
CONVERTER_12
100
AcDbText
  0
MTEXT
  5
4FC
330
51
100
AcDbEntity
  8
Z2
 62
     3
100
AcDbMText
 10
-19.75539401113929
 20
-67.93725543176697
 30
0.0
 40
1.5
 41
0.0
 71
     7
 72
     1
  1
\U+00dcbernommen werden.
  7
CONVERTER_12
 73
     1
 44
0.60024009603842
  0
TEXT
  5
4FE
330
51
100
AcDbEntity
  8
Z2
 62
     7
100
AcDbText
 10
-19.75539401113929
 20
-70.93725543176697
 30
0.0
 40
1.8
  1
Schulte-Schlagbaum AG
 41
0.7425
  7
CONVERTER_19
100
AcDbText
  0
MTEXT
  5
4FF
330
51
100
AcDbEntity
  8
Z2
 62
     3
100
AcDbMText
 10
-19.75539401113929
 20
-63.33725543176115
 30
0.0
 40
1.5
 41
0.0
 71
     7
 72
     1
  1
weder vervielf\U+00e4ltigt noch
  7
CONVERTER_12
 73
     1
 44
0.60024009603842
  0
TEXT
  5
500
330
51
100
AcDbEntity
  8
Z2
 62
     3
100
AcDbText
 10
-19.75539401113929
 20
-65.63725543176406
 30
0.0
 40
1.5
  1
in andere Unterlagen
 41
0.9
  7
CONVERTER_12
100
AcDbText
  0
TEXT
  5
501
330
51
100
AcDbEntity
  8
Z2
 62
     3
100
AcDbText
 10
-19.75539401113929
 20
-58.73725543175533
 30
0.0
 40
1.5
  1
Diese Zeichnung darf
 41
0.9
  7
CONVERTER_12
100
AcDbText
  0
MTEXT
  5
502
330
51
100
AcDbEntity
  8
1
 62
     7
100
AcDbMText
 10
54.24460598886071
 20
-50.63725543176406
 30
0.0
 40
2.2
 41
0.0
 71
     8
 72
     1
  1
 
  7
CONVERTER_11
 73
     1
 44
1.32052821128451
  0
MTEXT
  5
503
330
51
100
AcDbEntity
  8
1
 62
     7
100
AcDbMText
 10
54.24460598886071
 20
-46.13725543176406
 30
0.0
 40
2.2
 41
0.0
 71
     8
 72
     1
  1
 
  7
CONVERTER_11
 73
     1
 44
1.32052821128451
  0
MTEXT
  5
504
330
51
100
AcDbEntity
  8
1
 62
     7
100
AcDbMText
 10
54.24460598886071
 20
-41.63725543176406
 30
0.0
 40
2.2
 41
0.0
 71
     8
 72
     1
  1
 
  7
CONVERTER_11
 73
     1
 44
1.32052821128451
  0
MTEXT
  5
505
330
51
100
AcDbEntity
  8
1
 62
     7
100
AcDbMText
 10
64.24460598886071
 20
-50.63725543176406
 30
0.0
 40
2.2
 41
0.0
 71
     8
 72
     1
  1
 
  7
CONVERTER_11
 73
     1
 44
1.32052821128451
  0
MTEXT
  5
506
330
51
100
AcDbEntity
  8
1
 62
     7
100
AcDbMText
 10
64.24460598886071
 20
-46.13725543176406
 30
0.0
 40
2.2
 41
0.0
 71
     8
 72
     1
  1
 
  7
CONVERTER_11
 73
     1
 44
1.32052821128451
  0
MTEXT
  5
507
330
51
100
AcDbEntity
  8
1
 62
     7
100
AcDbMText
 10
64.24460598886071
 20
-41.63725543176406
 30
0.0
 40
2.2
 41
0.0
 71
     8
 72
     1
  1
 
  7
CONVERTER_11
 73
     1
 44
1.32052821128451
  0
MTEXT
  5
508
330
51
100
AcDbEntity
  8
1
 62
     7
100
AcDbMText
 10
98.67076855975029
 20
-50.26617792704201
 30
0.0
 40
2.0
 41
0.0
 71
     8
 72
     1
  1
 
  7
CONVERTER_15
 73
     1
 44
1.32052821128451
  0
MTEXT
  5
509
330
51
100
AcDbEntity
  8
1
 62
     7
100
AcDbMText
 10
98.67076855975029
 20
-45.76617792704201
 30
0.0
 40
2.0
 41
0.0
 71
     8
 72
     1
  1
 
  7
CONVERTER_15
 73
     1
 44
1.32052821128451
  0
MTEXT
  5
50A
330
51
100
AcDbEntity
  8
1
 62
     7
100
AcDbMText
 10
98.67076855975029
 20
-41.26617792704201
 30
0.0
 40
2.0
 41
0.0
 71
     8
 72
     1
  1
 
  7
CONVERTER_15
 73
     1
 44
1.32052821128451
  0
MTEXT
  5
50B
330
51
100
AcDbEntity
  8
1
 62
     7
100
AcDbMText
 10
136.7446059888607
 20
-50.63725543176406
 30
0.0
 40
2.2
 41
0.0
 71
     8
 72
     1
  1
 
  7
CONVERTER_15
 73
     1
 44
1.32052821128451
  0
MTEXT
  5
50C
330
51
100
AcDbEntity
  8
1
 62
     7
100
AcDbMText
 10
136.7446059888607
 20
-46.13725543176406
 30
0.0
 40
2.2
 41
0.0
 71
     8
 72
     1
  1
 
  7
CONVERTER_15
 73
     1
 44
1.32052821128451
  0
MTEXT
  5
50D
330
51
100
AcDbEntity
  8
1
 62
     7
100
AcDbMText
 10
136.7446059888607
 20
-41.63725543176406
 30
0.0
 40
2.2
 41
0.0
 71
     8
 72
     1
  1
 
  7
CONVERTER_15
 73
     1
 44
1.32052821128451
  0
MTEXT
  5
50E
330
51
100
AcDbEntity
  8
Z2
 62
     7
100
AcDbMText
 10
139.4446059888724
 20
-82.63725543176406
 30
0.0
 40
2.0
 41
0.0
 71
     5
 72
     1
  1
 
  7
CONVERTER_17
 73
     1
 44
0.60024009603842
  0
MTEXT
  5
50F
330
51
100
AcDbEntity
  8
1
 62
     2
100
AcDbMText
 10
54.24460598886071
 20
-86.59377717089956
 30
0.0
 40
3.5
 41
0.0
 71
     8
 72
     1
  1
f\U+00fcr Art. 18355.../ 18357...
  7
CONVERTER_18
 73
     1
 44
1.32052821128451
  0
MTEXT
  5
510
330
51
100
AcDbEntity
  8
1
 62
     6
100
AcDbMText
 10
54.24460598886071
 20
-80.66334238828858
 30
0.0
 40
5.0
 41
0.0
 71
     8
 72
     1
  1
Anschlussma\U+00dfe
  7
CONVERTER_11
 73
     1
 44
1.32052821128451
  0
MTEXT
  5
512
330
51
100
AcDbEntity
  8
1
 62
     9
420
 12632256
100
AcDbMText
 10
37.36673581520811
 20
47.1453072437731
 30
0.0
 40
12.0
 41
0.0
 71
     7
 72
     1
  1
 
  7
CONVERTER_20
 11
0.7071067811865476
 21
0.7071067811865475
 31
0.0
 73
     1
 44
0.96038415366146
  0
HATCH
  5
513
330
51
100
AcDbEntity
  8
1
  6
Continuous
 62
     2
100
AcDbHatch
 10
0.0
 20
0.0
 30
0.0
210
0.0
220
0.0
230
1.0
  2
_USER
 70
     0
 71
     1
 91
        1
 92
        1
 93
        4
 72
     1
 10
-1.755394011139288
 20
-72.13725543176406
 11
-1.755394011139288
 21
-89.13725543176406
 72
     1
 10
-1.755394011139288
 20
-89.13725543176406
 11
-20.75539401113929
 21
-89.13725543176406
 72
     1
 10
-20.75539401113929
 20
-89.13725543176406
 11
-20.75539401113929
 21
-72.13725543176406
 72
     1
 10
-20.75539401113929
 20
-72.13725543176406
 11
-1.755394011139288
 21
-72.13725543176406
 97
        4
330
472
330
476
330
470
330
473
 75
     1
 76
     0
 52
45.0
 41
0.15
 77
     0
 78
     1
 53
45.0
 43
0.0
 44
0.0
 45
-0.1060660171779821
 46
0.1060660171779821
 79
     0
 98
        1
 10
0.0
 20
0.0
  0
HATCH
  5
514
330
51
100
AcDbEntity
  8
1
  6
Continuous
 62
     3
100
AcDbHatch
 10
0.0
 20
0.0
 30
0.0
210
0.0
220
0.0
230
1.0
  2
_USER
 70
     0
 71
     1
 91
        1
 92
        1
 93
       16
 72
     2
 10
94.80121662864985
 20
-68.50602793668804
 40
0.7794837118506113
 50
315.6992600299512
 51
430.0000000001822
 73
     1
 72
     1
 10
95.06781575949572
 20
-67.77355284463556
 11
93.52166586527892
 21
-67.14096919161966
 72
     2
 10
93.63093573019432
 20
-66.84075270513131
 40
0.3194837118430162
 50
109.9999999996061
 51
222.9678387358117
 73
     0
 72
     2
 10
94.15457892042468
 20
-67.3285086377291
 40
1.035100956229901
 50
222.9678387365345
 51
263.3705217194287
 73
     0
 72
     2
 10
94.21607617942209
 20
-69.51413701039564
 40
3.218900881106529
 50
266.7765755411342
 51
288.8031547052778
 73
     0
 72
     1
 10
95.25358528534707
 20
-66.46702399353671
 11
95.36607617941627
 21
-66.01686757561401
 72
     2
 10
94.21607617942209
 20
-69.51413701039564
 40
3.68149337897604
 50
71.79768893917802
 51
91.6117122295091
 73
     1
 72
     2
 10
94.15457892042468
 20
-67.3285086377291
 40
1.49500000000193
 50
91.61171222980755
 51
136.3372404873639
 73
     1
 72
     2
 10
93.63093573019432
 20
-66.84075270513131
 40
0.7794837118404478
 50
135.6992600307167
 51
250.0000000001822
 73
     1
 72
     1
 10
93.36433659934846
 20
-67.57322779718379
 11
94.91048649356526
 21
-68.20581145019969
 72
     2
 10
94.80121662864985
 20
-68.50602793668804
 40
0.3194837118430162
 50
289.9999999996061
 51
402.9678387358117
 73
     0
 72
     2
 10
94.2775734384195
 20
-68.0182720041048
 40
1.035100956215446
 50
42.96783873594507
 51
83.37052171933573
 73
     0
 72
     2
 10
94.21607617942209
 20
-65.83264363142371
 40
3.218900881120304
 50
86.77657554113419
 51
108.8031547051943
 73
     0
 72
     1
 10
93.1785670734971
 20
-68.87975664829719
 11
93.06607617942791
 21
-69.32991306620534
 72
     2
 10
94.21607617942209
 20
-65.83264363142371
 40
3.68149337897604
 50
251.797688939178
 51
271.6117122295028
 73
     1
 72
     2
 10
94.2775734384195
 20
-68.0182720041048
 40
1.49500000000193
 50
271.6117122298076
 51
316.3372404873639
 73
     1
 97
       16
330
4CB
330
4AF
330
4D3
330
4D2
330
4D0
330
4AE
330
4D1
330
4D4
330
4D5
330
4B0
330
4CA
330
4CC
330
4CE
330
4AD
330
4CF
330
4CD
 75
     1
 76
     0
 52
45.0
 41
0.1
 77
     0
 78
     1
 53
45.0
 43
0.0
 44
0.0
 45
-0.0707106781186548
 46
0.0707106781186548
 79
     0
 98
        1
 10
0.0
 20
0.0
  0
HATCH
  5
515
330
51
100
AcDbEntity
  8
1
  6
Continuous
 62
     3
100
AcDbHatch
 10
0.0
 20
0.0
 30
0.0
210
0.0
220
0.0
230
1.0
  2
_USER
 70
     0
 71
     1
 91
        2
 92
        1
 93
        5
 72
     1
 10
106.1446059888694
 20
-58.61725543175999
 11
106.1446059888694
 21
-71.03725543175824
 72
     1
 10
106.1446059888694
 20
-71.03725543175824
 11
92.34460598886653
 21
-71.03725543175824
 72
     1
 10
92.34460598886653
 20
-71.03725543175824
 11
92.34460598886653
 21
-57.23725543175533
 72
     1
 10
92.34460598886653
 20
-57.23725543175533
 11
104.7646059888648
 21
-57.23725543175533
 72
     1
 10
104.7646059888648
 20
-57.23725543175533
 11
106.1446059888694
 21
-58.61725543175999
 97
        5
330
480
330
47F
330
483
330
482
330
481
 92
       16
 93
       21
 72
     1
 10
92.51710598886712
 20
-57.40975543175591
 11
104.6931541493541
 21
-57.40975543175591
 72
     1
 10
104.6931541493541
 20
-57.40975543175591
 11
105.9721059888689
 21
-58.68870727127069
 72
     1
 10
105.9721059888689
 20
-58.68870727127069
 11
105.9721059888689
 21
-69.04580490542867
 72
     1
 10
105.9721059888689
 20
-69.04580490542867
 11
103.2121059888596
 21
-69.04580490542867
 72
     1
 10
103.2121059888596
 20
-69.04580490542867
 11
103.2121059888596
 21
-67.68021270648751
 72
     1
 10
103.2121059888596
 20
-67.68021270648751
 11
104.8274291650159
 21
-68.85381369043898
 72
     1
 10
104.8274291650159
 20
-68.85381369043898
 11
105.1316080330871
 21
-68.43514739585225
 72
     1
 10
105.1316080330871
 20
-68.43514739585225
 11
93.3113481020846
 21
-59.84722586390853
 72
     1
 10
93.3113481020846
 20
-59.84722586390853
 11
93.00716923402797
 21
-60.26589215849526
 72
     1
 10
93.00716923402797
 20
-60.26589215849526
 11
101.6596059888689
 21
-66.55225543175766
 72
     1
 10
101.6596059888689
 20
-66.55225543175766
 11
101.6596059888689
 21
-69.03625543176895
 72
     1
 10
101.6596059888689
 20
-69.03625543176895
 11
95.65140935144154
 21
-69.03625543176895
 72
     1
 10
95.65140935144154
 20
-69.03625543176895
 11
95.50710598887235
 21
-69.31225543176697
 72
     1
 10
95.50710598887235
 20
-69.31225543176697
 11
105.9721059888689
 21
-69.31225543176697
 72
     1
 10
105.9721059888689
 20
-69.31225543176697
 11
105.9721059888689
 21
-70.86475543175766
 72
     1
 10
105.9721059888689
 20
-70.86475543175766
 11
92.51710598886712
 21
-70.86475543175766
 72
     1
 10
92.51710598886712
 20
-70.86475543175766
 11
92.51710598886712
 21
-69.31225543176697
 72
     1
 10
92.51710598886712
 20
-69.31225543176697
 11
92.79313554764667
 21
-69.31225543176697
 72
     1
 10
92.79313554764667
 20
-69.31225543176697
 11
92.86210598886828
 21
-69.03625543176895
 72
     1
 10
92.86210598886828
 20
-69.03625543176895
 11
92.51710598886712
 21
-69.03625543176895
 72
     1
 10
92.51710598886712
 20
-69.03625543176895
 11
92.51710598886712
 21
-57.40975543175591
 97
       21
330
484
330
485
330
486
330
494
330
48A
330
48D
330
493
330
48E
330
48C
330
48B
330
489
330
498
330
497
330
495
330
496
330
487
330
488
330
49C
330
49B
330
499
330
49A
 75
     1
 76
     0
 52
45.0
 41
0.1
 77
     0
 78
     1
 53
45.0
 43
0.0
 44
0.0
 45
-0.0707106781186548
 46
0.0707106781186548
 79
     0
 98
        1
 10
0.0
 20
0.0
  0
HATCH
  5
516
330
51
100
AcDbEntity
  8
1
  6
Continuous
 62
     3
100
AcDbHatch
 10
0.0
 20
0.0
 30
0.0
210
0.0
220
0.0
230
1.0
  2
_USER
 70
     0
 71
     1
 91
        1
 92
        1
 93
        4
 72
     1
 10
105.7399657692004
 20
-67.5978148066788
 11
102.9767682249221
 21
-65.59023427746433
 72
     1
 10
102.9767682249221
 20
-65.59023427746433
 11
102.5103606272169
 21
-66.23218926250411
 72
     1
 10
102.5103606272169
 20
-66.23218926250411
 11
105.2735581715097
 21
-68.23976979170402
 72
     1
 10
105.2735581715097
 20
-68.23976979170402
 11
105.7399657692004
 21
-67.5978148066788
 97
        4
330
492
330
48F
330
490
330
491
 75
     1
 76
     0
 52
45.0
 41
0.1
 77
     0
 78
     1
 53
45.0
 43
0.0
 44
0.0
 45
-0.0707106781186548
 46
0.0707106781186548
 79
     0
 98
        1
 10
0.0
 20
0.0
  0
ENDBLK
  5
76
330
51
100
AcDbEntity
  8
0
100
AcDbBlockEnd
  0
BLOCK
  5
7A
330
77
100
AcDbEntity
  8
0
100
AcDbBlockBegin
  2
1
 70
     0
 10
0.0
 20
0.0
 30
0.0
  3
1
  1

  0
INSERT
  5
78
330
77
100
AcDbEntity
  8
1
100
AcDbBlockReference
  2
Einfügen1
 10
69.0
 20
81.0
 30
0.0
 41
0.4
 42
0.4
 43
0.4
  0
INSERT
  5
79
330
77
100
AcDbEntity
  8
0
100
AcDbBlockReference
  2
_sfeld_rahmen_A4h_KD
 10
61.2446059888579
 20
53.2127445682451
 30
0.0
  0
ENDBLK
  5
7B
330
77
100
AcDbEntity
  8
0
100
AcDbBlockEnd
  0
BLOCK
  5
1E0
330
1D7
100
AcDbEntity
  8
0
100
AcDbBlockBegin
  2
*D5
 70
     1
 10
0.0
 20
0.0
 30
0.0
  3
*D5
  1

  0
LINE
  5
1D8
330
1D7
100
AcDbEntity
  8
1
  6
Continuous
 62
     3
100
AcDbLine
 10
20.28699434899978
 20
147.6530341865095
 30
0.0
 11
40.28699434899978
 21
147.6530341865095
 31
0.0
  0
LINE
  5
1D9
330
1D7
100
AcDbEntity
  8
1
  6
Continuous
 62
     3
100
AcDbLine
 10
40.28699434899978
 20
147.6530341865095
 30
0.0
 11
43.28699434899978
 21
147.6530341865095
 31
0.0
  0
LINE
  5
1DA
330
1D7
100
AcDbEntity
  8
1
  6
Continuous
 62
     3
100
AcDbLine
 10
43.28699434899978
 20
147.6530341865095
 30
0.0
 11
63.28699434899978
 21
147.6530341865095
 31
0.0
  0
LINE
  5
1DB
330
1D7
100
AcDbEntity
  8
1
  6
Continuous
 62
     3
100
AcDbLine
 10
43.28699434899978
 20
162.8198681948105
 30
0.0
 11
43.28699434899978
 21
145.1530341865095
 31
0.0
  0
LINE
  5
1DC
330
1D7
100
AcDbEntity
  8
1
  6
Continuous
 62
     3
100
AcDbLine
 10
40.28699434899978
 20
162.8198681948105
 30
0.0
 11
40.28699434899978
 21
145.1530341865095
 31
0.0
  0
SOLID
  5
1DD
330
1D7
100
AcDbEntity
  8
1
 62
     3
100
AcDbTrace
 10
30.28699434899978
 20
146.3365092106355
 30
0.0
 11
30.28699434899978
 21
148.9695591623835
 31
0.0
 12
40.28699434899978
 22
147.6530341865095
 32
0.0
 13
40.28699434899978
 23
147.6530341865095
 33
0.0
  0
SOLID
  5
1DE
330
1D7
100
AcDbEntity
  8
1
 62
     3
100
AcDbTrace
 10
53.28699434899978
 20
148.9695591623835
 30
0.0
 11
53.28699434899978
 21
146.3365092106355
 31
0.0
 12
43.28699434899978
 22
147.6530341865095
 32
0.0
 13
43.28699434899978
 23
147.6530341865095
 33
0.0
  0
MTEXT
  5
1DF
330
1D7
100
AcDbEntity
  8
1
 62
     3
100
AcDbMText
 10
56.82340744833618
 20
150.1530341865095
 30
0.0
 40
6.25
 41
0.0
 71
     7
 72
     1
  1
3
  7
CONVERTER_12
 11
0.9999999999970619
 21
2.424068405545306E-6
 31
0.0
 73
     1
 44
0.60024009603842
  0
ENDBLK
  5
1E1
330
1D7
100
AcDbEntity
  8
0
100
AcDbBlockEnd
  0
BLOCK
  5
1EC
330
1E4
100
AcDbEntity
  8
0
100
AcDbBlockBegin
  2
*D6
 70
     1
 10
0.0
 20
0.0
 30
0.0
  3
*D6
  1

  0
LINE
  5
1E5
330
1E4
100
AcDbEntity
  8
1
  6
Continuous
 62
     3
100
AcDbLine
 10
95.18699434900076
 20
132.1647797169487
 30
0.0
 11
40.2869943489998
 21
132.1647797169487
 31
0.0
  0
LINE
  5
1E6
330
1E4
100
AcDbEntity
  8
1
  6
Continuous
 62
     3
100
AcDbLine
 10
40.2869943489998
 20
162.8198681948105
 30
0.0
 11
40.2869943489998
 21
129.6647797169487
 31
0.0
  0
LINE
  5
1E7
330
1E4
100
AcDbEntity
  8
1
  6
Continuous
 62
     3
100
AcDbLine
 10
95.18699434900076
 20
200.1971943899854
 30
0.0
 11
95.18699434900076
 21
187.7423795211965
 31
0.0
  0
LINE
  5
1E8
330
1E4
100
AcDbEntity
  8
1
  6
Continuous
 62
     3
100
AcDbLine
 10
95.18699434900076
 20
159.0590658879763
 30
0.0
 11
95.18699434900076
 21
129.6647797169487
 31
0.0
  0
SOLID
  5
1E9
330
1E4
100
AcDbEntity
  8
1
 62
     3
100
AcDbTrace
 10
85.18699434900076
 20
130.8482547410747
 30
0.0
 11
85.18699434900076
 21
133.4813046928226
 31
0.0
 12
95.18699434900076
 22
132.1647797169487
 32
0.0
 13
95.18699434900076
 23
132.1647797169487
 33
0.0
  0
SOLID
  5
1EA
330
1E4
100
AcDbEntity
  8
1
 62
     3
100
AcDbTrace
 10
50.2869943489998
 20
133.4813046928226
 30
0.0
 11
50.2869943489998
 21
130.8482547410747
 31
0.0
 12
40.2869943489998
 22
132.1647797169487
 32
0.0
 13
40.2869943489998
 23
132.1647797169487
 33
0.0
  0
MTEXT
  5
1EB
330
1E4
100
AcDbEntity
  8
1
 62
     3
100
AcDbMText
 10
48.64216093785808
 20
134.6647797169487
 30
0.0
 40
6.25
 41
0.0
 71
     7
 72
     1
  1
Dornma\U+00df
  7
CONVERTER_12
 11
0.9999999999970619
 21
2.424068405545306E-6
 31
0.0
 73
     1
 44
0.60024009603842
  0
ENDBLK
  5
1ED
330
1E4
100
AcDbEntity
  8
0
100
AcDbBlockEnd
  0
BLOCK
  5
1FB
330
1F0
100
AcDbEntity
  8
0
100
AcDbBlockBegin
  2
*D7
 70
     1
 10
0.0
 20
0.0
 30
0.0
  3
*D7
  1

  0
LINE
  5
1F1
330
1F0
100
AcDbEntity
  8
1
  6
Continuous
 62
     3
100
AcDbLine
 10
76.18699434900077
 20
407.7819434007886
 30
0.0
 11
114.1869943490008
 21
407.7819434007886
 31
0.0
  0
LINE
  5
1F2
330
1F0
100
AcDbEntity
  8
1
  6
Continuous
 62
     3
100
AcDbLine
 10
114.1869943490008
 20
306.142564276918
 30
0.0
 11
114.1869943490008
 21
331.7756574441256
 31
0.0
  0
LINE
  5
1F3
330
1F0
100
AcDbEntity
  8
1
  6
Continuous
 62
     3
100
AcDbLine
 10
114.1869943490008
 20
340.7884106021346
 30
0.0
 11
114.1869943490008
 21
373.6204717908006
 31
0.0
  0
LINE
  5
1F4
330
1F0
100
AcDbEntity
  8
1
  6
Continuous
 62
     3
100
AcDbLine
 10
114.1869943490008
 20
392.6501975960657
 30
0.0
 11
114.1869943490008
 21
410.2819434007886
 31
0.0
  0
LINE
  5
1F5
330
1F0
100
AcDbEntity
  8
1
  6
Continuous
 62
     3
100
AcDbLine
 10
76.18699434900077
 20
305.2376345071412
 30
0.0
 11
76.18699434900077
 21
373.6204717908006
 31
0.0
  0
LINE
  5
1F6
330
1F0
100
AcDbEntity
  8
1
  6
Continuous
 62
     3
100
AcDbLine
 10
76.18699434900077
 20
382.0159390578286
 30
0.0
 11
76.18699434900077
 21
387.8927661447486
 31
0.0
  0
LINE
  5
1F7
330
1F0
100
AcDbEntity
  8
1
  6
Continuous
 62
     3
100
AcDbLine
 10
76.18699434900077
 20
398.5270246829857
 30
0.0
 11
76.18699434900077
 21
410.2819434007886
 31
0.0
  0
SOLID
  5
1F8
330
1F0
100
AcDbEntity
  8
1
 62
     3
100
AcDbTrace
 10
86.18699434900077
 20
409.0984683766625
 30
0.0
 11
86.18699434900077
 21
406.4654184249146
 31
0.0
 12
76.18699434900077
 22
407.7819434007886
 32
0.0
 13
76.18699434900077
 23
407.7819434007886
 33
0.0
  0
SOLID
  5
1F9
330
1F0
100
AcDbEntity
  8
1
 62
     3
100
AcDbTrace
 10
104.1869943490008
 20
406.4654184249146
 30
0.0
 11
104.1869943490008
 21
409.0984683766625
 31
0.0
 12
114.1869943490008
 22
407.7819434007886
 32
0.0
 13
114.1869943490008
 23
407.7819434007886
 33
0.0
  0
MTEXT
  5
1FA
330
1F0
100
AcDbEntity
  8
1
 62
     3
100
AcDbMText
 10
89.91414992886278
 20
410.2819434007886
 30
0.0
 40
6.25
 41
0.0
 71
     7
 72
     1
  1
38
  7
CONVERTER_12
 11
0.9999999999970619
 21
2.424068405545306E-6
 31
0.0
 73
     1
 44
0.60024009603842
  0
ENDBLK
  5
1FC
330
1F0
100
AcDbEntity
  8
0
100
AcDbBlockEnd
  0
BLOCK
  5
207
330
1FF
100
AcDbEntity
  8
0
100
AcDbBlockBegin
  2
*D8
 70
     1
 10
0.0
 20
0.0
 30
0.0
  3
*D8
  1

  0
LINE
  5
200
330
1FF
100
AcDbEntity
  8
1
  6
Continuous
 62
     3
100
AcDbLine
 10
76.18699434900077
 20
168.2336689216311
 30
0.0
 11
114.1869943490008
 21
168.2336689216311
 31
0.0
  0
LINE
  5
201
330
1FF
100
AcDbEntity
  8
1
  6
Continuous
 62
     3
100
AcDbLine
 10
114.1869943490008
 20
214.5955582412615
 30
0.0
 11
114.1869943490008
 21
165.7336689216311
 31
0.0
  0
LINE
  5
202
330
1FF
100
AcDbEntity
  8
1
  6
Continuous
 62
     3
100
AcDbLine
 10
76.18699434900077
 20
214.6113960987342
 30
0.0
 11
76.18699434900077
 21
187.0699656417512
 31
0.0
  0
LINE
  5
203
330
1FF
100
AcDbEntity
  8
1
  6
Continuous
 62
     3
100
AcDbLine
 10
76.18699434900077
 20
178.6043201060858
 30
0.0
 11
76.18699434900077
 21
165.7336689216311
 31
0.0
  0
SOLID
  5
204
330
1FF
100
AcDbEntity
  8
1
 62
     3
100
AcDbTrace
 10
86.18699434900077
 20
169.5501938975051
 30
0.0
 11
86.18699434900077
 21
166.9171439457571
 31
0.0
 12
76.18699434900077
 22
168.2336689216311
 32
0.0
 13
76.18699434900077
 23
168.2336689216311
 33
0.0
  0
SOLID
  5
205
330
1FF
100
AcDbEntity
  8
1
 62
     3
100
AcDbTrace
 10
104.1869943490008
 20
166.9171439457571
 30
0.0
 11
104.1869943490008
 21
169.5501938975051
 31
0.0
 12
114.1869943490008
 22
168.2336689216311
 32
0.0
 13
114.1869943490008
 23
168.2336689216311
 33
0.0
  0
MTEXT
  5
206
330
1FF
100
AcDbEntity
  8
1
 62
     3
100
AcDbMText
 10
90.35838327704707
 20
170.7336689216311
 30
0.0
 40
6.25
 41
0.0
 71
     7
 72
     1
  1
38
  7
CONVERTER_12
 11
0.9999999999970619
 21
2.424068405545306E-6
 31
0.0
 73
     1
 44
0.60024009603842
  0
ENDBLK
  5
208
330
1FF
100
AcDbEntity
  8
0
100
AcDbBlockEnd
  0
BLOCK
  5
212
330
20B
100
AcDbEntity
  8
0
100
AcDbBlockBegin
  2
*D9
 70
     1
 10
0.0
 20
0.0
 30
0.0
  3
*D9
  1

  0
LINE
  5
20C
330
20B
100
AcDbEntity
  8
1
  6
Continuous
 62
     3
100
AcDbLine
 10
125.1869943490008
 20
90.09633360405013
 30
0.0
 11
40.28699434899978
 21
90.09633360405013
 31
0.0
  0
LINE
  5
20D
330
20B
100
AcDbEntity
  8
1
  6
Continuous
 62
     3
100
AcDbLine
 10
40.28699434899978
 20
71.26862171165159
 30
0.0
 11
40.28699434899978
 21
92.59633360405013
 31
0.0
  0
LINE
  5
20E
330
20B
100
AcDbEntity
  8
1
  6
Continuous
 62
     3
100
AcDbLine
 10
125.1869943490008
 20
68.16862171165161
 30
0.0
 11
125.1869943490008
 21
92.59633360405013
 31
0.0
  0
SOLID
  5
20F
330
20B
100
AcDbEntity
  8
1
 62
     3
100
AcDbTrace
 10
115.1869943490008
 20
88.77980862817617
 30
0.0
 11
115.1869943490008
 21
91.41285857992409
 31
0.0
 12
125.1869943490008
 22
90.09633360405013
 32
0.0
 13
125.1869943490008
 23
90.09633360405013
 33
0.0
  0
SOLID
  5
210
330
20B
100
AcDbEntity
  8
1
 62
     3
100
AcDbTrace
 10
50.28699434899978
 20
91.41285857992409
 30
0.0
 11
50.28699434899978
 21
88.77980862817617
 31
0.0
 12
40.28699434899978
 22
90.09633360405013
 32
0.0
 13
40.28699434899978
 23
90.09633360405013
 33
0.0
  0
MTEXT
  5
211
330
20B
100
AcDbEntity
  8
1
 62
     3
100
AcDbMText
 10
54.65906042476338
 20
91.6860105273913
 30
0.0
 40
6.25
 41
0.0
 71
     7
 72
     1
  1
Kastenbreite
  7
CONVERTER_12
 11
0.9999999999970619
 21
2.424068405545306E-6
 31
0.0
 73
     1
 44
0.60024009603842
  0
ENDBLK
  5
213
330
20B
100
AcDbEntity
  8
0
100
AcDbBlockEnd
  0
BLOCK
  5
221
330
216
100
AcDbEntity
  8
0
100
AcDbBlockBegin
  2
*D10
 70
     1
 10
0.0
 20
0.0
 30
0.0
  3
*D10
  1

  0
LINE
  5
217
330
216
100
AcDbEntity
  8
1
  6
Continuous
 62
     3
100
AcDbLine
 10
140.7433602156862
 20
275.319868194809
 30
0.0
 11
140.7433602156862
 21
295.319868194809
 31
0.0
  0
LINE
  5
218
330
216
100
AcDbEntity
  8
1
  6
Continuous
 62
     3
100
AcDbLine
 10
140.7433602156862
 20
295.319868194809
 30
0.0
 11
140.7433602156862
 21
304.319868194809
 31
0.0
  0
LINE
  5
219
330
216
100
AcDbEntity
  8
1
  6
Continuous
 62
     3
100
AcDbLine
 10
140.7433602156862
 20
304.319868194809
 30
0.0
 11
140.7433602156862
 21
324.7400861544427
 31
0.0
  0
LINE
  5
21A
330
216
100
AcDbEntity
  8
1
  6
Continuous
 62
     3
100
AcDbLine
 10
99.68699434900077
 20
304.319868194809
 30
0.0
 11
109.1891069208127
 21
304.319868194809
 31
0.0
  0
LINE
  5
21B
330
216
100
AcDbEntity
  8
1
  6
Continuous
 62
     3
100
AcDbLine
 10
121.7207979462839
 20
304.319868194809
 30
0.0
 11
143.2433602156862
 21
304.319868194809
 31
0.0
  0
LINE
  5
21C
330
216
100
AcDbEntity
  8
1
  6
Continuous
 62
     3
100
AcDbLine
 10
99.68699434900077
 20
295.319868194809
 30
0.0
 11
108.8410043923274
 21
295.319868194809
 31
0.0
  0
LINE
  5
21D
330
216
100
AcDbEntity
  8
1
  6
Continuous
 62
     3
100
AcDbLine
 10
121.7207979462839
 20
295.319868194809
 30
0.0
 11
143.2433602156862
 21
295.319868194809
 31
0.0
  0
SOLID
  5
21E
330
216
100
AcDbEntity
  8
1
 62
     3
100
AcDbTrace
 10
142.0598851915602
 20
285.319868194809
 30
0.0
 11
139.4268352398122
 21
285.319868194809
 31
0.0
 12
140.7433602156862
 22
295.319868194809
 32
0.0
 13
140.7433602156862
 23
295.319868194809
 33
0.0
  0
SOLID
  5
21F
330
216
100
AcDbEntity
  8
1
 62
     3
100
AcDbTrace
 10
139.4268352398122
 20
314.319868194809
 30
0.0
 11
142.0598851915602
 21
314.319868194809
 31
0.0
 12
140.7433602156862
 22
304.319868194809
 32
0.0
 13
140.7433602156862
 23
304.319868194809
 33
0.0
  0
MTEXT
  5
220
330
216
100
AcDbEntity
  8
1
 62
     3
100
AcDbMText
 10
138.2433602156862
 20
315.8650861544427
 30
0.0
 40
6.25
 41
0.0
 71
     7
 72
     1
  1
\C3;\U+25a0\C3;9
  7
CONVERTER_12
 11
0.0
 21
1.0
 31
0.0
 73
     1
 44
0.60024009603842
  0
ENDBLK
  5
222
330
216
100
AcDbEntity
  8
0
100
AcDbBlockEnd
  0
BLOCK
  5
22E
330
225
100
AcDbEntity
  8
0
100
AcDbBlockBegin
  2
*D11
 70
     1
 10
0.0
 20
0.0
 30
0.0
  3
*D11
  1

  0
LINE
  5
226
330
225
100
AcDbEntity
  8
1
  6
Continuous
 62
     3
100
AcDbLine
 10
185.139940930292
 20
362.819868194809
 30
0.0
 11
185.139940930292
 21
197.8198681948091
 31
0.0
  0
LINE
  5
227
330
225
100
AcDbEntity
  8
1
  6
Continuous
 62
     3
100
AcDbLine
 10
117.1869943490008
 20
197.8198681948091
 30
0.0
 11
119.5809168452684
 21
197.8198681948091
 31
0.0
  0
LINE
  5
228
330
225
100
AcDbEntity
  8
1
  6
Continuous
 62
     3
100
AcDbLine
 10
129.67930438497
 20
197.8198681948091
 30
0.0
 11
187.639940930292
 21
197.8198681948091
 31
0.0
  0
LINE
  5
229
330
225
100
AcDbEntity
  8
1
  6
Continuous
 62
     3
100
AcDbLine
 10
117.1869943490008
 20
362.819868194809
 30
0.0
 11
127.9219145846111
 21
362.819868194809
 31
0.0
  0
LINE
  5
22A
330
225
100
AcDbEntity
  8
1
  6
Continuous
 62
     3
100
AcDbLine
 10
134.8140199407356
 20
362.819868194809
 30
0.0
 11
187.639940930292
 21
362.819868194809
 31
0.0
  0
SOLID
  5
22B
330
225
100
AcDbEntity
  8
1
 62
     3
100
AcDbTrace
 10
186.456465906166
 20
352.819868194809
 30
0.0
 11
183.823415954418
 21
352.819868194809
 31
0.0
 12
185.139940930292
 22
362.819868194809
 32
0.0
 13
185.139940930292
 23
362.819868194809
 33
0.0
  0
SOLID
  5
22C
330
225
100
AcDbEntity
  8
1
 62
     3
100
AcDbTrace
 10
183.823415954418
 20
207.8198681948091
 30
0.0
 11
186.456465906166
 21
207.8198681948091
 31
0.0
 12
185.139940930292
 22
197.8198681948091
 32
0.0
 13
185.139940930292
 23
197.8198681948091
 33
0.0
  0
MTEXT
  5
22D
330
225
100
AcDbEntity
  8
1
 62
     3
100
AcDbMText
 10
182.639940930292
 20
274.1755612572327
 30
0.0
 40
6.25
 41
0.0
 71
     7
 72
     1
  1
165
  7
CONVERTER_12
 11
0.0
 21
1.0
 31
0.0
 73
     1
 44
0.60024009603842
  0
ENDBLK
  5
22F
330
225
100
AcDbEntity
  8
0
100
AcDbBlockEnd
  0
BLOCK
  5
23C
330
232
100
AcDbEntity
  8
0
100
AcDbBlockBegin
  2
*D12
 70
     1
 10
0.0
 20
0.0
 30
0.0
  3
*D12
  1

  0
LINE
  5
233
330
232
100
AcDbEntity
  8
1
  6
Continuous
 62
     3
100
AcDbLine
 10
154.992653497205
 20
299.8198681948091
 30
0.0
 11
154.992653497205
 21
345.819868194809
 31
0.0
  0
LINE
  5
234
330
232
100
AcDbEntity
  8
1
  6
Continuous
 62
     3
100
AcDbLine
 10
100.3369943490009
 20
345.819868194809
 30
0.0
 11
113.2279707199974
 21
345.819868194809
 31
0.0
  0
LINE
  5
235
330
232
100
AcDbEntity
  8
1
  6
Continuous
 62
     3
100
AcDbLine
 10
116.0438114296981
 20
345.819868194809
 30
0.0
 11
118.4171628850172
 21
345.819868194809
 31
0.0
  0
LINE
  5
236
330
232
100
AcDbEntity
  8
1
  6
Continuous
 62
     3
100
AcDbLine
 10
121.796171736658
 20
345.819868194809
 30
0.0
 11
157.492653497205
 21
345.819868194809
 31
0.0
  0
LINE
  5
237
330
232
100
AcDbEntity
  8
1
  6
Continuous
 62
     3
100
AcDbLine
 10
119.6222221441588
 20
299.8198681948091
 30
0.0
 11
136.0413340053932
 21
299.8198681948091
 31
0.0
  0
LINE
  5
238
330
232
100
AcDbEntity
  8
1
  6
Continuous
 62
     3
100
AcDbLine
 10
143.8171862011155
 20
299.8198681948091
 30
0.0
 11
157.492653497205
 21
299.8198681948091
 31
0.0
  0
SOLID
  5
239
330
232
100
AcDbEntity
  8
1
 62
     3
100
AcDbTrace
 10
153.676128521331
 20
309.8198681948091
 30
0.0
 11
156.309178473079
 21
309.8198681948091
 31
0.0
 12
154.992653497205
 22
299.8198681948091
 32
0.0
 13
154.992653497205
 23
299.8198681948091
 33
0.0
  0
SOLID
  5
23A
330
232
100
AcDbEntity
  8
1
 62
     3
100
AcDbTrace
 10
156.309178473079
 20
335.819868194809
 30
0.0
 11
153.676128521331
 21
335.819868194809
 31
0.0
 12
154.992653497205
 22
345.819868194809
 32
0.0
 13
154.992653497205
 23
345.819868194809
 33
0.0
  0
MTEXT
  5
23B
330
232
100
AcDbEntity
  8
1
 62
     3
100
AcDbMText
 10
152.492653497205
 20
315.7082630178467
 30
0.0
 40
6.25
 41
0.0
 71
     7
 72
     1
  1
46
  7
CONVERTER_12
 11
0.0
 21
1.0
 31
0.0
 73
     1
 44
0.60024009603842
  0
ENDBLK
  5
23D
330
232
100
AcDbEntity
  8
0
100
AcDbBlockEnd
  0
BLOCK
  5
249
330
240
100
AcDbEntity
  8
0
100
AcDbBlockBegin
  2
*D13
 70
     1
 10
0.0
 20
0.0
 30
0.0
  3
*D13
  1

  0
LINE
  5
241
330
240
100
AcDbEntity
  8
1
  6
Continuous
 62
     3
100
AcDbLine
 10
170.339163420725
 20
299.8198681948091
 30
0.0
 11
170.339163420725
 21
227.8198681948099
 31
0.0
  0
LINE
  5
242
330
240
100
AcDbEntity
  8
1
  6
Continuous
 62
     3
100
AcDbLine
 10
104.6826646318447
 20
227.8198681948099
 30
0.0
 11
109.9356182840078
 21
227.8198681948099
 31
0.0
  0
LINE
  5
243
330
240
100
AcDbEntity
  8
1
  6
Continuous
 62
     3
100
AcDbLine
 10
118.4291113248157
 20
227.8198681948099
 30
0.0
 11
172.839163420725
 21
227.8198681948099
 31
0.0
  0
LINE
  5
244
330
240
100
AcDbEntity
  8
1
  6
Continuous
 62
     3
100
AcDbLine
 10
119.6222221441588
 20
299.8198681948091
 30
0.0
 11
137.7520214884521
 21
299.8198681948091
 31
0.0
  0
LINE
  5
245
330
240
100
AcDbEntity
  8
1
  6
Continuous
 62
     3
100
AcDbLine
 10
143.5061521132866
 20
299.8198681948091
 30
0.0
 11
172.839163420725
 21
299.8198681948091
 31
0.0
  0
SOLID
  5
246
330
240
100
AcDbEntity
  8
1
 62
     3
100
AcDbTrace
 10
171.6556883965989
 20
289.8198681948091
 30
0.0
 11
169.022638444851
 21
289.8198681948091
 31
0.0
 12
170.339163420725
 22
299.8198681948091
 32
0.0
 13
170.339163420725
 23
299.8198681948091
 33
0.0
  0
SOLID
  5
247
330
240
100
AcDbEntity
  8
1
 62
     3
100
AcDbTrace
 10
169.022638444851
 20
237.8198681948099
 30
0.0
 11
171.6556883965989
 21
237.8198681948099
 31
0.0
 12
170.339163420725
 22
227.8198681948099
 32
0.0
 13
170.339163420725
 23
227.8198681948099
 33
0.0
  0
MTEXT
  5
248
330
240
100
AcDbEntity
  8
1
 62
     3
100
AcDbMText
 10
167.839163420725
 20
261.3207933950807
 30
0.0
 40
6.25
 41
0.0
 71
     7
 72
     1
  1
72
  7
CONVERTER_12
 11
0.0
 21
1.0
 31
0.0
 73
     1
 44
0.60024009603842
  0
ENDBLK
  5
24A
330
240
100
AcDbEntity
  8
0
100
AcDbBlockEnd
  0
BLOCK
  5
256
330
24D
100
AcDbEntity
  8
0
100
AcDbBlockBegin
  2
*D14
 70
     1
 10
0.0
 20
0.0
 30
0.0
  3
*D14
  1

  0
LINE
  5
24E
330
24D
100
AcDbEntity
  8
1
  6
Continuous
 62
     3
100
AcDbLine
 10
140.4962394904505
 20
94.13291359762486
 30
0.0
 11
140.4962394904505
 21
69.91862171165161
 31
0.0
  0
LINE
  5
24F
330
24D
100
AcDbEntity
  8
1
  6
Continuous
 62
     3
100
AcDbLine
 10
140.4962394904505
 20
69.91862171165161
 30
0.0
 11
140.4962394904505
 21
54.4186217116516
 31
0.0
  0
LINE
  5
250
330
24D
100
AcDbEntity
  8
1
  6
Continuous
 62
     3
100
AcDbLine
 10
140.4962394904505
 20
54.4186217116516
 30
0.0
 11
140.4962394904505
 21
34.4186217116516
 31
0.0
  0
LINE
  5
251
330
24D
100
AcDbEntity
  8
1
  6
Continuous
 62
     3
100
AcDbLine
 10
121.1869943483958
 20
54.4186217116516
 30
0.0
 11
142.9962394904505
 21
54.4186217116516
 31
0.0
  0
LINE
  5
252
330
24D
100
AcDbEntity
  8
1
  6
Continuous
 62
     3
100
AcDbLine
 10
125.1869943490008
 20
69.91862171165161
 30
0.0
 11
142.9962394904505
 21
69.91862171165161
 31
0.0
  0
SOLID
  5
253
330
24D
100
AcDbEntity
  8
1
 62
     3
100
AcDbTrace
 10
139.1797145145765
 20
79.91862171165161
 30
0.0
 11
141.8127644663245
 21
79.91862171165161
 31
0.0
 12
140.4962394904505
 22
69.91862171165161
 32
0.0
 13
140.4962394904505
 23
69.91862171165161
 33
0.0
  0
SOLID
  5
254
330
24D
100
AcDbEntity
  8
1
 62
     3
100
AcDbTrace
 10
141.8127644663245
 20
44.4186217116516
 30
0.0
 11
139.1797145145765
 21
44.4186217116516
 31
0.0
 12
140.4962394904505
 22
54.4186217116516
 32
0.0
 13
140.4962394904505
 23
54.4186217116516
 33
0.0
  0
MTEXT
  5
255
330
24D
100
AcDbEntity
  8
1
 62
     3
100
AcDbMText
 10
137.3712394904505
 20
78.82041359762486
 30
0.0
 40
6.25
 41
0.0
 71
     7
 72
     1
  1
15,5
  7
CONVERTER_12
 11
0.0
 21
1.0
 31
0.0
 73
     1
 44
0.60024009603842
  0
ENDBLK
  5
257
330
24D
100
AcDbEntity
  8
0
100
AcDbBlockEnd
  0
BLOCK
  5
265
330
25A
100
AcDbEntity
  8
0
100
AcDbBlockBegin
  2
*D15
 70
     1
 10
0.0
 20
0.0
 30
0.0
  3
*D15
  1

  0
LINE
  5
25B
330
25A
100
AcDbEntity
  8
1
  6
Continuous
 62
     3
100
AcDbLine
 10
154.972733271457
 20
319.819868194809
 30
0.0
 11
154.972733271457
 21
299.819868194809
 31
0.0
  0
LINE
  5
25C
330
25A
100
AcDbEntity
  8
1
  6
Continuous
 62
     3
100
AcDbLine
 10
154.972733271457
 20
299.819868194809
 30
0.0
 11
154.972733271457
 21
278.319868194809
 31
0.0
  0
LINE
  5
25D
330
25A
100
AcDbEntity
  8
1
  6
Continuous
 62
     3
100
AcDbLine
 10
154.972733271457
 20
278.319868194809
 30
0.0
 11
154.972733271457
 21
258.319868194809
 31
0.0
  0
LINE
  5
25E
330
25A
100
AcDbEntity
  8
1
  6
Continuous
 62
     3
100
AcDbLine
 10
99.78699434900092
 20
278.319868194809
 30
0.0
 11
138.063055576281
 21
278.319868194809
 31
0.0
  0
LINE
  5
25F
330
25A
100
AcDbEntity
  8
1
  6
Continuous
 62
     3
100
AcDbLine
 10
143.5061521132866
 20
278.319868194809
 30
0.0
 11
157.472733271457
 21
278.319868194809
 31
0.0
  0
LINE
  5
260
330
25A
100
AcDbEntity
  8
1
  6
Continuous
 62
     3
100
AcDbLine
 10
119.6222221441588
 20
299.819868194809
 30
0.0
 11
136.6245229200724
 21
299.819868194809
 31
0.0
  0
LINE
  5
261
330
25A
100
AcDbEntity
  8
1
  6
Continuous
 62
     3
100
AcDbLine
 10
143.6227898962224
 20
299.819868194809
 30
0.0
 11
157.472733271457
 21
299.819868194809
 31
0.0
  0
SOLID
  5
262
330
25A
100
AcDbEntity
  8
1
 62
     3
100
AcDbTrace
 10
153.656208295583
 20
309.819868194809
 30
0.0
 11
156.289258247331
 21
309.819868194809
 31
0.0
 12
154.972733271457
 22
299.819868194809
 32
0.0
 13
154.972733271457
 23
299.819868194809
 33
0.0
  0
SOLID
  5
263
330
25A
100
AcDbEntity
  8
1
 62
     3
100
AcDbTrace
 10
156.289258247331
 20
268.319868194809
 30
0.0
 11
153.656208295583
 21
268.319868194809
 31
0.0
 12
154.972733271457
 22
278.319868194809
 32
0.0
 13
154.972733271457
 23
278.319868194809
 33
0.0
  0
MTEXT
  5
264
330
25A
100
AcDbEntity
  8
1
 62
     3
100
AcDbMText
 10
151.847733271457
 20
258.7875692325606
 30
0.0
 40
6.25
 41
0.0
 71
     7
 72
     1
  1
21,5
  7
CONVERTER_12
 11
0.0
 21
1.0
 31
0.0
 73
     1
 44
0.60024009603842
  0
ENDBLK
  5
266
330
25A
100
AcDbEntity
  8
0
100
AcDbBlockEnd
  0
BLOCK
  5
273
330
269
100
AcDbEntity
  8
0
100
AcDbBlockBegin
  2
*D16
 70
     1
 10
0.0
 20
0.0
 30
0.0
  3
*D16
  1

  0
LINE
  5
26A
330
269
100
AcDbEntity
  8
1
  6
Continuous
 62
     3
100
AcDbLine
 10
140.2878806346284
 20
247.8198681948099
 30
0.0
 11
140.2878806346284
 21
227.8198681948099
 31
0.0
  0
LINE
  5
26B
330
269
100
AcDbEntity
  8
1
  6
Continuous
 62
     3
100
AcDbLine
 10
140.2878806346284
 20
227.8198681948099
 30
0.0
 11
140.2878806346284
 21
219.8198681948099
 31
0.0
  0
LINE
  5
26C
330
269
100
AcDbEntity
  8
1
  6
Continuous
 62
     3
100
AcDbLine
 10
140.2878806346284
 20
219.8198681948099
 30
0.0
 11
140.2878806346284
 21
199.8198681948099
 31
0.0
  0
LINE
  5
26D
330
269
100
AcDbEntity
  8
1
  6
Continuous
 62
     3
100
AcDbLine
 10
119.9246991087168
 20
219.8198681948099
 30
0.0
 11
142.7878806346284
 21
219.8198681948099
 31
0.0
  0
LINE
  5
26E
330
269
100
AcDbEntity
  8
1
  6
Continuous
 62
     3
100
AcDbLine
 10
104.6826646318448
 20
227.8198681948099
 30
0.0
 11
110.5422963583512
 21
227.8198681948099
 31
0.0
  0
LINE
  5
26F
330
269
100
AcDbEntity
  8
1
  6
Continuous
 62
     3
100
AcDbLine
 10
118.4291113248157
 20
227.8198681948099
 30
0.0
 11
142.7878806346284
 21
227.8198681948099
 31
0.0
  0
SOLID
  5
270
330
269
100
AcDbEntity
  8
1
 62
     3
100
AcDbTrace
 10
138.9713556587544
 20
237.8198681948099
 30
0.0
 11
141.6044056105024
 21
237.8198681948099
 31
0.0
 12
140.2878806346284
 22
227.8198681948099
 32
0.0
 13
140.2878806346284
 23
227.8198681948099
 33
0.0
  0
SOLID
  5
271
330
269
100
AcDbEntity
  8
1
 62
     3
100
AcDbTrace
 10
141.6044056105024
 20
209.8198681948099
 30
0.0
 11
138.9713556587544
 21
209.8198681948099
 31
0.0
 12
140.2878806346284
 22
219.8198681948099
 32
0.0
 13
140.2878806346284
 23
219.8198681948099
 33
0.0
  0
MTEXT
  5
272
330
269
100
AcDbEntity
  8
1
 62
     3
100
AcDbMText
 10
137.7878806346284
 20
210.5636153850827
 30
0.0
 40
6.25
 41
0.0
 71
     7
 72
     1
  1
8
  7
CONVERTER_12
 11
0.0
 21
1.0
 31
0.0
 73
     1
 44
0.60024009603842
  0
ENDBLK
  5
274
330
269
100
AcDbEntity
  8
0
100
AcDbBlockEnd
  0
BLOCK
  5
281
330
277
100
AcDbEntity
  8
0
100
AcDbBlockBegin
  2
*D17
 70
     1
 10
0.0
 20
0.0
 30
0.0
  3
*D17
  1

  0
LINE
  5
278
330
277
100
AcDbEntity
  8
1
  6
Continuous
 62
     3
100
AcDbLine
 10
10.2869943489998
 20
267.4482134455978
 30
0.0
 11
30.2869943489998
 21
267.4482134455978
 31
0.0
  0
LINE
  5
279
330
277
100
AcDbEntity
  8
1
  6
Continuous
 62
     3
100
AcDbLine
 10
30.2869943489998
 20
267.4482134455978
 30
0.0
 11
40.2869943489998
 21
267.4482134455978
 31
0.0
  0
LINE
  5
27A
330
277
100
AcDbEntity
  8
1
  6
Continuous
 62
     3
100
AcDbLine
 10
40.2869943489998
 20
267.4482134455978
 30
0.0
 11
60.28699434899981
 21
267.4482134455978
 31
0.0
  0
LINE
  5
27B
330
277
100
AcDbEntity
  8
1
  6
Continuous
 62
     3
100
AcDbLine
 10
40.2869943489998
 20
162.8198681948105
 30
0.0
 11
40.2869943489998
 21
165.3090525208603
 31
0.0
  0
LINE
  5
27C
330
277
100
AcDbEntity
  8
1
  6
Continuous
 62
     3
100
AcDbLine
 10
40.2869943489998
 20
267.0080009791017
 30
0.0
 11
40.2869943489998
 21
269.9482134455978
 31
0.0
  0
LINE
  5
27D
330
277
100
AcDbEntity
  8
1
  6
Continuous
 62
     3
100
AcDbLine
 10
30.2869943489998
 20
284.3200039494601
 30
0.0
 11
30.2869943489998
 21
264.9482134455978
 31
0.0
  0
SOLID
  5
27E
330
277
100
AcDbEntity
  8
1
 62
     3
100
AcDbTrace
 10
20.2869943489998
 20
266.1316884697238
 30
0.0
 11
20.2869943489998
 21
268.7647384214717
 31
0.0
 12
30.2869943489998
 22
267.4482134455978
 32
0.0
 13
30.2869943489998
 23
267.4482134455978
 33
0.0
  0
SOLID
  5
27F
330
277
100
AcDbEntity
  8
1
 62
     3
100
AcDbTrace
 10
50.2869943489998
 20
268.7647384214717
 30
0.0
 11
50.2869943489998
 21
266.1316884697238
 31
0.0
 12
40.2869943489998
 22
267.4482134455978
 32
0.0
 13
40.2869943489998
 23
267.4482134455978
 33
0.0
  0
MTEXT
  5
280
330
277
100
AcDbEntity
  8
1
 62
     3
100
AcDbMText
 10
52.61401105975699
 20
269.9482134455978
 30
0.0
 40
6.25
 41
0.0
 71
     7
 72
     1
  1
10
  7
CONVERTER_12
 11
0.9999999999970619
 21
2.424068405545306E-6
 31
0.0
 73
     1
 44
0.60024009603842
  0
ENDBLK
  5
282
330
277
100
AcDbEntity
  8
0
100
AcDbBlockEnd
  0
BLOCK
  5
28E
330
285
100
AcDbEntity
  8
0
100
AcDbBlockBegin
  2
*D18
 70
     1
 10
0.0
 20
0.0
 30
0.0
  3
*D18
  1

  0
LINE
  5
286
330
285
100
AcDbEntity
  8
1
  6
Continuous
 62
     3
100
AcDbLine
 10
0.28699434899994
 20
211.7610833128354
 30
0.0
 11
20.28699434899994
 21
211.7610833128354
 31
0.0
  0
LINE
  5
287
330
285
100
AcDbEntity
  8
1
  6
Continuous
 62
     3
100
AcDbLine
 10
20.28699434899994
 20
211.7610833128354
 30
0.0
 11
40.2869943489998
 21
211.7610833128354
 31
0.0
  0
LINE
  5
288
330
285
100
AcDbEntity
  8
1
  6
Continuous
 62
     3
100
AcDbLine
 10
40.2869943489998
 20
211.7610833128354
 30
0.0
 11
60.2869943489998
 21
211.7610833128354
 31
0.0
  0
LINE
  5
289
330
285
100
AcDbEntity
  8
1
  6
Continuous
 62
     3
100
AcDbLine
 10
40.2869943489998
 20
162.8198681948105
 30
0.0
 11
40.2869943489998
 21
214.2610833128354
 31
0.0
  0
LINE
  5
28A
330
285
100
AcDbEntity
  8
1
  6
Continuous
 62
     3
100
AcDbLine
 10
20.28699434899994
 20
227.8198681948082
 30
0.0
 11
20.28699434899994
 21
209.2610833128354
 31
0.0
  0
SOLID
  5
28B
330
285
100
AcDbEntity
  8
1
 62
     3
100
AcDbTrace
 10
10.28699434899994
 20
210.4445583369614
 30
0.0
 11
10.28699434899994
 21
213.0776082887094
 31
0.0
 12
20.28699434899994
 22
211.7610833128354
 32
0.0
 13
20.28699434899994
 23
211.7610833128354
 33
0.0
  0
SOLID
  5
28C
330
285
100
AcDbEntity
  8
1
 62
     3
100
AcDbTrace
 10
50.2869943489998
 20
213.0776082887094
 30
0.0
 11
50.2869943489998
 21
210.4445583369614
 31
0.0
 12
40.2869943489998
 22
211.7610833128354
 32
0.0
 13
40.2869943489998
 23
211.7610833128354
 33
0.0
  0
MTEXT
  5
28D
330
285
100
AcDbEntity
  8
1
 62
     3
100
AcDbMText
 10
26.30792955483196
 20
214.2610833128354
 30
0.0
 40
6.25
 41
0.0
 71
     7
 72
     1
  1
20
  7
CONVERTER_12
 11
0.9999999999970619
 21
2.424068405545306E-6
 31
0.0
 73
     1
 44
0.60024009603842
  0
ENDBLK
  5
28F
330
285
100
AcDbEntity
  8
0
100
AcDbBlockEnd
  0
BLOCK
  5
29B
330
292
100
AcDbEntity
  8
0
100
AcDbBlockBegin
  2
*D19
 70
     1
 10
0.0
 20
0.0
 30
0.0
  3
*D19
  1

  0
LINE
  5
293
330
292
100
AcDbEntity
  8
1
  6
Continuous
 62
     3
100
AcDbLine
 10
185.147041895033
 20
162.8198681948105
 30
0.0
 11
185.147041895033
 21
197.8198681948091
 31
0.0
  0
LINE
  5
294
330
292
100
AcDbEntity
  8
1
  6
Continuous
 62
     3
100
AcDbLine
 10
117.1869943490008
 20
197.8198681948091
 30
0.0
 11
119.5809168452683
 21
197.8198681948091
 31
0.0
  0
LINE
  5
295
330
292
100
AcDbEntity
  8
1
  6
Continuous
 62
     3
100
AcDbLine
 10
130.0337940969041
 20
197.8198681948091
 30
0.0
 11
187.647041895033
 21
197.8198681948091
 31
0.0
  0
LINE
  5
296
330
292
100
AcDbEntity
  8
1
  6
Continuous
 62
     3
100
AcDbLine
 10
43.2869943489998
 20
162.8198681948105
 30
0.0
 11
122.3414271182844
 21
162.8198681948105
 31
0.0
  0
LINE
  5
297
330
292
100
AcDbEntity
  8
1
  6
Continuous
 62
     3
100
AcDbLine
 10
128.643283237415
 20
162.8198681948105
 30
0.0
 11
187.647041895033
 21
162.8198681948105
 31
0.0
  0
SOLID
  5
298
330
292
100
AcDbEntity
  8
1
 62
     3
100
AcDbTrace
 10
183.830516919159
 20
172.8198681948105
 30
0.0
 11
186.463566870907
 21
172.8198681948105
 31
0.0
 12
185.147041895033
 22
162.8198681948105
 32
0.0
 13
185.147041895033
 23
162.8198681948105
 33
0.0
  0
SOLID
  5
299
330
292
100
AcDbEntity
  8
1
 62
     3
100
AcDbTrace
 10
186.463566870907
 20
187.8198681948091
 30
0.0
 11
183.830516919159
 21
187.8198681948091
 31
0.0
 12
185.147041895033
 22
197.8198681948091
 32
0.0
 13
185.147041895033
 23
197.8198681948091
 33
0.0
  0
MTEXT
  5
29A
330
292
100
AcDbEntity
  8
1
 62
     3
100
AcDbMText
 10
182.647041895033
 20
175.0866775741083
 30
0.0
 40
6.25
 41
0.0
 71
     7
 72
     1
  1
35
  7
CONVERTER_12
 11
0.0
 21
1.0
 31
0.0
 73
     1
 44
0.60024009603842
  0
ENDBLK
  5
29C
330
292
100
AcDbEntity
  8
0
100
AcDbBlockEnd
  0
BLOCK
  5
2A7
330
29F
100
AcDbEntity
  8
0
100
AcDbBlockBegin
  2
*D20
 70
     1
 10
0.0
 20
0.0
 30
0.0
  3
*D20
  1

  0
LINE
  5
2A0
330
29F
100
AcDbEntity
  8
1
  6
Continuous
 62
     3
100
AcDbLine
 10
95.18699434900077
 20
131.9873690991444
 30
0.0
 11
125.1869943490008
 21
131.9873690991444
 31
0.0
  0
LINE
  5
2A1
330
29F
100
AcDbEntity
  8
1
  6
Continuous
 62
     3
100
AcDbLine
 10
125.1869943490008
 20
205.8198681948091
 30
0.0
 11
125.1869943490008
 21
129.4873690991444
 31
0.0
  0
LINE
  5
2A2
330
29F
100
AcDbEntity
  8
1
  6
Continuous
 62
     3
100
AcDbLine
 10
95.18699434900077
 20
200.1971943899854
 30
0.0
 11
95.18699434900077
 21
187.5234823668761
 31
0.0
  0
LINE
  5
2A3
330
29F
100
AcDbEntity
  8
1
  6
Continuous
 62
     3
100
AcDbLine
 10
95.18699434900077
 20
160.1109158704359
 30
0.0
 11
95.18699434900077
 21
129.4873690991444
 31
0.0
  0
SOLID
  5
2A4
330
29F
100
AcDbEntity
  8
1
 62
     3
100
AcDbTrace
 10
105.1869943490008
 20
133.3038940750183
 30
0.0
 11
105.1869943490008
 21
130.6708441232704
 31
0.0
 12
95.18699434900077
 22
131.9873690991444
 32
0.0
 13
95.18699434900077
 23
131.9873690991444
 33
0.0
  0
SOLID
  5
2A5
330
29F
100
AcDbEntity
  8
1
 62
     3
100
AcDbTrace
 10
115.1869943490008
 20
130.6708441232704
 30
0.0
 11
115.1869943490008
 21
133.3038940750183
 31
0.0
 12
125.1869943490008
 22
131.9873690991444
 32
0.0
 13
125.1869943490008
 23
131.9873690991444
 33
0.0
  0
MTEXT
  5
2A6
330
29F
100
AcDbEntity
  8
1
 62
     3
100
AcDbMText
 10
105.9499579080911
 20
134.4873690991444
 30
0.0
 40
6.25
 41
0.0
 71
     7
 72
     1
  1
30
  7
CONVERTER_12
 11
0.9999999999970619
 21
2.424068405545306E-6
 31
0.0
 73
     1
 44
0.60024009603842
  0
ENDBLK
  5
2A8
330
29F
100
AcDbEntity
  8
0
100
AcDbBlockEnd
  0
BLOCK
  5
2B4
330
2AB
100
AcDbEntity
  8
0
100
AcDbBlockBegin
  2
*D21
 70
     1
 10
0.0
 20
0.0
 30
0.0
  3
*D21
  1

  0
LINE
  5
2AC
330
2AB
100
AcDbEntity
  8
1
  6
Continuous
 62
     3
100
AcDbLine
 10
-0.81646644264464
 20
242.31986819481
 30
0.0
 11
-0.81646644264464
 21
262.31986819481
 31
0.0
  0
LINE
  5
2AD
330
2AB
100
AcDbEntity
  8
1
  6
Continuous
 62
     3
100
AcDbLine
 10
-0.81646644264464
 20
262.31986819481
 30
0.0
 11
-0.81646644264464
 21
275.3200039494601
 31
0.0
  0
LINE
  5
2AE
330
2AB
100
AcDbEntity
  8
1
  6
Continuous
 62
     3
100
AcDbLine
 10
31.28699434839405
 20
275.3200039494601
 30
0.0
 11
-3.31646644264464
 21
275.3200039494601
 31
0.0
  0
LINE
  5
2AF
330
2AB
100
AcDbEntity
  8
1
  6
Continuous
 62
     3
100
AcDbLine
 10
20.78699434899809
 20
262.31986819481
 30
0.0
 11
-3.31646644264464
 21
262.31986819481
 31
0.0
  0
SOLID
  5
2B0
330
2AB
100
AcDbEntity
  8
1
 62
     3
100
AcDbTrace
 10
0.50005853322932
 20
252.31986819481
 30
0.0
 11
-2.1329914185186
 21
252.31986819481
 31
0.0
 12
-0.81646644264464
 22
262.31986819481
 32
0.0
 13
-0.81646644264464
 23
262.31986819481
 33
0.0
  0
CIRCLE
  5
2B1
102
{ACAD_REACTORS
330
2B2
102
}
330
2AB
100
AcDbEntity
  8
1
 62
     3
100
AcDbCircle
 10
-0.81646644264464
 20
275.3200039494601
 30
0.0
 40
1.25
  0
HATCH
  5
2B2
330
2AB
100
AcDbEntity
  8
1
 62
     3
100
AcDbHatch
 10
0.0
 20
0.0
 30
0.0
210
0.0
220
0.0
230
1.0
  2
SOLID
 70
     1
 71
     1
 91
        1
 92
        1
 93
        1
 72
     2
 10
-0.8164664426446393
 20
275.3200039494601
 40
1.25
 50
0.0
 51
360.0
 73
     1
 97
        1
330
2B1
 75
     0
 76
     1
 98
        0
  0
MTEXT
  5
2B3
330
2AB
100
AcDbEntity
  8
1
 62
     3
100
AcDbMText
 10
-3.31646644264464
 20
243.4638385544665
 30
0.0
 40
6.25
 41
0.0
 71
     7
 72
     1
  1
13
  7
CONVERTER_12
 11
0.0
 21
1.0
 31
0.0
 73
     1
 44
0.60024009603842
  0
ENDBLK
  5
2B5
330
2AB
100
AcDbEntity
  8
0
100
AcDbBlockEnd
  0
BLOCK
  5
2B7
330
2B6
100
AcDbEntity
  8
0
100
AcDbBlockBegin
  2
_DOT
 70
     0
 10
0.0
 20
0.0
 30
0.0
  3
_DOT
  1

  0
POLYLINE
  5
2B9
330
2B6
100
AcDbEntity
  8
0
  6
ByBlock
 62
     0
100
AcDb2dPolyline
 66
     1
 10
0.0
 20
0.0
 30
0.0
 70
     1
 40
0.5
 41
0.5
  0
VERTEX
  5
2BB
330
2B9
100
AcDbEntity
  8
0
  6
ByBlock
 62
     0
100
AcDbVertex
100
AcDb2dVertex
 10
-0.25
 20
0.0
 30
0.0
 42
1.0
  0
VERTEX
  5
2BC
330
2B9
100
AcDbEntity
  8
0
  6
ByBlock
 62
     0
100
AcDbVertex
100
AcDb2dVertex
 10
0.25
 20
0.0
 30
0.0
 42
1.0
  0
SEQEND
  5
2BD
330
2B9
100
AcDbEntity
  8
0
  6
ByBlock
 62
     0
  0
LINE
  5
2BA
330
2B6
100
AcDbEntity
  8
0
  6
ByBlock
 62
     0
370
    -2
100
AcDbLine
 10
-0.5
 20
0.0
 30
0.0
 11
-1.0
 21
0.0
 31
0.0
  0
ENDBLK
  5
2B8
330
2B6
100
AcDbEntity
  8
0
100
AcDbBlockEnd
  0
BLOCK
  5
2C9
330
2C0
100
AcDbEntity
  8
0
100
AcDbBlockBegin
  2
*D23
 70
     1
 10
0.0
 20
0.0
 30
0.0
  3
*D23
  1

  0
LINE
  5
2C1
330
2C0
100
AcDbEntity
  8
1
  6
Continuous
 62
     3
100
AcDbLine
 10
-0.93533516154403
 20
275.32000394946
 30
0.0
 11
-0.93533516154403
 21
284.32000394946
 31
0.0
  0
LINE
  5
2C2
330
2C0
100
AcDbEntity
  8
1
  6
Continuous
 62
     3
100
AcDbLine
 10
-0.93533516154403
 20
284.32000394946
 30
0.0
 11
-0.93533516154403
 21
304.32000394946
 31
0.0
  0
LINE
  5
2C3
330
2C0
100
AcDbEntity
  8
1
  6
Continuous
 62
     3
100
AcDbLine
 10
31.28699434839406
 20
284.32000394946
 30
0.0
 11
-3.43533516154403
 21
284.32000394946
 31
0.0
  0
LINE
  5
2C4
330
2C0
100
AcDbEntity
  8
1
  6
Continuous
 62
     3
100
AcDbLine
 10
31.28699434839406
 20
275.32000394946
 30
0.0
 11
-3.43533516154403
 21
275.32000394946
 31
0.0
  0
CIRCLE
  5
2C5
102
{ACAD_REACTORS
330
2C6
102
}
330
2C0
100
AcDbEntity
  8
1
 62
     3
100
AcDbCircle
 10
-0.93533516154403
 20
275.32000394946
 30
0.0
 40
1.25
  0
HATCH
  5
2C6
330
2C0
100
AcDbEntity
  8
1
 62
     3
100
AcDbHatch
 10
0.0
 20
0.0
 30
0.0
210
0.0
220
0.0
230
1.0
  2
SOLID
 70
     1
 71
     1
 91
        1
 92
        1
 93
        1
 72
     2
 10
-0.9353351615440317
 20
275.32000394946
 40
1.25
 50
0.0
 51
360.0
 73
     1
 97
        1
330
2C5
 75
     0
 76
     1
 98
        0
  0
SOLID
  5
2C7
330
2C0
100
AcDbEntity
  8
1
 62
     3
100
AcDbTrace
 10
-2.25186013741799
 20
294.32000394946
 30
0.0
 11
0.38118981432993
 21
294.32000394946
 31
0.0
 12
-0.93533516154403
 22
284.32000394946
 32
0.0
 13
-0.93533516154403
 23
284.32000394946
 33
0.0
  0
MTEXT
  5
2C8
330
2C0
100
AcDbEntity
  8
1
 62
     3
100
AcDbMText
 10
-3.43533516154403
 20
278.1466049707214
 30
0.0
 40
6.25
 41
0.0
 71
     7
 72
     1
  1
9
  7
CONVERTER_12
 11
0.0
 21
1.0
 31
0.0
 73
     1
 44
0.60024009603842
  0
ENDBLK
  5
2CA
330
2C0
100
AcDbEntity
  8
0
100
AcDbBlockEnd
  0
BLOCK
  5
2D5
330
2CD
100
AcDbEntity
  8
0
100
AcDbBlockBegin
  2
*D24
 70
     1
 10
0.0
 20
0.0
 30
0.0
  3
*D24
  1

  0
LINE
  5
2CE
330
2CD
100
AcDbEntity
  8
1
  6
Continuous
 62
     3
100
AcDbLine
 10
170.300295669105
 20
197.8198681948091
 30
0.0
 11
170.300295669105
 21
227.8198681948099
 31
0.0
  0
LINE
  5
2CF
330
2CD
100
AcDbEntity
  8
1
  6
Continuous
 62
     3
100
AcDbLine
 10
104.6826646318448
 20
227.8198681948099
 30
0.0
 11
172.800295669105
 21
227.8198681948099
 31
0.0
  0
LINE
  5
2D0
330
2CD
100
AcDbEntity
  8
1
  6
Continuous
 62
     3
100
AcDbLine
 10
117.1869943490008
 20
197.8198681948091
 30
0.0
 11
122.722109331868
 21
197.8198681948091
 31
0.0
  0
LINE
  5
2D1
330
2CD
100
AcDbEntity
  8
1
  6
Continuous
 62
     3
100
AcDbLine
 10
128.5994020264489
 20
197.8198681948091
 30
0.0
 11
172.800295669105
 21
197.8198681948091
 31
0.0
  0
SOLID
  5
2D2
330
2CD
100
AcDbEntity
  8
1
 62
     3
100
AcDbTrace
 10
168.983770693231
 20
207.8198681948091
 30
0.0
 11
171.616820644979
 21
207.8198681948091
 31
0.0
 12
170.300295669105
 22
197.8198681948091
 32
0.0
 13
170.300295669105
 23
197.8198681948091
 33
0.0
  0
SOLID
  5
2D3
330
2CD
100
AcDbEntity
  8
1
 62
     3
100
AcDbTrace
 10
171.616820644979
 20
217.8198681948099
 30
0.0
 11
168.983770693231
 21
217.8198681948099
 31
0.0
 12
170.300295669105
 22
227.8198681948099
 32
0.0
 13
170.300295669105
 23
227.8198681948099
 33
0.0
  0
MTEXT
  5
2D4
330
2CD
100
AcDbEntity
  8
1
 62
     3
100
AcDbMText
 10
167.800295669105
 20
209.3178843257877
 30
0.0
 40
6.25
 41
0.0
 71
     7
 72
     1
  1
30
  7
CONVERTER_12
 11
0.0
 21
1.0
 31
0.0
 73
     1
 44
0.60024009603842
  0
ENDBLK
  5
2D6
330
2CD
100
AcDbEntity
  8
0
100
AcDbBlockEnd
  0
BLOCK
  5
2E2
330
2D9
100
AcDbEntity
  8
0
100
AcDbBlockBegin
  2
*D25
 70
     1
 10
0.0
 20
0.0
 30
0.0
  3
*D25
  1

  0
LINE
  5
2DA
330
2D9
100
AcDbEntity
  8
1
  6
Continuous
 62
     3
100
AcDbLine
 10
8.2869943489998
 20
355.3199464024037
 30
0.0
 11
28.2869943489998
 21
355.3199464024037
 31
0.0
  0
LINE
  5
2DB
330
2D9
100
AcDbEntity
  8
1
  6
Continuous
 62
     3
100
AcDbLine
 10
28.2869943489998
 20
355.3199464024037
 30
0.0
 11
40.2869943489998
 21
355.3199464024037
 31
0.0
  0
LINE
  5
2DC
330
2D9
100
AcDbEntity
  8
1
  6
Continuous
 62
     3
100
AcDbLine
 10
40.2869943489998
 20
355.3199464024037
 30
0.0
 11
60.2869943489998
 21
355.3199464024037
 31
0.0
  0
LINE
  5
2DD
330
2D9
100
AcDbEntity
  8
1
  6
Continuous
 62
     3
100
AcDbLine
 10
40.2869943489998
 20
397.8198681948095
 30
0.0
 11
40.2869943489998
 21
352.8199464024037
 31
0.0
  0
LINE
  5
2DE
330
2D9
100
AcDbEntity
  8
1
  6
Continuous
 62
     3
100
AcDbLine
 10
28.2869943489998
 20
344.3198681948102
 30
0.0
 11
28.2869943489998
 21
357.8199464024037
 31
0.0
  0
SOLID
  5
2DF
330
2D9
100
AcDbEntity
  8
1
 62
     3
100
AcDbTrace
 10
18.2869943489998
 20
354.0034214265297
 30
0.0
 11
18.2869943489998
 21
356.6364713782776
 31
0.0
 12
28.2869943489998
 22
355.3199464024037
 32
0.0
 13
28.2869943489998
 23
355.3199464024037
 33
0.0
  0
SOLID
  5
2E0
330
2D9
100
AcDbEntity
  8
1
 62
     3
100
AcDbTrace
 10
50.2869943489998
 20
356.6364713782776
 30
0.0
 11
50.2869943489998
 21
354.0034214265297
 31
0.0
 12
40.2869943489998
 22
355.3199464024037
 32
0.0
 13
40.2869943489998
 23
355.3199464024037
 33
0.0
  0
MTEXT
  5
2E1
330
2D9
100
AcDbEntity
  8
1
 62
     3
100
AcDbMText
 10
30.61883140554619
 20
357.8199464024037
 30
0.0
 40
6.25
 41
0.0
 71
     7
 72
     1
  1
12
  7
CONVERTER_12
 11
0.9999999999970619
 21
2.424068405545306E-6
 31
0.0
 73
     1
 44
0.60024009603842
  0
ENDBLK
  5
2E3
330
2D9
100
AcDbEntity
  8
0
100
AcDbBlockEnd
  0
BLOCK
  5
2EF
330
2E6
100
AcDbEntity
  8
0
100
AcDbBlockBegin
  2
*D26
 70
     1
 10
0.0
 20
0.0
 30
0.0
  3
*D26
  1

  0
LINE
  5
2E7
330
2E6
100
AcDbEntity
  8
1
  6
Continuous
 62
     3
100
AcDbLine
 10
316.5327674049967
 20
271.3691757370404
 30
0.0
 11
336.5327674049967
 21
271.3691757370404
 31
0.0
  0
LINE
  5
2E8
330
2E6
100
AcDbEntity
  8
1
  6
Continuous
 62
     3
100
AcDbLine
 10
336.5327674049967
 20
271.3691757370404
 30
0.0
 11
347.0327674049964
 21
271.3691757370404
 31
0.0
  0
LINE
  5
2E9
330
2E6
100
AcDbEntity
  8
1
  6
Continuous
 62
     3
100
AcDbLine
 10
347.0327674049964
 20
271.3691757370404
 30
0.0
 11
372.6955413308
 21
271.3691757370404
 31
0.0
  0
LINE
  5
2EA
330
2E6
100
AcDbEntity
  8
1
  6
Continuous
 62
     3
100
AcDbLine
 10
347.0327674049964
 20
277.2698681948025
 30
0.0
 11
347.0327674049964
 21
268.8691757370404
 31
0.0
  0
LINE
  5
2EB
330
2E6
100
AcDbEntity
  8
1
  6
Continuous
 62
     3
100
AcDbLine
 10
336.5327674049967
 20
275.2593607371912
 30
0.0
 11
336.5327674049967
 21
268.8691757370404
 31
0.0
  0
SOLID
  5
2EC
330
2E6
100
AcDbEntity
  8
1
 62
     3
100
AcDbTrace
 10
326.5327674049967
 20
270.0526507611664
 30
0.0
 11
326.5327674049967
 21
272.6857007129144
 31
0.0
 12
336.5327674049967
 22
271.3691757370404
 32
0.0
 13
336.5327674049967
 23
271.3691757370404
 33
0.0
  0
SOLID
  5
2ED
330
2E6
100
AcDbEntity
  8
1
 62
     3
100
AcDbTrace
 10
357.0327674049964
 20
272.6857007129144
 30
0.0
 11
357.0327674049964
 21
270.0526507611664
 31
0.0
 12
347.0327674049964
 22
271.3691757370404
 32
0.0
 13
347.0327674049964
 23
271.3691757370404
 33
0.0
  0
MTEXT
  5
2EE
330
2E6
100
AcDbEntity
  8
1
 62
     3
100
AcDbMText
 10
357.3830413308
 20
274.4941757370404
 30
0.0
 40
6.25
 41
0.0
 71
     7
 72
     1
  1
10,5
  7
CONVERTER_12
 11
0.9999999999970619
 21
2.424068405545306E-6
 31
0.0
 73
     1
 44
0.60024009603842
  0
ENDBLK
  5
2F0
330
2E6
100
AcDbEntity
  8
0
100
AcDbBlockEnd
  0
BLOCK
  5
2FC
330
2F3
100
AcDbEntity
  8
0
100
AcDbBlockBegin
  2
*D27
 70
     1
 10
0.0
 20
0.0
 30
0.0
  3
*D27
  1

  0
LINE
  5
2F4
330
2F3
100
AcDbEntity
  8
1
  6
Continuous
 62
     3
100
AcDbLine
 10
316.5326094195485
 20
305.9301287944605
 30
0.0
 11
336.5326094195485
 21
305.9301287944605
 31
0.0
  0
LINE
  5
2F5
330
2F3
100
AcDbEntity
  8
1
  6
Continuous
 62
     3
100
AcDbLine
 10
336.5326094195485
 20
305.9301287944605
 30
0.0
 11
349.4326094195481
 21
305.9301287944605
 31
0.0
  0
LINE
  5
2F6
330
2F3
100
AcDbEntity
  8
1
  6
Continuous
 62
     3
100
AcDbLine
 10
349.4326094195481
 20
305.9301287944605
 30
0.0
 11
376.506104230391
 21
305.9301287944605
 31
0.0
  0
LINE
  5
2F7
330
2F3
100
AcDbEntity
  8
1
  6
Continuous
 62
     3
100
AcDbLine
 10
349.4326094195481
 20
315.6198681948108
 30
0.0
 11
349.4326094195481
 21
303.4301287944605
 31
0.0
  0
LINE
  5
2F8
330
2F3
100
AcDbEntity
  8
1
  6
Continuous
 62
     3
100
AcDbLine
 10
336.5326094195485
 20
313.1198681948108
 30
0.0
 11
336.5326094195485
 21
303.4301287944605
 31
0.0
  0
SOLID
  5
2F9
330
2F3
100
AcDbEntity
  8
1
 62
     3
100
AcDbTrace
 10
326.5326094195485
 20
304.6136038185865
 30
0.0
 11
326.5326094195485
 21
307.2466537703344
 31
0.0
 12
336.5326094195485
 22
305.9301287944605
 32
0.0
 13
336.5326094195485
 23
305.9301287944605
 33
0.0
  0
SOLID
  5
2FA
330
2F3
100
AcDbEntity
  8
1
 62
     3
100
AcDbTrace
 10
359.4326094195481
 20
307.2466537703344
 30
0.0
 11
359.4326094195481
 21
304.6136038185865
 31
0.0
 12
349.4326094195481
 22
305.9301287944605
 32
0.0
 13
349.4326094195481
 23
305.9301287944605
 33
0.0
  0
MTEXT
  5
2FB
330
2F3
100
AcDbEntity
  8
1
 62
     3
100
AcDbMText
 10
361.193604230391
 20
309.0551287944605
 30
0.0
 40
6.25
 41
0.0
 71
     7
 72
     1
  1
12,9
  7
CONVERTER_12
 11
0.9999999999970619
 21
2.424068405545306E-6
 31
0.0
 73
     1
 44
0.60024009603842
  0
ENDBLK
  5
2FD
330
2F3
100
AcDbEntity
  8
0
100
AcDbBlockEnd
  0
BLOCK
  5
309
330
300
100
AcDbEntity
  8
0
100
AcDbBlockBegin
  2
*D28
 70
     1
 10
0.0
 20
0.0
 30
0.0
  3
*D28
  1

  0
LINE
  5
301
330
300
100
AcDbEntity
  8
1
  6
Continuous
 62
     3
100
AcDbLine
 10
205.6216086992775
 20
303.3238550014035
 30
0.0
 11
238.0706234312339
 21
303.3238550014035
 31
0.0
  0
LINE
  5
302
330
300
100
AcDbEntity
  8
1
  6
Continuous
 62
     3
100
AcDbLine
 10
238.0706234312339
 20
303.3238550014035
 30
0.0
 11
250.9706234312335
 21
303.3238550014035
 31
0.0
  0
LINE
  5
303
330
300
100
AcDbEntity
  8
1
  6
Continuous
 62
     3
100
AcDbLine
 10
250.9706234312335
 20
303.3238550014035
 30
0.0
 11
270.9706234312335
 21
303.3238550014035
 31
0.0
  0
LINE
  5
304
330
300
100
AcDbEntity
  8
1
  6
Continuous
 62
     3
100
AcDbLine
 10
250.9706234312335
 20
315.6198681948109
 30
0.0
 11
250.9706234312335
 21
300.8238550014035
 31
0.0
  0
LINE
  5
305
330
300
100
AcDbEntity
  8
1
  6
Continuous
 62
     3
100
AcDbLine
 10
238.0706234312339
 20
313.1198681948109
 30
0.0
 11
238.0706234312339
 21
300.8238550014035
 31
0.0
  0
SOLID
  5
306
330
300
100
AcDbEntity
  8
1
 62
     3
100
AcDbTrace
 10
228.0706234312339
 20
302.0073300255295
 30
0.0
 11
228.0706234312339
 21
304.6403799772775
 31
0.0
 12
238.0706234312339
 22
303.3238550014035
 32
0.0
 13
238.0706234312339
 23
303.3238550014035
 33
0.0
  0
SOLID
  5
307
330
300
100
AcDbEntity
  8
1
 62
     3
100
AcDbTrace
 10
260.9706234312335
 20
304.6403799772775
 30
0.0
 11
260.9706234312335
 21
302.0073300255295
 31
0.0
 12
250.9706234312335
 22
303.3238550014035
 32
0.0
 13
250.9706234312335
 23
303.3238550014035
 33
0.0
  0
MTEXT
  5
308
330
300
100
AcDbEntity
  8
1
 62
     3
100
AcDbMText
 10
205.6216086992775
 20
306.4488550014035
 30
0.0
 40
6.25
 41
0.0
 71
     7
 72
     1
  1
12,9
  7
CONVERTER_12
 11
0.9999999999970619
 21
2.424068405545306E-6
 31
0.0
 73
     1
 44
0.60024009603842
  0
ENDBLK
  5
30A
330
300
100
AcDbEntity
  8
0
100
AcDbBlockEnd
  0
BLOCK
  5
316
330
30D
100
AcDbEntity
  8
0
100
AcDbBlockBegin
  2
*D29
 70
     1
 10
0.0
 20
0.0
 30
0.0
  3
*D29
  1

  0
LINE
  5
30E
330
30D
100
AcDbEntity
  8
1
  6
Continuous
 62
     3
100
AcDbLine
 10
303.868956645243
 20
359.5449039659144
 30
0.0
 11
329.8327674049905
 21
359.5449039659144
 31
0.0
  0
LINE
  5
30F
330
30D
100
AcDbEntity
  8
1
  6
Continuous
 62
     3
100
AcDbLine
 10
329.8327674049905
 20
359.5449039659144
 30
0.0
 11
336.5326094195485
 21
359.5449039659144
 31
0.0
  0
LINE
  5
310
330
30D
100
AcDbEntity
  8
1
  6
Continuous
 62
     3
100
AcDbLine
 10
336.5326094195485
 20
359.5449039659144
 30
0.0
 11
356.5326094195485
 21
359.5449039659144
 31
0.0
  0
LINE
  5
311
330
30D
100
AcDbEntity
  8
1
  6
Continuous
 62
     3
100
AcDbLine
 10
336.5326094195485
 20
344.1198681948107
 30
0.0
 11
336.5326094195485
 21
362.0449039659144
 31
0.0
  0
LINE
  5
312
330
30D
100
AcDbEntity
  8
1
  6
Continuous
 62
     3
100
AcDbLine
 10
329.8327674049905
 20
385.8198681948031
 30
0.0
 11
329.8327674049905
 21
357.0449039659144
 31
0.0
  0
SOLID
  5
313
330
30D
100
AcDbEntity
  8
1
 62
     3
100
AcDbTrace
 10
319.8327674049905
 20
358.2283789900404
 30
0.0
 11
319.8327674049905
 21
360.8614289417883
 31
0.0
 12
329.8327674049905
 22
359.5449039659144
 32
0.0
 13
329.8327674049905
 23
359.5449039659144
 33
0.0
  0
SOLID
  5
314
330
30D
100
AcDbEntity
  8
1
 62
     3
100
AcDbTrace
 10
346.5326094195485
 20
360.8614289417883
 30
0.0
 11
346.5326094195485
 21
358.2283789900404
 31
0.0
 12
336.5326094195485
 22
359.5449039659144
 32
0.0
 13
336.5326094195485
 23
359.5449039659144
 33
0.0
  0
MTEXT
  5
315
330
30D
100
AcDbEntity
  8
1
 62
     3
100
AcDbMText
 10
303.868956645243
 20
362.6699039659144
 30
0.0
 40
6.25
 41
0.0
 71
     7
 72
     1
  1
6,7
  7
CONVERTER_12
 11
0.9999999999970619
 21
2.424068405545306E-6
 31
0.0
 73
     1
 44
0.60024009603842
  0
ENDBLK
  5
317
330
30D
100
AcDbEntity
  8
0
100
AcDbBlockEnd
  0
BLOCK
  5
323
330
31A
100
AcDbEntity
  8
0
100
AcDbBlockBegin
  2
*D30
 70
     1
 10
0.0
 20
0.0
 30
0.0
  3
*D30
  1

  0
LINE
  5
31B
330
31A
100
AcDbEntity
  8
1
  6
Continuous
 62
     3
100
AcDbLine
 10
210.0324035855376
 20
361.0342032762334
 30
0.0
 11
234.5707814166689
 21
361.0342032762334
 31
0.0
  0
LINE
  5
31C
330
31A
100
AcDbEntity
  8
1
  6
Continuous
 62
     3
100
AcDbLine
 10
234.5707814166689
 20
361.0342032762334
 30
0.0
 11
238.070623431234
 21
361.0342032762334
 31
0.0
  0
LINE
  5
31D
330
31A
100
AcDbEntity
  8
1
  6
Continuous
 62
     3
100
AcDbLine
 10
238.070623431234
 20
361.0342032762334
 30
0.0
 11
258.070623431234
 21
361.0342032762334
 31
0.0
  0
LINE
  5
31E
330
31A
100
AcDbEntity
  8
1
  6
Continuous
 62
     3
100
AcDbLine
 10
238.070623431234
 20
344.1198681948108
 30
0.0
 11
238.070623431234
 21
363.5342032762334
 31
0.0
  0
LINE
  5
31F
330
31A
100
AcDbEntity
  8
1
  6
Continuous
 62
     3
100
AcDbLine
 10
234.5707814166689
 20
387.8198681948086
 30
0.0
 11
234.5707814166689
 21
358.5342032762334
 31
0.0
  0
SOLID
  5
320
330
31A
100
AcDbEntity
  8
1
 62
     3
100
AcDbTrace
 10
224.5707814166689
 20
359.7176783003595
 30
0.0
 11
224.5707814166689
 21
362.3507282521074
 31
0.0
 12
234.5707814166689
 22
361.0342032762334
 32
0.0
 13
234.5707814166689
 23
361.0342032762334
 33
0.0
  0
SOLID
  5
321
330
31A
100
AcDbEntity
  8
1
 62
     3
100
AcDbTrace
 10
248.070623431234
 20
362.3507282521074
 30
0.0
 11
248.070623431234
 21
359.7176783003595
 31
0.0
 12
238.070623431234
 22
361.0342032762334
 32
0.0
 13
238.070623431234
 23
361.0342032762334
 33
0.0
  0
MTEXT
  5
322
330
31A
100
AcDbEntity
  8
1
 62
     3
100
AcDbMText
 10
210.0324035855376
 20
363.9410281593236
 30
0.0
 40
6.25
 41
0.0
 71
     7
 72
     1
  1
3,5
  7
CONVERTER_12
 11
0.9999999999970619
 21
2.424068405545306E-6
 31
0.0
 73
     1
 44
0.60024009603842
  0
ENDBLK
  5
324
330
31A
100
AcDbEntity
  8
0
100
AcDbBlockEnd
  0
BLOCK
  5
330
330
327
100
AcDbEntity
  8
0
100
AcDbBlockBegin
  2
*D31
 70
     1
 10
0.0
 20
0.0
 30
0.0
  3
*D31
  1

  0
LINE
  5
328
330
327
100
AcDbEntity
  8
1
  6
Continuous
 62
     3
100
AcDbLine
 10
209.5060359141146
 20
268.2207441282775
 30
0.0
 11
238.0707814166785
 21
268.2207441282775
 31
0.0
  0
LINE
  5
329
330
327
100
AcDbEntity
  8
1
  6
Continuous
 62
     3
100
AcDbLine
 10
238.0707814166785
 20
268.2207441282775
 30
0.0
 11
248.57078141668
 21
268.2207441282775
 31
0.0
  0
LINE
  5
32A
330
327
100
AcDbEntity
  8
1
  6
Continuous
 62
     3
100
AcDbLine
 10
248.57078141668
 20
268.2207441282775
 30
0.0
 11
268.57078141668
 21
268.2207441282775
 31
0.0
  0
LINE
  5
32B
330
327
100
AcDbEntity
  8
1
  6
Continuous
 62
     3
100
AcDbLine
 10
248.57078141668
 20
282.3698681948047
 30
0.0
 11
248.57078141668
 21
265.7207441282775
 31
0.0
  0
LINE
  5
32C
330
327
100
AcDbEntity
  8
1
  6
Continuous
 62
     3
100
AcDbLine
 10
238.0707814166785
 20
275.2593607371966
 30
0.0
 11
238.0707814166785
 21
265.7207441282775
 31
0.0
  0
SOLID
  5
32D
330
327
100
AcDbEntity
  8
1
 62
     3
100
AcDbTrace
 10
228.0707814166785
 20
266.9042191524035
 30
0.0
 11
228.0707814166785
 21
269.5372691041514
 31
0.0
 12
238.0707814166785
 22
268.2207441282775
 32
0.0
 13
238.0707814166785
 23
268.2207441282775
 33
0.0
  0
SOLID
  5
32E
330
327
100
AcDbEntity
  8
1
 62
     3
100
AcDbTrace
 10
258.57078141668
 20
269.5372691041514
 30
0.0
 11
258.57078141668
 21
266.9042191524035
 31
0.0
 12
248.57078141668
 22
268.2207441282775
 32
0.0
 13
248.57078141668
 23
268.2207441282775
 33
0.0
  0
MTEXT
  5
32F
330
327
100
AcDbEntity
  8
1
 62
     3
100
AcDbMText
 10
209.5060359141146
 20
271.3457441282775
 30
0.0
 40
6.25
 41
0.0
 71
     7
 72
     1
  1
10,5
  7
CONVERTER_12
 11
0.9999999999970619
 21
2.424068405545306E-6
 31
0.0
 73
     1
 44
0.60024009603842
  0
ENDBLK
  5
331
330
327
100
AcDbEntity
  8
0
100
AcDbBlockEnd
  0
BLOCK
  5
33D
330
334
100
AcDbEntity
  8
0
100
AcDbBlockBegin
  2
*D32
 70
     1
 10
0.0
 20
0.0
 30
0.0
  3
*D32
  1

  0
LINE
  5
335
330
334
100
AcDbEntity
  8
1
  6
Continuous
 62
     3
100
AcDbLine
 10
317.0327674049931
 20
216.356768311311
 30
0.0
 11
337.0327674049931
 21
216.356768311311
 31
0.0
  0
LINE
  5
336
330
334
100
AcDbEntity
  8
1
  6
Continuous
 62
     3
100
AcDbLine
 10
337.0327674049931
 20
216.356768311311
 30
0.0
 11
345.0327674049938
 21
216.356768311311
 31
0.0
  0
LINE
  5
337
330
334
100
AcDbEntity
  8
1
  6
Continuous
 62
     3
100
AcDbLine
 10
345.0327674049938
 20
216.356768311311
 30
0.0
 11
365.0327674049938
 21
216.356768311311
 31
0.0
  0
LINE
  5
338
330
334
100
AcDbEntity
  8
1
  6
Continuous
 62
     3
100
AcDbLine
 10
345.0327674049938
 20
227.3302418496463
 30
0.0
 11
345.0327674049938
 21
213.856768311311
 31
0.0
  0
LINE
  5
339
330
334
100
AcDbEntity
  8
1
  6
Continuous
 62
     3
100
AcDbLine
 10
337.0327674049931
 20
227.3302418496463
 30
0.0
 11
337.0327674049931
 21
213.856768311311
 31
0.0
  0
SOLID
  5
33A
330
334
100
AcDbEntity
  8
1
 62
     3
100
AcDbTrace
 10
327.0327674049931
 20
215.040243335437
 30
0.0
 11
327.0327674049931
 21
217.6732932871849
 31
0.0
 12
337.0327674049931
 22
216.356768311311
 32
0.0
 13
337.0327674049931
 23
216.356768311311
 33
0.0
  0
SOLID
  5
33B
330
334
100
AcDbEntity
  8
1
 62
     3
100
AcDbTrace
 10
355.0327674049938
 20
217.6732932871849
 30
0.0
 11
355.0327674049938
 21
215.040243335437
 31
0.0
 12
345.0327674049938
 22
216.356768311311
 32
0.0
 13
345.0327674049938
 23
216.356768311311
 33
0.0
  0
MTEXT
  5
33C
330
334
100
AcDbEntity
  8
1
 62
     3
100
AcDbMText
 10
339.343127484069
 20
218.856768311311
 30
0.0
 40
6.25
 41
0.0
 71
     7
 72
     1
  1
8
  7
CONVERTER_12
 11
0.9999999999970619
 21
2.424068405545306E-6
 31
0.0
 73
     1
 44
0.60024009603842
  0
ENDBLK
  5
33E
330
334
100
AcDbEntity
  8
0
100
AcDbBlockEnd
  0
BLOCK
  5
34A
330
341
100
AcDbEntity
  8
0
100
AcDbBlockBegin
  2
*D33
 70
     1
 10
0.0
 20
0.0
 30
0.0
  3
*D33
  1

  0
LINE
  5
342
330
341
100
AcDbEntity
  8
1
  6
Continuous
 62
     3
100
AcDbLine
 10
218.5707814166803
 20
215.972400897219
 30
0.0
 11
238.5707814166803
 21
215.972400897219
 31
0.0
  0
LINE
  5
343
330
341
100
AcDbEntity
  8
1
  6
Continuous
 62
     3
100
AcDbLine
 10
238.5707814166803
 20
215.972400897219
 30
0.0
 11
246.5707814166766
 21
215.972400897219
 31
0.0
  0
LINE
  5
344
330
341
100
AcDbEntity
  8
1
  6
Continuous
 62
     3
100
AcDbLine
 10
246.5707814166766
 20
215.972400897219
 30
0.0
 11
266.5707814166766
 21
215.972400897219
 31
0.0
  0
LINE
  5
345
330
341
100
AcDbEntity
  8
1
  6
Continuous
 62
     3
100
AcDbLine
 10
246.5707814166766
 20
227.3302418496481
 30
0.0
 11
246.5707814166766
 21
213.472400897219
 31
0.0
  0
LINE
  5
346
330
341
100
AcDbEntity
  8
1
  6
Continuous
 62
     3
100
AcDbLine
 10
238.5707814166803
 20
227.3302418496481
 30
0.0
 11
238.5707814166803
 21
213.472400897219
 31
0.0
  0
SOLID
  5
347
330
341
100
AcDbEntity
  8
1
 62
     3
100
AcDbTrace
 10
228.5707814166803
 20
214.655875921345
 30
0.0
 11
228.5707814166803
 21
217.2889258730929
 31
0.0
 12
238.5707814166803
 22
215.972400897219
 32
0.0
 13
238.5707814166803
 23
215.972400897219
 33
0.0
  0
SOLID
  5
348
330
341
100
AcDbEntity
  8
1
 62
     3
100
AcDbTrace
 10
256.5707814166766
 20
217.2889258730929
 30
0.0
 11
256.5707814166766
 21
214.655875921345
 31
0.0
 12
246.5707814166766
 22
215.972400897219
 32
0.0
 13
246.5707814166766
 23
215.972400897219
 33
0.0
  0
MTEXT
  5
349
330
341
100
AcDbEntity
  8
1
 62
     3
100
AcDbMText
 10
241.521620597768
 20
218.472400897219
 30
0.0
 40
6.25
 41
0.0
 71
     7
 72
     1
  1
8
  7
CONVERTER_12
 11
0.9999999999970619
 21
2.424068405545306E-6
 31
0.0
 73
     1
 44
0.60024009603842
  0
ENDBLK
  5
34B
330
341
100
AcDbEntity
  8
0
100
AcDbBlockEnd
  0
BLOCK
  5
358
330
34E
100
AcDbEntity
  8
0
100
AcDbBlockBegin
  2
*D34
 70
     1
 10
0.0
 20
0.0
 30
0.0
  3
*D34
  1

  0
LINE
  5
34F
330
34E
100
AcDbEntity
  8
1
  6
Continuous
 62
     3
100
AcDbLine
 10
309.8327674049906
 20
289.2313010988888
 30
0.0
 11
329.8327674049906
 21
289.2313010988888
 31
0.0
  0
LINE
  5
350
330
34E
100
AcDbEntity
  8
1
  6
Continuous
 62
     3
100
AcDbLine
 10
329.8327674049906
 20
289.2313010988888
 30
0.0
 11
336.5327674049967
 21
289.2313010988888
 31
0.0
  0
LINE
  5
351
330
34E
100
AcDbEntity
  8
1
  6
Continuous
 62
     3
100
AcDbLine
 10
336.5327674049967
 20
289.2313010988888
 30
0.0
 11
356.5327674049967
 21
289.2313010988888
 31
0.0
  0
LINE
  5
352
330
34E
100
AcDbEntity
  8
1
  6
Continuous
 62
     3
100
AcDbLine
 10
336.5327674049967
 20
284.380375652416
 30
0.0
 11
336.5327674049967
 21
291.7313010988888
 31
0.0
  0
LINE
  5
353
330
34E
100
AcDbEntity
  8
1
  6
Continuous
 62
     3
100
AcDbLine
 10
329.8327674049906
 20
385.8198681948033
 30
0.0
 11
329.8327674049906
 21
378.5915376412606
 31
0.0
  0
LINE
  5
354
330
34E
100
AcDbEntity
  8
1
  6
Continuous
 62
     3
100
AcDbLine
 10
329.8327674049906
 20
300.7579179830365
 30
0.0
 11
329.8327674049906
 21
286.7313010988888
 31
0.0
  0
SOLID
  5
355
330
34E
100
AcDbEntity
  8
1
 62
     3
100
AcDbTrace
 10
319.8327674049906
 20
287.9147761230149
 30
0.0
 11
319.8327674049906
 21
290.5478260747628
 31
0.0
 12
329.8327674049906
 22
289.2313010988888
 32
0.0
 13
329.8327674049906
 23
289.2313010988888
 33
0.0
  0
SOLID
  5
356
330
34E
100
AcDbEntity
  8
1
 62
     3
100
AcDbTrace
 10
346.5327674049967
 20
290.5478260747628
 30
0.0
 11
346.5327674049967
 21
287.9147761230149
 31
0.0
 12
336.5327674049967
 22
289.2313010988888
 32
0.0
 13
336.5327674049967
 23
289.2313010988888
 33
0.0
  0
MTEXT
  5
357
330
34E
100
AcDbEntity
  8
1
 62
     3
100
AcDbMText
 10
314.4038021816488
 20
292.3563010988888
 30
0.0
 40
6.25
 41
0.0
 71
     7
 72
     1
  1
6,7
  7
CONVERTER_12
 11
0.9999999999970619
 21
2.424068405545306E-6
 31
0.0
 73
     1
 44
0.60024009603842
  0
ENDBLK
  5
359
330
34E
100
AcDbEntity
  8
0
100
AcDbBlockEnd
  0
BLOCK
  5
366
330
35C
100
AcDbEntity
  8
0
100
AcDbBlockBegin
  2
*D35
 70
     1
 10
0.0
 20
0.0
 30
0.0
  3
*D35
  1

  0
LINE
  5
35D
330
35C
100
AcDbEntity
  8
1
  6
Continuous
 62
     3
100
AcDbLine
 10
211.1703270549736
 20
288.6098115710811
 30
0.0
 11
234.5707814166689
 21
288.6098115710811
 31
0.0
  0
LINE
  5
35E
330
35C
100
AcDbEntity
  8
1
  6
Continuous
 62
     3
100
AcDbLine
 10
234.5707814166689
 20
288.6098115710811
 30
0.0
 11
238.0707814166785
 21
288.6098115710811
 31
0.0
  0
LINE
  5
35F
330
35C
100
AcDbEntity
  8
1
  6
Continuous
 62
     3
100
AcDbLine
 10
238.0707814166785
 20
288.6098115710811
 30
0.0
 11
258.0707814166785
 21
288.6098115710811
 31
0.0
  0
LINE
  5
360
330
35C
100
AcDbEntity
  8
1
  6
Continuous
 62
     3
100
AcDbLine
 10
238.0707814166785
 20
284.3803756524178
 30
0.0
 11
238.0707814166785
 21
291.1098115710811
 31
0.0
  0
LINE
  5
361
330
35C
100
AcDbEntity
  8
1
  6
Continuous
 62
     3
100
AcDbLine
 10
234.5707814166689
 20
387.8198681948086
 30
0.0
 11
234.5707814166689
 21
380.4243861442815
 31
0.0
  0
LINE
  5
362
330
35C
100
AcDbEntity
  8
1
  6
Continuous
 62
     3
100
AcDbLine
 10
234.5707814166689
 20
294.4026964024575
 30
0.0
 11
234.5707814166689
 21
286.1098115710811
 31
0.0
  0
SOLID
  5
363
330
35C
100
AcDbEntity
  8
1
 62
     3
100
AcDbTrace
 10
224.5707814166689
 20
287.2932865952071
 30
0.0
 11
224.5707814166689
 21
289.926336546955
 31
0.0
 12
234.5707814166689
 22
288.6098115710811
 32
0.0
 13
234.5707814166689
 23
288.6098115710811
 33
0.0
  0
SOLID
  5
364
330
35C
100
AcDbEntity
  8
1
 62
     3
100
AcDbTrace
 10
248.0707814166785
 20
289.926336546955
 30
0.0
 11
248.0707814166785
 21
287.2932865952071
 31
0.0
 12
238.0707814166785
 22
288.6098115710811
 32
0.0
 13
238.0707814166785
 23
288.6098115710811
 33
0.0
  0
MTEXT
  5
365
330
35C
100
AcDbEntity
  8
1
 62
     3
100
AcDbMText
 10
211.1703270549736
 20
291.7348115710811
 30
0.0
 40
6.25
 41
0.0
 71
     7
 72
     1
  1
3,5
  7
CONVERTER_12
 11
0.9999999999970619
 21
2.424068405545306E-6
 31
0.0
 73
     1
 44
0.60024009603842
  0
ENDBLK
  5
367
330
35C
100
AcDbEntity
  8
0
100
AcDbBlockEnd
  0
BLOCK
  5
373
330
36A
100
AcDbEntity
  8
0
100
AcDbBlockBegin
  2
*D36
 70
     1
 10
0.0
 20
0.0
 30
0.0
  3
*D36
  1

  0
LINE
  5
36B
330
36A
100
AcDbEntity
  8
1
  6
Continuous
 62
     3
100
AcDbLine
 10
312.8705077032077
 20
240.8630795041591
 30
0.0
 11
336.9141994653731
 21
240.8630795041591
 31
0.0
  0
LINE
  5
36C
330
36A
100
AcDbEntity
  8
1
  6
Continuous
 62
     3
100
AcDbLine
 10
336.9141994653731
 20
240.8630795041591
 30
0.0
 11
337.0327674049931
 21
240.8630795041591
 31
0.0
  0
LINE
  5
36D
330
36A
100
AcDbEntity
  8
1
  6
Continuous
 62
     3
100
AcDbLine
 10
337.0327674049931
 20
240.8630795041591
 30
0.0
 11
357.0327674049931
 21
240.8630795041591
 31
0.0
  0
LINE
  5
36E
330
36A
100
AcDbEntity
  8
1
  6
Continuous
 62
     3
100
AcDbLine
 10
337.0327674049931
 20
262.5094945399635
 30
0.0
 11
337.0327674049931
 21
238.3630795041591
 31
0.0
  0
LINE
  5
36F
330
36A
100
AcDbEntity
  8
1
  6
Continuous
 62
     3
100
AcDbLine
 10
329.832767404996
 20
174.8198681948035
 30
0.0
 11
329.832767404996
 21
243.3630795041591
 31
0.0
  0
SOLID
  5
370
330
36A
100
AcDbEntity
  8
1
 62
     3
100
AcDbTrace
 10
326.9141994653731
 20
239.5465545282851
 30
0.0
 11
326.9141994653731
 21
242.179604480033
 31
0.0
 12
336.9141994653731
 22
240.8630795041591
 32
0.0
 13
336.9141994653731
 23
240.8630795041591
 33
0.0
  0
SOLID
  5
371
330
36A
100
AcDbEntity
  8
1
 62
     3
100
AcDbTrace
 10
347.0327674049931
 20
242.179604480033
 30
0.0
 11
347.0327674049931
 21
239.5465545282851
 31
0.0
 12
337.0327674049931
 22
240.8630795041591
 32
0.0
 13
337.0327674049931
 23
240.8630795041591
 33
0.0
  0
MTEXT
  5
372
330
36A
100
AcDbEntity
  8
1
 62
     3
100
AcDbMText
 10
312.8705077032077
 20
243.9880795041591
 30
0.0
 40
6.25
 41
0.0
 71
     7
 72
     1
  1
7,2
  7
CONVERTER_12
 11
0.9999999999970619
 21
2.424068405545306E-6
 31
0.0
 73
     1
 44
0.60024009603842
  0
ENDBLK
  5
374
330
36A
100
AcDbEntity
  8
0
100
AcDbBlockEnd
  0
BLOCK
  5
381
330
377
100
AcDbEntity
  8
0
100
AcDbBlockBegin
  2
*D37
 70
     1
 10
0.0
 20
0.0
 30
0.0
  3
*D37
  1

  0
LINE
  5
378
330
377
100
AcDbEntity
  8
1
  6
Continuous
 62
     3
100
AcDbLine
 10
214.5707814166795
 20
243.2042887139635
 30
0.0
 11
234.5707814166795
 21
243.2042887139635
 31
0.0
  0
LINE
  5
379
330
377
100
AcDbEntity
  8
1
  6
Continuous
 62
     3
100
AcDbLine
 10
234.5707814166795
 20
243.2042887139635
 30
0.0
 11
238.5707814166803
 21
243.2042887139635
 31
0.0
  0
LINE
  5
37A
330
377
100
AcDbEntity
  8
1
  6
Continuous
 62
     3
100
AcDbLine
 10
238.5707814166803
 20
243.2042887139635
 30
0.0
 11
258.5707814166803
 21
243.2042887139635
 31
0.0
  0
LINE
  5
37B
330
377
100
AcDbEntity
  8
1
  6
Continuous
 62
     3
100
AcDbLine
 10
238.5707814166803
 20
262.5094945399672
 30
0.0
 11
238.5707814166803
 21
240.7042887139635
 31
0.0
  0
LINE
  5
37C
330
377
100
AcDbEntity
  8
1
  6
Continuous
 62
     3
100
AcDbLine
 10
234.5707814166795
 20
172.8198681948073
 30
0.0
 11
234.5707814166795
 21
176.1605773195095
 31
0.0
  0
LINE
  5
37D
330
377
100
AcDbEntity
  8
1
  6
Continuous
 62
     3
100
AcDbLine
 10
234.5707814166795
 20
230.7688341277655
 30
0.0
 11
234.5707814166795
 21
245.7042887139635
 31
0.0
  0
SOLID
  5
37E
330
377
100
AcDbEntity
  8
1
 62
     3
100
AcDbTrace
 10
224.5707814166795
 20
241.8877637380895
 30
0.0
 11
224.5707814166795
 21
244.5208136898375
 31
0.0
 12
234.5707814166795
 22
243.2042887139635
 32
0.0
 13
234.5707814166795
 23
243.2042887139635
 33
0.0
  0
SOLID
  5
37F
330
377
100
AcDbEntity
  8
1
 62
     3
100
AcDbTrace
 10
248.5707814166803
 20
244.5208136898375
 30
0.0
 11
248.5707814166803
 21
241.8877637380895
 31
0.0
 12
238.5707814166803
 22
243.2042887139635
 32
0.0
 13
238.5707814166803
 23
243.2042887139635
 33
0.0
  0
MTEXT
  5
380
330
377
100
AcDbEntity
  8
1
 62
     3
100
AcDbMText
 10
217.9758342541815
 20
245.7042887139635
 30
0.0
 40
6.25
 41
0.0
 71
     7
 72
     1
  1
4
  7
CONVERTER_12
 11
0.9999999999970619
 21
2.424068405545306E-6
 31
0.0
 73
     1
 44
0.60024009603842
  0
ENDBLK
  5
382
330
377
100
AcDbEntity
  8
0
100
AcDbBlockEnd
  0
BLOCK
  5
38C
330
385
100
AcDbEntity
  8
0
100
AcDbBlockBegin
  2
*D38
 70
     1
 10
0.0
 20
0.0
 30
0.0
  3
*D38
  1

  0
LINE
  5
386
330
385
100
AcDbEntity
  8
1
  6
Continuous
 62
     3
100
AcDbLine
 10
292.3397623753655
 20
397.8198681948016
 30
0.0
 11
292.3397623753655
 21
162.8198681948053
 31
0.0
  0
LINE
  5
387
330
385
100
AcDbEntity
  8
1
  6
Continuous
 62
     3
100
AcDbLine
 10
244.5707814166795
 20
162.8198681948053
 30
0.0
 11
294.8397623753655
 21
162.8198681948053
 31
0.0
  0
LINE
  5
388
330
385
100
AcDbEntity
  8
1
  6
Continuous
 62
     3
100
AcDbLine
 10
244.5707814166741
 20
397.8198681948016
 30
0.0
 11
294.8397623753655
 21
397.8198681948016
 31
0.0
  0
SOLID
  5
389
330
385
100
AcDbEntity
  8
1
 62
     3
100
AcDbTrace
 10
293.6562873512395
 20
387.8198681948016
 30
0.0
 11
291.0232373994916
 21
387.8198681948016
 31
0.0
 12
292.3397623753655
 22
397.8198681948016
 32
0.0
 13
292.3397623753655
 23
397.8198681948016
 33
0.0
  0
SOLID
  5
38A
330
385
100
AcDbEntity
  8
1
 62
     3
100
AcDbTrace
 10
291.0232373994916
 20
172.8198681948053
 30
0.0
 11
293.6562873512395
 21
172.8198681948053
 31
0.0
 12
292.3397623753655
 22
162.8198681948053
 32
0.0
 13
292.3397623753655
 23
162.8198681948053
 33
0.0
  0
MTEXT
  5
38B
330
385
100
AcDbEntity
  8
1
 62
     3
100
AcDbMText
 10
289.8397623753655
 20
268.3064603328906
 30
0.0
 40
6.25
 41
0.0
 71
     7
 72
     1
  1
235
  7
CONVERTER_12
 11
0.0
 21
1.0
 31
0.0
 73
     1
 44
0.60024009603842
  0
ENDBLK
  5
38D
330
385
100
AcDbEntity
  8
0
100
AcDbBlockEnd
  0
BLOCK
  5
399
330
390
100
AcDbEntity
  8
0
100
AcDbBlockBegin
  2
*D39
 70
     1
 10
0.0
 20
0.0
 30
0.0
  3
*D39
  1

  0
LINE
  5
391
330
390
100
AcDbEntity
  8
1
  6
Continuous
 62
     3
100
AcDbLine
 10
309.832767404996
 20
148.3263868268573
 30
0.0
 11
329.832767404996
 21
148.3263868268573
 31
0.0
  0
LINE
  5
392
330
390
100
AcDbEntity
  8
1
  6
Continuous
 62
     3
100
AcDbLine
 10
329.832767404996
 20
148.3263868268573
 30
0.0
 11
353.8327674049923
 21
148.3263868268573
 31
0.0
  0
LINE
  5
393
330
390
100
AcDbEntity
  8
1
  6
Continuous
 62
     3
100
AcDbLine
 10
353.8327674049923
 20
148.3263868268573
 30
0.0
 11
373.8327674049923
 21
148.3263868268573
 31
0.0
  0
LINE
  5
394
330
390
100
AcDbEntity
  8
1
  6
Continuous
 62
     3
100
AcDbLine
 10
353.8327674049923
 20
174.8198681948053
 30
0.0
 11
353.8327674049923
 21
145.8263868268573
 31
0.0
  0
LINE
  5
395
330
390
100
AcDbEntity
  8
1
  6
Continuous
 62
     3
100
AcDbLine
 10
329.832767404996
 20
174.8198681948035
 30
0.0
 11
329.832767404996
 21
145.8263868268573
 31
0.0
  0
SOLID
  5
396
330
390
100
AcDbEntity
  8
1
 62
     3
100
AcDbTrace
 10
319.832767404996
 20
147.0098618509833
 30
0.0
 11
319.832767404996
 21
149.6429118027312
 31
0.0
 12
329.832767404996
 22
148.3263868268573
 32
0.0
 13
329.832767404996
 23
148.3263868268573
 33
0.0
  0
SOLID
  5
397
330
390
100
AcDbEntity
  8
1
 62
     3
100
AcDbTrace
 10
363.8327674049923
 20
149.6429118027312
 30
0.0
 11
363.8327674049923
 21
147.0098618509833
 31
0.0
 12
353.8327674049923
 22
148.3263868268573
 32
0.0
 13
353.8327674049923
 23
148.3263868268573
 33
0.0
  0
MTEXT
  5
398
330
390
100
AcDbEntity
  8
1
 62
     3
100
AcDbMText
 10
336.940840293246
 20
150.8263868268573
 30
0.0
 40
6.25
 41
0.0
 71
     7
 72
     1
  1
24
  7
CONVERTER_12
 11
0.9999999999970619
 21
2.424068405545306E-6
 31
0.0
 73
     1
 44
0.60024009603842
  0
ENDBLK
  5
39A
330
390
100
AcDbEntity
  8
0
100
AcDbBlockEnd
  0
BLOCK
  5
3A9
330
39D
100
AcDbEntity
  8
0
100
AcDbBlockBegin
  2
*D40
 70
     1
 10
0.0
 20
0.0
 30
0.0
  3
*D40
  1

  0
LINE
  5
39E
330
39D
100
AcDbEntity
  8
1
  6
Continuous
 62
     3
100
AcDbLine
 10
214.5707814166795
 20
132.8479084571819
 30
0.0
 11
234.5707814166795
 21
132.8479084571819
 31
0.0
  0
LINE
  5
39F
330
39D
100
AcDbEntity
  8
1
  6
Continuous
 62
     3
100
AcDbLine
 10
234.5707814166795
 20
132.8479084571819
 30
0.0
 11
254.5707814166778
 21
132.8479084571819
 31
0.0
  0
LINE
  5
3A0
330
39D
100
AcDbEntity
  8
1
  6
Continuous
 62
     3
100
AcDbLine
 10
254.5707814166778
 20
132.8479084571819
 30
0.0
 11
274.5707814166778
 21
132.8479084571819
 31
0.0
  0
LINE
  5
3A1
330
39D
100
AcDbEntity
  8
1
  6
Continuous
 62
     3
100
AcDbLine
 10
254.5707814166778
 20
172.8198681948091
 30
0.0
 11
254.5707814166778
 21
164.8692580391091
 31
0.0
  0
LINE
  5
3A2
330
39D
100
AcDbEntity
  8
1
  6
Continuous
 62
     3
100
AcDbLine
 10
254.5707814166778
 20
159.9099438752319
 30
0.0
 11
254.5707814166778
 21
150.951182805002
 31
0.0
  0
LINE
  5
3A3
330
39D
100
AcDbEntity
  8
1
  6
Continuous
 62
     3
100
AcDbLine
 10
254.5707814166778
 20
143.7521783735673
 30
0.0
 11
254.5707814166778
 21
130.3479084571819
 31
0.0
  0
LINE
  5
3A4
330
39D
100
AcDbEntity
  8
1
  6
Continuous
 62
     3
100
AcDbLine
 10
234.5707814166795
 20
172.8198681948073
 30
0.0
 11
234.5707814166795
 21
151.9110500625266
 31
0.0
  0
LINE
  5
3A5
330
39D
100
AcDbEntity
  8
1
  6
Continuous
 62
     3
100
AcDbLine
 10
234.5707814166795
 20
143.9121562498214
 30
0.0
 11
234.5707814166795
 21
130.3479084571819
 31
0.0
  0
SOLID
  5
3A6
330
39D
100
AcDbEntity
  8
1
 62
     3
100
AcDbTrace
 10
224.5707814166795
 20
131.5313834813079
 30
0.0
 11
224.5707814166795
 21
134.1644334330558
 31
0.0
 12
234.5707814166795
 22
132.8479084571819
 32
0.0
 13
234.5707814166795
 23
132.8479084571819
 33
0.0
  0
SOLID
  5
3A7
330
39D
100
AcDbEntity
  8
1
 62
     3
100
AcDbTrace
 10
264.5707814166778
 20
134.1644334330558
 30
0.0
 11
264.5707814166778
 21
131.5313834813079
 31
0.0
 12
254.5707814166778
 22
132.8479084571819
 32
0.0
 13
254.5707814166778
 23
132.8479084571819
 33
0.0
  0
MTEXT
  5
3A8
330
39D
100
AcDbEntity
  8
1
 62
     3
100
AcDbMText
 10
240.1618177968565
 20
135.3479084571819
 30
0.0
 40
6.25
 41
0.0
 71
     7
 72
     1
  1
20
  7
CONVERTER_12
 11
0.9999999999970619
 21
2.424068405545306E-6
 31
0.0
 73
     1
 44
0.60024009603842
  0
ENDBLK
  5
3AA
330
39D
100
AcDbEntity
  8
0
100
AcDbBlockEnd
  0
BLOCK
  5
3B4
330
3AD
100
AcDbEntity
  8
0
100
AcDbBlockBegin
  2
*D41
 70
     1
 10
0.0
 20
0.0
 30
0.0
  3
*D41
  1

  0
LINE
  5
3AE
330
3AD
100
AcDbEntity
  8
1
  6
Continuous
 62
     3
100
AcDbLine
 10
-22.11900357743349
 20
227.3198681948064
 30
0.0
 11
-22.11900357743349
 21
262.31986819481
 31
0.0
  0
LINE
  5
3AF
330
3AD
100
AcDbEntity
  8
1
  6
Continuous
 62
     3
100
AcDbLine
 10
20.78699434899815
 20
262.31986819481
 30
0.0
 11
-24.61900357743349
 21
262.31986819481
 31
0.0
  0
LINE
  5
3B0
330
3AD
100
AcDbEntity
  8
1
  6
Continuous
 62
     3
100
AcDbLine
 10
20.78699434900179
 20
227.3198681948064
 30
0.0
 11
-24.61900357743349
 21
227.3198681948064
 31
0.0
  0
SOLID
  5
3B1
330
3AD
100
AcDbEntity
  8
1
 62
     3
100
AcDbTrace
 10
-23.43552855330745
 20
237.3198681948064
 30
0.0
 11
-20.80247860155953
 21
237.3198681948064
 31
0.0
 12
-22.11900357743349
 22
227.3198681948064
 32
0.0
 13
-22.11900357743349
 23
227.3198681948064
 33
0.0
  0
SOLID
  5
3B2
330
3AD
100
AcDbEntity
  8
1
 62
     3
100
AcDbTrace
 10
-20.80247860155954
 20
252.31986819481
 30
0.0
 11
-23.43552855330745
 21
252.31986819481
 31
0.0
 12
-22.11900357743349
 22
262.31986819481
 32
0.0
 13
-22.11900357743349
 23
262.31986819481
 33
0.0
  0
MTEXT
  5
3B3
330
3AD
100
AcDbEntity
  8
1
 62
     3
100
AcDbMText
 10
-24.61900357743349
 20
241.0877222641955
 30
0.0
 40
6.25
 41
0.0
 71
     7
 72
     1
  1
35
  7
CONVERTER_12
 11
0.0
 21
1.0
 31
0.0
 73
     1
 44
0.60024009603842
  0
ENDBLK
  5
3B5
330
3AD
100
AcDbEntity
  8
0
100
AcDbBlockEnd
  0
BLOCK
  5
3BF
330
3B8
100
AcDbEntity
  8
0
100
AcDbBlockBegin
  2
*D42
 70
     1
 10
0.0
 20
0.0
 30
0.0
  3
*D42
  1

  0
LINE
  5
3B9
330
3B8
100
AcDbEntity
  8
1
  6
Continuous
 62
     3
100
AcDbLine
 10
-22.11900357743349
 20
312.3198681948102
 30
0.0
 11
-22.11900357743349
 21
344.3198681948102
 31
0.0
  0
LINE
  5
3BA
330
3B8
100
AcDbEntity
  8
1
  6
Continuous
 62
     3
100
AcDbLine
 10
28.98699434899873
 20
344.3198681948102
 30
0.0
 11
-24.61900357743349
 21
344.3198681948102
 31
0.0
  0
LINE
  5
3BB
330
3B8
100
AcDbEntity
  8
1
  6
Continuous
 62
     3
100
AcDbLine
 10
28.98699434899873
 20
312.3198681948102
 30
0.0
 11
-24.61900357743349
 21
312.3198681948102
 31
0.0
  0
SOLID
  5
3BC
330
3B8
100
AcDbEntity
  8
1
 62
     3
100
AcDbTrace
 10
-23.43552855330745
 20
322.3198681948102
 30
0.0
 11
-20.80247860155953
 21
322.3198681948102
 31
0.0
 12
-22.11900357743349
 22
312.3198681948102
 32
0.0
 13
-22.11900357743349
 23
312.3198681948102
 33
0.0
  0
SOLID
  5
3BD
330
3B8
100
AcDbEntity
  8
1
 62
     3
100
AcDbTrace
 10
-20.80247860155954
 20
334.3198681948102
 30
0.0
 11
-23.43552855330745
 21
334.3198681948102
 31
0.0
 12
-22.11900357743349
 22
344.3198681948102
 32
0.0
 13
-22.11900357743349
 23
344.3198681948102
 33
0.0
  0
MTEXT
  5
3BE
330
3B8
100
AcDbEntity
  8
1
 62
     3
100
AcDbMText
 10
-24.61900357743349
 20
322.3177280947065
 30
0.0
 40
6.25
 41
0.0
 71
     7
 72
     1
  1
32
  7
CONVERTER_12
 11
0.0
 21
1.0
 31
0.0
 73
     1
 44
0.60024009603842
  0
ENDBLK
  5
3C0
330
3B8
100
AcDbEntity
  8
0
100
AcDbBlockEnd
  0
BLOCK
  5
3CD
330
3C3
100
AcDbEntity
  8
0
100
AcDbBlockBegin
  2
*D43
 70
     1
 10
0.0
 20
0.0
 30
0.0
  3
*D43
  1

  0
LINE
  5
3C4
330
3C3
100
AcDbEntity
  8
1
  6
Continuous
 62
     3
100
AcDbLine
 10
-22.131104230391
 20
332.3198681948102
 30
0.0
 11
-22.131104230391
 21
312.3198681948102
 31
0.0
  0
LINE
  5
3C5
330
3C3
100
AcDbEntity
  8
1
  6
Continuous
 62
     3
100
AcDbLine
 10
-22.131104230391
 20
312.3198681948102
 30
0.0
 11
-22.131104230391
 21
299.8198681948091
 31
0.0
  0
LINE
  5
3C6
330
3C3
100
AcDbEntity
  8
1
  6
Continuous
 62
     3
100
AcDbLine
 10
-22.131104230391
 20
299.8198681948091
 30
0.0
 11
-22.131104230391
 21
279.8198681948091
 31
0.0
  0
LINE
  5
3C7
330
3C3
100
AcDbEntity
  8
1
  6
Continuous
 62
     3
100
AcDbLine
 10
70.72561120685201
 20
299.8198681948091
 30
0.0
 11
2.23207972912238
 21
299.8198681948091
 31
0.0
  0
LINE
  5
3C8
330
3C3
100
AcDbEntity
  8
1
  6
Continuous
 62
     3
100
AcDbLine
 10
-3.30515799098239
 20
299.8198681948091
 30
0.0
 11
-24.631104230391
 21
299.8198681948091
 31
0.0
  0
LINE
  5
3C9
330
3C3
100
AcDbEntity
  8
1
  6
Continuous
 62
     3
100
AcDbLine
 10
33.08699434899908
 20
312.3198681948102
 30
0.0
 11
-24.631104230391
 21
312.3198681948102
 31
0.0
  0
SOLID
  5
3CA
330
3C3
100
AcDbEntity
  8
1
 62
     3
100
AcDbTrace
 10
-23.44762920626496
 20
322.3198681948102
 30
0.0
 11
-20.81457925451704
 21
322.3198681948102
 31
0.0
 12
-22.131104230391
 22
312.3198681948102
 32
0.0
 13
-22.131104230391
 23
312.3198681948102
 33
0.0
  0
SOLID
  5
3CB
330
3C3
100
AcDbEntity
  8
1
 62
     3
100
AcDbTrace
 10
-20.81457925451704
 20
289.8198681948091
 30
0.0
 11
-23.44762920626496
 21
289.8198681948091
 31
0.0
 12
-22.131104230391
 22
299.8198681948091
 32
0.0
 13
-22.131104230391
 23
299.8198681948091
 33
0.0
  0
MTEXT
  5
3CC
330
3C3
100
AcDbEntity
  8
1
 62
     3
100
AcDbMText
 10
-25.256104230391
 20
298.9892644965437
 30
0.0
 40
6.25
 41
0.0
 71
     7
 72
     1
  1
12,5
  7
CONVERTER_12
 11
0.0
 21
1.0
 31
0.0
 73
     1
 44
0.60024009603842
  0
ENDBLK
  5
3CE
330
3C3
100
AcDbEntity
  8
0
100
AcDbBlockEnd
  0
BLOCK
  5
3D9
330
3D1
100
AcDbEntity
  8
0
100
AcDbBlockBegin
  2
*D44
 70
     1
 10
0.0
 20
0.0
 30
0.0
  3
*D44
  1

  0
LINE
  5
3D2
330
3D1
100
AcDbEntity
  8
1
  6
Continuous
 62
     3
100
AcDbLine
 10
-22.131104230391
 20
299.8198681948091
 30
0.0
 11
-22.131104230391
 21
262.3198681948101
 31
0.0
  0
LINE
  5
3D3
330
3D1
100
AcDbEntity
  8
1
  6
Continuous
 62
     3
100
AcDbLine
 10
20.78699434899814
 20
262.3198681948101
 30
0.0
 11
-24.631104230391
 21
262.3198681948101
 31
0.0
  0
LINE
  5
3D4
330
3D1
100
AcDbEntity
  8
1
  6
Continuous
 62
     3
100
AcDbLine
 10
70.72561120685201
 20
299.8198681948091
 30
0.0
 11
2.23207972912238
 21
299.8198681948091
 31
0.0
  0
LINE
  5
3D5
330
3D1
100
AcDbEntity
  8
1
  6
Continuous
 62
     3
100
AcDbLine
 10
-3.30515799098239
 20
299.8198681948091
 30
0.0
 11
-24.631104230391
 21
299.8198681948091
 31
0.0
  0
SOLID
  5
3D6
330
3D1
100
AcDbEntity
  8
1
 62
     3
100
AcDbTrace
 10
-20.81457925451704
 20
289.8198681948091
 30
0.0
 11
-23.44762920626496
 21
289.8198681948091
 31
0.0
 12
-22.131104230391
 22
299.8198681948091
 32
0.0
 13
-22.131104230391
 23
299.8198681948091
 33
0.0
  0
SOLID
  5
3D7
330
3D1
100
AcDbEntity
  8
1
 62
     3
100
AcDbTrace
 10
-23.44762920626496
 20
272.3198681948101
 30
0.0
 11
-20.81457925451704
 21
272.3198681948101
 31
0.0
 12
-22.131104230391
 22
262.3198681948101
 32
0.0
 13
-22.131104230391
 23
262.3198681948101
 33
0.0
  0
MTEXT
  5
3D8
330
3D1
100
AcDbEntity
  8
1
 62
     3
100
AcDbMText
 10
-25.256104230391
 20
272.4761181948096
 30
0.0
 40
6.25
 41
0.0
 71
     7
 72
     1
  1
37,5
  7
CONVERTER_12
 11
0.0
 21
1.0
 31
0.0
 73
     1
 44
0.60024009603842
  0
ENDBLK
  5
3DA
330
3D1
100
AcDbEntity
  8
0
100
AcDbBlockEnd
  0
BLOCK
  5
3E6
330
3DD
100
AcDbEntity
  8
0
100
AcDbBlockBegin
  2
*D45
 70
     1
 10
0.0
 20
0.0
 30
0.0
  3
*D45
  1

  0
LINE
  5
3DE
330
3DD
100
AcDbEntity
  8
1
  6
Continuous
 62
     3
100
AcDbLine
 10
277.1426700651105
 20
142.8198681948054
 30
0.0
 11
277.1426700651105
 21
162.8198681948054
 31
0.0
  0
LINE
  5
3DF
330
3DD
100
AcDbEntity
  8
1
  6
Continuous
 62
     3
100
AcDbLine
 10
277.1426700651105
 20
162.8198681948054
 30
0.0
 11
277.1426700651105
 21
175.8198681948109
 31
0.0
  0
LINE
  5
3E0
330
3DD
100
AcDbEntity
  8
1
  6
Continuous
 62
     3
100
AcDbLine
 10
277.1426700651105
 20
175.8198681948109
 30
0.0
 11
277.1426700651105
 21
195.8198681948109
 31
0.0
  0
LINE
  5
3E1
330
3DD
100
AcDbEntity
  8
1
  6
Continuous
 62
     3
100
AcDbLine
 10
250.0022023180478
 20
175.8198681948109
 30
0.0
 11
279.6426700651105
 21
175.8198681948109
 31
0.0
  0
LINE
  5
3E2
330
3DD
100
AcDbEntity
  8
1
  6
Continuous
 62
     3
100
AcDbLine
 10
244.5707814166795
 20
162.8198681948054
 30
0.0
 11
279.6426700651105
 21
162.8198681948054
 31
0.0
  0
SOLID
  5
3E3
330
3DD
100
AcDbEntity
  8
1
 62
     3
100
AcDbTrace
 10
278.4591950409845
 20
152.8198681948054
 30
0.0
 11
275.8261450892365
 21
152.8198681948054
 31
0.0
 12
277.1426700651105
 22
162.8198681948054
 32
0.0
 13
277.1426700651105
 23
162.8198681948054
 33
0.0
  0
SOLID
  5
3E4
330
3DD
100
AcDbEntity
  8
1
 62
     3
100
AcDbTrace
 10
275.8261450892365
 20
185.8198681948109
 30
0.0
 11
278.4591950409845
 21
185.8198681948109
 31
0.0
 12
277.1426700651105
 22
175.8198681948109
 32
0.0
 13
277.1426700651105
 23
175.8198681948109
 33
0.0
  0
MTEXT
  5
3E5
330
3DD
100
AcDbEntity
  8
1
 62
     3
100
AcDbMText
 10
274.6426700651105
 20
165.2871451275126
 30
0.0
 40
6.25
 41
0.0
 71
     7
 72
     1
  1
13
  7
CONVERTER_12
 11
0.0
 21
1.0
 31
0.0
 73
     1
 44
0.60024009603842
  0
ENDBLK
  5
3E7
330
3DD
100
AcDbEntity
  8
0
100
AcDbBlockEnd
  0
BLOCK
  5
3F1
330
3EA
100
AcDbEntity
  8
0
100
AcDbBlockBegin
  2
*D46
 70
     1
 10
0.0
 20
0.0
 30
0.0
  3
*D46
  1

  0
LINE
  5
3EB
330
3EA
100
AcDbEntity
  8
1
  6
Continuous
 62
     3
100
AcDbLine
 10
277.1426700651105
 20
175.8198681948109
 30
0.0
 11
277.1426700651105
 21
384.8198681948053
 31
0.0
  0
LINE
  5
3EC
330
3EA
100
AcDbEntity
  8
1
  6
Continuous
 62
     3
100
AcDbLine
 10
250.0691747002253
 20
384.8198681948053
 30
0.0
 11
279.6426700651105
 21
384.8198681948053
 31
0.0
  0
LINE
  5
3ED
330
3EA
100
AcDbEntity
  8
1
  6
Continuous
 62
     3
100
AcDbLine
 10
250.0022023180478
 20
175.8198681948109
 30
0.0
 11
279.6426700651105
 21
175.8198681948109
 31
0.0
  0
SOLID
  5
3EE
330
3EA
100
AcDbEntity
  8
1
 62
     3
100
AcDbTrace
 10
275.8261450892365
 20
185.8198681948109
 30
0.0
 11
278.4591950409845
 21
185.8198681948109
 31
0.0
 12
277.1426700651105
 22
175.8198681948109
 32
0.0
 13
277.1426700651105
 23
175.8198681948109
 33
0.0
  0
SOLID
  5
3EF
330
3EA
100
AcDbEntity
  8
1
 62
     3
100
AcDbTrace
 10
278.4591950409845
 20
374.8198681948053
 30
0.0
 11
275.8261450892365
 21
374.8198681948053
 31
0.0
 12
277.1426700651105
 22
384.8198681948053
 32
0.0
 13
277.1426700651105
 23
384.8198681948053
 33
0.0
  0
MTEXT
  5
3F0
330
3EA
100
AcDbEntity
  8
1
 62
     3
100
AcDbMText
 10
274.6426700651105
 20
272.8198681948081
 30
0.0
 40
6.25
 41
0.0
 71
     7
 72
     1
  1
209
  7
CONVERTER_12
 11
0.0
 21
1.0
 31
0.0
 73
     1
 44
0.60024009603842
  0
ENDBLK
  5
3F2
330
3EA
100
AcDbEntity
  8
0
100
AcDbBlockEnd
  0
BLOCK
  5
3FE
330
3F5
100
AcDbEntity
  8
0
100
AcDbBlockBegin
  2
*D47
 70
     1
 10
0.0
 20
0.0
 30
0.0
  3
*D47
  1

  0
LINE
  5
3F6
330
3F5
100
AcDbEntity
  8
1
  6
Continuous
 62
     3
100
AcDbLine
 10
70.03699434900078
 20
377.9730936711036
 30
0.0
 11
90.03699434900078
 21
377.9730936711036
 31
0.0
  0
LINE
  5
3F7
330
3F5
100
AcDbEntity
  8
1
  6
Continuous
 62
     3
100
AcDbLine
 10
90.03699434900078
 20
377.9730936711036
 30
0.0
 11
100.3369943490009
 21
377.9730936711036
 31
0.0
  0
LINE
  5
3F8
330
3F5
100
AcDbEntity
  8
1
  6
Continuous
 62
     3
100
AcDbLine
 10
100.3369943490009
 20
377.9730936711036
 30
0.0
 11
128.7565740441613
 21
377.9730936711036
 31
0.0
  0
LINE
  5
3F9
330
3F5
100
AcDbEntity
  8
1
  6
Continuous
 62
     3
100
AcDbLine
 10
100.3369943490009
 20
345.8198681948089
 30
0.0
 11
100.3369943490009
 21
380.4730936711036
 31
0.0
  0
LINE
  5
3FA
330
3F5
100
AcDbEntity
  8
1
  6
Continuous
 62
     3
100
AcDbLine
 10
90.03699434900078
 20
345.8198681948089
 30
0.0
 11
90.03699434900078
 21
380.4730936711036
 31
0.0
  0
SOLID
  5
3FB
330
3F5
100
AcDbEntity
  8
1
 62
     3
100
AcDbTrace
 10
80.03699434900078
 20
376.6565686952296
 30
0.0
 11
80.03699434900078
 21
379.2896186469775
 31
0.0
 12
90.03699434900078
 22
377.9730936711036
 32
0.0
 13
90.03699434900078
 23
377.9730936711036
 33
0.0
  0
SOLID
  5
3FC
330
3F5
100
AcDbEntity
  8
1
 62
     3
100
AcDbTrace
 10
110.3369943490009
 20
379.2896186469775
 30
0.0
 11
110.3369943490009
 21
376.6565686952296
 31
0.0
 12
100.3369943490009
 22
377.9730936711036
 32
0.0
 13
100.3369943490009
 23
377.9730936711036
 33
0.0
  0
MTEXT
  5
3FD
330
3F5
100
AcDbEntity
  8
1
 62
     3
100
AcDbMText
 10
112.0690740441764
 20
381.098081247753
 30
0.0
 40
6.25
 41
0.0
 71
     7
 72
     1
  1
\C3;%%c\C3;9,2
  7
CONVERTER_12
 11
0.9999999999970619
 21
2.424068405545306E-6
 31
0.0
 73
     1
 44
0.60024009603842
  0
ENDBLK
  5
3FF
330
3F5
100
AcDbEntity
  8
0
100
AcDbBlockEnd
  0
BLOCK
  5
40C
330
401
100
AcDbEntity
  8
0
100
AcDbBlockBegin
  2
*D48
 70
     1
 10
0.0
 20
0.0
 30
0.0
  3
*D48
  1

  0
LINE
  5
402
330
401
100
AcDbEntity
  8
1
  6
Continuous
 62
     3
100
AcDbLine
 10
51.83699434900068
 20
392.8796014795237
 30
0.0
 11
71.83699434900068
 21
392.8796014795237
 31
0.0
  0
LINE
  5
403
330
401
100
AcDbEntity
  8
1
  6
Continuous
 62
     3
100
AcDbLine
 10
71.83699434900068
 20
392.8796014795237
 30
0.0
 11
80.53699434900088
 21
392.8796014795237
 31
0.0
  0
LINE
  5
404
330
401
100
AcDbEntity
  8
1
  6
Continuous
 62
     3
100
AcDbLine
 10
80.53699434900088
 20
392.8796014795237
 30
0.0
 11
100.5369943490009
 21
392.8796014795237
 31
0.0
  0
LINE
  5
405
330
401
100
AcDbEntity
  8
1
  6
Continuous
 62
     3
100
AcDbLine
 10
80.53699434900088
 20
299.8198681948091
 30
0.0
 11
80.53699434900088
 21
374.3895307233917
 31
0.0
  0
LINE
  5
406
330
401
100
AcDbEntity
  8
1
  6
Continuous
 62
     3
100
AcDbLine
 10
80.53699434900088
 20
382.3785183777127
 30
0.0
 11
80.53699434900088
 21
395.3796014795237
 31
0.0
  0
LINE
  5
407
330
401
100
AcDbEntity
  8
1
  6
Continuous
 62
     3
100
AcDbLine
 10
71.83699434900068
 20
299.8198681948091
 30
0.0
 11
71.83699434900068
 21
373.9586242372307
 31
0.0
  0
LINE
  5
408
330
401
100
AcDbEntity
  8
1
  6
Continuous
 62
     3
100
AcDbLine
 10
71.83699434900068
 20
381.3210549499507
 30
0.0
 11
71.83699434900068
 21
395.3796014795237
 31
0.0
  0
SOLID
  5
409
330
401
100
AcDbEntity
  8
1
 62
     3
100
AcDbTrace
 10
61.83699434900068
 20
391.5630765036498
 30
0.0
 11
61.83699434900068
 21
394.1961264553977
 31
0.0
 12
71.83699434900068
 22
392.8796014795237
 32
0.0
 13
71.83699434900068
 23
392.8796014795237
 33
0.0
  0
SOLID
  5
40A
330
401
100
AcDbEntity
  8
1
 62
     3
100
AcDbTrace
 10
90.53699434900088
 20
394.1961264553977
 30
0.0
 11
90.53699434900088
 21
391.5630765036498
 31
0.0
 12
80.53699434900088
 22
392.8796014795237
 32
0.0
 13
80.53699434900088
 23
392.8796014795237
 33
0.0
  0
MTEXT
  5
40B
330
401
100
AcDbEntity
  8
1
 62
     3
100
AcDbMText
 10
54.68457306931034
 20
396.0045890561731
 30
0.0
 40
6.25
 41
0.0
 71
     7
 72
     1
  1
\C3;%%c\C3;7,2
  7
CONVERTER_12
 11
0.9999999999970619
 21
2.424068405545306E-6
 31
0.0
 73
     1
 44
0.60024009603842
  0
ENDBLK
  5
40D
330
401
100
AcDbEntity
  8
0
100
AcDbBlockEnd
  0
BLOCK
  5
418
330
40F
100
AcDbEntity
  8
0
100
AcDbBlockBegin
  2
*D49
 70
     1
 10
0.0
 20
0.0
 30
0.0
  3
*D49
  1

  0
LINE
  5
410
330
40F
100
AcDbEntity
  8
1
  6
Continuous
 62
     3
100
AcDbLine
 10
67.78679278872887
 20
249.5383072700077
 30
0.0
 11
90.58699434900062
 21
249.5383072700077
 31
0.0
  0
LINE
  5
411
330
40F
100
AcDbEntity
  8
1
  6
Continuous
 62
     3
100
AcDbLine
 10
90.58699434900062
 20
249.5383072700077
 30
0.0
 11
99.78699434900089
 21
249.5383072700077
 31
0.0
  0
LINE
  5
412
330
40F
100
AcDbEntity
  8
1
  6
Continuous
 62
     3
100
AcDbLine
 10
99.78699434900089
 20
249.5383072700077
 30
0.0
 11
119.7869943490009
 21
249.5383072700077
 31
0.0
  0
LINE
  5
413
330
40F
100
AcDbEntity
  8
1
  6
Continuous
 62
     3
100
AcDbLine
 10
99.78699434900089
 20
278.3198681948091
 30
0.0
 11
99.78699434900089
 21
247.0383072700077
 31
0.0
  0
LINE
  5
414
330
40F
100
AcDbEntity
  8
1
  6
Continuous
 62
     3
100
AcDbLine
 10
90.58699434900062
 20
278.3198681948091
 30
0.0
 11
90.58699434900062
 21
247.0383072700077
 31
0.0
  0
SOLID
  5
415
330
40F
100
AcDbEntity
  8
1
 62
     3
100
AcDbTrace
 10
80.58699434900062
 20
248.2217822941337
 30
0.0
 11
80.58699434900062
 21
250.8548322458817
 31
0.0
 12
90.58699434900062
 22
249.5383072700077
 32
0.0
 13
90.58699434900062
 23
249.5383072700077
 33
0.0
  0
SOLID
  5
416
330
40F
100
AcDbEntity
  8
1
 62
     3
100
AcDbTrace
 10
109.7869943490009
 20
250.8548322458817
 30
0.0
 11
109.7869943490009
 21
248.2217822941337
 31
0.0
 12
99.78699434900089
 22
249.5383072700077
 32
0.0
 13
99.78699434900089
 23
249.5383072700077
 33
0.0
  0
MTEXT
  5
417
330
40F
100
AcDbEntity
  8
1
 62
     3
100
AcDbMText
 10
70.16179278874394
 20
252.6632948466571
 30
0.0
 40
6.25
 41
0.0
 71
     7
 72
     1
  1
\C3;%%c\C3;8,6
  7
CONVERTER_12
 11
0.9999999999970619
 21
2.424068405545306E-6
 31
0.0
 73
     1
 44
0.60024009603842
  0
ENDBLK
  5
419
330
40F
100
AcDbEntity
  8
0
100
AcDbBlockEnd
  0
BLOCK
  5
424
330
41B
100
AcDbEntity
  8
0
100
AcDbBlockBegin
  2
*D50
 70
     1
 10
0.0
 20
0.0
 30
0.0
  3
*D50
  1

  0
LINE
  5
41C
330
41B
100
AcDbEntity
  8
1
  6
Continuous
 62
     3
100
AcDbLine
 10
48.58442042544475
 20
182.1250969414782
 30
0.0
 11
72.08699434900068
 21
182.1250969414782
 31
0.0
  0
LINE
  5
41D
330
41B
100
AcDbEntity
  8
1
  6
Continuous
 62
     3
100
AcDbLine
 10
72.08699434900068
 20
182.1250969414782
 30
0.0
 11
80.28699434900089
 21
182.1250969414782
 31
0.0
  0
LINE
  5
41E
330
41B
100
AcDbEntity
  8
1
  6
Continuous
 62
     3
100
AcDbLine
 10
80.28699434900089
 20
182.1250969414782
 30
0.0
 11
100.2869943490009
 21
182.1250969414782
 31
0.0
  0
LINE
  5
41F
330
41B
100
AcDbEntity
  8
1
  6
Continuous
 62
     3
100
AcDbLine
 10
80.28699434900089
 20
219.8198681948091
 30
0.0
 11
80.28699434900089
 21
179.6250969414782
 31
0.0
  0
LINE
  5
420
330
41B
100
AcDbEntity
  8
1
  6
Continuous
 62
     3
100
AcDbLine
 10
72.08699434900068
 20
219.8198681948091
 30
0.0
 11
72.08699434900068
 21
179.6250969414782
 31
0.0
  0
SOLID
  5
421
330
41B
100
AcDbEntity
  8
1
 62
     3
100
AcDbTrace
 10
62.08699434900068
 20
180.8085719656042
 30
0.0
 11
62.08699434900068
 21
183.4416219173522
 31
0.0
 12
72.08699434900068
 22
182.1250969414782
 32
0.0
 13
72.08699434900068
 23
182.1250969414782
 33
0.0
  0
SOLID
  5
422
330
41B
100
AcDbEntity
  8
1
 62
     3
100
AcDbTrace
 10
90.28699434900089
 20
183.4416219173522
 30
0.0
 11
90.28699434900089
 21
180.8085719656042
 31
0.0
 12
80.28699434900089
 22
182.1250969414782
 32
0.0
 13
80.28699434900089
 23
182.1250969414782
 33
0.0
  0
MTEXT
  5
423
330
41B
100
AcDbEntity
  8
1
 62
     3
100
AcDbMText
 10
50.9594204254598
 20
185.2500845181276
 30
0.0
 40
6.25
 41
0.0
 71
     7
 72
     1
  1
\C3;%%c\C3;7,2
  7
CONVERTER_12
 11
0.9999999999970619
 21
2.424068405545306E-6
 31
0.0
 73
     1
 44
0.60024009603842
  0
ENDBLK
  5
425
330
41B
100
AcDbEntity
  8
0
100
AcDbBlockEnd
  0
BLOCK
  5
430
330
427
100
AcDbEntity
  8
0
100
AcDbBlockBegin
  2
*D51
 70
     1
 10
0.0
 20
0.0
 30
0.0
  3
*D51
  1

  0
LINE
  5
428
330
427
100
AcDbEntity
  8
1
  6
Continuous
 62
     3
100
AcDbLine
 10
211.9612978637575
 20
147.7333067013218
 30
0.0
 11
241.8707814166769
 21
147.7333067013218
 31
0.0
  0
LINE
  5
429
330
427
100
AcDbEntity
  8
1
  6
Continuous
 62
     3
100
AcDbLine
 10
241.8707814166769
 20
147.7333067013218
 30
0.0
 11
247.2707814166766
 21
147.7333067013218
 31
0.0
  0
LINE
  5
42A
330
427
100
AcDbEntity
  8
1
  6
Continuous
 62
     3
100
AcDbLine
 10
247.2707814166766
 20
147.7333067013218
 30
0.0
 11
267.2707814166766
 21
147.7333067013218
 31
0.0
  0
LINE
  5
42B
330
427
100
AcDbEntity
  8
1
  6
Continuous
 62
     3
100
AcDbLine
 10
247.2707814166766
 20
175.8198681948073
 30
0.0
 11
247.2707814166766
 21
145.2333067013218
 31
0.0
  0
LINE
  5
42C
330
427
100
AcDbEntity
  8
1
  6
Continuous
 62
     3
100
AcDbLine
 10
241.8707814166769
 20
175.8198681948073
 30
0.0
 11
241.8707814166769
 21
145.2333067013218
 31
0.0
  0
SOLID
  5
42D
330
427
100
AcDbEntity
  8
1
 62
     3
100
AcDbTrace
 10
231.8707814166769
 20
146.4167817254478
 30
0.0
 11
231.8707814166769
 21
149.0498316771958
 31
0.0
 12
241.8707814166769
 22
147.7333067013218
 32
0.0
 13
241.8707814166769
 23
147.7333067013218
 33
0.0
  0
SOLID
  5
42E
330
427
100
AcDbEntity
  8
1
 62
     3
100
AcDbTrace
 10
257.2707814166766
 20
149.0498316771958
 30
0.0
 11
257.2707814166766
 21
146.4167817254478
 31
0.0
 12
247.2707814166766
 22
147.7333067013218
 32
0.0
 13
247.2707814166766
 23
147.7333067013218
 33
0.0
  0
MTEXT
  5
42F
330
427
100
AcDbEntity
  8
1
 62
     3
100
AcDbMText
 10
214.3362978637726
 20
150.8582942779712
 30
0.0
 40
6.25
 41
0.0
 71
     7
 72
     1
  1
\C3;%%c\C3;5,4
  7
CONVERTER_12
 11
0.9999999999970619
 21
2.424068405545306E-6
 31
0.0
 73
     1
 44
0.60024009603842
  0
ENDBLK
  5
431
330
427
100
AcDbEntity
  8
0
100
AcDbBlockEnd
  0
ENDSEC
  0
SECTION
  2
ENTITIES
  0
INSERT
  5
7C
330
1F
100
AcDbEntity
  8
1
100
AcDbBlockReference
  2
1
 10
0.0
 20
0.0
 30
0.0
  0
ENDSEC
  0
SECTION
  2
OBJECTS
  0
DICTIONARY
  5
C
330
0
100
AcDbDictionary
281
     1
  3
ACAD_GROUP
350
D
  3
ACAD_LAYOUT
350
1A
  3
ACAD_MATERIAL
350
3B
  3
ACAD_MLEADERSTYLE
350
540
  3
ACAD_MLINESTYLE
350
17
  3
ACAD_PLOTSETTINGS
350
19
  3
ACAD_PLOTSTYLENAME
350
E
  3
ACAD_SCALELIST
350
52
  3
ACAD_TABLESTYLE
350
53F
  3
ACAD_VISUALSTYLE
350
2A
  3
AcDbVariableDictionary
350
517
  0
DICTIONARY
  5
D
102
{ACAD_REACTORS
330
C
102
}
330
C
100
AcDbDictionary
281
     1
  0
DICTIONARY
  5
1A
102
{ACAD_REACTORS
330
C
102
}
330
C
100
AcDbDictionary
281
     1
  3
Layout1
350
1E
  3
Layout2
350
26
  3
Model
350
22
  0
DICTIONARY
  5
3B
102
{ACAD_REACTORS
330
C
102
}
330
C
100
AcDbDictionary
281
     1
  3
ByBlock
350
3D
  3
ByLayer
350
3C
  3
Global
350
3E
  0
DICTIONARY
  5
540
102
{ACAD_REACTORS
330
C
102
}
330
C
100
AcDbDictionary
281
     1
  0
DICTIONARY
  5
17
102
{ACAD_REACTORS
330
C
102
}
330
C
100
AcDbDictionary
281
     1
  3
Standard
350
18
  0
DICTIONARY
  5
19
102
{ACAD_REACTORS
330
C
102
}
330
C
100
AcDbDictionary
281
     1
  0
ACDBDICTIONARYWDFLT
  5
E
102
{ACAD_REACTORS
330
C
102
}
330
C
100
AcDbDictionary
281
     1
  3
Normal
350
F
100
AcDbDictionaryWithDefault
340
F
  0
DICTIONARY
  5
52
102
{ACAD_REACTORS
330
C
102
}
330
C
100
AcDbDictionary
281
     1
  3
A0
350
53
  3
A1
350
54
  3
A2
350
55
  3
A3
350
56
  3
A4
350
57
  3
A5
350
58
  3
A6
350
59
  3
A7
350
5A
  3
A8
350
5B
  3
A9
350
5C
  3
B0
350
5D
  3
B1
350
5E
  3
B2
350
5F
  3
B3
350
60
  3
B4
350
61
  3
B5
350
62
  3
B6
350
63
  3
B7
350
64
  3
B8
350
65
  3
B9
350
66
  3
C0
350
67
  3
C1
350
68
  3
C2
350
69
  3
C3
350
6A
  3
C4
350
6B
  3
C5
350
6C
  3
C6
350
6D
  3
C7
350
6E
  3
C8
350
6F
  3
C9
350
70
  3
D0
350
71
  3
D1
350
72
  3
D2
350
73
  0
DICTIONARY
  5
53F
102
{ACAD_REACTORS
330
C
102
}
330
C
100
AcDbDictionary
281
     1
  0
DICTIONARY
  5
2A
102
{ACAD_REACTORS
330
C
102
}
330
C
100
AcDbDictionary
281
     1
  3
2dWireframe
350
2F
  3
3D Hidden
350
31
  3
3dWireframe
350
30
  3
Basic
350
32
  3
Brighten
350
36
  3
ColorChange
350
3A
  3
Conceptual
350
34
  3
Dim
350
35
  3
Facepattern
350
39
  3
Flat
350
2B
  3
FlatWithEdges
350
2C
  3
Gouraud
350
2D
  3
GouraudWithEdges
350
2E
  3
Linepattern
350
38
  3
Realistic
350
33
  3
Thicken
350
37
  0
DICTIONARY
  5
517
102
{ACAD_REACTORS
330
C
102
}
330
C
100
AcDbDictionary
281
     1
  3
CANNOSCALE
350
518
  0
LAYOUT
  5
1E
102
{ACAD_REACTORS
330
1A
102
}
330
1A
100
AcDbPlotSettings
  1

  2
none_device
  4

  6

 40
0.0
 41
0.0
 42
0.0
 43
0.0
 44
0.0
 45
0.0
 46
0.0
 47
0.0
 48
0.0
 49
0.0
140
0.0
141
0.0
142
1.0
143
1.0
 70
   688
 72
     0
 73
     0
 74
     5
  7

 75
    16
 76
     0
 77
     2
 78
   300
147
1.0
148
0.0
149
0.0
100
AcDbLayout
  1
Layout1
 70
     1
 71
     1
 10
0.0
 20
0.0
 11
12.0
 21
9.0
 12
0.0
 22
0.0
 32
0.0
 14
1.00000000000000E+20
 24
1.00000000000000E+20
 34
1.00000000000000E+20
 15
-1.00000000000000E+20
 25
-1.00000000000000E+20
 35
-1.00000000000000E+20
146
0.0
 13
0.0
 23
0.0
 33
0.0
 16
1.0
 26
0.0
 36
0.0
 17
0.0
 27
1.0
 37
0.0
 76
     0
330
1B
  0
LAYOUT
  5
26
102
{ACAD_REACTORS
330
1A
102
}
330
1A
100
AcDbPlotSettings
  1

  2
none_device
  4

  6

 40
0.0
 41
0.0
 42
0.0
 43
0.0
 44
0.0
 45
0.0
 46
0.0
 47
0.0
 48
0.0
 49
0.0
140
0.0
141
0.0
142
1.0
143
1.0
 70
   688
 72
     0
 73
     0
 74
     5
  7

 75
    16
 76
     0
 77
     2
 78
   300
147
1.0
148
0.0
149
0.0
100
AcDbLayout
  1
Layout2
 70
     1
 71
     2
 10
0.0
 20
0.0
 11
0.0
 21
0.0
 12
0.0
 22
0.0
 32
0.0
 14
0.0
 24
0.0
 34
0.0
 15
0.0
 25
0.0
 35
0.0
146
0.0
 13
0.0
 23
0.0
 33
0.0
 16
1.0
 26
0.0
 36
0.0
 17
0.0
 27
1.0
 37
0.0
 76
     0
330
23
  0
LAYOUT
  5
22
102
{ACAD_REACTORS
330
1A
102
}
330
1A
100
AcDbPlotSettings
  1

  2
none_device
  4

  6

 40
0.0
 41
0.0
 42
0.0
 43
0.0
 44
0.0
 45
0.0
 46
0.0
 47
0.0
 48
0.0
 49
0.0
140
0.0
141
0.0
142
1.0
143
1.0
 70
  1712
 72
     0
 73
     0
 74
     0
  7

 75
     0
 76
     0
 77
     2
 78
   300
147
1.0
148
0.0
149
0.0
100
AcDbLayout
  1
Model
 70
     1
 71
     0
 10
0.0
 20
0.0
 11
12.0
 21
9.0
 12
0.0
 22
0.0
 32
0.0
 14
-43.75539401113929
 24
-95.28725543175824
 34
0.0
 15
166.2446059888607
 25
201.7127445682418
 35
0.0
146
0.0
 13
0.0
 23
0.0
 33
0.0
 16
1.0
 26
0.0
 36
0.0
 17
0.0
 27
1.0
 37
0.0
 76
     0
330
1F
331
29
  0
MATERIAL
  5
3D
102
{ACAD_REACTORS
330
3B
102
}
102
{ACAD_XDICTIONARY
360
53B
102
}
330
3B
100
AcDbMaterial
  1
ByBlock
  0
MATERIAL
  5
3C
102
{ACAD_REACTORS
330
3B
102
}
102
{ACAD_XDICTIONARY
360
539
102
}
330
3B
100
AcDbMaterial
  1
ByLayer
  0
MATERIAL
  5
3E
102
{ACAD_REACTORS
330
3B
102
}
102
{ACAD_XDICTIONARY
360
53D
102
}
330
3B
100
AcDbMaterial
  1
Global
  0
MLINESTYLE
  5
18
102
{ACAD_REACTORS
330
17
102
}
330
17
100
AcDbMlineStyle
  2
Standard
 70
     0
  3

 62
   256
 51
90.0
 52
90.0
 71
     2
 49
0.5
 62
   256
  6
BYLAYER
 49
-0.5
 62
   256
  6
BYLAYER
  0
ACDBPLACEHOLDER
  5
F
102
{ACAD_REACTORS
330
E
102
}
330
E
  0
SCALE
  5
53
102
{ACAD_REACTORS
330
52
102
}
330
52
100
AcDbScale
 70
     0
300
1:1
140
1.0
141
1.0
290
     1
  0
SCALE
  5
54
102
{ACAD_REACTORS
330
52
102
}
330
52
100
AcDbScale
 70
     0
300
1:2
140
1.0
141
2.0
290
     0
  0
SCALE
  5
55
102
{ACAD_REACTORS
330
52
102
}
330
52
100
AcDbScale
 70
     0
300
1:4
140
1.0
141
4.0
290
     0
  0
SCALE
  5
56
102
{ACAD_REACTORS
330
52
102
}
330
52
100
AcDbScale
 70
     0
300
1:5
140
1.0
141
5.0
290
     0
  0
SCALE
  5
57
102
{ACAD_REACTORS
330
52
102
}
330
52
100
AcDbScale
 70
     0
300
1:8
140
1.0
141
8.0
290
     0
  0
SCALE
  5
58
102
{ACAD_REACTORS
330
52
102
}
330
52
100
AcDbScale
 70
     0
300
1:10
140
1.0
141
10.0
290
     0
  0
SCALE
  5
59
102
{ACAD_REACTORS
330
52
102
}
330
52
100
AcDbScale
 70
     0
300
1:16
140
1.0
141
16.0
290
     0
  0
SCALE
  5
5A
102
{ACAD_REACTORS
330
52
102
}
330
52
100
AcDbScale
 70
     0
300
1:20
140
1.0
141
20.0
290
     0
  0
SCALE
  5
5B
102
{ACAD_REACTORS
330
52
102
}
330
52
100
AcDbScale
 70
     0
300
1:30
140
1.0
141
30.0
290
     0
  0
SCALE
  5
5C
102
{ACAD_REACTORS
330
52
102
}
330
52
100
AcDbScale
 70
     0
300
1:40
140
1.0
141
40.0
290
     0
  0
SCALE
  5
5D
102
{ACAD_REACTORS
330
52
102
}
330
52
100
AcDbScale
 70
     0
300
1:50
140
1.0
141
50.0
290
     0
  0
SCALE
  5
5E
102
{ACAD_REACTORS
330
52
102
}
330
52
100
AcDbScale
 70
     0
300
1:100
140
1.0
141
100.0
290
     0
  0
SCALE
  5
5F
102
{ACAD_REACTORS
330
52
102
}
330
52
100
AcDbScale
 70
     0
300
2:1
140
2.0
141
1.0
290
     0
  0
SCALE
  5
60
102
{ACAD_REACTORS
330
52
102
}
330
52
100
AcDbScale
 70
     0
300
4:1
140
4.0
141
1.0
290
     0
  0
SCALE
  5
61
102
{ACAD_REACTORS
330
52
102
}
330
52
100
AcDbScale
 70
     0
300
8:1
140
8.0
141
1.0
290
     0
  0
SCALE
  5
62
102
{ACAD_REACTORS
330
52
102
}
330
52
100
AcDbScale
 70
     0
300
10:1
140
10.0
141
1.0
290
     0
  0
SCALE
  5
63
102
{ACAD_REACTORS
330
52
102
}
330
52
100
AcDbScale
 70
     0
300
100:1
140
100.0
141
1.0
290
     0
  0
SCALE
  5
64
102
{ACAD_REACTORS
330
52
102
}
330
52
100
AcDbScale
 70
     0
300
1/128" = 1'-0"
140
0.0078125
141
12.0
290
     0
  0
SCALE
  5
65
102
{ACAD_REACTORS
330
52
102
}
330
52
100
AcDbScale
 70
     0
300
1/64" = 1'-0"
140
0.015625
141
12.0
290
     0
  0
SCALE
  5
66
102
{ACAD_REACTORS
330
52
102
}
330
52
100
AcDbScale
 70
     0
300
1/32" = 1'-0"
140
0.03125
141
12.0
290
     0
  0
SCALE
  5
67
102
{ACAD_REACTORS
330
52
102
}
330
52
100
AcDbScale
 70
     0
300
1/16" = 1'-0"
140
0.0625
141
12.0
290
     0
  0
SCALE
  5
68
102
{ACAD_REACTORS
330
52
102
}
330
52
100
AcDbScale
 70
     0
300
3/32" = 1'-0"
140
0.09375
141
12.0
290
     0
  0
SCALE
  5
69
102
{ACAD_REACTORS
330
52
102
}
330
52
100
AcDbScale
 70
     0
300
1/8" = 1'-0"
140
0.125
141
12.0
290
     0
  0
SCALE
  5
6A
102
{ACAD_REACTORS
330
52
102
}
330
52
100
AcDbScale
 70
     0
300
3/16" = 1'-0"
140
0.1875
141
12.0
290
     0
  0
SCALE
  5
6B
102
{ACAD_REACTORS
330
52
102
}
330
52
100
AcDbScale
 70
     0
300
1/4" = 1'-0"
140
0.25
141
12.0
290
     0
  0
SCALE
  5
6C
102
{ACAD_REACTORS
330
52
102
}
330
52
100
AcDbScale
 70
     0
300
3/8" = 1'-0"
140
0.375
141
12.0
290
     0
  0
SCALE
  5
6D
102
{ACAD_REACTORS
330
52
102
}
330
52
100
AcDbScale
 70
     0
300
1/2" = 1'-0"
140
0.5
141
12.0
290
     0
  0
SCALE
  5
6E
102
{ACAD_REACTORS
330
52
102
}
330
52
100
AcDbScale
 70
     0
300
3/4" = 1'-0"
140
0.75
141
12.0
290
     0
  0
SCALE
  5
6F
102
{ACAD_REACTORS
330
52
102
}
330
52
100
AcDbScale
 70
     0
300
1" = 1'-0"
140
1.0
141
12.0
290
     0
  0
SCALE
  5
70
102
{ACAD_REACTORS
330
52
102
}
330
52
100
AcDbScale
 70
     0
300
1-1/2" = 1'-0"
140
1.5
141
12.0
290
     0
  0
SCALE
  5
71
102
{ACAD_REACTORS
330
52
102
}
330
52
100
AcDbScale
 70
     0
300
3" = 1'-0"
140
3.0
141
12.0
290
     0
  0
SCALE
  5
72
102
{ACAD_REACTORS
330
52
102
}
330
52
100
AcDbScale
 70
     0
300
6" = 1'-0"
140
6.0
141
12.0
290
     0
  0
SCALE
  5
73
102
{ACAD_REACTORS
330
52
102
}
330
52
100
AcDbScale
 70
     0
300
1'-0" = 1'-0"
140
12.0
141
12.0
290
     0
  0
VISUALSTYLE
  5
2F
102
{ACAD_REACTORS
330
2A
102
}
102
{ACAD_XDICTIONARY
360
521
102
}
330
2A
100
AcDbVisualStyle
  2
2dWireframe
 70
     4
 71
     0
 72
     2
 73
     0
 90
        0
 40
-0.6
 41
-30.0
 62
     5
 63
     7
421
 16777215
 74
     1
 91
        4
 64
     7
 65
   257
 75
     1
175
     1
 42
1.0
 92
        0
 66
   257
 43
1.0
 76
     1
 77
     6
 78
     2
 67
     7
 79
     5
170
     0
171
     0
290
     0
174
     0
 93
        1
 44
0.0
173
     0
291
     0
 45
0.0
1001
ACAD
1000
AcDbSavedByObjectVersion
1070
     0
  0
VISUALSTYLE
  5
31
102
{ACAD_REACTORS
330
2A
102
}
102
{ACAD_XDICTIONARY
360
525
102
}
330
2A
100
AcDbVisualStyle
  2
3D Hidden
 70
     6
 71
     1
 72
     2
 73
     2
 90
        0
 40
-0.6
 41
-30.0
 62
     5
 63
     7
421
 16777215
 74
     2
 91
        2
 64
     7
 65
   257
 75
     2
175
     1
 42
40.0
 92
        0
 66
   257
 43
1.0
 76
     1
 77
     6
 78
     2
 67
     7
 79
     3
170
     0
171
     0
290
     0
174
     0
 93
        1
 44
0.0
173
     0
291
     0
 45
0.0
1001
ACAD
1000
AcDbSavedByObjectVersion
1070
     0
  0
VISUALSTYLE
  5
30
102
{ACAD_REACTORS
330
2A
102
}
102
{ACAD_XDICTIONARY
360
523
102
}
330
2A
100
AcDbVisualStyle
  2
3dWireframe
 70
     5
 71
     0
 72
     2
 73
     0
 90
        0
 40
-0.6
 41
-30.0
 62
     5
 63
     7
421
 16777215
 74
     1
 91
        4
 64
     7
 65
   257
 75
     1
175
     1
 42
1.0
 92
        0
 66
   257
 43
1.0
 76
     1
 77
     6
 78
     2
 67
     7
 79
     5
170
     0
171
     0
290
     0
174
     0
 93
        1
 44
0.0
173
     0
291
     0
 45
0.0
1001
ACAD
1000
AcDbSavedByObjectVersion
1070
     0
  0
VISUALSTYLE
  5
32
102
{ACAD_REACTORS
330
2A
102
}
102
{ACAD_XDICTIONARY
360
527
102
}
330
2A
100
AcDbVisualStyle
  2
Basic
 70
     7
 71
     1
 72
     0
 73
     1
 90
        0
 40
-0.6
 41
-30.0
 62
     5
 63
     7
421
 16777215
 74
     0
 91
        4
 64
     7
 65
   257
 75
     1
175
     1
 42
1.0
 92
        8
 66
     7
 43
1.0
 76
     1
 77
     6
 78
     2
 67
     7
 79
     5
170
     0
171
     0
290
     0
174
     0
 93
        1
 44
0.0
173
     0
291
     1
 45
0.0
1001
ACAD
1000
AcDbSavedByObjectVersion
1070
     0
  0
VISUALSTYLE
  5
36
102
{ACAD_REACTORS
330
2A
102
}
102
{ACAD_XDICTIONARY
360
52F
102
}
330
2A
100
AcDbVisualStyle
  2
Brighten
 70
    12
 71
     2
 72
     2
 73
     0
 90
        0
 40
-0.6
 41
-30.0
 62
     5
 63
     7
421
 16777215
 74
     1
 91
        4
 64
     7
 65
   257
 75
     1
175
     1
 42
1.0
 92
        8
 66
     7
 43
1.0
 76
     1
 77
     6
 78
     2
 67
     7
 79
     5
170
     0
171
     0
290
     0
174
     0
 93
        1
 44
50.0
173
     0
291
     1
 45
0.0
1001
ACAD
1000
AcDbSavedByObjectVersion
1070
     0
  0
VISUALSTYLE
  5
3A
102
{ACAD_REACTORS
330
2A
102
}
102
{ACAD_XDICTIONARY
360
537
102
}
330
2A
100
AcDbVisualStyle
  2
ColorChange
 70
    16
 71
     2
 72
     2
 73
     3
 90
        0
 40
-0.6
 41
-30.0
 62
     5
 63
     8
421
  8421504
 74
     1
 91
        4
 64
     7
 65
   257
 75
     1
175
     1
 42
1.0
 92
        8
 66
     8
424
  8421504
 43
1.0
 76
     1
 77
     6
 78
     2
 67
     7
 79
     5
170
     0
171
     0
290
     0
174
     0
 93
        1
 44
0.0
173
     0
291
     1
 45
0.0
1001
ACAD
1000
AcDbSavedByObjectVersion
1070
     0
  0
VISUALSTYLE
  5
34
102
{ACAD_REACTORS
330
2A
102
}
102
{ACAD_XDICTIONARY
360
52B
102
}
330
2A
100
AcDbVisualStyle
  2
Conceptual
 70
     9
 71
     3
 72
     2
 73
     0
 90
        0
 40
-0.6
 41
-30.0
 62
     5
 63
     7
421
 16777215
 74
     2
 91
        2
 64
     7
 65
   257
 75
     1
175
     1
 42
40.0
 92
        8
 66
     7
 43
1.0
 76
     1
 77
     6
 78
     2
 67
     7
 79
     3
170
     0
171
     0
290
     0
174
     0
 93
        1
 44
0.0
173
     0
291
     0
 45
0.0
1001
ACAD
1000
AcDbSavedByObjectVersion
1070
     0
  0
VISUALSTYLE
  5
35
102
{ACAD_REACTORS
330
2A
102
}
102
{ACAD_XDICTIONARY
360
52D
102
}
330
2A
100
AcDbVisualStyle
  2
Dim
 70
    11
 71
     2
 72
     2
 73
     0
 90
        0
 40
-0.6
 41
-30.0
 62
     5
 63
     7
421
 16777215
 74
     1
 91
        4
 64
     7
 65
   257
 75
     1
175
     1
 42
1.0
 92
        8
 66
     7
 43
1.0
 76
     1
 77
     6
 78
     2
 67
     7
 79
     5
170
     0
171
     0
290
     0
174
     0
 93
        1
 44
-50.0
173
     0
291
     1
 45
0.0
1001
ACAD
1000
AcDbSavedByObjectVersion
1070
     0
  0
VISUALSTYLE
  5
39
102
{ACAD_REACTORS
330
2A
102
}
102
{ACAD_XDICTIONARY
360
535
102
}
330
2A
100
AcDbVisualStyle
  2
Facepattern
 70
    15
 71
     2
 72
     2
 73
     0
 90
        0
 40
-0.6
 41
-30.0
 62
     5
 63
     7
421
 16777215
 74
     1
 91
        4
 64
     7
 65
   257
 75
     1
175
     1
 42
1.0
 92
        8
 66
     7
 43
1.0
 76
     1
 77
     6
 78
     2
 67
     7
 79
     5
170
     0
171
     0
290
     0
174
     0
 93
        1
 44
0.0
173
     0
291
     1
 45
0.0
1001
ACAD
1000
AcDbSavedByObjectVersion
1070
     0
  0
VISUALSTYLE
  5
2B
102
{ACAD_REACTORS
330
2A
102
}
102
{ACAD_XDICTIONARY
360
519
102
}
330
2A
100
AcDbVisualStyle
  2
Flat
 70
     0
 71
     2
 72
     1
 73
     1
 90
        2
 40
-0.6
 41
30.0
 62
     5
 63
     7
421
 16777215
 74
     0
 91
        4
 64
     7
 65
   257
 75
     1
175
     1
 42
1.0
 92
        8
 66
     7
 43
1.0
 76
     1
 77
     6
 78
     2
 67
     7
 79
     5
170
     0
171
     0
290
     0
174
     0
 93
       13
 44
0.0
173
     0
291
     1
 45
0.0
1001
ACAD
1000
AcDbSavedByObjectVersion
1070
     0
  0
VISUALSTYLE
  5
2C
102
{ACAD_REACTORS
330
2A
102
}
102
{ACAD_XDICTIONARY
360
51B
102
}
330
2A
100
AcDbVisualStyle
  2
FlatWithEdges
 70
     1
 71
     2
 72
     1
 73
     1
 90
        2
 40
-0.6
 41
30.0
 62
     5
 63
     7
421
 16777215
 74
     1
 91
        4
 64
     7
 65
   257
 75
     1
175
     1
 42
1.0
 92
        0
 66
   257
 43
1.0
 76
     1
 77
     6
 78
     2
 67
     7
 79
     5
170
     0
171
     0
290
     0
174
     0
 93
       13
 44
0.0
173
     0
291
     1
 45
0.0
1001
ACAD
1000
AcDbSavedByObjectVersion
1070
     0
  0
VISUALSTYLE
  5
2D
102
{ACAD_REACTORS
330
2A
102
}
102
{ACAD_XDICTIONARY
360
51D
102
}
330
2A
100
AcDbVisualStyle
  2
Gouraud
 70
     2
 71
     2
 72
     2
 73
     1
 90
        2
 40
-0.6
 41
30.0
 62
     5
 63
     7
421
 16777215
 74
     0
 91
        4
 64
     7
 65
   257
 75
     1
175
     1
 42
1.0
 92
        0
 66
     7
 43
1.0
 76
     1
 77
     6
 78
     2
 67
     7
 79
     5
170
     0
171
     0
290
     0
174
     0
 93
       13
 44
0.0
173
     0
291
     1
 45
0.0
1001
ACAD
1000
AcDbSavedByObjectVersion
1070
     0
  0
VISUALSTYLE
  5
2E
102
{ACAD_REACTORS
330
2A
102
}
102
{ACAD_XDICTIONARY
360
51F
102
}
330
2A
100
AcDbVisualStyle
  2
GouraudWithEdges
 70
     3
 71
     2
 72
     2
 73
     1
 90
        2
 40
-0.6
 41
30.0
 62
     5
 63
     7
421
 16777215
 74
     1
 91
        4
 64
     7
 65
   257
 75
     1
175
     1
 42
1.0
 92
        0
 66
   257
 43
1.0
 76
     1
 77
     6
 78
     2
 67
     7
 79
     5
170
     0
171
     0
290
     0
174
     0
 93
       13
 44
0.0
173
     0
291
     1
 45
0.0
1001
ACAD
1000
AcDbSavedByObjectVersion
1070
     0
  0
VISUALSTYLE
  5
38
102
{ACAD_REACTORS
330
2A
102
}
102
{ACAD_XDICTIONARY
360
533
102
}
330
2A
100
AcDbVisualStyle
  2
Linepattern
 70
    14
 71
     2
 72
     2
 73
     0
 90
        0
 40
-0.6
 41
-30.0
 62
     5
 63
     7
421
 16777215
 74
     1
 91
        4
 64
     7
 65
   257
 75
     7
175
     7
 42
1.0
 92
        8
 66
     7
 43
1.0
 76
     1
 77
     6
 78
     2
 67
     7
 79
     5
170
     0
171
     0
290
     0
174
     0
 93
        1
 44
0.0
173
     0
291
     1
 45
0.0
1001
ACAD
1000
AcDbSavedByObjectVersion
1070
     0
  0
VISUALSTYLE
  5
33
102
{ACAD_REACTORS
330
2A
102
}
102
{ACAD_XDICTIONARY
360
529
102
}
330
2A
100
AcDbVisualStyle
  2
Realistic
 70
     8
 71
     2
 72
     2
 73
     0
 90
        0
 40
-0.6
 41
-30.0
 62
     5
 63
     7
421
 16777215
 74
     1
 91
        0
 64
     7
 65
   257
 75
     1
175
     1
 42
1.0
 92
        8
 66
     8
424
  7895160
 43
1.0
 76
     1
 77
     6
 78
     2
 67
     7
 79
     5
170
     0
171
     0
290
     0
174
     0
 93
       13
 44
0.0
173
     0
291
     0
 45
0.0
1001
ACAD
1000
AcDbSavedByObjectVersion
1070
     0
  0
VISUALSTYLE
  5
37
102
{ACAD_REACTORS
330
2A
102
}
102
{ACAD_XDICTIONARY
360
531
102
}
330
2A
100
AcDbVisualStyle
  2
Thicken
 70
    13
 71
     2
 72
     2
 73
     0
 90
        0
 40
-0.6
 41
-30.0
 62
     5
 63
     7
421
 16777215
 74
     1
 91
        4
 64
     7
 65
   257
 75
     1
175
     1
 42
1.0
 92
       12
 66
     7
 43
1.0
 76
     1
 77
     6
 78
     2
 67
     7
 79
     5
170
     0
171
     0
290
     0
174
     0
 93
        1
 44
0.0
173
     0
291
     1
 45
0.0
1001
ACAD
1000
AcDbSavedByObjectVersion
1070
     0
  0
DICTIONARYVAR
  5
518
102
{ACAD_REACTORS
330
517
102
}
330
517
100
DictionaryVariables
280
     0
  1
1:1
  0
DICTIONARY
  5
53B
330
3D
100
AcDbDictionary
280
     1
281
     1
  3
ACAD_XREC_ROUNDTRIP
360
53C
  0
DICTIONARY
  5
539
330
3C
100
AcDbDictionary
280
     1
281
     1
  3
ACAD_XREC_ROUNDTRIP
360
53A
  0
DICTIONARY
  5
53D
330
3E
100
AcDbDictionary
280
     1
281
     1
  3
ACAD_XREC_ROUNDTRIP
360
53E
  0
DICTIONARY
  5
521
330
2F
100
AcDbDictionary
280
     1
281
     1
  3
ACAD_XREC_ROUNDTRIP
360
522
  0
DICTIONARY
  5
525
330
31
100
AcDbDictionary
280
     1
281
     1
  3
ACAD_XREC_ROUNDTRIP
360
526
  0
DICTIONARY
  5
523
330
30
100
AcDbDictionary
280
     1
281
     1
  3
ACAD_XREC_ROUNDTRIP
360
524
  0
DICTIONARY
  5
527
330
32
100
AcDbDictionary
280
     1
281
     1
  3
ACAD_XREC_ROUNDTRIP
360
528
  0
DICTIONARY
  5
52F
330
36
100
AcDbDictionary
280
     1
281
     1
  3
ACAD_XREC_ROUNDTRIP
360
530
  0
DICTIONARY
  5
537
330
3A
100
AcDbDictionary
280
     1
281
     1
  3
ACAD_XREC_ROUNDTRIP
360
538
  0
DICTIONARY
  5
52B
330
34
100
AcDbDictionary
280
     1
281
     1
  3
ACAD_XREC_ROUNDTRIP
360
52C
  0
DICTIONARY
  5
52D
330
35
100
AcDbDictionary
280
     1
281
     1
  3
ACAD_XREC_ROUNDTRIP
360
52E
  0
DICTIONARY
  5
535
330
39
100
AcDbDictionary
280
     1
281
     1
  3
ACAD_XREC_ROUNDTRIP
360
536
  0
DICTIONARY
  5
519
330
2B
100
AcDbDictionary
280
     1
281
     1
  3
ACAD_XREC_ROUNDTRIP
360
51A
  0
DICTIONARY
  5
51B
330
2C
100
AcDbDictionary
280
     1
281
     1
  3
ACAD_XREC_ROUNDTRIP
360
51C
  0
DICTIONARY
  5
51D
330
2D
100
AcDbDictionary
280
     1
281
     1
  3
ACAD_XREC_ROUNDTRIP
360
51E
  0
DICTIONARY
  5
51F
330
2E
100
AcDbDictionary
280
     1
281
     1
  3
ACAD_XREC_ROUNDTRIP
360
520
  0
DICTIONARY
  5
533
330
38
100
AcDbDictionary
280
     1
281
     1
  3
ACAD_XREC_ROUNDTRIP
360
534
  0
DICTIONARY
  5
529
330
33
100
AcDbDictionary
280
     1
281
     1
  3
ACAD_XREC_ROUNDTRIP
360
52A
  0
DICTIONARY
  5
531
330
37
100
AcDbDictionary
280
     1
281
     1
  3
ACAD_XREC_ROUNDTRIP
360
532
  0
XRECORD
  5
53C
102
{ACAD_REACTORS
330
53B
102
}
330
53B
100
AcDbXrecord
280
     1
102
MATERIAL
148
0.0
149
0.0
149
0.0
 93
        0
 94
      127
282
     0
 72
     1
 77
     1
171
     1
175
     1
179
     1
273
     0
  0
XRECORD
  5
53A
102
{ACAD_REACTORS
330
539
102
}
330
539
100
AcDbXrecord
280
     1
102
MATERIAL
148
0.0
149
0.0
149
0.0
 93
        0
 94
      127
282
     0
 72
     1
 77
     1
171
     1
175
     1
179
     1
273
     0
  0
XRECORD
  5
53E
102
{ACAD_REACTORS
330
53D
102
}
330
53D
100
AcDbXrecord
280
     1
102
MATERIAL
148
0.0
149
0.0
149
0.0
 93
        0
 94
      127
282
     0
 72
     1
 77
     1
171
     1
175
     1
179
     1
273
     0
  0
XRECORD
  5
522
102
{ACAD_REACTORS
330
521
102
}
330
521
100
AcDbXrecord
280
     1
102
RTVSPropertyOp0
 70
     1
102
RTVSPropertyOp1
 70
     1
102
RTVSPropertyOp2
 70
     1
102
RTVSPropertyOp3
 70
     1
102
RTVSPropertyOp4
 70
     1
102
RTVSPropertyOp5
 70
     1
102
RTVSPropertyOp6
 70
     1
102
RTVSPropertyOp7
 70
     1
102
RTVSPropertyOp8
 70
     1
102
RTVSPropertyOp9
 70
     1
102
RTVSPropertyOp10
 70
     1
102
RTVSPropertyOp11
 70
     1
102
RTVSPropertyOp12
 70
     1
102
RTVSPropertyOp13
 70
     1
102
RTVSPropertyOp14
 70
     1
102
RTVSPropertyOp15
 70
     1
102
RTVSPropertyOp16
 70
     1
102
RTVSPropertyOp17
 70
     1
102
RTVSPropertyOp18
 70
     1
102
RTVSPropertyOp19
 70
     1
102
RTVSPropertyOp20
 70
     1
102
RTVSPropertyOp21
 70
     1
102
RTVSPropertyOp22
 70
     1
102
RTVSPropertyOp23
 70
     1
102
RTVSPropertyOp24
 70
     1
102
RTVSPropertyOp25
 70
     1
102
RTVSPropertyOp26
 70
     1
102
RTVSPropertyOp27
 70
     1
  0
XRECORD
  5
526
102
{ACAD_REACTORS
330
525
102
}
330
525
100
AcDbXrecord
280
     1
102
RTVSPropertyOp0
 70
     1
102
RTVSPropertyOp1
 70
     1
102
RTVSPropertyOp2
 70
     1
102
RTVSPropertyOp3
 70
     1
102
RTVSPropertyOp4
 70
     1
102
RTVSPropertyOp5
 70
     1
102
RTVSPropertyOp6
 70
     1
102
RTVSPropertyOp7
 70
     1
102
RTVSPropertyOp8
 70
     1
102
RTVSPropertyOp9
 70
     1
102
RTVSPropertyOp10
 70
     1
102
RTVSPropertyOp11
 70
     1
102
RTVSPropertyOp12
 70
     1
102
RTVSPropertyOp13
 70
     1
102
RTVSPropertyOp14
 70
     1
102
RTVSPropertyOp15
 70
     1
102
RTVSPropertyOp16
 70
     1
102
RTVSPropertyOp17
 70
     1
102
RTVSPropertyOp18
 70
     1
102
RTVSPropertyOp19
 70
     1
102
RTVSPropertyOp20
 70
     1
102
RTVSPropertyOp21
 70
     1
102
RTVSPropertyOp22
 70
     1
102
RTVSPropertyOp23
 70
     1
102
RTVSPropertyOp24
 70
     1
102
RTVSPropertyOp25
 70
     1
102
RTVSPropertyOp26
 70
     1
102
RTVSPropertyOp27
 70
     1
  0
XRECORD
  5
524
102
{ACAD_REACTORS
330
523
102
}
330
523
100
AcDbXrecord
280
     1
102
RTVSPropertyOp0
 70
     1
102
RTVSPropertyOp1
 70
     1
102
RTVSPropertyOp2
 70
     1
102
RTVSPropertyOp3
 70
     1
102
RTVSPropertyOp4
 70
     1
102
RTVSPropertyOp5
 70
     1
102
RTVSPropertyOp6
 70
     1
102
RTVSPropertyOp7
 70
     1
102
RTVSPropertyOp8
 70
     1
102
RTVSPropertyOp9
 70
     1
102
RTVSPropertyOp10
 70
     1
102
RTVSPropertyOp11
 70
     1
102
RTVSPropertyOp12
 70
     1
102
RTVSPropertyOp13
 70
     1
102
RTVSPropertyOp14
 70
     1
102
RTVSPropertyOp15
 70
     1
102
RTVSPropertyOp16
 70
     1
102
RTVSPropertyOp17
 70
     1
102
RTVSPropertyOp18
 70
     1
102
RTVSPropertyOp19
 70
     1
102
RTVSPropertyOp20
 70
     1
102
RTVSPropertyOp21
 70
     1
102
RTVSPropertyOp22
 70
     1
102
RTVSPropertyOp23
 70
     1
102
RTVSPropertyOp24
 70
     1
102
RTVSPropertyOp25
 70
     1
102
RTVSPropertyOp26
 70
     1
102
RTVSPropertyOp27
 70
     1
  0
XRECORD
  5
528
102
{ACAD_REACTORS
330
527
102
}
330
527
100
AcDbXrecord
280
     1
102
RTVSPropertyOp0
 70
     1
102
RTVSPropertyOp1
 70
     1
102
RTVSPropertyOp2
 70
     1
102
RTVSPropertyOp3
 70
     1
102
RTVSPropertyOp4
 70
     1
102
RTVSPropertyOp5
 70
     1
102
RTVSPropertyOp6
 70
     1
102
RTVSPropertyOp7
 70
     1
102
RTVSPropertyOp8
 70
     1
102
RTVSPropertyOp9
 70
     1
102
RTVSPropertyOp10
 70
     1
102
RTVSPropertyOp11
 70
     1
102
RTVSPropertyOp12
 70
     1
102
RTVSPropertyOp13
 70
     1
102
RTVSPropertyOp14
 70
     1
102
RTVSPropertyOp15
 70
     1
102
RTVSPropertyOp16
 70
     1
102
RTVSPropertyOp17
 70
     1
102
RTVSPropertyOp18
 70
     1
102
RTVSPropertyOp19
 70
     1
102
RTVSPropertyOp20
 70
     1
102
RTVSPropertyOp21
 70
     1
102
RTVSPropertyOp22
 70
     1
102
RTVSPropertyOp23
 70
     1
102
RTVSPropertyOp24
 70
     1
102
RTVSPropertyOp25
 70
     1
102
RTVSPropertyOp26
 70
     1
102
RTVSPropertyOp27
 70
     1
  0
XRECORD
  5
530
102
{ACAD_REACTORS
330
52F
102
}
330
52F
100
AcDbXrecord
280
     1
102
RTVSPropertyOp0
 70
     1
102
RTVSPropertyOp1
 70
     1
102
RTVSPropertyOp2
 70
     1
102
RTVSPropertyOp3
 70
     1
102
RTVSPropertyOp4
 70
     1
102
RTVSPropertyOp5
 70
     1
102
RTVSPropertyOp6
 70
     1
102
RTVSPropertyOp7
 70
     1
102
RTVSPropertyOp8
 70
     1
102
RTVSPropertyOp9
 70
     1
102
RTVSPropertyOp10
 70
     1
102
RTVSPropertyOp11
 70
     1
102
RTVSPropertyOp12
 70
     1
102
RTVSPropertyOp13
 70
     1
102
RTVSPropertyOp14
 70
     1
102
RTVSPropertyOp15
 70
     1
102
RTVSPropertyOp16
 70
     1
102
RTVSPropertyOp17
 70
     1
102
RTVSPropertyOp18
 70
     1
102
RTVSPropertyOp19
 70
     1
102
RTVSPropertyOp20
 70
     1
102
RTVSPropertyOp21
 70
     1
102
RTVSPropertyOp22
 70
     1
102
RTVSPropertyOp23
 70
     1
102
RTVSPropertyOp24
 70
     1
102
RTVSPropertyOp25
 70
     1
102
RTVSPropertyOp26
 70
     1
102
RTVSPropertyOp27
 70
     1
  0
XRECORD
  5
538
102
{ACAD_REACTORS
330
537
102
}
330
537
100
AcDbXrecord
280
     1
102
RTVSPropertyOp0
 70
     1
102
RTVSPropertyOp1
 70
     1
102
RTVSPropertyOp2
 70
     1
102
RTVSPropertyOp3
 70
     1
102
RTVSPropertyOp4
 70
     1
102
RTVSPropertyOp5
 70
     1
102
RTVSPropertyOp6
 70
     1
102
RTVSPropertyOp7
 70
     1
102
RTVSPropertyOp8
 70
     1
102
RTVSPropertyOp9
 70
     1
102
RTVSPropertyOp10
 70
     1
102
RTVSPropertyOp11
 70
     1
102
RTVSPropertyOp12
 70
     1
102
RTVSPropertyOp13
 70
     1
102
RTVSPropertyOp14
 70
     1
102
RTVSPropertyOp15
 70
     1
102
RTVSPropertyOp16
 70
     1
102
RTVSPropertyOp17
 70
     1
102
RTVSPropertyOp18
 70
     1
102
RTVSPropertyOp19
 70
     1
102
RTVSPropertyOp20
 70
     1
102
RTVSPropertyOp21
 70
     1
102
RTVSPropertyOp22
 70
     1
102
RTVSPropertyOp23
 70
     1
102
RTVSPropertyOp24
 70
     1
102
RTVSPropertyOp25
 70
     1
102
RTVSPropertyOp26
 70
     1
102
RTVSPropertyOp27
 70
     1
  0
XRECORD
  5
52C
102
{ACAD_REACTORS
330
52B
102
}
330
52B
100
AcDbXrecord
280
     1
102
RTVSPropertyOp0
 70
     1
102
RTVSPropertyOp1
 70
     1
102
RTVSPropertyOp2
 70
     1
102
RTVSPropertyOp3
 70
     1
102
RTVSPropertyOp4
 70
     1
102
RTVSPropertyOp5
 70
     1
102
RTVSPropertyOp6
 70
     1
102
RTVSPropertyOp7
 70
     1
102
RTVSPropertyOp8
 70
     1
102
RTVSPropertyOp9
 70
     1
102
RTVSPropertyOp10
 70
     1
102
RTVSPropertyOp11
 70
     1
102
RTVSPropertyOp12
 70
     1
102
RTVSPropertyOp13
 70
     1
102
RTVSPropertyOp14
 70
     1
102
RTVSPropertyOp15
 70
     1
102
RTVSPropertyOp16
 70
     1
102
RTVSPropertyOp17
 70
     1
102
RTVSPropertyOp18
 70
     1
102
RTVSPropertyOp19
 70
     1
102
RTVSPropertyOp20
 70
     1
102
RTVSPropertyOp21
 70
     1
102
RTVSPropertyOp22
 70
     1
102
RTVSPropertyOp23
 70
     1
102
RTVSPropertyOp24
 70
     1
102
RTVSPropertyOp25
 70
     1
102
RTVSPropertyOp26
 70
     1
102
RTVSPropertyOp27
 70
     1
  0
XRECORD
  5
52E
102
{ACAD_REACTORS
330
52D
102
}
330
52D
100
AcDbXrecord
280
     1
102
RTVSPropertyOp0
 70
     1
102
RTVSPropertyOp1
 70
     1
102
RTVSPropertyOp2
 70
     1
102
RTVSPropertyOp3
 70
     1
102
RTVSPropertyOp4
 70
     1
102
RTVSPropertyOp5
 70
     1
102
RTVSPropertyOp6
 70
     1
102
RTVSPropertyOp7
 70
     1
102
RTVSPropertyOp8
 70
     1
102
RTVSPropertyOp9
 70
     1
102
RTVSPropertyOp10
 70
     1
102
RTVSPropertyOp11
 70
     1
102
RTVSPropertyOp12
 70
     1
102
RTVSPropertyOp13
 70
     1
102
RTVSPropertyOp14
 70
     1
102
RTVSPropertyOp15
 70
     1
102
RTVSPropertyOp16
 70
     1
102
RTVSPropertyOp17
 70
     1
102
RTVSPropertyOp18
 70
     1
102
RTVSPropertyOp19
 70
     1
102
RTVSPropertyOp20
 70
     1
102
RTVSPropertyOp21
 70
     1
102
RTVSPropertyOp22
 70
     1
102
RTVSPropertyOp23
 70
     1
102
RTVSPropertyOp24
 70
     1
102
RTVSPropertyOp25
 70
     1
102
RTVSPropertyOp26
 70
     1
102
RTVSPropertyOp27
 70
     1
  0
XRECORD
  5
536
102
{ACAD_REACTORS
330
535
102
}
330
535
100
AcDbXrecord
280
     1
102
RTVSPropertyOp0
 70
     1
102
RTVSPropertyOp1
 70
     1
102
RTVSPropertyOp2
 70
     1
102
RTVSPropertyOp3
 70
     1
102
RTVSPropertyOp4
 70
     1
102
RTVSPropertyOp5
 70
     1
102
RTVSPropertyOp6
 70
     1
102
RTVSPropertyOp7
 70
     1
102
RTVSPropertyOp8
 70
     1
102
RTVSPropertyOp9
 70
     1
102
RTVSPropertyOp10
 70
     1
102
RTVSPropertyOp11
 70
     1
102
RTVSPropertyOp12
 70
     1
102
RTVSPropertyOp13
 70
     1
102
RTVSPropertyOp14
 70
     1
102
RTVSPropertyOp15
 70
     1
102
RTVSPropertyOp16
 70
     1
102
RTVSPropertyOp17
 70
     1
102
RTVSPropertyOp18
 70
     1
102
RTVSPropertyOp19
 70
     1
102
RTVSPropertyOp20
 70
     1
102
RTVSPropertyOp21
 70
     1
102
RTVSPropertyOp22
 70
     1
102
RTVSPropertyOp23
 70
     1
102
RTVSPropertyOp24
 70
     1
102
RTVSPropertyOp25
 70
     1
102
RTVSPropertyOp26
 70
     1
102
RTVSPropertyOp27
 70
     1
  0
XRECORD
  5
51A
102
{ACAD_REACTORS
330
519
102
}
330
519
100
AcDbXrecord
280
     1
102
RTVSPropertyOp0
 70
     1
102
RTVSPropertyOp1
 70
     1
102
RTVSPropertyOp2
 70
     1
102
RTVSPropertyOp3
 70
     1
102
RTVSPropertyOp4
 70
     1
102
RTVSPropertyOp5
 70
     1
102
RTVSPropertyOp6
 70
     1
102
RTVSPropertyOp7
 70
     1
102
RTVSPropertyOp8
 70
     1
102
RTVSPropertyOp9
 70
     1
102
RTVSPropertyOp10
 70
     1
102
RTVSPropertyOp11
 70
     1
102
RTVSPropertyOp12
 70
     1
102
RTVSPropertyOp13
 70
     1
102
RTVSPropertyOp14
 70
     1
102
RTVSPropertyOp15
 70
     1
102
RTVSPropertyOp16
 70
     1
102
RTVSPropertyOp17
 70
     1
102
RTVSPropertyOp18
 70
     1
102
RTVSPropertyOp19
 70
     1
102
RTVSPropertyOp20
 70
     1
102
RTVSPropertyOp21
 70
     1
102
RTVSPropertyOp22
 70
     1
102
RTVSPropertyOp23
 70
     1
102
RTVSPropertyOp24
 70
     1
102
RTVSPropertyOp25
 70
     1
102
RTVSPropertyOp26
 70
     1
102
RTVSPropertyOp27
 70
     1
  0
XRECORD
  5
51C
102
{ACAD_REACTORS
330
51B
102
}
330
51B
100
AcDbXrecord
280
     1
102
RTVSPropertyOp0
 70
     1
102
RTVSPropertyOp1
 70
     1
102
RTVSPropertyOp2
 70
     1
102
RTVSPropertyOp3
 70
     1
102
RTVSPropertyOp4
 70
     1
102
RTVSPropertyOp5
 70
     1
102
RTVSPropertyOp6
 70
     1
102
RTVSPropertyOp7
 70
     1
102
RTVSPropertyOp8
 70
     1
102
RTVSPropertyOp9
 70
     1
102
RTVSPropertyOp10
 70
     1
102
RTVSPropertyOp11
 70
     1
102
RTVSPropertyOp12
 70
     1
102
RTVSPropertyOp13
 70
     1
102
RTVSPropertyOp14
 70
     1
102
RTVSPropertyOp15
 70
     1
102
RTVSPropertyOp16
 70
     1
102
RTVSPropertyOp17
 70
     1
102
RTVSPropertyOp18
 70
     1
102
RTVSPropertyOp19
 70
     1
102
RTVSPropertyOp20
 70
     1
102
RTVSPropertyOp21
 70
     1
102
RTVSPropertyOp22
 70
     1
102
RTVSPropertyOp23
 70
     1
102
RTVSPropertyOp24
 70
     1
102
RTVSPropertyOp25
 70
     1
102
RTVSPropertyOp26
 70
     1
102
RTVSPropertyOp27
 70
     1
  0
XRECORD
  5
51E
102
{ACAD_REACTORS
330
51D
102
}
330
51D
100
AcDbXrecord
280
     1
102
RTVSPropertyOp0
 70
     1
102
RTVSPropertyOp1
 70
     1
102
RTVSPropertyOp2
 70
     1
102
RTVSPropertyOp3
 70
     1
102
RTVSPropertyOp4
 70
     1
102
RTVSPropertyOp5
 70
     1
102
RTVSPropertyOp6
 70
     1
102
RTVSPropertyOp7
 70
     1
102
RTVSPropertyOp8
 70
     1
102
RTVSPropertyOp9
 70
     1
102
RTVSPropertyOp10
 70
     1
102
RTVSPropertyOp11
 70
     1
102
RTVSPropertyOp12
 70
     1
102
RTVSPropertyOp13
 70
     1
102
RTVSPropertyOp14
 70
     1
102
RTVSPropertyOp15
 70
     1
102
RTVSPropertyOp16
 70
     1
102
RTVSPropertyOp17
 70
     1
102
RTVSPropertyOp18
 70
     1
102
RTVSPropertyOp19
 70
     1
102
RTVSPropertyOp20
 70
     1
102
RTVSPropertyOp21
 70
     1
102
RTVSPropertyOp22
 70
     1
102
RTVSPropertyOp23
 70
     1
102
RTVSPropertyOp24
 70
     1
102
RTVSPropertyOp25
 70
     1
102
RTVSPropertyOp26
 70
     1
102
RTVSPropertyOp27
 70
     1
  0
XRECORD
  5
520
102
{ACAD_REACTORS
330
51F
102
}
330
51F
100
AcDbXrecord
280
     1
102
RTVSPropertyOp0
 70
     1
102
RTVSPropertyOp1
 70
     1
102
RTVSPropertyOp2
 70
     1
102
RTVSPropertyOp3
 70
     1
102
RTVSPropertyOp4
 70
     1
102
RTVSPropertyOp5
 70
     1
102
RTVSPropertyOp6
 70
     1
102
RTVSPropertyOp7
 70
     1
102
RTVSPropertyOp8
 70
     1
102
RTVSPropertyOp9
 70
     1
102
RTVSPropertyOp10
 70
     1
102
RTVSPropertyOp11
 70
     1
102
RTVSPropertyOp12
 70
     1
102
RTVSPropertyOp13
 70
     1
102
RTVSPropertyOp14
 70
     1
102
RTVSPropertyOp15
 70
     1
102
RTVSPropertyOp16
 70
     1
102
RTVSPropertyOp17
 70
     1
102
RTVSPropertyOp18
 70
     1
102
RTVSPropertyOp19
 70
     1
102
RTVSPropertyOp20
 70
     1
102
RTVSPropertyOp21
 70
     1
102
RTVSPropertyOp22
 70
     1
102
RTVSPropertyOp23
 70
     1
102
RTVSPropertyOp24
 70
     1
102
RTVSPropertyOp25
 70
     1
102
RTVSPropertyOp26
 70
     1
102
RTVSPropertyOp27
 70
     1
  0
XRECORD
  5
534
102
{ACAD_REACTORS
330
533
102
}
330
533
100
AcDbXrecord
280
     1
102
RTVSPropertyOp0
 70
     1
102
RTVSPropertyOp1
 70
     1
102
RTVSPropertyOp2
 70
     1
102
RTVSPropertyOp3
 70
     1
102
RTVSPropertyOp4
 70
     1
102
RTVSPropertyOp5
 70
     1
102
RTVSPropertyOp6
 70
     1
102
RTVSPropertyOp7
 70
     1
102
RTVSPropertyOp8
 70
     1
102
RTVSPropertyOp9
 70
     1
102
RTVSPropertyOp10
 70
     1
102
RTVSPropertyOp11
 70
     1
102
RTVSPropertyOp12
 70
     1
102
RTVSPropertyOp13
 70
     1
102
RTVSPropertyOp14
 70
     1
102
RTVSPropertyOp15
 70
     1
102
RTVSPropertyOp16
 70
     1
102
RTVSPropertyOp17
 70
     1
102
RTVSPropertyOp18
 70
     1
102
RTVSPropertyOp19
 70
     1
102
RTVSPropertyOp20
 70
     1
102
RTVSPropertyOp21
 70
     1
102
RTVSPropertyOp22
 70
     1
102
RTVSPropertyOp23
 70
     1
102
RTVSPropertyOp24
 70
     1
102
RTVSPropertyOp25
 70
     1
102
RTVSPropertyOp26
 70
     1
102
RTVSPropertyOp27
 70
     1
  0
XRECORD
  5
52A
102
{ACAD_REACTORS
330
529
102
}
330
529
100
AcDbXrecord
280
     1
102
RTVSPropertyOp0
 70
     1
102
RTVSPropertyOp1
 70
     1
102
RTVSPropertyOp2
 70
     1
102
RTVSPropertyOp3
 70
     1
102
RTVSPropertyOp4
 70
     1
102
RTVSPropertyOp5
 70
     1
102
RTVSPropertyOp6
 70
     1
102
RTVSPropertyOp7
 70
     1
102
RTVSPropertyOp8
 70
     1
102
RTVSPropertyOp9
 70
     1
102
RTVSPropertyOp10
 70
     1
102
RTVSPropertyOp11
 70
     1
102
RTVSPropertyOp12
 70
     1
102
RTVSPropertyOp13
 70
     1
102
RTVSPropertyOp14
 70
     1
102
RTVSPropertyOp15
 70
     1
102
RTVSPropertyOp16
 70
     1
102
RTVSPropertyOp17
 70
     1
102
RTVSPropertyOp18
 70
     1
102
RTVSPropertyOp19
 70
     1
102
RTVSPropertyOp20
 70
     1
102
RTVSPropertyOp21
 70
     1
102
RTVSPropertyOp22
 70
     1
102
RTVSPropertyOp23
 70
     1
102
RTVSPropertyOp24
 70
     1
102
RTVSPropertyOp25
 70
     1
102
RTVSPropertyOp26
 70
     1
102
RTVSPropertyOp27
 70
     1
  0
XRECORD
  5
532
102
{ACAD_REACTORS
330
531
102
}
330
531
100
AcDbXrecord
280
     1
102
RTVSPropertyOp0
 70
     1
102
RTVSPropertyOp1
 70
     1
102
RTVSPropertyOp2
 70
     1
102
RTVSPropertyOp3
 70
     1
102
RTVSPropertyOp4
 70
     1
102
RTVSPropertyOp5
 70
     1
102
RTVSPropertyOp6
 70
     1
102
RTVSPropertyOp7
 70
     1
102
RTVSPropertyOp8
 70
     1
102
RTVSPropertyOp9
 70
     1
102
RTVSPropertyOp10
 70
     1
102
RTVSPropertyOp11
 70
     1
102
RTVSPropertyOp12
 70
     1
102
RTVSPropertyOp13
 70
     1
102
RTVSPropertyOp14
 70
     1
102
RTVSPropertyOp15
 70
     1
102
RTVSPropertyOp16
 70
     1
102
RTVSPropertyOp17
 70
     1
102
RTVSPropertyOp18
 70
     1
102
RTVSPropertyOp19
 70
     1
102
RTVSPropertyOp20
 70
     1
102
RTVSPropertyOp21
 70
     1
102
RTVSPropertyOp22
 70
     1
102
RTVSPropertyOp23
 70
     1
102
RTVSPropertyOp24
 70
     1
102
RTVSPropertyOp25
 70
     1
102
RTVSPropertyOp26
 70
     1
102
RTVSPropertyOp27
 70
     1
  0
ENDSEC
  0
EOF
