  0
SECTION
  2
HEADER
  9
$ACADVER
  1
AC1014
  9
$ACADMAINTVER
 70
     9
  9
$DWGCODEPAGE
  3
ANSI_1252
  9
$INSBASE
 10
0.0
 20
0.0
 30
0.0
  9
$EXTMIN
 10
172.5180147212052
 20
-359.0063455938172
 30
0.0
  9
$EXTMAX
 10
692.5180147212054
 20
378.4936544061833
 30
0.0
  9
$LIMMIN
 10
0.0
 20
0.0
  9
$LIMMAX
 10
12.0
 20
9.0
  9
$ORTHOMODE
 70
     0
  9
$REGENMODE
 70
     1
  9
$FILLMODE
 70
     1
  9
$QTEXTMODE
 70
     0
  9
$MIRRTEXT
 70
     1
  9
$DRAGMODE
 70
     2
  9
$LTSCALE
 40
1.0
  9
$OSMODE
 70
    37
  9
$ATTMODE
 70
     1
  9
$TEXTSIZE
 40
0.2
  9
$TRACEWID
 40
0.05
  9
$TEXTSTYLE
  7
STANDARD
  9
$CLAYER
  8
0
  9
$CELTYPE
  6
BYLAYER
  9
$CECOLOR
 62
   256
  9
$CELTSCALE
 40
1.0
  9
$DELOBJ
 70
     1
  9
$DISPSILH
 70
     0
  9
$DIMSCALE
 40
1.0
  9
$DIMASZ
 40
0.18
  9
$DIMEXO
 40
0.0625
  9
$DIMDLI
 40
0.38
  9
$DIMRND
 40
0.0
  9
$DIMDLE
 40
0.0
  9
$DIMEXE
 40
0.18
  9
$DIMTP
 40
0.0
  9
$DIMTM
 40
0.0
  9
$DIMTXT
 40
0.18
  9
$DIMCEN
 40
0.09
  9
$DIMTSZ
 40
0.0
  9
$DIMTOL
 70
     0
  9
$DIMLIM
 70
     0
  9
$DIMTIH
 70
     1
  9
$DIMTOH
 70
     1
  9
$DIMSE1
 70
     0
  9
$DIMSE2
 70
     0
  9
$DIMTAD
 70
     0
  9
$DIMZIN
 70
     0
  9
$DIMBLK
  1

  9
$DIMASO
 70
     1
  9
$DIMSHO
 70
     1
  9
$DIMPOST
  1

  9
$DIMAPOST
  1

  9
$DIMALT
 70
     0
  9
$DIMALTD
 70
     2
  9
$DIMALTF
 40
25.4
  9
$DIMLFAC
 40
1.0
  9
$DIMTOFL
 70
     0
  9
$DIMTVP
 40
0.0
  9
$DIMTIX
 70
     0
  9
$DIMSOXD
 70
     0
  9
$DIMSAH
 70
     0
  9
$DIMBLK1
  1

  9
$DIMBLK2
  1

  9
$DIMSTYLE
  2
STANDARD
  9
$DIMCLRD
 70
     0
  9
$DIMCLRE
 70
     0
  9
$DIMCLRT
 70
     0
  9
$DIMTFAC
 40
1.0
  9
$DIMGAP
 40
0.09
  9
$DIMJUST
 70
     0
  9
$DIMSD1
 70
     0
  9
$DIMSD2
 70
     0
  9
$DIMTOLJ
 70
     1
  9
$DIMTZIN
 70
     0
  9
$DIMALTZ
 70
     0
  9
$DIMALTTZ
 70
     0
  9
$DIMFIT
 70
     3
  9
$DIMUPT
 70
     0
  9
$DIMUNIT
 70
     2
  9
$DIMDEC
 70
     4
  9
$DIMTDEC
 70
     4
  9
$DIMALTU
 70
     2
  9
$DIMALTTD
 70
     2
  9
$DIMTXSTY
  7
STANDARD
  9
$DIMAUNIT
 70
     0
  9
$LUNITS
 70
     2
  9
$LUPREC
 70
     4
  9
$SKETCHINC
 40
0.1
  9
$FILLETRAD
 40
0.5
  9
$AUNITS
 70
     0
  9
$AUPREC
 70
     0
  9
$MENU
  1
.
  9
$ELEVATION
 40
0.0
  9
$PELEVATION
 40
0.0
  9
$THICKNESS
 40
0.0
  9
$LIMCHECK
 70
     0
  9
$CHAMFERA
 40
0.5
  9
$CHAMFERB
 40
0.5
  9
$CHAMFERC
 40
1.0
  9
$CHAMFERD
 40
0.0
  9
$SKPOLY
 70
     0
  9
$TDCREATE
 40
2456559.326368345
  9
$TDUPDATE
 40
2456559.368035023
  9
$TDINDWG
 40
0.0000000116
  9
$TDUSRTIMER
 40
0.0000000116
  9
$USRTIMER
 70
     1
  9
$ANGBASE
 50
0.0
  9
$ANGDIR
 70
     0
  9
$PDMODE
 70
     0
  9
$PDSIZE
 40
0.0
  9
$PLINEWID
 40
0.0
  9
$COORDS
 70
     1
  9
$SPLFRAME
 70
     0
  9
$SPLINETYPE
 70
     6
  9
$SPLINESEGS
 70
     8
  9
$ATTDIA
 70
     0
  9
$ATTREQ
 70
     1
  9
$HANDLING
 70
     1
  9
$HANDSEED
  5
374
  9
$SURFTAB1
 70
     6
  9
$SURFTAB2
 70
     6
  9
$SURFTYPE
 70
     6
  9
$SURFU
 70
     6
  9
$SURFV
 70
     6
  9
$UCSNAME
  2

  9
$UCSORG
 10
0.0
 20
0.0
 30
0.0
  9
$UCSXDIR
 10
1.0
 20
0.0
 30
0.0
  9
$UCSYDIR
 10
0.0
 20
1.0
 30
0.0
  9
$PUCSNAME
  2

  9
$PUCSORG
 10
0.0
 20
0.0
 30
0.0
  9
$PUCSXDIR
 10
1.0
 20
0.0
 30
0.0
  9
$PUCSYDIR
 10
0.0
 20
1.0
 30
0.0
  9
$USERI1
 70
     0
  9
$USERI2
 70
     0
  9
$USERI3
 70
     0
  9
$USERI4
 70
     0
  9
$USERI5
 70
     0
  9
$USERR1
 40
13.2
  9
$USERR2
 40
0.0
  9
$USERR3
 40
0.0
  9
$USERR4
 40
0.0
  9
$USERR5
 40
0.0
  9
$WORLDVIEW
 70
     1
  9
$SHADEDGE
 70
     3
  9
$SHADEDIF
 70
    70
  9
$TILEMODE
 70
     1
  9
$MAXACTVP
 70
    64
  9
$PINSBASE
 10
0.0
 20
0.0
 30
0.0
  9
$PLIMCHECK
 70
     0
  9
$PEXTMIN
 10
1.00000000000000E+20
 20
1.00000000000000E+20
 30
1.00000000000000E+20
  9
$PEXTMAX
 10
-1.00000000000000E+20
 20
-1.00000000000000E+20
 30
-1.00000000000000E+20
  9
$PLIMMIN
 10
0.0
 20
0.0
  9
$PLIMMAX
 10
12.0
 20
9.0
  9
$UNITMODE
 70
     0
  9
$VISRETAIN
 70
     1
  9
$PLINEGEN
 70
     0
  9
$PSLTSCALE
 70
     1
  9
$TREEDEPTH
 70
  3020
  9
$PICKSTYLE
 70
     1
  9
$CMLSTYLE
  2
STANDARD
  9
$CMLJUST
 70
     0
  9
$CMLSCALE
 40
1.0
  9
$PROXYGRAPHICS
 70
     1
  9
$MEASUREMENT
 70
     1
  0
ENDSEC
  0
SECTION
  2
CLASSES
  0
CLASS
  1
ACDBDICTIONARYWDFLT
  2
AcDbDictionaryWithDefault
  3
ObjectDBX Classes
 90
        0
280
     0
281
     0
  0
CLASS
  1
TABLESTYLE
  2
AcDbTableStyle
  3
ObjectDBX Classes
 90
     2047
280
     0
281
     0
  0
CLASS
  1
DICTIONARYVAR
  2
AcDbDictionaryVar
  3
ObjectDBX Classes
 90
        0
280
     0
281
     0
  0
CLASS
  1

  2
exOdDbCircle
  3

 90
        0
280
     0
281
     1
  0
CLASS
  1

  2
exOdDbPolyline
  3

 90
        0
280
     0
281
     1
  0
CLASS
  1
XRECORD
  2
AcDbXrecord
  3
AutoCAD 2000
 90
        0
280
     0
281
     0
  0
CLASS
  1
LWPOLYLINE
  2
AcDbPolyline
  3
AutoCAD 2000
 90
        0
280
     0
281
     1
  0
CLASS
  1
HATCH
  2
AcDbHatch
  3
AutoCAD 2000
 90
        0
280
     0
281
     1
  0
CLASS
  1
ACDBPLACEHOLDER
  2
AcDbPlaceHolder
  3
ObjectDBX Classes
 90
        0
280
     0
281
     0
  0
CLASS
  1
LAYOUT
  2
AcDbLayout
  3
ObjectDBX Classes
 90
        0
280
     0
281
     0
  0
ENDSEC
  0
SECTION
  2
TABLES
  0
TABLE
  2
VPORT
  5
8
330
0
100
AcDbSymbolTable
 70
     2
  0
VPORT
  5
29
102
{ACAD_XDICTIONARY
360
372
102
}
330
8
100
AcDbSymbolTableRecord
100
AcDbViewportTableRecord
  2
*ACTIVE
 70
     0
 10
0.0
 20
0.0
 11
1.0
 21
1.0
 12
432.5180147212053
 22
9.74365440618305
 13
0.0
 23
0.0
 14
0.5
 24
0.5
 15
0.5
 25
0.5
 16
0.0
 26
0.0
 36
1.0
 17
0.0
 27
0.0
 37
0.0
 40
811.2500000000006
 41
1.60267857142857
 42
50.0
 43
0.0
 44
0.0
 50
0.0
 51
0.0
 71
     0
 72
   100
 73
     1
 74
     3
 75
     0
 76
     0
 77
     0
 78
     0
  0
ENDTAB
  0
TABLE
  2
LTYPE
  5
5
330
0
100
AcDbSymbolTable
 70
     8
  0
LTYPE
  5
14
330
5
100
AcDbSymbolTableRecord
100
AcDbLinetypeTableRecord
  2
BYBLOCK
 70
     0
  3

 72
    65
 73
     0
 40
0.0
  0
LTYPE
  5
15
330
5
100
AcDbSymbolTableRecord
100
AcDbLinetypeTableRecord
  2
BYLAYER
 70
     0
  3

 72
    65
 73
     0
 40
0.0
  0
LTYPE
  5
16
330
5
100
AcDbSymbolTableRecord
100
AcDbLinetypeTableRecord
  2
CONTINUOUS
 70
     0
  3
Solid line
 72
    65
 73
     0
 40
0.0
  0
LTYPE
  5
2E
330
5
100
AcDbSymbolTableRecord
100
AcDbLinetypeTableRecord
  2
DASHED
 70
     0
  3
Dashed
 72
    65
 73
     2
 40
15.0
 49
7.0
 74
     0
 49
-8.0
 74
     0
  0
LTYPE
  5
2F
330
5
100
AcDbSymbolTableRecord
100
AcDbLinetypeTableRecord
  2
DOTTED
 70
     0
  3
Dotted
 72
    65
 73
     2
 40
1.0
 49
0.0
 74
     0
 49
-1.0
 74
     0
  0
LTYPE
  5
30
330
5
100
AcDbSymbolTableRecord
100
AcDbLinetypeTableRecord
  2
DOT_CENTER
 70
     0
  3
Dot_Center
 72
    65
 73
     4
 40
14.0
 49
12.0
 74
     0
 49
-1.0
 74
     0
 49
0.0
 74
     0
 49
-1.0
 74
     0
  0
LTYPE
  5
31
330
5
100
AcDbSymbolTableRecord
100
AcDbLinetypeTableRecord
  2
LONG_DASHED
 70
     0
  3
Long_Dashed
 72
    65
 73
     2
 40
15.0
 49
10.0
 74
     0
 49
-5.0
 74
     0
  0
LTYPE
  5
32
330
5
100
AcDbSymbolTableRecord
100
AcDbLinetypeTableRecord
  2
DASH_CENTER
 70
     0
  3
Dash_Center
 72
    65
 73
     4
 40
14.0
 49
11.0
 74
     0
 49
-1.0
 74
     0
 49
1.0
 74
     0
 49
-1.0
 74
     0
  0
LTYPE
  5
33
330
5
100
AcDbSymbolTableRecord
100
AcDbLinetypeTableRecord
  2
PHANTOM
 70
     0
  3
Phantom
 72
    65
 73
     6
 40
13.0
 49
10.0
 74
     0
 49
-1.0
 74
     0
 49
0.0
 74
     0
 49
-1.0
 74
     0
 49
0.0
 74
     0
 49
-1.0
 74
     0
  0
LTYPE
  5
34
330
5
100
AcDbSymbolTableRecord
100
AcDbLinetypeTableRecord
  2
CENTER_DASH_DASH
 70
     0
  3
Center_Dash_Dash
 72
    65
 73
     6
 40
14.0
 49
9.0
 74
     0
 49
-1.0
 74
     0
 49
1.0
 74
     0
 49
-1.0
 74
     0
 49
1.0
 74
     0
 49
-1.0
 74
     0
  0
ENDTAB
  0
TABLE
  2
LAYER
  5
2
330
0
100
AcDbSymbolTable
 70
    10
  0
LAYER
  5
10
330
2
100
AcDbSymbolTableRecord
100
AcDbLayerTableRecord
  2
0
 70
     0
 62
     7
  6
CONTINUOUS
  0
LAYER
  5
35
330
2
100
AcDbSymbolTableRecord
100
AcDbLayerTableRecord
  2
1
 70
     0
 62
     7
  6
CONTINUOUS
  0
LAYER
  5
36
330
2
100
AcDbSymbolTableRecord
100
AcDbLayerTableRecord
  2
BREIT-VOLL-LINIE
 70
     0
 62
     7
  6
CONTINUOUS
  0
LAYER
  5
37
330
2
100
AcDbSymbolTableRecord
100
AcDbLayerTableRecord
  2
MK
 70
     0
 62
     7
  6
CONTINUOUS
  0
LAYER
  5
38
330
2
100
AcDbSymbolTableRecord
100
AcDbLayerTableRecord
  2
MN
 70
     0
 62
     7
  6
CONTINUOUS
  0
LAYER
  5
39
330
2
100
AcDbSymbolTableRecord
100
AcDbLayerTableRecord
  2
VB
 70
     0
 62
     7
  6
CONTINUOUS
  0
LAYER
  5
3A
330
2
100
AcDbSymbolTableRecord
100
AcDbLayerTableRecord
  2
Z1
 70
     0
 62
     7
  6
CONTINUOUS
  0
LAYER
  5
3B
330
2
100
AcDbSymbolTableRecord
100
AcDbLayerTableRecord
  2
Z2
 70
     0
 62
     7
  6
CONTINUOUS
  0
LAYER
  5
3C
330
2
100
AcDbSymbolTableRecord
100
AcDbLayerTableRecord
  2
Z4
 70
     0
 62
     7
  6
CONTINUOUS
  0
LAYER
  5
3D
330
2
100
AcDbSymbolTableRecord
100
AcDbLayerTableRecord
  2
Z5
 70
     0
 62
     7
  6
CONTINUOUS
  0
ENDTAB
  0
TABLE
  2
STYLE
  5
3
330
0
100
AcDbSymbolTable
 70
    10
  0
STYLE
  5
11
330
3
100
AcDbSymbolTableRecord
100
AcDbTextStyleTableRecord
  2
STANDARD
 70
     0
 40
0.0
 41
1.0
 50
0.0
 71
     0
 42
0.2
  3
txt
  4

  0
STYLE
  5
D9
330
3
100
AcDbSymbolTableRecord
100
AcDbTextStyleTableRecord
  2
CONVERTER_1
 70
     0
 40
0.0
 41
0.72
 50
0.0
 71
     0
 42
0.2
  3
txt.shx
  4

  0
STYLE
  5
DB
330
3
100
AcDbSymbolTableRecord
100
AcDbTextStyleTableRecord
  2
CONVERTER_2
 70
     0
 40
0.0
 41
0.63
 50
0.0
 71
     0
 42
0.2
  3
txt.shx
  4

  0
STYLE
  5
EA
330
3
100
AcDbSymbolTableRecord
100
AcDbTextStyleTableRecord
  2
CONVERTER_3
 70
     0
 40
0.0
 41
0.8415
 50
0.0
 71
     0
 42
0.2
  3
txt.shx
  4

  0
STYLE
  5
EC
330
3
100
AcDbSymbolTableRecord
100
AcDbTextStyleTableRecord
  2
CONVERTER_4
 70
     0
 40
0.0
 41
0.585
 50
0.0
 71
     0
 42
0.2
  3
txt.shx
  4

  0
STYLE
  5
F5
330
3
100
AcDbSymbolTableRecord
100
AcDbTextStyleTableRecord
  2
CONVERTER_5
 70
     0
 40
0.0
 41
0.675
 50
0.0
 71
     0
 42
0.2
  3
txt.shx
  4

  0
STYLE
  5
F9
330
3
100
AcDbSymbolTableRecord
100
AcDbTextStyleTableRecord
  2
CONVERTER_6
 70
     0
 40
0.0
 41
0.9
 50
0.0
 71
     0
 42
0.2
  3
txt.shx
  4

  0
STYLE
  5
FD
330
3
100
AcDbSymbolTableRecord
100
AcDbTextStyleTableRecord
  2
CONVERTER_7
 70
     0
 40
0.0
 41
0.7425
 50
0.0
 71
     0
 42
0.2
  3
txt.shx
  4

  0
STYLE
  5
123
330
3
100
AcDbSymbolTableRecord
100
AcDbTextStyleTableRecord
  2
CONVERTER_8
 70
     0
 40
0.0
 41
0.76
 50
0.0
 71
     0
 42
0.2
  3
complex.shx
  4

  0
STYLE
  5
125
330
3
100
AcDbSymbolTableRecord
100
AcDbTextStyleTableRecord
  2
CONVERTER_9
 70
     0
 40
0.0
 41
0.7125
 50
0.0
 71
     0
 42
0.2
  3
complex.shx
  4

  0
ENDTAB
  0
TABLE
  2
VIEW
  5
6
330
0
100
AcDbSymbolTable
 70
     0
  0
ENDTAB
  0
TABLE
  2
UCS
  5
7
330
0
100
AcDbSymbolTable
 70
     0
  0
ENDTAB
  0
TABLE
  2
APPID
  5
9
330
0
100
AcDbSymbolTable
 70
     1
  0
APPID
  5
12
330
9
100
AcDbSymbolTableRecord
100
AcDbRegAppTableRecord
  2
ACAD
 70
     0
  0
ENDTAB
  0
TABLE
  2
DIMSTYLE
  5
A
330
0
100
AcDbSymbolTable
 70
    33
  0
DIMSTYLE
105
27
330
A
100
AcDbSymbolTableRecord
100
AcDbDimStyleTableRecord
  2
STANDARD
 70
     0
  3

  4

  5

  6

  7

 40
1.0
 41
0.18
 42
0.0625
 43
0.38
 44
0.18
 45
0.0
 46
0.0
 47
0.0
 48
0.0
140
0.18
141
0.09
142
0.0
143
25.4
144
1.0
145
0.0
146
1.0
147
0.09
 71
     0
 72
     0
 73
     1
 74
     1
 75
     0
 76
     0
 77
     0
 78
     0
170
     0
171
     2
172
     0
173
     0
174
     0
175
     0
176
     0
177
     0
178
     0
270
     2
271
     4
272
     4
273
     2
274
     2
340
11
275
     0
280
     0
281
     0
282
     0
283
     1
284
     0
285
     0
286
     0
287
     3
288
     0
  0
DIMSTYLE
105
1D7
102
{ACAD_REACTORS
330
1D8
102
}
330
A
100
AcDbSymbolTableRecord
100
AcDbDimStyleTableRecord
  2
ME10_DIM_0
 70
     0
  3

  4

  5

  6

  7

 40
1.0
 41
8.75
 42
0.0
 43
0.38
 44
2.0
 45
0.0
 46
0.0
 47
0.0
 48
0.0
140
8.75
141
0.09
142
0.0
143
25.4
144
1.0
145
0.0
146
1.0
147
0.625
 71
     0
 72
     0
 73
     0
 74
     0
 75
     0
 76
     0
 77
     1
 78
     8
170
     0
171
     2
172
     1
173
     1
174
     0
175
     0
176
     3
177
     3
178
     2
270
     2
271
     2
272
     4
273
     2
274
     2
340
D9
275
     0
280
     0
281
     0
282
     0
283
     1
284
     0
285
     0
286
     0
287
     3
288
     0
  0
DIMSTYLE
105
1E4
102
{ACAD_REACTORS
330
1E5
102
}
330
A
100
AcDbSymbolTableRecord
100
AcDbDimStyleTableRecord
  2
ME10_DIM_1
 70
     0
  3

  4

  5

  6

  7

 40
1.0
 41
8.75
 42
0.0
 43
0.38
 44
2.0
 45
0.0
 46
0.0
 47
0.0
 48
0.0
140
8.75
141
0.09
142
0.0
143
25.4
144
1.0
145
0.0
146
1.0
147
0.625
 71
     0
 72
     0
 73
     0
 74
     0
 75
     0
 76
     0
 77
     1
 78
     8
170
     0
171
     2
172
     1
173
     1
174
     0
175
     0
176
     3
177
     3
178
     2
270
     2
271
     2
272
     4
273
     2
274
     2
340
D9
275
     0
280
     0
281
     0
282
     0
283
     1
284
     0
285
     0
286
     0
287
     3
288
     0
  0
DIMSTYLE
105
1EF
102
{ACAD_REACTORS
330
1F0
102
}
330
A
100
AcDbSymbolTableRecord
100
AcDbDimStyleTableRecord
  2
ME10_DIM_2
 70
     0
  3

  4

  5

  6

  7

 40
1.0
 41
8.75
 42
0.0
 43
0.38
 44
2.0
 45
0.0
 46
0.0
 47
0.0
 48
0.0
140
8.75
141
0.09
142
0.0
143
25.4
144
1.0
145
0.0
146
1.0
147
0.625
 71
     0
 72
     0
 73
     0
 74
     0
 75
     0
 76
     0
 77
     1
 78
     8
170
     0
171
     2
172
     1
173
     1
174
     0
175
     0
176
     3
177
     3
178
     2
270
     2
271
     2
272
     4
273
     2
274
     2
340
D9
275
     0
280
     0
281
     0
282
     0
283
     1
284
     0
285
     0
286
     0
287
     3
288
     0
  0
DIMSTYLE
105
1FA
102
{ACAD_REACTORS
330
1FB
102
}
330
A
100
AcDbSymbolTableRecord
100
AcDbDimStyleTableRecord
  2
ME10_DIM_3
 70
     0
  3

  4

  5

  6

  7

 40
1.0
 41
8.75
 42
0.0
 43
0.38
 44
2.0
 45
0.0
 46
0.0
 47
0.0
 48
0.0
140
8.75
141
0.09
142
0.0
143
25.4
144
1.0
145
0.0
146
1.0
147
0.625
 71
     0
 72
     0
 73
     0
 74
     0
 75
     0
 76
     0
 77
     1
 78
     8
170
     0
171
     2
172
     1
173
     1
174
     0
175
     0
176
     3
177
     3
178
     2
270
     2
271
     2
272
     4
273
     2
274
     2
340
D9
275
     0
280
     0
281
     0
282
     0
283
     1
284
     0
285
     0
286
     0
287
     3
288
     0
  0
DIMSTYLE
105
205
102
{ACAD_REACTORS
330
206
102
}
330
A
100
AcDbSymbolTableRecord
100
AcDbDimStyleTableRecord
  2
ME10_DIM_4
 70
     0
  3

  4

  5

  6

  7

 40
1.0
 41
8.75
 42
0.0
 43
0.38
 44
2.0
 45
0.0
 46
0.0
 47
0.0
 48
0.0
140
8.75
141
0.09
142
0.0
143
25.4
144
1.0
145
0.0
146
1.0
147
0.625
 71
     0
 72
     0
 73
     0
 74
     0
 75
     0
 76
     0
 77
     1
 78
     8
170
     0
171
     2
172
     1
173
     1
174
     0
175
     0
176
     3
177
     3
178
     2
270
     2
271
     2
272
     4
273
     2
274
     2
340
D9
275
     0
280
     0
281
     0
282
     0
283
     1
284
     0
285
     0
286
     0
287
     3
288
     0
  0
DIMSTYLE
105
210
102
{ACAD_REACTORS
330
211
102
}
330
A
100
AcDbSymbolTableRecord
100
AcDbDimStyleTableRecord
  2
ME10_DIM_5
 70
     0
  3

  4

  5

  6

  7

 40
1.0
 41
8.75
 42
0.0
 43
0.38
 44
2.0
 45
0.0
 46
0.0
 47
0.0
 48
0.0
140
8.75
141
0.09
142
0.0
143
25.4
144
1.0
145
0.0
146
1.0
147
0.625
 71
     0
 72
     0
 73
     0
 74
     0
 75
     0
 76
     0
 77
     1
 78
     8
170
     0
171
     2
172
     1
173
     1
174
     0
175
     0
176
     3
177
     3
178
     2
270
     2
271
     2
272
     4
273
     2
274
     2
340
D9
275
     0
280
     0
281
     0
282
     0
283
     1
284
     0
285
     0
286
     0
287
     3
288
     0
  0
DIMSTYLE
105
21C
102
{ACAD_REACTORS
330
21D
102
}
330
A
100
AcDbSymbolTableRecord
100
AcDbDimStyleTableRecord
  2
ME10_DIM_6
 70
     0
  3

  4

  5

  6

  7

 40
1.0
 41
8.75
 42
0.0
 43
0.38
 44
2.0
 45
0.0
 46
0.0
 47
0.0
 48
0.0
140
8.75
141
0.09
142
0.0
143
25.4
144
1.0
145
0.0
146
1.0
147
0.625
 71
     0
 72
     0
 73
     0
 74
     0
 75
     0
 76
     0
 77
     1
 78
     8
170
     0
171
     2
172
     1
173
     1
174
     0
175
     0
176
     3
177
     3
178
     2
270
     2
271
     2
272
     4
273
     2
274
     2
340
D9
275
     0
280
     0
281
     0
282
     0
283
     1
284
     0
285
     0
286
     0
287
     3
288
     0
  0
DIMSTYLE
105
228
102
{ACAD_REACTORS
330
229
102
}
330
A
100
AcDbSymbolTableRecord
100
AcDbDimStyleTableRecord
  2
ME10_DIM_7
 70
     0
  3

  4

  5

  6

  7

 40
1.0
 41
8.75
 42
0.0
 43
0.38
 44
2.0
 45
0.0
 46
0.0
 47
0.0
 48
0.0
140
8.75
141
0.09
142
0.0
143
25.4
144
1.0
145
0.0
146
1.0
147
0.625
 71
     0
 72
     0
 73
     0
 74
     0
 75
     0
 76
     0
 77
     1
 78
     8
170
     0
171
     2
172
     1
173
     1
174
     0
175
     0
176
     3
177
     3
178
     2
270
     2
271
     2
272
     4
273
     2
274
     2
340
D9
275
     0
280
     0
281
     0
282
     0
283
     1
284
     0
285
     0
286
     0
287
     3
288
     0
  0
DIMSTYLE
105
233
102
{ACAD_REACTORS
330
234
102
}
330
A
100
AcDbSymbolTableRecord
100
AcDbDimStyleTableRecord
  2
ME10_DIM_8
 70
     0
  3

  4

  5

  6

  7

 40
1.0
 41
8.75
 42
0.0
 43
0.38
 44
2.0
 45
0.0
 46
0.0
 47
0.0
 48
0.0
140
8.75
141
0.09
142
0.0
143
25.4
144
1.0
145
0.0
146
1.0
147
0.625
 71
     0
 72
     0
 73
     0
 74
     0
 75
     0
 76
     0
 77
     1
 78
     8
170
     0
171
     2
172
     1
173
     1
174
     0
175
     0
176
     3
177
     3
178
     2
270
     2
271
     2
272
     4
273
     2
274
     2
340
D9
275
     0
280
     0
281
     0
282
     0
283
     1
284
     0
285
     0
286
     0
287
     3
288
     0
  0
DIMSTYLE
105
23E
102
{ACAD_REACTORS
330
23F
102
}
330
A
100
AcDbSymbolTableRecord
100
AcDbDimStyleTableRecord
  2
ME10_DIM_9
 70
     0
  3

  4

  5

  6

  7

 40
1.0
 41
8.75
 42
0.0
 43
0.38
 44
2.0
 45
0.0
 46
0.0
 47
0.0
 48
0.0
140
8.75
141
0.09
142
0.0
143
25.4
144
1.0
145
0.0
146
1.0
147
0.625
 71
     0
 72
     0
 73
     0
 74
     0
 75
     0
 76
     0
 77
     1
 78
     8
170
     0
171
     2
172
     1
173
     1
174
     0
175
     0
176
     3
177
     3
178
     2
270
     2
271
     2
272
     4
273
     2
274
     2
340
D9
275
     0
280
     0
281
     0
282
     0
283
     1
284
     0
285
     0
286
     0
287
     3
288
     0
  0
DIMSTYLE
105
24B
102
{ACAD_REACTORS
330
24C
102
}
330
A
100
AcDbSymbolTableRecord
100
AcDbDimStyleTableRecord
  2
ME10_DIM_10
 70
     0
  3

  4

  5

  6

  7

 40
1.0
 41
8.75
 42
0.0
 43
0.38
 44
2.0
 45
0.0
 46
0.0
 47
0.0
 48
0.0
140
8.75
141
0.09
142
0.0
143
25.4
144
1.0
145
0.0
146
1.0
147
0.625
 71
     0
 72
     0
 73
     0
 74
     0
 75
     0
 76
     0
 77
     1
 78
     8
170
     0
171
     2
172
     1
173
     1
174
     0
175
     0
176
     3
177
     3
178
     2
270
     2
271
     2
272
     4
273
     2
274
     2
340
D9
275
     0
280
     0
281
     0
282
     0
283
     1
284
     0
285
     0
286
     0
287
     3
288
     0
  0
DIMSTYLE
105
256
102
{ACAD_REACTORS
330
257
102
}
330
A
100
AcDbSymbolTableRecord
100
AcDbDimStyleTableRecord
  2
ME10_DIM_11
 70
     0
  3

  4

  5

  6

  7

 40
1.0
 41
8.75
 42
0.0
 43
0.38
 44
2.0
 45
0.0
 46
0.0
 47
0.0
 48
0.0
140
8.75
141
0.09
142
0.0
143
25.4
144
1.0
145
0.0
146
1.0
147
0.625
 71
     0
 72
     0
 73
     0
 74
     0
 75
     0
 76
     0
 77
     1
 78
     8
170
     0
171
     2
172
     1
173
     1
174
     0
175
     0
176
     3
177
     3
178
     2
270
     2
271
     2
272
     4
273
     2
274
     2
340
D9
275
     0
280
     0
281
     0
282
     0
283
     1
284
     0
285
     0
286
     0
287
     3
288
     0
  0
DIMSTYLE
105
263
102
{ACAD_REACTORS
330
264
102
}
330
A
100
AcDbSymbolTableRecord
100
AcDbDimStyleTableRecord
  2
ME10_DIM_12
 70
     0
  3

  4

  5

  6

  7

 40
1.0
 41
8.75
 42
0.0
 43
0.38
 44
2.0
 45
0.0
 46
0.0
 47
0.0
 48
0.0
140
8.75
141
0.09
142
0.0
143
25.4
144
1.0
145
0.0
146
1.0
147
0.625
 71
     0
 72
     0
 73
     0
 74
     0
 75
     0
 76
     0
 77
     1
 78
     8
170
     0
171
     2
172
     1
173
     1
174
     0
175
     0
176
     3
177
     3
178
     2
270
     2
271
     2
272
     4
273
     2
274
     2
340
D9
275
     0
280
     0
281
     0
282
     0
283
     1
284
     0
285
     0
286
     0
287
     3
288
     0
  0
DIMSTYLE
105
270
102
{ACAD_REACTORS
330
271
102
}
330
A
100
AcDbSymbolTableRecord
100
AcDbDimStyleTableRecord
  2
ME10_DIM_13
 70
     0
  3

  4

  5

  6

  7

 40
1.0
 41
8.75
 42
0.0
 43
0.38
 44
2.0
 45
0.0
 46
0.0
 47
0.0
 48
0.0
140
8.75
141
0.09
142
0.0
143
25.4
144
1.0
145
0.0
146
1.0
147
0.625
 71
     0
 72
     0
 73
     0
 74
     0
 75
     0
 76
     0
 77
     1
 78
     8
170
     0
171
     2
172
     1
173
     1
174
     0
175
     0
176
     3
177
     3
178
     2
270
     2
271
     2
272
     4
273
     2
274
     2
340
D9
275
     0
280
     0
281
     0
282
     0
283
     1
284
     0
285
     0
286
     0
287
     3
288
     0
  0
DIMSTYLE
105
27D
102
{ACAD_REACTORS
330
27E
102
}
330
A
100
AcDbSymbolTableRecord
100
AcDbDimStyleTableRecord
  2
ME10_DIM_14
 70
     0
  3

  4

  5

  6

  7

 40
1.0
 41
8.75
 42
0.0
 43
0.38
 44
2.0
 45
0.0
 46
0.0
 47
0.0
 48
0.0
140
8.75
141
0.09
142
0.0
143
25.4
144
1.0
145
0.0
146
1.0
147
0.625
 71
     0
 72
     0
 73
     0
 74
     0
 75
     0
 76
     0
 77
     1
 78
     8
170
     0
171
     2
172
     1
173
     1
174
     0
175
     0
176
     3
177
     3
178
     2
270
     2
271
     2
272
     4
273
     2
274
     2
340
D9
275
     0
280
     0
281
     0
282
     0
283
     1
284
     0
285
     0
286
     0
287
     3
288
     0
  0
DIMSTYLE
105
28A
102
{ACAD_REACTORS
330
28B
102
}
330
A
100
AcDbSymbolTableRecord
100
AcDbDimStyleTableRecord
  2
ME10_DIM_15
 70
     0
  3

  4

  5

  6

  7

 40
1.0
 41
8.75
 42
0.0
 43
0.38
 44
2.0
 45
0.0
 46
0.0
 47
0.0
 48
0.0
140
8.75
141
0.09
142
0.0
143
25.4
144
1.0
145
0.0
146
1.0
147
0.625
 71
     0
 72
     0
 73
     0
 74
     0
 75
     0
 76
     0
 77
     1
 78
     8
170
     0
171
     2
172
     1
173
     1
174
     0
175
     0
176
     3
177
     3
178
     2
270
     2
271
     2
272
     4
273
     2
274
     2
340
D9
275
     0
280
     0
281
     0
282
     0
283
     1
284
     0
285
     0
286
     0
287
     3
288
     0
  0
DIMSTYLE
105
297
102
{ACAD_REACTORS
330
298
102
}
330
A
100
AcDbSymbolTableRecord
100
AcDbDimStyleTableRecord
  2
ME10_DIM_16
 70
     0
  3
<>
  4

  5

  6

  7

 40
1.0
 41
8.75
 42
0.0
 43
0.38
 44
2.0
 45
0.0
 46
0.0
 47
0.0
 48
0.0
140
8.75
141
0.09
142
0.0
143
25.4
144
1.0
145
0.0
146
0.71428571428571
147
0.625
 71
     1
 72
     0
 73
     0
 74
     0
 75
     0
 76
     0
 77
     1
 78
     8
170
     0
171
     2
172
     1
173
     1
174
     0
175
     0
176
     3
177
     3
178
     2
270
     2
271
     2
272
     0
273
     2
274
     2
340
D9
275
     0
280
     0
281
     0
282
     0
283
     1
284
     0
285
     0
286
     0
287
     3
288
     0
  0
DIMSTYLE
105
2A4
102
{ACAD_REACTORS
330
2A5
102
}
330
A
100
AcDbSymbolTableRecord
100
AcDbDimStyleTableRecord
  2
ME10_DIM_17
 70
     0
  3

  4

  5

  6

  7

 40
1.0
 41
8.75
 42
0.0
 43
0.38
 44
2.0
 45
0.0
 46
0.0
 47
0.0
 48
0.0
140
8.75
141
0.09
142
0.0
143
25.4
144
1.0
145
0.0
146
1.0
147
0.625
 71
     0
 72
     0
 73
     0
 74
     0
 75
     0
 76
     0
 77
     1
 78
     8
170
     0
171
     2
172
     1
173
     1
174
     0
175
     0
176
     3
177
     3
178
     2
270
     2
271
     2
272
     4
273
     2
274
     2
340
D9
275
     0
280
     0
281
     0
282
     0
283
     1
284
     0
285
     0
286
     0
287
     3
288
     0
  0
DIMSTYLE
105
2B1
102
{ACAD_REACTORS
330
2B2
102
}
330
A
100
AcDbSymbolTableRecord
100
AcDbDimStyleTableRecord
  2
ME10_DIM_18
 70
     0
  3

  4

  5

  6

  7

 40
1.0
 41
8.75
 42
0.0
 43
0.38
 44
2.0
 45
0.0
 46
0.0
 47
0.0
 48
0.0
140
8.75
141
0.09
142
0.0
143
25.4
144
1.0
145
0.0
146
1.0
147
0.625
 71
     0
 72
     0
 73
     0
 74
     0
 75
     0
 76
     0
 77
     1
 78
     8
170
     0
171
     2
172
     1
173
     1
174
     0
175
     0
176
     3
177
     3
178
     2
270
     2
271
     2
272
     4
273
     2
274
     2
340
D9
275
     0
280
     0
281
     0
282
     0
283
     1
284
     0
285
     0
286
     0
287
     3
288
     0
  0
DIMSTYLE
105
2BE
102
{ACAD_REACTORS
330
2BF
102
}
330
A
100
AcDbSymbolTableRecord
100
AcDbDimStyleTableRecord
  2
ME10_DIM_19
 70
     0
  3

  4

  5

  6

  7

 40
1.0
 41
8.75
 42
0.0
 43
0.38
 44
2.0
 45
0.0
 46
0.0
 47
0.0
 48
0.0
140
8.75
141
0.09
142
0.0
143
25.4
144
1.0
145
0.0
146
1.0
147
0.625
 71
     0
 72
     0
 73
     0
 74
     0
 75
     0
 76
     0
 77
     1
 78
     8
170
     0
171
     2
172
     1
173
     1
174
     0
175
     0
176
     3
177
     3
178
     2
270
     2
271
     2
272
     4
273
     2
274
     2
340
D9
275
     0
280
     0
281
     0
282
     0
283
     1
284
     0
285
     0
286
     0
287
     3
288
     0
  0
DIMSTYLE
105
2CB
102
{ACAD_REACTORS
330
2CC
102
}
330
A
100
AcDbSymbolTableRecord
100
AcDbDimStyleTableRecord
  2
ME10_DIM_20
 70
     0
  3

  4

  5

  6

  7

 40
1.0
 41
8.75
 42
0.0
 43
0.38
 44
2.0
 45
0.0
 46
0.0
 47
0.0
 48
0.0
140
8.75
141
0.09
142
0.0
143
25.4
144
1.0
145
0.0
146
1.0
147
0.625
 71
     0
 72
     0
 73
     0
 74
     0
 75
     0
 76
     0
 77
     1
 78
     8
170
     0
171
     2
172
     1
173
     1
174
     0
175
     0
176
     3
177
     3
178
     2
270
     2
271
     2
272
     4
273
     2
274
     2
340
D9
275
     0
280
     0
281
     0
282
     0
283
     1
284
     0
285
     0
286
     0
287
     3
288
     0
  0
DIMSTYLE
105
2D8
102
{ACAD_REACTORS
330
2D9
102
}
330
A
100
AcDbSymbolTableRecord
100
AcDbDimStyleTableRecord
  2
ME10_DIM_21
 70
     0
  3

  4

  5

  6

  7

 40
1.0
 41
8.75
 42
0.0
 43
0.38
 44
2.0
 45
0.0
 46
0.0
 47
0.0
 48
0.0
140
8.75
141
0.09
142
0.0
143
25.4
144
1.0
145
0.0
146
1.0
147
0.625
 71
     0
 72
     0
 73
     0
 74
     0
 75
     0
 76
     0
 77
     1
 78
     8
170
     0
171
     2
172
     1
173
     1
174
     0
175
     0
176
     3
177
     3
178
     2
270
     2
271
     2
272
     4
273
     2
274
     2
340
D9
275
     0
280
     0
281
     0
282
     0
283
     1
284
     0
285
     0
286
     0
287
     3
288
     0
  0
DIMSTYLE
105
2E3
102
{ACAD_REACTORS
330
2E4
102
}
330
A
100
AcDbSymbolTableRecord
100
AcDbDimStyleTableRecord
  2
ME10_DIM_22
 70
     0
  3

  4

  5

  6

  7

 40
1.0
 41
8.75
 42
0.0
 43
0.38
 44
2.0
 45
0.0
 46
0.0
 47
0.0
 48
0.0
140
8.75
141
0.09
142
0.0
143
25.4
144
1.0
145
0.0
146
1.0
147
0.625
 71
     0
 72
     0
 73
     0
 74
     0
 75
     0
 76
     0
 77
     1
 78
     8
170
     0
171
     2
172
     1
173
     1
174
     0
175
     0
176
     3
177
     3
178
     2
270
     2
271
     2
272
     4
273
     2
274
     2
340
D9
275
     0
280
     0
281
     0
282
     0
283
     1
284
     0
285
     0
286
     0
287
     3
288
     0
  0
DIMSTYLE
105
2EE
102
{ACAD_REACTORS
330
2EF
102
}
330
A
100
AcDbSymbolTableRecord
100
AcDbDimStyleTableRecord
  2
ME10_DIM_23
 70
     0
  3

  4

  5

  6

  7

 40
1.0
 41
8.75
 42
0.0
 43
0.38
 44
2.0
 45
0.0
 46
0.0
 47
0.0
 48
0.0
140
8.75
141
0.09
142
0.0
143
25.4
144
1.0
145
0.0
146
1.0
147
0.625
 71
     0
 72
     0
 73
     0
 74
     0
 75
     0
 76
     0
 77
     1
 78
     8
170
     0
171
     2
172
     1
173
     1
174
     0
175
     0
176
     3
177
     3
178
     2
270
     2
271
     2
272
     4
273
     2
274
     2
340
D9
275
     0
280
     0
281
     0
282
     0
283
     1
284
     0
285
     0
286
     0
287
     3
288
     0
  0
DIMSTYLE
105
2F9
102
{ACAD_REACTORS
330
2FA
102
}
330
A
100
AcDbSymbolTableRecord
100
AcDbDimStyleTableRecord
  2
ME10_DIM_24
 70
     0
  3

  4

  5

  6

  7

 40
1.0
 41
8.75
 42
0.0
 43
0.38
 44
2.0
 45
0.0
 46
0.0
 47
0.0
 48
0.0
140
8.75
141
0.09
142
0.0
143
25.4
144
1.0
145
0.0
146
1.0
147
0.625
 71
     0
 72
     0
 73
     0
 74
     0
 75
     0
 76
     0
 77
     1
 78
     8
170
     0
171
     2
172
     1
173
     1
174
     0
175
     0
176
     3
177
     3
178
     2
270
     2
271
     2
272
     4
273
     2
274
     2
340
D9
275
     0
280
     0
281
     0
282
     0
283
     1
284
     0
285
     0
286
     0
287
     3
288
     0
  0
DIMSTYLE
105
306
102
{ACAD_REACTORS
330
307
102
}
330
A
100
AcDbSymbolTableRecord
100
AcDbDimStyleTableRecord
  2
ME10_DIM_25
 70
     0
  3

  4

  5

  6

  7

 40
1.0
 41
8.75
 42
0.0
 43
0.38
 44
2.0
 45
0.0
 46
0.0
 47
0.0
 48
0.0
140
8.75
141
0.09
142
0.0
143
25.4
144
1.0
145
0.0
146
1.0
147
0.625
 71
     0
 72
     0
 73
     0
 74
     0
 75
     0
 76
     0
 77
     1
 78
     8
170
     0
171
     2
172
     1
173
     1
174
     0
175
     0
176
     3
177
     3
178
     2
270
     2
271
     2
272
     4
273
     2
274
     2
340
D9
275
     0
280
     0
281
     0
282
     0
283
     1
284
     0
285
     0
286
     0
287
     3
288
     0
  0
DIMSTYLE
105
311
102
{ACAD_REACTORS
330
312
102
}
330
A
100
AcDbSymbolTableRecord
100
AcDbDimStyleTableRecord
  2
ME10_DIM_26
 70
     0
  3

  4

  5

  6

  7

 40
1.0
 41
8.75
 42
0.0
 43
0.38
 44
2.0
 45
0.0
 46
0.0
 47
0.0
 48
0.0
140
8.75
141
0.09
142
0.0
143
25.4
144
1.0
145
0.0
146
1.0
147
0.625
 71
     0
 72
     0
 73
     0
 74
     0
 75
     0
 76
     0
 77
     1
 78
     8
170
     0
171
     2
172
     1
173
     1
174
     0
175
     0
176
     3
177
     3
178
     2
270
     2
271
     2
272
     4
273
     2
274
     2
340
D9
275
     0
280
     0
281
     0
282
     0
283
     1
284
     0
285
     0
286
     0
287
     3
288
     0
  0
DIMSTYLE
105
31E
102
{ACAD_REACTORS
330
31F
102
}
330
A
100
AcDbSymbolTableRecord
100
AcDbDimStyleTableRecord
  2
ME10_DIM_27
 70
     0
  3

  4

  5

  6

  7

 40
1.0
 41
8.75
 42
0.0
 43
0.38
 44
2.0
 45
0.0
 46
0.0
 47
0.0
 48
0.0
140
8.75
141
0.09
142
0.0
143
25.4
144
1.0
145
0.0
146
1.0
147
0.625
 71
     0
 72
     0
 73
     0
 74
     0
 75
     0
 76
     0
 77
     1
 78
     8
170
     0
171
     2
172
     1
173
     1
174
     0
175
     0
176
     3
177
     3
178
     2
270
     2
271
     2
272
     4
273
     2
274
     2
340
D9
275
     0
280
     0
281
     0
282
     0
283
     1
284
     0
285
     0
286
     0
287
     3
288
     0
  0
DIMSTYLE
105
32B
102
{ACAD_REACTORS
330
32C
102
}
330
A
100
AcDbSymbolTableRecord
100
AcDbDimStyleTableRecord
  2
ME10_DIM_28
 70
     0
  3

  4

  5

  6

  7

 40
1.0
 41
8.75
 42
0.0
 43
0.38
 44
2.0
 45
0.0
 46
0.0
 47
0.0
 48
0.0
140
8.75
141
0.09
142
0.0
143
25.4
144
1.0
145
0.0
146
1.0
147
0.625
 71
     0
 72
     0
 73
     0
 74
     0
 75
     0
 76
     0
 77
     1
 78
     8
170
     0
171
     2
172
     1
173
     1
174
     0
175
     0
176
     3
177
     3
178
     2
270
     2
271
     2
272
     4
273
     2
274
     2
340
D9
275
     0
280
     0
281
     0
282
     0
283
     1
284
     0
285
     0
286
     0
287
     3
288
     0
  0
DIMSTYLE
105
336
102
{ACAD_REACTORS
330
337
102
}
330
A
100
AcDbSymbolTableRecord
100
AcDbDimStyleTableRecord
  2
ME10_DIM_29
 70
     0
  3

  4

  5

  6

  7

 40
1.0
 41
8.75
 42
0.0
 43
0.38
 44
2.0
 45
0.0
 46
0.0
 47
0.0
 48
0.0
140
8.75
141
0.09
142
0.0
143
25.4
144
1.0
145
0.0
146
1.0
147
0.625
 71
     0
 72
     0
 73
     0
 74
     0
 75
     0
 76
     0
 77
     1
 78
     8
170
     0
171
     2
172
     1
173
     1
174
     0
175
     0
176
     3
177
     3
178
     2
270
     2
271
     2
272
     4
273
     2
274
     2
340
D9
275
     0
280
     0
281
     0
282
     0
283
     1
284
     0
285
     0
286
     0
287
     3
288
     0
  0
DIMSTYLE
105
343
102
{ACAD_REACTORS
330
344
102
}
330
A
100
AcDbSymbolTableRecord
100
AcDbDimStyleTableRecord
  2
ME10_DIM_30
 70
     0
  3

  4

  5

  6

  7

 40
1.0
 41
8.75
 42
0.0
 43
0.38
 44
2.0
 45
0.0
 46
0.0
 47
0.0
 48
0.0
140
8.75
141
0.09
142
0.0
143
25.4
144
1.0
145
0.0
146
1.0
147
0.625
 71
     0
 72
     0
 73
     0
 74
     0
 75
     0
 76
     0
 77
     1
 78
     8
170
     0
171
     2
172
     1
173
     1
174
     0
175
     0
176
     3
177
     3
178
     2
270
     2
271
     2
272
     4
273
     2
274
     2
340
D9
275
     0
280
     0
281
     0
282
     0
283
     1
284
     0
285
     0
286
     0
287
     3
288
     0
  0
DIMSTYLE
105
350
102
{ACAD_REACTORS
330
351
102
}
330
A
100
AcDbSymbolTableRecord
100
AcDbDimStyleTableRecord
  2
ME10_DIM_31
 70
     0
  3

  4

  5

  6

  7

 40
1.0
 41
8.75
 42
0.0
 43
0.38
 44
2.0
 45
0.0
 46
0.0
 47
0.0
 48
0.0
140
8.75
141
0.09
142
0.0
143
25.4
144
1.0
145
0.0
146
1.0
147
0.625
 71
     0
 72
     0
 73
     0
 74
     0
 75
     0
 76
     0
 77
     1
 78
     8
170
     0
171
     2
172
     1
173
     1
174
     0
175
     0
176
     3
177
     3
178
     2
270
     2
271
     2
272
     4
273
     2
274
     2
340
D9
275
     0
280
     0
281
     0
282
     0
283
     1
284
     0
285
     0
286
     0
287
     3
288
     0
  0
ENDTAB
  0
TABLE
  2
BLOCK_RECORD
  5
1
330
0
100
AcDbSymbolTable
 70
    35
  0
BLOCK_RECORD
  5
1F
330
1
100
AcDbSymbolTableRecord
100
AcDbBlockTableRecord
  2
*MODEL_SPACE
  0
BLOCK_RECORD
  5
1B
330
1
100
AcDbSymbolTableRecord
100
AcDbBlockTableRecord
  2
*PAPER_SPACE
  0
BLOCK_RECORD
  5
3E
330
1
100
AcDbSymbolTableRecord
100
AcDbBlockTableRecord
  2
_SCHRIFTFELD
  0
BLOCK_RECORD
  5
41
330
1
100
AcDbSymbolTableRecord
100
AcDbBlockTableRecord
  2
_RAHMEN
  0
BLOCK_RECORD
  5
1CE
330
1
100
AcDbSymbolTableRecord
100
AcDbBlockTableRecord
  2
*D03
  0
BLOCK_RECORD
  5
1D9
330
1
100
AcDbSymbolTableRecord
100
AcDbBlockTableRecord
  2
*D14
  0
BLOCK_RECORD
  5
1E6
330
1
100
AcDbSymbolTableRecord
100
AcDbBlockTableRecord
  2
*D25
  0
BLOCK_RECORD
  5
1F1
330
1
100
AcDbSymbolTableRecord
100
AcDbBlockTableRecord
  2
*D36
  0
BLOCK_RECORD
  5
1FC
330
1
100
AcDbSymbolTableRecord
100
AcDbBlockTableRecord
  2
*D47
  0
BLOCK_RECORD
  5
207
330
1
100
AcDbSymbolTableRecord
100
AcDbBlockTableRecord
  2
*D58
  0
BLOCK_RECORD
  5
212
330
1
100
AcDbSymbolTableRecord
100
AcDbBlockTableRecord
  2
*D69
  0
BLOCK_RECORD
  5
21E
330
1
100
AcDbSymbolTableRecord
100
AcDbBlockTableRecord
  2
*D710
  0
BLOCK_RECORD
  5
22A
330
1
100
AcDbSymbolTableRecord
100
AcDbBlockTableRecord
  2
*D811
  0
BLOCK_RECORD
  5
235
330
1
100
AcDbSymbolTableRecord
100
AcDbBlockTableRecord
  2
*D912
  0
BLOCK_RECORD
  5
240
330
1
100
AcDbSymbolTableRecord
100
AcDbBlockTableRecord
  2
*D1013
  0
BLOCK_RECORD
  5
24D
330
1
100
AcDbSymbolTableRecord
100
AcDbBlockTableRecord
  2
*D1114
  0
BLOCK_RECORD
  5
258
330
1
100
AcDbSymbolTableRecord
100
AcDbBlockTableRecord
  2
*D1215
  0
BLOCK_RECORD
  5
265
330
1
100
AcDbSymbolTableRecord
100
AcDbBlockTableRecord
  2
*D1316
  0
BLOCK_RECORD
  5
272
330
1
100
AcDbSymbolTableRecord
100
AcDbBlockTableRecord
  2
*D1417
  0
BLOCK_RECORD
  5
27F
330
1
100
AcDbSymbolTableRecord
100
AcDbBlockTableRecord
  2
*D1518
  0
BLOCK_RECORD
  5
28C
330
1
100
AcDbSymbolTableRecord
100
AcDbBlockTableRecord
  2
*D1619
  0
BLOCK_RECORD
  5
299
330
1
100
AcDbSymbolTableRecord
100
AcDbBlockTableRecord
  2
*D1720
  0
BLOCK_RECORD
  5
2A6
330
1
100
AcDbSymbolTableRecord
100
AcDbBlockTableRecord
  2
*D1821
  0
BLOCK_RECORD
  5
2B3
330
1
100
AcDbSymbolTableRecord
100
AcDbBlockTableRecord
  2
*D1922
  0
BLOCK_RECORD
  5
2C0
330
1
100
AcDbSymbolTableRecord
100
AcDbBlockTableRecord
  2
*D2023
  0
BLOCK_RECORD
  5
2CD
330
1
100
AcDbSymbolTableRecord
100
AcDbBlockTableRecord
  2
*D2124
  0
BLOCK_RECORD
  5
2DA
330
1
100
AcDbSymbolTableRecord
100
AcDbBlockTableRecord
  2
*D2225
  0
BLOCK_RECORD
  5
2E5
330
1
100
AcDbSymbolTableRecord
100
AcDbBlockTableRecord
  2
*D2326
  0
BLOCK_RECORD
  5
2F0
330
1
100
AcDbSymbolTableRecord
100
AcDbBlockTableRecord
  2
*D2427
  0
BLOCK_RECORD
  5
2FB
330
1
100
AcDbSymbolTableRecord
100
AcDbBlockTableRecord
  2
*D2528
  0
BLOCK_RECORD
  5
308
330
1
100
AcDbSymbolTableRecord
100
AcDbBlockTableRecord
  2
*D2629
  0
BLOCK_RECORD
  5
313
330
1
100
AcDbSymbolTableRecord
100
AcDbBlockTableRecord
  2
*D2730
  0
BLOCK_RECORD
  5
320
330
1
100
AcDbSymbolTableRecord
100
AcDbBlockTableRecord
  2
*D2831
  0
BLOCK_RECORD
  5
32D
330
1
100
AcDbSymbolTableRecord
100
AcDbBlockTableRecord
  2
*D2932
  0
BLOCK_RECORD
  5
338
330
1
100
AcDbSymbolTableRecord
100
AcDbBlockTableRecord
  2
*D3033
  0
BLOCK_RECORD
  5
345
330
1
100
AcDbSymbolTableRecord
100
AcDbBlockTableRecord
  2
*D3134
  0
ENDTAB
  0
ENDSEC
  0
SECTION
  2
BLOCKS
  0
BLOCK
  5
20
330
1F
100
AcDbEntity
  8
0
100
AcDbBlockBegin
  2
*MODEL_SPACE
 70
     0
 71
     0
 10
0.0
 20
0.0
 30
0.0
  3
*MODEL_SPACE
  1

  0
ENDBLK
  5
21
330
1F
100
AcDbEntity
  8
0
100
AcDbBlockEnd
  0
BLOCK
  5
1C
330
1B
100
AcDbEntity
 67
     1
  8
0
100
AcDbBlockBegin
  2
*PAPER_SPACE
 70
     0
 71
     0
 10
0.0
 20
0.0
 30
0.0
  3
*PAPER_SPACE
  1

  0
ENDBLK
  5
1D
330
1B
100
AcDbEntity
 67
     1
  8
0
100
AcDbBlockEnd
  0
BLOCK
  5
3F
330
3E
100
AcDbEntity
  8
0
100
AcDbBlockBegin
  2
_SCHRIFTFELD
 70
     0
 71
     0
 10
271.0072058884822
 20
-138.4525382375268
 30
0.0
  3
_SCHRIFTFELD
  1

  0
POINT
  5
46
330
3E
100
AcDbEntity
  8
1
 62
     3
 60
     1
100
AcDbPoint
 10
204.8286760790394
 20
-118.6451958719689
 30
0.0
  0
POINT
  5
47
330
3E
100
AcDbEntity
  8
1
 62
     3
 60
     1
100
AcDbPoint
 10
206.1596738995488
 20
-118.3617345632948
 30
0.0
  0
POINT
  5
48
330
3E
100
AcDbEntity
  8
1
 62
     3
 60
     1
100
AcDbPoint
 10
206.8304156591108
 20
-117.0888356504054
 30
0.0
  0
POINT
  5
49
330
3E
100
AcDbEntity
  8
1
 62
     3
 60
     1
100
AcDbPoint
 10
212.3894912904741
 20
-116.3420361117868
 30
0.0
  0
POINT
  5
4A
330
3E
100
AcDbEntity
  8
1
 62
     3
 60
     1
100
AcDbPoint
 10
212.6817620296836
 20
-117.6965424427352
 30
0.0
  0
POINT
  5
4B
330
3E
100
AcDbEntity
  8
1
 62
     3
 60
     1
100
AcDbPoint
 10
204.1072058884821
 20
-106.5525382375269
 30
0.0
  0
POINT
  5
4C
330
3E
100
AcDbEntity
  8
1
 62
     3
 60
     1
100
AcDbPoint
 10
216.5272058884819
 20
-106.5525382375269
 30
0.0
  0
POINT
  5
4D
330
3E
100
AcDbEntity
  8
1
 62
     3
 60
     1
100
AcDbPoint
 10
217.9072058884821
 20
-120.3525382375268
 30
0.0
  0
POINT
  5
4E
330
3E
100
AcDbEntity
  8
1
 62
     3
 60
     1
100
AcDbPoint
 10
204.279705888482
 20
-106.7250382375269
 30
0.0
  0
POINT
  5
4F
330
3E
100
AcDbEntity
  8
1
 62
     3
 60
     1
100
AcDbPoint
 10
217.734705888482
 20
-108.0039900770361
 30
0.0
  0
POINT
  5
50
330
3E
100
AcDbEntity
  8
1
 62
     3
 60
     1
100
AcDbPoint
 10
217.734705888482
 20
-118.6275382375267
 30
0.0
  0
POINT
  5
51
330
3E
100
AcDbEntity
  8
1
 62
     3
 60
     1
100
AcDbPoint
 10
204.279705888482
 20
-118.6275382375267
 30
0.0
  0
POINT
  5
52
330
3E
100
AcDbEntity
  8
1
 62
     3
 60
     1
100
AcDbPoint
 10
213.4222058884819
 20
-115.8675382375269
 30
0.0
  0
POINT
  5
53
330
3E
100
AcDbEntity
  8
1
 62
     3
 60
     1
100
AcDbPoint
 10
216.8942079326995
 20
-117.7504302016162
 30
0.0
  0
POINT
  5
54
330
3E
100
AcDbEntity
  8
1
 62
     3
 60
     1
100
AcDbPoint
 10
217.0361580711281
 20
-117.5550525974746
 30
0.0
  0
POINT
  5
55
330
3E
100
AcDbEntity
  8
1
 62
     3
 60
     1
100
AcDbPoint
 10
207.269705888482
 20
-118.6275382375267
 30
0.0
  0
POINT
  5
56
330
3E
100
AcDbEntity
  8
1
 62
     3
 60
     1
100
AcDbPoint
 10
209.1786203762464
 20
-115.6811313412014
 30
0.0
  0
POINT
  5
57
330
3E
100
AcDbEntity
  8
1
 62
     3
 60
     1
100
AcDbPoint
 10
207.8972727844744
 20
-117.9220691513655
 30
0.0
  0
POINT
  5
58
330
3E
100
AcDbEntity
  8
1
 62
     3
 60
     1
100
AcDbPoint
 10
209.7761483677929
 20
-117.4890382375268
 30
0.0
  0
POINT
  5
59
330
3E
100
AcDbEntity
  8
1
 62
     3
 60
     1
100
AcDbPoint
 10
208.7980869879735
 20
-117.1095382375269
 30
0.0
  0
POINT
  5
5A
330
3E
100
AcDbEntity
  8
1
 62
     3
 60
     1
100
AcDbPoint
 10
208.2260103066158
 20
-118.1100382375269
 30
0.0
  0
POINT
  5
5B
330
3E
100
AcDbEntity
  8
1
 62
     3
 60
     1
100
AcDbPoint
 10
209.5591537645192
 20
-117.1095382375269
 30
0.0
  0
POINT
  5
5C
330
3E
100
AcDbEntity
  8
1
 62
     3
 60
     1
100
AcDbPoint
 10
208.5810923846998
 20
-117.4890382375268
 30
0.0
  0
POINT
  5
5D
330
3E
100
AcDbEntity
  8
1
 62
     3
 60
     1
100
AcDbPoint
 10
204.6247058884819
 20
-118.3515382375267
 30
0.0
  0
POINT
  5
5E
330
3E
100
AcDbEntity
  8
1
 62
     3
 60
     1
100
AcDbPoint
 10
214.2729605268404
 20
-115.5474720682697
 30
0.0
  0
POINT
  5
5F
330
3E
100
AcDbEntity
  8
1
 62
     3
 60
     1
100
AcDbPoint
 10
205.0739480017032
 20
-109.1625086696698
 30
0.0
  0
POINT
  5
60
330
3E
100
AcDbEntity
  8
1
 62
     3
 60
     1
100
AcDbPoint
 10
213.422205888482
 20
-118.3515382375267
 30
0.0
  0
POINT
  5
61
330
3E
100
AcDbEntity
  8
1
 62
     3
 60
     1
100
AcDbPoint
 10
204.279705888482
 20
-118.3515382375267
 30
0.0
  0
POINT
  5
62
330
3E
100
AcDbEntity
  8
1
 62
     3
 60
     1
100
AcDbPoint
 10
217.9072058884821
 20
-107.9325382375267
 30
0.0
  0
POINT
  5
63
330
3E
100
AcDbEntity
  8
1
 62
     3
 60
     1
100
AcDbPoint
 10
204.1072058884821
 20
-120.3525382375268
 30
0.0
  0
POINT
  5
64
330
3E
100
AcDbEntity
  8
1
 62
     3
 60
     1
100
AcDbPoint
 10
212.6720945304202
 20
-116.1049038373784
 30
0.0
  0
POINT
  5
65
330
3E
100
AcDbEntity
  8
1
 62
     3
 60
     1
100
AcDbPoint
 10
211.7390355820735
 20
-116.9064198333482
 30
0.0
  0
POINT
  5
66
330
3E
100
AcDbEntity
  8
1
 62
     3
 60
     1
100
AcDbPoint
 10
206.5638165282647
 20
-117.8213107424512
 30
0.0
  0
POINT
  5
67
330
3E
100
AcDbEntity
  8
1
 62
     3
 60
     1
100
AcDbPoint
 10
207.1216803259066
 20
-118.3657212863569
 30
0.0
  0
POINT
  5
68
330
3E
100
AcDbEntity
  8
1
 62
     3
 60
     1
100
AcDbPoint
 10
206.7975943912386
 20
-118.039066920134
 30
0.0
  0
POINT
  5
69
330
3E
100
AcDbEntity
  8
1
 62
     3
 60
     1
100
AcDbPoint
 10
206.0401733380414
 20
-117.3335548098639
 30
0.0
  0
POINT
  5
6A
330
3E
100
AcDbEntity
  8
1
 62
     3
 60
     1
100
AcDbPoint
 10
205.9786760790395
 20
-115.1479264371888
 30
0.0
  0
POINT
  5
6B
330
3E
100
AcDbEntity
  8
1
 62
     3
 60
     1
100
AcDbPoint
 10
212.3367620296822
 20
-117.5263752410858
 30
0.0
  0
POINT
  5
6C
330
3E
100
AcDbEntity
  8
1
 62
     3
 60
     1
100
AcDbPoint
 10
216.4557540489726
 20
-106.7250382375269
 30
0.0
  0
POINT
  5
6D
330
3E
100
AcDbEntity
  8
1
 62
     3
 60
     1
100
AcDbPoint
 10
217.734705888482
 20
-120.1800382375269
 30
0.0
  0
POINT
  5
6E
330
3E
100
AcDbEntity
  8
1
 62
     3
 60
     1
100
AcDbPoint
 10
217.734705888482
 20
-118.3610877111938
 30
0.0
  0
POINT
  5
6F
330
3E
100
AcDbEntity
  8
1
 62
     3
 60
     1
100
AcDbPoint
 10
204.279705888482
 20
-120.1800382375269
 30
0.0
  0
POINT
  5
70
330
3E
100
AcDbEntity
  8
1
 62
     3
 60
     1
100
AcDbPoint
 10
214.9747058884819
 20
-116.9954955122552
 30
0.0
  0
POINT
  5
71
330
3E
100
AcDbEntity
  8
1
 62
     3
 60
     1
100
AcDbPoint
 10
204.7697691336419
 20
-109.5811749642588
 30
0.0
  0
POINT
  5
72
330
3E
100
AcDbEntity
  8
1
 62
     3
 60
     1
100
AcDbPoint
 10
216.5900290646381
 20
-118.1690964962052
 30
0.0
  0
POINT
  5
73
330
3E
100
AcDbEntity
  8
1
 62
     3
 60
     1
100
AcDbPoint
 10
214.7393681245345
 20
-114.9055170832331
 30
0.0
  0
POINT
  5
74
330
3E
100
AcDbEntity
  8
1
 62
     3
 60
     1
100
AcDbPoint
 10
217.5025656688222
 20
-116.9130976124382
 30
0.0
  0
POINT
  5
75
330
3E
100
AcDbEntity
  8
1
 62
     3
 60
     1
100
AcDbPoint
 10
207.4140092510552
 20
-118.3515382375267
 30
0.0
  0
POINT
  5
76
330
3E
100
AcDbEntity
  8
1
 62
     3
 60
     1
100
AcDbPoint
 10
210.4599679680184
 20
-117.9220691513655
 30
0.0
  0
POINT
  5
77
330
3E
100
AcDbEntity
  8
1
 62
     3
 60
     1
100
AcDbPoint
 10
210.1312304458771
 20
-118.1100382375269
 30
0.0
  0
POINT
  5
78
330
3E
100
AcDbEntity
  8
1
 62
     3
 60
     1
100
AcDbPoint
 10
209.1786203762464
 20
-116.4440266594927
 30
0.0
  0
LINE
  5
79
330
3E
100
AcDbEntity
  8
Z1
  6
CONTINUOUS
 62
     6
100
AcDbLine
 10
161.0072058884822
 20
-109.4525382375268
 30
0.0
 11
203.0072058884822
 21
-109.4525382375268
 31
0.0
  0
LINE
  5
7A
330
3E
100
AcDbEntity
  8
Z1
  6
CONTINUOUS
 62
     7
100
AcDbLine
 10
161.0072058884822
 20
-117.4525382375268
 30
0.0
 11
203.0072058884822
 21
-117.4525382375268
 31
0.0
  0
LINE
  5
7B
330
3E
100
AcDbEntity
  8
Z1
  6
CONTINUOUS
 62
     7
100
AcDbLine
 10
161.0072058884822
 20
-113.4525382375268
 30
0.0
 11
203.0072058884822
 21
-113.4525382375268
 31
0.0
  0
LINE
  5
7C
330
3E
100
AcDbEntity
  8
Z1
  6
CONTINUOUS
 62
     7
100
AcDbLine
 10
222.0072058884822
 20
-134.2025382375268
 30
0.0
 11
271.0072058884822
 21
-134.2025382375268
 31
0.0
  0
LINE
  5
7D
330
3E
100
AcDbEntity
  8
Z1
  6
CONTINUOUS
 62
     7
100
AcDbLine
 10
222.0072058884822
 20
-129.9525382375268
 30
0.0
 11
271.0072058884822
 21
-129.9525382375268
 31
0.0
  0
LINE
  5
7E
330
3E
100
AcDbEntity
  8
Z1
  6
CONTINUOUS
 62
     7
100
AcDbLine
 10
161.0072058884822
 20
-91.95253823752677
 30
0.0
 11
271.0072058884822
 21
-91.95253823752677
 31
0.0
  0
LINE
  5
7F
330
3E
100
AcDbEntity
  8
Z1
  6
CONTINUOUS
 62
     7
100
AcDbLine
 10
161.0072058884822
 20
-96.45253823752677
 30
0.0
 11
271.0072058884822
 21
-96.45253823752677
 31
0.0
  0
LINE
  5
80
330
3E
100
AcDbEntity
  8
Z4
  6
CONTINUOUS
 62
     6
100
AcDbLine
 10
161.0072058884822
 20
-100.9525382375268
 30
0.0
 11
271.0072058884822
 21
-100.9525382375268
 31
0.0
  0
LINE
  5
81
330
3E
100
AcDbEntity
  8
Z4
  6
CONTINUOUS
 62
     6
100
AcDbLine
 10
91.00720588848219
 20
-105.4525382375268
 30
0.0
 11
121.0072058884822
 21
-105.4525382375268
 31
0.0
  0
LINE
  5
82
330
3E
100
AcDbEntity
  8
Z4
  6
CONTINUOUS
 62
     6
100
AcDbLine
 10
256.0072058884822
 20
-87.45253823752677
 30
0.0
 11
256.0072058884822
 21
-105.4525382375268
 31
0.0
  0
LINE
  5
83
330
3E
100
AcDbEntity
  8
Z4
  6
CONTINUOUS
 62
     6
100
AcDbLine
 10
241.0072058884822
 20
-87.45253823752677
 30
0.0
 11
241.0072058884822
 21
-105.4525382375268
 31
0.0
  0
LINE
  5
84
330
3E
100
AcDbEntity
  8
Z4
  6
CONTINUOUS
 62
     6
100
AcDbLine
 10
181.0072058884822
 20
-87.45253823752677
 30
0.0
 11
181.0072058884822
 21
-105.4525382375268
 31
0.0
  0
LINE
  5
85
330
3E
100
AcDbEntity
  8
Z4
  6
CONTINUOUS
 62
     6
100
AcDbLine
 10
171.0072058884822
 20
-87.45253823752677
 30
0.0
 11
171.0072058884822
 21
-105.4525382375268
 31
0.0
  0
LINE
  5
86
330
3E
100
AcDbEntity
  8
Z4
  6
CONTINUOUS
 62
     6
100
AcDbLine
 10
189.0072058884822
 20
-105.4525382375268
 30
0.0
 11
189.0072058884822
 21
-121.4525382375268
 31
0.0
  0
LINE
  5
87
330
3E
100
AcDbEntity
  8
Z4
  6
CONTINUOUS
 62
     6
100
AcDbLine
 10
175.0072058884822
 20
-105.4525382375268
 30
0.0
 11
175.0072058884822
 21
-121.4525382375268
 31
0.0
  0
LINE
  5
88
330
3E
100
AcDbEntity
  8
Z4
  6
CONTINUOUS
 62
     6
100
AcDbLine
 10
203.0072058884822
 20
-105.4525382375268
 30
0.0
 11
203.0072058884822
 21
-121.4525382375268
 31
0.0
  0
LINE
  5
89
330
3E
100
AcDbEntity
  8
Z4
  6
CONTINUOUS
 62
     6
100
AcDbLine
 10
161.0072058884822
 20
-87.45253823752677
 30
0.0
 11
161.0072058884822
 21
-121.4525382375268
 31
0.0
  0
LINE
  5
8A
330
3E
100
AcDbEntity
  8
Z4
  6
CONTINUOUS
 62
     6
100
AcDbLine
 10
222.0072058884822
 20
-121.4525382375268
 30
0.0
 11
222.0072058884822
 21
-138.4525382375268
 31
0.0
  0
LINE
  5
8B
330
3E
100
AcDbEntity
  8
Z4
  6
CONTINUOUS
 62
     6
100
AcDbLine
 10
110.0072058884822
 20
-121.4525382375268
 30
0.0
 11
110.0072058884822
 21
-138.4525382375268
 31
0.0
  0
LINE
  5
8C
330
3E
100
AcDbEntity
  8
Z4
  6
CONTINUOUS
 62
     6
100
AcDbLine
 10
91.00720588848219
 20
-121.4525382375268
 30
0.0
 11
271.0072058884822
 21
-121.4525382375268
 31
0.0
  0
LINE
  5
8D
330
3E
100
AcDbEntity
  8
Z1
  6
CONTINUOUS
 62
     7
100
AcDbLine
 10
91.00720588848219
 20
-87.45253823752677
 30
0.0
 11
271.0072058884822
 21
-87.45253823752677
 31
0.0
  0
LINE
  5
8E
102
{ACAD_REACTORS
330
111
330
111
102
}
330
3E
100
AcDbEntity
  8
1
  6
CONTINUOUS
 62
     5
100
AcDbLine
 10
205.1269364989663
 20
-116.8885106029484
 30
0.0
 11
206.6730863931811
 21
-117.521094255967
 31
0.0
  0
LINE
  5
8F
102
{ACAD_REACTORS
330
111
330
111
102
}
330
3E
100
AcDbEntity
  8
1
  6
CONTINUOUS
 62
     5
100
AcDbLine
 10
205.2842657648963
 20
-116.4562519973869
 30
0.0
 11
206.8304156591108
 21
-117.0888356504054
 31
0.0
  0
LINE
  5
90
102
{ACAD_REACTORS
330
111
330
111
102
}
330
3E
100
AcDbEntity
  8
1
  6
CONTINUOUS
 62
     5
100
AcDbLine
 10
207.0161851849663
 20
-115.7823067992964
 30
0.0
 11
207.1286760790391
 21
-115.3321503813852
 31
0.0
  0
LINE
  5
91
102
{ACAD_REACTORS
330
111
330
111
102
}
330
3E
100
AcDbEntity
  8
1
  6
CONTINUOUS
 62
     5
100
AcDbLine
 10
204.9411669731113
 20
-118.1950394540576
 30
0.0
 11
204.8286760790394
 21
-118.6451958719689
 31
0.0
  0
LINE
  5
92
330
3E
100
AcDbEntity
  8
1
  6
CONTINUOUS
 62
     5
100
AcDbLine
 10
212.3894912904741
 20
-116.3420361117868
 30
0.0
 11
212.6720945304202
 21
-116.1049038373784
 31
0.0
  0
LINE
  5
93
330
3E
100
AcDbEntity
  8
1
  6
CONTINUOUS
 62
     5
100
AcDbLine
 10
209.1786203762464
 20
-116.4440266594927
 30
0.0
 11
209.5591537645192
 21
-117.1095382375269
 31
0.0
  0
LINE
  5
94
330
3E
100
AcDbEntity
  8
1
  6
CONTINUOUS
 62
     5
100
AcDbLine
 10
208.7980869879735
 20
-117.1095382375269
 30
0.0
 11
209.5591537645192
 21
-117.1095382375269
 31
0.0
  0
LINE
  5
95
330
3E
100
AcDbEntity
  8
1
  6
CONTINUOUS
 62
     5
100
AcDbLine
 10
208.7980869879735
 20
-117.1095382375269
 30
0.0
 11
209.1786203762464
 21
-116.4440266594927
 31
0.0
  0
LINE
  5
96
330
3E
100
AcDbEntity
  8
1
  6
CONTINUOUS
 62
     5
100
AcDbLine
 10
208.2260103066158
 20
-118.1100382375269
 30
0.0
 11
207.8972727844744
 21
-117.9220691513655
 31
0.0
  0
LINE
  5
97
330
3E
100
AcDbEntity
  8
1
  6
CONTINUOUS
 62
     5
100
AcDbLine
 10
208.5810923846998
 20
-117.4890382375268
 30
0.0
 11
208.2260103066158
 21
-118.1100382375269
 31
0.0
  0
LINE
  5
98
330
3E
100
AcDbEntity
  8
1
  6
CONTINUOUS
 62
     5
100
AcDbLine
 10
209.7761483677929
 20
-117.4890382375268
 30
0.0
 11
208.5810923846998
 21
-117.4890382375268
 31
0.0
  0
LINE
  5
99
330
3E
100
AcDbEntity
  8
1
  6
CONTINUOUS
 62
     5
100
AcDbLine
 10
210.1312304458771
 20
-118.1100382375269
 30
0.0
 11
209.7761483677929
 21
-117.4890382375268
 31
0.0
  0
LINE
  5
9A
330
3E
100
AcDbEntity
  8
1
  6
CONTINUOUS
 62
     5
100
AcDbLine
 10
210.4599679680184
 20
-117.9220691513655
 30
0.0
 11
210.1312304458771
 21
-118.1100382375269
 31
0.0
  0
LINE
  5
9B
330
3E
100
AcDbEntity
  8
1
  6
CONTINUOUS
 62
     5
100
AcDbLine
 10
209.1786203762464
 20
-115.6811313412014
 30
0.0
 11
210.4599679680184
 21
-117.9220691513655
 31
0.0
  0
LINE
  5
9C
330
3E
100
AcDbEntity
  8
1
  6
CONTINUOUS
 62
     5
100
AcDbLine
 10
207.8972727844744
 20
-117.9220691513655
 30
0.0
 11
209.1786203762464
 21
-115.6811313412014
 31
0.0
  0
LINE
  5
9D
330
3E
100
AcDbEntity
  8
1
  6
CONTINUOUS
 62
     5
100
AcDbLine
 10
212.6817620296836
 20
-116.7196928348474
 30
0.0
 11
212.6817620296836
 21
-117.6965424427352
 31
0.0
  0
LINE
  5
9E
330
3E
100
AcDbEntity
  8
1
  6
CONTINUOUS
 62
     5
100
AcDbLine
 10
211.739035582073
 20
-116.7196928348474
 30
0.0
 11
212.6817620296836
 21
-116.7196928348474
 31
0.0
  0
LINE
  5
9F
330
3E
100
AcDbEntity
  8
1
  6
CONTINUOUS
 62
     5
100
AcDbLine
 10
212.3367620296823
 20
-117.0605102556998
 30
0.0
 11
212.3367620296822
 21
-117.5263752410858
 31
0.0
  0
LINE
  5
A0
330
3E
100
AcDbEntity
  8
1
  6
CONTINUOUS
 62
     5
100
AcDbLine
 10
212.3367620296823
 20
-117.0605102556998
 30
0.0
 11
211.5653804325182
 21
-117.0605102556998
 31
0.0
  0
LINE
  5
A1
330
3E
100
AcDbEntity
  8
1
  6
CONTINUOUS
 62
     5
100
AcDbLine
 10
211.5653804325182
 20
-117.0605102556998
 30
0.0
 11
211.739035582073
 21
-116.7196928348474
 31
0.0
  0
LINE
  5
A2
102
{ACAD_REACTORS
330
110
330
110
102
}
330
3E
100
AcDbEntity
  8
1
  6
CONTINUOUS
 62
     5
100
AcDbLine
 10
204.279705888482
 20
-118.6275382375267
 30
0.0
 11
204.5557354472563
 21
-118.6275382375269
 31
0.0
  0
LINE
  5
A3
102
{ACAD_REACTORS
330
110
330
110
102
}
330
3E
100
AcDbEntity
  8
1
  6
CONTINUOUS
 62
     5
100
AcDbLine
 10
204.6247058884819
 20
-118.3515382375267
 30
0.0
 11
204.5557354472563
 21
-118.6275382375269
 31
0.0
  0
LINE
  5
A4
102
{ACAD_REACTORS
330
110
330
110
102
}
330
3E
100
AcDbEntity
  8
1
  6
CONTINUOUS
 62
     5
100
AcDbLine
 10
204.279705888482
 20
-118.3515382375267
 30
0.0
 11
204.279705888482
 21
-106.7250382375269
 31
0.0
  0
LINE
  5
A5
102
{ACAD_REACTORS
330
110
330
110
102
}
330
3E
100
AcDbEntity
  8
1
  6
CONTINUOUS
 62
     5
100
AcDbLine
 10
204.279705888482
 20
-118.3515382375267
 30
0.0
 11
204.6247058884819
 21
-118.3515382375267
 31
0.0
  0
LINE
  5
A6
102
{ACAD_REACTORS
330
110
330
110
102
}
330
3E
100
AcDbEntity
  8
1
  6
CONTINUOUS
 62
     5
100
AcDbLine
 10
207.4140092510552
 20
-118.3515382375267
 30
0.0
 11
213.422205888482
 21
-118.3515382375267
 31
0.0
  0
LINE
  5
A7
102
{ACAD_REACTORS
330
110
330
110
102
}
330
3E
100
AcDbEntity
  8
1
  6
CONTINUOUS
 62
     5
100
AcDbLine
 10
207.269705888482
 20
-118.6275382375267
 30
0.0
 11
207.4140092510552
 21
-118.3515382375267
 31
0.0
  0
LINE
  5
A8
102
{ACAD_REACTORS
330
110
330
110
102
}
330
3E
100
AcDbEntity
  8
1
  6
CONTINUOUS
 62
     5
100
AcDbLine
 10
217.734705888482
 20
-118.6275382375267
 30
0.0
 11
217.734705888482
 21
-120.1800382375269
 31
0.0
  0
LINE
  5
A9
102
{ACAD_REACTORS
330
110
330
110
102
}
330
3E
100
AcDbEntity
  8
1
  6
CONTINUOUS
 62
     5
100
AcDbLine
 10
217.734705888482
 20
-118.6275382375267
 30
0.0
 11
207.269705888482
 21
-118.6275382375267
 31
0.0
  0
LINE
  5
AA
102
{ACAD_REACTORS
330
110
330
110
102
}
330
3E
100
AcDbEntity
  8
1
  6
CONTINUOUS
 62
     5
100
AcDbLine
 10
217.734705888482
 20
-118.3610877111938
 30
0.0
 11
214.9747058884824
 21
-118.3610877111939
 31
0.0
  0
LINE
  5
AB
102
{ACAD_REACTORS
330
110
330
110
102
}
330
3E
100
AcDbEntity
  8
1
  6
CONTINUOUS
 62
     5
100
AcDbLine
 10
216.8942079326995
 20
-117.7504302016162
 30
0.0
 11
216.5900290646381
 21
-118.1690964962052
 31
0.0
  0
LINE
  5
AC
102
{ACAD_REACTORS
330
10F
330
10F
102
}
330
3E
100
AcDbEntity
  8
1
  6
CONTINUOUS
 62
     5
100
AcDbLine
 10
217.5025656688222
 20
-116.9130976124382
 30
0.0
 11
214.7393681245345
 21
-114.9055170832331
 31
0.0
  0
LINE
  5
AD
102
{ACAD_REACTORS
330
10F
330
10F
102
}
330
3E
100
AcDbEntity
  8
1
  6
CONTINUOUS
 62
     5
100
AcDbLine
 10
217.0361580711281
 20
-117.5550525974746
 30
0.0
 11
217.5025656688222
 21
-116.9130976124382
 31
0.0
  0
LINE
  5
AE
102
{ACAD_REACTORS
330
10F
330
10F
102
}
330
3E
100
AcDbEntity
  8
1
  6
CONTINUOUS
 62
     5
100
AcDbLine
 10
214.2729605268404
 20
-115.5474720682697
 30
0.0
 11
217.0361580711281
 21
-117.5550525974746
 31
0.0
  0
LINE
  5
AF
102
{ACAD_REACTORS
330
10F
330
10F
102
}
330
3E
100
AcDbEntity
  8
1
  6
CONTINUOUS
 62
     5
100
AcDbLine
 10
214.7393681245345
 20
-114.9055170832331
 30
0.0
 11
214.2729605268404
 21
-115.5474720682697
 31
0.0
  0
LINE
  5
B0
102
{ACAD_REACTORS
330
110
330
110
102
}
330
3E
100
AcDbEntity
  8
1
  6
CONTINUOUS
 62
     5
100
AcDbLine
 10
216.8942079326995
 20
-117.7504302016162
 30
0.0
 11
205.0739480017032
 21
-109.1625086696698
 31
0.0
  0
LINE
  5
B1
102
{ACAD_REACTORS
330
110
330
110
102
}
330
3E
100
AcDbEntity
  8
1
  6
CONTINUOUS
 62
     5
100
AcDbLine
 10
214.9747058884819
 20
-116.9954955122552
 30
0.0
 11
216.5900290646381
 21
-118.1690964962052
 31
0.0
  0
LINE
  5
B2
102
{ACAD_REACTORS
330
110
330
110
102
}
330
3E
100
AcDbEntity
  8
1
  6
CONTINUOUS
 62
     5
100
AcDbLine
 10
205.0739480017032
 20
-109.1625086696698
 30
0.0
 11
204.7697691336419
 21
-109.5811749642588
 31
0.0
  0
LINE
  5
B3
102
{ACAD_REACTORS
330
110
330
110
102
}
330
3E
100
AcDbEntity
  8
1
  6
CONTINUOUS
 62
     5
100
AcDbLine
 10
213.4222058884819
 20
-115.8675382375269
 30
0.0
 11
204.7697691336419
 21
-109.5811749642588
 31
0.0
  0
LINE
  5
B4
102
{ACAD_REACTORS
330
110
330
110
102
}
330
3E
100
AcDbEntity
  8
1
  6
CONTINUOUS
 62
     5
100
AcDbLine
 10
214.9747058884819
 20
-116.9954955122552
 30
0.0
 11
214.9747058884824
 21
-118.3610877111939
 31
0.0
  0
LINE
  5
B5
102
{ACAD_REACTORS
330
110
330
110
102
}
330
3E
100
AcDbEntity
  8
1
  6
CONTINUOUS
 62
     5
100
AcDbLine
 10
213.4222058884819
 20
-115.8675382375269
 30
0.0
 11
213.422205888482
 21
-118.3515382375267
 31
0.0
  0
LINE
  5
B6
102
{ACAD_REACTORS
330
110
330
110
102
}
330
3E
100
AcDbEntity
  8
1
  6
CONTINUOUS
 62
     5
100
AcDbLine
 10
204.279705888482
 20
-120.1800382375269
 30
0.0
 11
204.279705888482
 21
-118.6275382375267
 31
0.0
  0
LINE
  5
B7
102
{ACAD_REACTORS
330
110
330
110
102
}
330
3E
100
AcDbEntity
  8
1
  6
CONTINUOUS
 62
     5
100
AcDbLine
 10
217.734705888482
 20
-120.1800382375269
 30
0.0
 11
204.279705888482
 21
-120.1800382375269
 31
0.0
  0
LINE
  5
B8
102
{ACAD_REACTORS
330
110
330
110
102
}
330
3E
100
AcDbEntity
  8
1
  6
CONTINUOUS
 62
     5
100
AcDbLine
 10
217.734705888482
 20
-108.0039900770361
 30
0.0
 11
217.734705888482
 21
-118.3610877111938
 31
0.0
  0
LINE
  5
B9
102
{ACAD_REACTORS
330
110
330
110
102
}
330
3E
100
AcDbEntity
  8
1
  6
CONTINUOUS
 62
     5
100
AcDbLine
 10
216.4557540489726
 20
-106.7250382375269
 30
0.0
 11
217.734705888482
 21
-108.0039900770361
 31
0.0
  0
LINE
  5
BA
102
{ACAD_REACTORS
330
110
330
110
102
}
330
3E
100
AcDbEntity
  8
1
  6
CONTINUOUS
 62
     5
100
AcDbLine
 10
204.279705888482
 20
-106.7250382375269
 30
0.0
 11
216.4557540489726
 21
-106.7250382375269
 31
0.0
  0
LINE
  5
BB
102
{ACAD_REACTORS
330
110
330
110
102
}
330
3E
100
AcDbEntity
  8
1
  6
CONTINUOUS
 62
     5
100
AcDbLine
 10
217.9072058884821
 20
-120.3525382375268
 30
0.0
 11
204.1072058884821
 21
-120.3525382375268
 31
0.0
  0
LINE
  5
BC
102
{ACAD_REACTORS
330
110
330
110
102
}
330
3E
100
AcDbEntity
  8
1
  6
CONTINUOUS
 62
     5
100
AcDbLine
 10
217.9072058884821
 20
-107.9325382375267
 30
0.0
 11
217.9072058884821
 21
-120.3525382375268
 31
0.0
  0
LINE
  5
BD
102
{ACAD_REACTORS
330
110
330
110
102
}
330
3E
100
AcDbEntity
  8
1
  6
CONTINUOUS
 62
     5
100
AcDbLine
 10
216.5272058884819
 20
-106.5525382375269
 30
0.0
 11
217.9072058884821
 21
-107.9325382375267
 31
0.0
  0
LINE
  5
BE
102
{ACAD_REACTORS
330
110
330
110
102
}
330
3E
100
AcDbEntity
  8
1
  6
CONTINUOUS
 62
     5
100
AcDbLine
 10
204.1072058884821
 20
-106.5525382375269
 30
0.0
 11
216.5272058884819
 21
-106.5525382375269
 31
0.0
  0
LINE
  5
BF
102
{ACAD_REACTORS
330
110
330
110
102
}
330
3E
100
AcDbEntity
  8
1
  6
CONTINUOUS
 62
     5
100
AcDbLine
 10
204.1072058884821
 20
-120.3525382375268
 30
0.0
 11
204.1072058884821
 21
-106.5525382375269
 31
0.0
  0
LINE
  5
C0
330
3E
100
AcDbEntity
  8
Z4
  6
CONTINUOUS
 62
     6
100
AcDbLine
 10
121.0072058884822
 20
-105.4525382375268
 30
0.0
 11
121.0072058884822
 21
-121.4525382375268
 31
0.0
  0
LINE
  5
C1
330
3E
100
AcDbEntity
  8
Z4
  6
CONTINUOUS
 62
     6
100
AcDbLine
 10
121.0072058884822
 20
-105.4525382375268
 30
0.0
 11
271.0072058884822
 21
-105.4525382375268
 31
0.0
  0
ARC
  5
C2
102
{ACAD_REACTORS
330
111
330
111
102
}
330
3E
100
AcDbEntity
  8
1
  6
CONTINUOUS
 62
     5
100
AcDbCircle
 10
205.3935356298122
 20
-116.1560355109028
 30
0.0
 40
0.7794837118472237
100
AcDbArc
 50
135.6992600300658
 51
-109.9999999999926
  0
ARC
  5
C3
102
{ACAD_REACTORS
330
111
330
111
102
}
330
3E
100
AcDbEntity
  8
1
  6
CONTINUOUS
 62
     5
100
AcDbCircle
 10
205.9171788200371
 20
-116.6437914434901
 30
0.0
 40
1.495000000000136
100
AcDbArc
 50
91.61171222943574
 51
136.3372404871681
  0
ARC
  5
C4
102
{ACAD_REACTORS
330
111
330
111
102
}
330
3E
100
AcDbEntity
  8
1
  6
CONTINUOUS
 62
     5
100
AcDbCircle
 10
205.3935356298122
 20
-116.1560355109028
 30
0.0
 40
0.3194837118474766
100
AcDbArc
 50
137.0321612634567
 51
-109.9999999999481
  0
ARC
  5
C5
102
{ACAD_REACTORS
330
111
330
111
102
}
330
3E
100
AcDbEntity
  8
1
  6
CONTINUOUS
 62
     5
100
AcDbCircle
 10
205.9171788200371
 20
-116.6437914434901
 30
0.0
 40
1.035100956219309
100
AcDbArc
 50
96.62947828026248
 51
137.0321612634586
  0
ARC
  5
C6
102
{ACAD_REACTORS
330
111
330
111
102
}
330
3E
100
AcDbEntity
  8
1
  6
CONTINUOUS
 62
     5
100
AcDbCircle
 10
205.9786760790395
 20
-118.8294198161652
 30
0.0
 40
3.681493378976184
100
AcDbArc
 50
71.79768893908981
 51
91.61171222943217
  0
ARC
  5
C7
102
{ACAD_REACTORS
330
111
330
111
102
}
330
3E
100
AcDbEntity
  8
1
  6
CONTINUOUS
 62
     5
100
AcDbCircle
 10
205.9786760790395
 20
-118.8294198161652
 30
0.0
 40
3.218900881116451
100
AcDbArc
 50
71.19684529474814
 51
93.22342445883584
  0
ARC
  5
C8
102
{ACAD_REACTORS
330
111
330
111
102
}
330
3E
100
AcDbEntity
  8
1
  6
CONTINUOUS
 62
     5
100
AcDbCircle
 10
205.9786760790395
 20
-115.1479264371888
 30
0.0
 40
3.68149337897643
100
AcDbArc
 50
-108.2023110609169
 51
-88.38828777059128
  0
ARC
  5
C9
102
{ACAD_REACTORS
330
111
330
111
102
}
330
3E
100
AcDbEntity
  8
1
  6
CONTINUOUS
 62
     5
100
AcDbCircle
 10
205.9786760790395
 20
-115.1479264371888
 30
0.0
 40
3.218900881116913
100
AcDbArc
 50
-108.8031547052753
 51
-86.776575541196
  0
ARC
  5
CA
102
{ACAD_REACTORS
330
111
330
111
102
}
330
3E
100
AcDbEntity
  8
1
  6
CONTINUOUS
 62
     5
100
AcDbCircle
 10
206.0401733380414
 20
-117.3335548098639
 30
0.0
 40
1.495000000000108
100
AcDbArc
 50
-88.38828777060238
 51
-43.66275951287408
  0
ARC
  5
CB
102
{ACAD_REACTORS
330
111
330
111
102
}
330
3E
100
AcDbEntity
  8
1
  6
CONTINUOUS
 62
     5
100
AcDbCircle
 10
206.0401733380414
 20
-117.3335548098639
 30
0.0
 40
1.035100956219162
100
AcDbArc
 50
-83.37052171980785
 51
-42.96783873659366
  0
ARC
  5
CC
102
{ACAD_REACTORS
330
111
330
111
102
}
330
3E
100
AcDbEntity
  8
1
  6
CONTINUOUS
 62
     5
100
AcDbCircle
 10
206.5638165282647
 20
-117.8213107424512
 30
0.0
 40
0.7794837118472237
100
AcDbArc
 50
-44.30073996993426
 51
69.99999999999864
  0
ARC
  5
CD
102
{ACAD_REACTORS
330
111
330
111
102
}
330
3E
100
AcDbEntity
  8
1
  6
CONTINUOUS
 62
     5
100
AcDbCircle
 10
206.5638165282647
 20
-117.8213107424512
 30
0.0
 40
0.31948371184719
100
AcDbArc
 50
-42.96783873651808
 51
69.99999999997174
  0
ARC
  5
CE
330
3E
100
AcDbEntity
  8
1
  6
CONTINUOUS
 62
     5
100
AcDbCircle
 10
211.7390355820735
 20
-116.9064198333482
 30
0.0
 40
1.230051581392126
100
AcDbArc
 50
40.66322727574663
 51
-39.96721488601735
  0
ARC
  5
CF
330
3E
100
AcDbEntity
  8
1
  6
CONTINUOUS
 62
     5
100
AcDbCircle
 10
211.7390355820735
 20
-116.9064198333482
 30
0.0
 40
0.8611745547532169
100
AcDbArc
 50
40.94733722364093
 51
-46.04582666015199
  0
XLINE
  5
D0
330
3E
100
AcDbEntity
  8
1
  6
DOT_CENTER
 62
     3
 60
     1
100
AcDbXline
 10
205.9786760790395
 20
-115.1479264371888
 30
0.0
 11
-0.3123732359719131
 21
-0.9499594525285989
 31
0.0
  0
XLINE
  5
D1
330
3E
100
AcDbEntity
  8
1
  6
DOT_CENTER
 62
     3
 60
     1
100
AcDbXline
 10
206.0401733380414
 20
-117.3335548098639
 30
0.0
 11
0.7317364056593275
 21
-0.6815877292269632
 31
0.0
  0
XLINE
  5
D2
330
3E
100
AcDbEntity
  8
1
  6
DOT_CENTER
 62
     3
 60
     1
100
AcDbXline
 10
211.7390355820735
 20
-116.9064198333482
 30
0.0
 11
0.6940828015755927
 21
-0.7198951760895307
 31
0.0
  0
XLINE
  5
D3
330
3E
100
AcDbEntity
  8
1
  6
DOT_CENTER
 62
     3
 60
     1
100
AcDbXline
 10
211.7390355820735
 20
-116.9064198333482
 30
0.0
 11
0.7553122706777714
 21
0.6553650690749311
 31
0.0
  0
XLINE
  5
D4
330
3E
100
AcDbEntity
  8
1
  6
DOT_CENTER
 62
     3
 60
     1
100
AcDbXline
 10
211.7390355820735
 20
-116.9064198333482
 30
0.0
 11
0.7664121260197058
 21
-0.6423491675794051
 31
0.0
  0
XLINE
  5
D5
330
3E
100
AcDbEntity
  8
1
  6
DOT_CENTER
 62
     3
 60
     1
100
AcDbXline
 10
205.9786760790395
 20
-115.1479264371888
 30
0.0
 11
0.05622969678011738
 21
-0.9984178590149598
 31
0.0
  0
XLINE
  5
D6
330
3E
100
AcDbEntity
  8
1
  6
DOT_CENTER
 62
     3
 60
     1
100
AcDbXline
 10
206.0401733380414
 20
-117.3335548098639
 30
0.0
 11
0.7234160453956451
 21
-0.6904123588581871
 31
0.0
  0
XLINE
  5
D7
330
3E
100
AcDbEntity
  8
1
  6
DOT_CENTER
 62
     3
 60
     1
100
AcDbXline
 10
206.5638165282647
 20
-117.8213107424512
 30
0.0
 11
0.342020143325682
 21
0.9396926207859037
 31
0.0
  0
XLINE
  5
D8
330
3E
100
AcDbEntity
  8
1
  6
DOT_CENTER
 62
     3
 60
     1
100
AcDbXline
 10
211.7390355820735
 20
-116.9064198333482
 30
0.0
 11
0.7585527001158178
 21
0.651611695066166
 31
0.0
  0
MTEXT
  5
DA
330
3E
100
AcDbEntity
  8
1
 62
     7
100
AcDbMText
 10
176.0072058884822
 20
-95.45253823752677
 30
0.0
 40
2.2
 41
0.0
 71
     8
 72
     1
  1
 
  7
CONVERTER_1
1001
ACAD
1000
MTEXTBEGIN
1070
    44
1040
1.32052821128451
1000
MTEXTEND
  0
MTEXT
  5
DC
330
3E
100
AcDbEntity
  8
1
 62
     7
100
AcDbMText
 10
210.4333684593622
 20
-90.58146073279966
 30
0.0
 40
2.0
 41
0.0
 71
     8
 72
     1
  1
 
  7
CONVERTER_2
1001
ACAD
1000
MTEXTBEGIN
1070
    44
1040
1.32052821128451
1000
MTEXTEND
  0
MTEXT
  5
DD
330
3E
100
AcDbEntity
  8
1
 62
     7
100
AcDbMText
 10
210.4333684593622
 20
-95.08146073279977
 30
0.0
 40
2.0
 41
0.0
 71
     8
 72
     1
  1
 
  7
CONVERTER_2
1001
ACAD
1000
MTEXTBEGIN
1070
    44
1040
1.32052821128451
1000
MTEXTEND
  0
MTEXT
  5
DE
330
3E
100
AcDbEntity
  8
1
 62
     7
100
AcDbMText
 10
210.4333684593622
 20
-99.58146073279977
 30
0.0
 40
2.0
 41
0.0
 71
     8
 72
     1
  1
Mass hinzu
  7
CONVERTER_2
1001
ACAD
1000
MTEXTBEGIN
1070
    44
1040
1.32052821128451
1000
MTEXTEND
  0
MTEXT
  5
DF
330
3E
100
AcDbEntity
  8
1
 62
     7
100
AcDbMText
 10
176.0072058884822
 20
-90.95253823752677
 30
0.0
 40
2.2
 41
0.0
 71
     8
 72
     1
  1
 
  7
CONVERTER_1
1001
ACAD
1000
MTEXTBEGIN
1070
    44
1040
1.32052821128451
1000
MTEXTEND
  0
MTEXT
  5
E0
330
3E
100
AcDbEntity
  8
1
 62
     7
100
AcDbMText
 10
263.5072058884822
 20
-90.95253823752677
 30
0.0
 40
2.2
 41
0.0
 71
     8
 72
     1
  1
 
  7
CONVERTER_2
1001
ACAD
1000
MTEXTBEGIN
1070
    44
1040
1.32052821128451
1000
MTEXTEND
  0
MTEXT
  5
E1
330
3E
100
AcDbEntity
  8
1
 62
     7
100
AcDbMText
 10
263.5072058884822
 20
-95.45253823752677
 30
0.0
 40
2.2
 41
0.0
 71
     8
 72
     1
  1
 
  7
CONVERTER_2
1001
ACAD
1000
MTEXTBEGIN
1070
    44
1040
1.32052821128451
1000
MTEXTEND
  0
MTEXT
  5
E2
330
3E
100
AcDbEntity
  8
1
 62
     7
100
AcDbMText
 10
263.5072058884822
 20
-99.95253823752677
 30
0.0
 40
2.2
 41
0.0
 71
     8
 72
     1
  1
jung
  7
CONVERTER_2
1001
ACAD
1000
MTEXTBEGIN
1070
    44
1040
1.32052821128451
1000
MTEXTEND
  0
MTEXT
  5
E3
330
3E
100
AcDbEntity
  8
1
 62
     7
100
AcDbMText
 10
248.5072058884822
 20
-90.95253823752677
 30
0.0
 40
2.2
 41
0.0
 71
     8
 72
     1
  1
 
  7
CONVERTER_2
1001
ACAD
1000
MTEXTBEGIN
1070
    44
1040
1.32052821128451
1000
MTEXTEND
  0
MTEXT
  5
E4
330
3E
100
AcDbEntity
  8
1
 62
     7
100
AcDbMText
 10
248.5072058884822
 20
-95.45253823752677
 30
0.0
 40
2.2
 41
0.0
 71
     8
 72
     1
  1
 
  7
CONVERTER_2
1001
ACAD
1000
MTEXTBEGIN
1070
    44
1040
1.32052821128451
1000
MTEXTEND
  0
MTEXT
  5
E5
330
3E
100
AcDbEntity
  8
1
 62
     7
100
AcDbMText
 10
248.5072058884822
 20
-99.95253823752677
 30
0.0
 40
2.2
 41
0.0
 71
     8
 72
     1
  1
16.10.2002
  7
CONVERTER_2
1001
ACAD
1000
MTEXTBEGIN
1070
    44
1040
1.32052821128451
1000
MTEXTEND
  0
MTEXT
  5
E6
330
3E
100
AcDbEntity
  8
1
 62
     7
100
AcDbMText
 10
176.0072058884822
 20
-99.95253823752677
 30
0.0
 40
2.2
 41
0.0
 71
     8
 72
     1
  1
1x
  7
CONVERTER_1
1001
ACAD
1000
MTEXTBEGIN
1070
    44
1040
1.32052821128451
1000
MTEXTEND
  0
MTEXT
  5
E7
330
3E
100
AcDbEntity
  8
1
 62
     7
100
AcDbMText
 10
166.0072058884822
 20
-90.95253823752677
 30
0.0
 40
2.2
 41
0.0
 71
     8
 72
     1
  1
 
  7
CONVERTER_1
1001
ACAD
1000
MTEXTBEGIN
1070
    44
1040
1.32052821128451
1000
MTEXTEND
  0
MTEXT
  5
E8
330
3E
100
AcDbEntity
  8
1
 62
     7
100
AcDbMText
 10
166.0072058884822
 20
-95.45253823752677
 30
0.0
 40
2.2
 41
0.0
 71
     8
 72
     1
  1
 
  7
CONVERTER_1
1001
ACAD
1000
MTEXTBEGIN
1070
    44
1040
1.32052821128451
1000
MTEXTEND
  0
MTEXT
  5
E9
330
3E
100
AcDbEntity
  8
1
 62
     7
100
AcDbMText
 10
166.0072058884822
 20
-99.95253823752677
 30
0.0
 40
2.2
 41
0.0
 71
     8
 72
     1
  1
a
  7
CONVERTER_1
1001
ACAD
1000
MTEXTBEGIN
1070
    44
1040
1.32052821128451
1000
MTEXTEND
  0
MTEXT
  5
EB
330
3E
100
AcDbEntity
  8
1
 62
     7
100
AcDbMText
 10
87.97892606020514
 20
-128.5381026091379
 30
0.0
 40
2.0
 41
0.0
 71
     5
 72
     1
  1
0005135
  7
CONVERTER_3
 11
0.0
 21
1.0
 31
0.0
1001
ACAD
1000
MTEXTBEGIN
1070
    44
1040
1.32052821128451
1000
MTEXTEND
  0
TEXT
  5
ED
330
3E
100
AcDbEntity
  8
1
 62
     6
100
AcDbText
 10
235.5072058884822
 20
-128.4525382375268
 30
0.0
 40
5.0
  1
K1.9403DS
 41
0.585
  7
CONVERTER_4
100
AcDbText
  0
MTEXT
  5
EE
330
3E
100
AcDbEntity
  8
1
 62
     7
100
AcDbMText
 10
87.97892606020514
 20
-102.2381026091379
 30
0.0
 40
2.0
 41
0.0
 71
     5
 72
     1
  1
 
  7
CONVERTER_3
 11
0.0
 21
1.0
 31
0.0
1001
ACAD
1000
MTEXTBEGIN
1070
    44
1040
1.32052821128451
1000
MTEXTEND
  0
MTEXT
  5
EF
330
3E
100
AcDbEntity
  8
1
 62
     7
100
AcDbMText
 10
196.5072058884822
 20
-112.4525382375268
 30
0.0
 40
2.2
 41
0.0
 71
     8
 72
     1
  1
weiss
  7
CONVERTER_2
1001
ACAD
1000
MTEXTBEGIN
1070
    44
1040
1.32052821128451
1000
MTEXTEND
  0
MTEXT
  5
F0
330
3E
100
AcDbEntity
  8
1
 62
     7
100
AcDbMText
 10
182.0072058884822
 20
-112.7025382375268
 30
0.0
 40
2.2
 41
0.0
 71
     8
 72
     1
  1
28.04.1999
  7
CONVERTER_2
1001
ACAD
1000
MTEXTBEGIN
1070
    44
1040
1.32052821128451
1000
MTEXTEND
  0
MTEXT
  5
F1
330
3E
100
AcDbEntity
  8
1
 62
     7
100
AcDbMText
 10
196.5072058884822
 20
-116.4525382375268
 30
0.0
 40
2.2
 41
0.0
 71
     8
 72
     1
  1
 
  7
CONVERTER_2
1001
ACAD
1000
MTEXTBEGIN
1070
    44
1040
1.32052821128451
1000
MTEXTEND
  0
MTEXT
  5
F2
330
3E
100
AcDbEntity
  8
1
 62
     7
100
AcDbMText
 10
182.0072058884822
 20
-116.7025382375268
 30
0.0
 40
2.2
 41
0.0
 71
     8
 72
     1
  1
 
  7
CONVERTER_2
1001
ACAD
1000
MTEXTBEGIN
1070
    44
1040
1.32052821128451
1000
MTEXTEND
  0
MTEXT
  5
F3
330
3E
100
AcDbEntity
  8
1
 62
     7
100
AcDbMText
 10
256.0072058884822
 20
-136.4525382375268
 30
0.0
 40
2.0
 41
0.0
 71
     5
 72
     1
  1
 
  7
CONVERTER_3
1001
ACAD
1000
MTEXTBEGIN
1070
    44
1040
1.32052821128451
1000
MTEXTEND
  0
MTEXT
  5
F4
330
3E
100
AcDbEntity
  8
1
 62
     7
100
AcDbMText
 10
251.2072058884826
 20
-131.9525382375268
 30
0.0
 40
2.0
 41
0.0
 71
     5
 72
     1
  1
 
  7
CONVERTER_3
1001
ACAD
1000
MTEXTBEGIN
1070
    44
1040
1.32052821128451
1000
MTEXTEND
  0
MTEXT
  5
F6
330
3E
100
AcDbEntity
  8
1
 62
     2
100
AcDbMText
 10
166.0072058884822
 20
-135.9090599766574
 30
0.0
 40
3.5
 41
0.0
 71
     8
 72
     1
  1
1.9403DS
  7
CONVERTER_5
1001
ACAD
1000
MTEXTBEGIN
1070
    44
1040
1.32052821128451
1000
MTEXTEND
  0
MTEXT
  5
F7
330
3E
100
AcDbEntity
  8
1
 62
     6
100
AcDbMText
 10
166.0072058884822
 20
-129.9786251940484
 30
0.0
 40
5.0
 41
0.0
 71
     8
 72
     1
  1
Anschlussmasse
  7
CONVERTER_1
1001
ACAD
1000
MTEXTBEGIN
1070
    44
1040
1.32052821128451
1000
MTEXTEND
  0
MTEXT
  5
F8
330
3E
100
AcDbEntity
  8
1
 62
     7
100
AcDbMText
 10
87.97892606020514
 20
-72.73810260913785
 30
0.0
 40
2.0
 41
0.0
 71
     5
 72
     1
  1
9403
  7
CONVERTER_3
 11
0.0
 21
1.0
 31
0.0
1001
ACAD
1000
MTEXTBEGIN
1070
    44
1040
1.32052821128451
1000
MTEXTEND
  0
TEXT
  5
FA
330
3E
100
AcDbEntity
  8
Z2
 62
     3
100
AcDbText
 10
92.00720588848219
 20
-108.052538237527
 30
0.0
 40
1.5
  1
Diese Zeichnung darf
 41
0.9
  7
CONVERTER_6
100
AcDbText
  0
TEXT
  5
FB
330
3E
100
AcDbEntity
  8
Z2
 62
     3
100
AcDbText
 10
92.00720588848219
 20
-114.9525382375268
 30
0.0
 40
1.5
  1
in andere Unterlagen
 41
0.9
  7
CONVERTER_6
100
AcDbText
  0
TEXT
  5
FC
330
3E
100
AcDbEntity
  8
Z2
 62
     3
100
AcDbText
 10
92.00720588848219
 20
-112.6525382375268
 30
0.0
 40
1.5
  1
weder vervielfältigt noch
 41
0.9
  7
CONVERTER_6
100
AcDbText
  0
TEXT
  5
FE
330
3E
100
AcDbEntity
  8
Z2
 62
     7
100
AcDbText
 10
92.00720588848219
 20
-120.2525382375269
 30
0.0
 40
1.8
  1
Schulte-Schlagbaum AG
 41
0.7425
  7
CONVERTER_7
100
AcDbText
  0
TEXT
  5
FF
330
3E
100
AcDbEntity
  8
Z2
 62
     3
100
AcDbText
 10
92.00720588848219
 20
-117.2525382375269
 30
0.0
 40
1.5
  1
Übernommen werden.
 41
0.9
  7
CONVERTER_6
100
AcDbText
  0
TEXT
  5
100
330
3E
100
AcDbEntity
  8
Z2
 62
     3
100
AcDbText
 10
92.00720588848219
 20
-110.3525382375269
 30
0.0
 40
1.5
  1
ohne unsere Zustimmung
 41
0.9
  7
CONVERTER_6
100
AcDbText
  0
TEXT
  5
101
330
3E
100
AcDbEntity
  8
Z5
 62
     6
100
AcDbText
 10
220.5072058884822
 20
-117.4525382375268
 30
0.0
 40
3.5
  1
Schulte-Schlagbaum AG
 41
0.675
  7
CONVERTER_5
100
AcDbText
  0
TEXT
  5
102
330
3E
100
AcDbEntity
  8
Z2
 62
     7
100
AcDbText
 10
223.5072058884822
 20
-137.4525382375268
 30
0.0
 40
2.0
  1
Ersetzt durch
 41
0.8415
  7
CONVERTER_3
100
AcDbText
  0
TEXT
  5
103
330
3E
100
AcDbEntity
  8
Z2
 62
     7
100
AcDbText
 10
223.5072058884822
 20
-132.9525382375268
 30
0.0
 40
2.0
  1
Ersatz für
 41
0.8415
  7
CONVERTER_3
100
AcDbText
  0
MTEXT
  5
104
330
3E
100
AcDbEntity
  8
Z2
 62
     7
100
AcDbMText
 10
263.0072058884822
 20
-103.9525382375268
 30
0.0
 40
2.0
 41
0.0
 71
     8
 72
     1
  1
Name
  7
CONVERTER_3
1001
ACAD
1000
MTEXTBEGIN
1070
    44
1040
0.60024009603842
1000
MTEXTEND
  0
MTEXT
  5
105
330
3E
100
AcDbEntity
  8
Z2
 62
     7
100
AcDbMText
 10
248.0072058884822
 20
-103.9525382375268
 30
0.0
 40
2.0
 41
0.0
 71
     8
 72
     1
  1
Datum
  7
CONVERTER_3
1001
ACAD
1000
MTEXTBEGIN
1070
    44
1040
0.60024009603842
1000
MTEXTEND
  0
MTEXT
  5
106
330
3E
100
AcDbEntity
  8
Z2
 62
     7
100
AcDbMText
 10
210.0072058884821
 20
-103.9525382375268
 30
0.0
 40
2.0
 41
0.0
 71
     8
 72
     1
  1
Änderung
  7
CONVERTER_3
1001
ACAD
1000
MTEXTBEGIN
1070
    44
1040
0.60024009603842
1000
MTEXTEND
  0
MTEXT
  5
107
330
3E
100
AcDbEntity
  8
Z2
 62
     7
100
AcDbMText
 10
176.0072058884822
 20
-104.7525382375269
 30
0.0
 40
1.26
 41
0.0
 71
     8
 72
     1
  1
kommt vor
  7
CONVERTER_3
1001
ACAD
1000
MTEXTBEGIN
1070
    44
1040
0.60024009603842
1000
MTEXTEND
  0
MTEXT
  5
108
330
3E
100
AcDbEntity
  8
Z2
 62
     7
100
AcDbMText
 10
176.0072058884822
 20
-103.052538237527
 30
0.0
 40
1.26
 41
0.0
 71
     8
 72
     1
  1
Buchstabe
  7
CONVERTER_3
1001
ACAD
1000
MTEXTBEGIN
1070
    44
1040
0.60024009603842
1000
MTEXTEND
  0
MTEXT
  5
109
330
3E
100
AcDbEntity
  8
Z2
 62
     7
100
AcDbMText
 10
166.0072058884822
 20
-102.9525382375268
 30
0.0
 40
2.0
 41
0.0
 71
     5
 72
     1
  1
Index
  7
CONVERTER_3
1001
ACAD
1000
MTEXTBEGIN
1070
    44
1040
0.60024009603842
1000
MTEXTEND
  0
MTEXT
  5
10A
330
3E
100
AcDbEntity
  8
Z2
 62
     7
100
AcDbMText
 10
196.0072058884822
 20
-107.4525382375268
 30
0.0
 40
2.0
 41
0.0
 71
     5
 72
     1
  1
Name
  7
CONVERTER_3
1001
ACAD
1000
MTEXTBEGIN
1070
    44
1040
0.60024009603842
1000
MTEXTEND
  0
MTEXT
  5
10B
330
3E
100
AcDbEntity
  8
Z2
 62
     7
100
AcDbMText
 10
182.0072058884822
 20
-107.4525382375268
 30
0.0
 40
2.0
 41
0.0
 71
     5
 72
     1
  1
Datum
  7
CONVERTER_3
1001
ACAD
1000
MTEXTBEGIN
1070
    44
1040
0.60024009603842
1000
MTEXTEND
  0
TEXT
  5
10C
330
3E
100
AcDbEntity
  8
Z2
 62
     7
100
AcDbText
 10
162.0072058884822
 20
-120.4525382375268
 30
0.0
 40
2.0
  1
Normgepr.
 41
0.72
  7
CONVERTER_1
100
AcDbText
  0
TEXT
  5
10D
330
3E
100
AcDbEntity
  8
Z2
 62
     7
100
AcDbText
 10
162.0072058884822
 20
-116.4525382375268
 30
0.0
 40
2.0
  1
Geprüft
 41
0.72
  7
CONVERTER_1
100
AcDbText
  0
TEXT
  5
10E
330
3E
100
AcDbEntity
  8
Z2
 62
     7
100
AcDbText
 10
162.0072058884822
 20
-112.4525382375268
 30
0.0
 40
2.0
  1
Gezeichn.
 41
0.72
  7
CONVERTER_1
100
AcDbText
  0
HATCH
  5
10F
330
3E
100
AcDbEntity
  8
1
  6
CONTINUOUS
 62
     3
100
AcDbHatch
 10
0.0
 20
0.0
 30
0.0
210
0.0
220
0.0
230
1.0
  2
_USER
 70
     0
 71
     1
 91
        1
 92
        1
 93
        4
 72
     1
 10
214.7393681245345
 20
-114.9055170832331
 11
214.2729605268404
 21
-115.5474720682697
 72
     1
 10
214.2729605268404
 20
-115.5474720682697
 11
217.0361580711281
 21
-117.5550525974746
 72
     1
 10
217.0361580711281
 20
-117.5550525974746
 11
217.5025656688222
 21
-116.9130976124382
 72
     1
 10
217.5025656688222
 20
-116.9130976124382
 11
214.7393681245345
 21
-114.9055170832331
 97
        4
330
AD
330
AE
330
AF
330
AC
 75
     1
 76
     0
 52
45.0
 41
0.1
 77
     0
 78
     1
 53
45.0
 43
0.0
 44
0.0
 45
-0.0707106781186548
 46
0.0707106781186548
 79
     0
 98
        1
 10
0.0
 20
0.0
  0
HATCH
  5
110
330
3E
100
AcDbEntity
  8
1
  6
CONTINUOUS
 62
     3
100
AcDbHatch
 10
0.0
 20
0.0
 30
0.0
210
0.0
220
0.0
230
1.0
  2
_USER
 70
     0
 71
     1
 91
        2
 92
        1
 93
        5
 72
     1
 10
216.5272058884819
 20
-106.5525382375269
 11
217.9072058884821
 21
-107.9325382375267
 72
     1
 10
217.9072058884821
 20
-107.9325382375267
 11
217.9072058884821
 21
-120.3525382375268
 72
     1
 10
217.9072058884821
 20
-120.3525382375268
 11
204.1072058884821
 21
-120.3525382375268
 72
     1
 10
204.1072058884821
 20
-120.3525382375268
 11
204.1072058884821
 21
-106.5525382375269
 72
     1
 10
204.1072058884821
 20
-106.5525382375269
 11
216.5272058884819
 21
-106.5525382375269
 97
        5
330
BD
330
BC
330
BB
330
BF
330
BE
 92
       16
 93
       21
 72
     1
 10
216.4557540489726
 20
-106.7250382375269
 11
217.734705888482
 21
-108.0039900770361
 72
     1
 10
217.734705888482
 20
-108.0039900770361
 11
217.734705888482
 21
-118.3610877111938
 72
     1
 10
217.734705888482
 20
-118.3610877111938
 11
214.9747058884824
 21
-118.3610877111939
 72
     1
 10
214.9747058884824
 20
-118.3610877111939
 11
214.9747058884819
 21
-116.9954955122552
 72
     1
 10
214.9747058884819
 20
-116.9954955122552
 11
216.5900290646381
 21
-118.1690964962052
 72
     1
 10
216.5900290646381
 20
-118.1690964962052
 11
216.8942079326995
 21
-117.7504302016162
 72
     1
 10
216.8942079326995
 20
-117.7504302016162
 11
205.0739480017032
 21
-109.1625086696698
 72
     1
 10
205.0739480017032
 20
-109.1625086696698
 11
204.7697691336419
 21
-109.5811749642588
 72
     1
 10
204.7697691336419
 20
-109.5811749642588
 11
213.4222058884819
 21
-115.8675382375269
 72
     1
 10
213.4222058884819
 20
-115.8675382375269
 11
213.422205888482
 21
-118.3515382375267
 72
     1
 10
213.422205888482
 20
-118.3515382375267
 11
207.4140092510552
 21
-118.3515382375267
 72
     1
 10
207.4140092510552
 20
-118.3515382375267
 11
207.269705888482
 21
-118.6275382375267
 72
     1
 10
207.269705888482
 20
-118.6275382375267
 11
217.734705888482
 21
-118.6275382375267
 72
     1
 10
217.734705888482
 20
-118.6275382375267
 11
217.734705888482
 21
-120.1800382375269
 72
     1
 10
217.734705888482
 20
-120.1800382375269
 11
204.279705888482
 21
-120.1800382375269
 72
     1
 10
204.279705888482
 20
-120.1800382375269
 11
204.279705888482
 21
-118.6275382375267
 72
     1
 10
204.279705888482
 20
-118.6275382375267
 11
204.5557354472563
 21
-118.6275382375269
 72
     1
 10
204.5557354472563
 20
-118.6275382375269
 11
204.6247058884819
 21
-118.3515382375267
 72
     1
 10
204.6247058884819
 20
-118.3515382375267
 11
204.279705888482
 21
-118.3515382375267
 72
     1
 10
204.279705888482
 20
-118.3515382375267
 11
204.279705888482
 21
-106.7250382375269
 72
     1
 10
204.279705888482
 20
-106.7250382375269
 11
216.4557540489726
 21
-106.7250382375269
 97
       21
330
A4
330
A5
330
A3
330
A2
330
B6
330
B7
330
A8
330
A9
330
A7
330
A6
330
B5
330
B3
330
B2
330
B0
330
AB
330
B1
330
B4
330
AA
330
B8
330
B9
330
BA
 75
     1
 76
     0
 52
45.0
 41
0.1
 77
     0
 78
     1
 53
45.0
 43
0.0
 44
0.0
 45
-0.0707106781186548
 46
0.0707106781186548
 79
     0
 98
        1
 10
0.0
 20
0.0
  0
HATCH
  5
111
330
3E
100
AcDbEntity
  8
1
  6
CONTINUOUS
 62
     3
100
AcDbHatch
 10
0.0
 20
0.0
 30
0.0
210
0.0
220
0.0
230
1.0
  2
_USER
 70
     0
 71
     1
 91
        1
 92
        1
 93
       16
 72
     1
 10
206.8304156591108
 20
-117.0888356504054
 11
205.2842657648963
 21
-116.4562519973869
 72
     2
 10
205.3935356298122
 20
-116.1560355109028
 40
0.3194837118474766
 50
109.9999999999481
 51
222.9678387365433
 73
     0
 72
     2
 10
205.9171788200371
 20
-116.6437914434901
 40
1.035100956219309
 50
222.9678387365414
 51
263.3705217197375
 73
     0
 72
     2
 10
205.9786760790395
 20
-118.8294198161652
 40
3.218900881116451
 50
266.7765755411642
 51
288.8031547052519
 73
     0
 72
     1
 10
207.0161851849663
 20
-115.7823067992964
 11
207.1286760790391
 21
-115.3321503813852
 72
     2
 10
205.9786760790395
 20
-118.8294198161652
 40
3.681493378976184
 50
71.79768893908981
 51
91.61171222943217
 73
     1
 72
     2
 10
205.9171788200371
 20
-116.6437914434901
 40
1.495000000000136
 50
91.61171222943574
 51
136.3372404871681
 73
     1
 72
     2
 10
205.3935356298122
 20
-116.1560355109028
 40
0.7794837118472237
 50
135.6992600300658
 51
250.0000000000074
 73
     1
 72
     1
 10
205.1269364989663
 20
-116.8885106029484
 11
206.6730863931811
 21
-117.521094255967
 72
     2
 10
206.5638165282647
 20
-117.8213107424512
 40
0.31948371184719
 50
290.0000000000283
 51
402.9678387365181
 73
     0
 72
     2
 10
206.0401733380414
 20
-117.3335548098639
 40
1.035100956219162
 50
42.96783873659366
 51
83.37052171980785
 73
     0
 72
     2
 10
205.9786760790395
 20
-115.1479264371888
 40
3.218900881116913
 50
86.776575541196
 51
108.8031547052753
 73
     0
 72
     1
 10
204.9411669731113
 20
-118.1950394540576
 11
204.8286760790394
 21
-118.6451958719689
 72
     2
 10
205.9786760790395
 20
-115.1479264371888
 40
3.68149337897643
 50
251.7976889390831
 51
271.6117122294087
 73
     1
 72
     2
 10
206.0401733380414
 20
-117.3335548098639
 40
1.495000000000108
 50
271.6117122293977
 51
316.3372404871259
 73
     1
 72
     2
 10
206.5638165282647
 20
-117.8213107424512
 40
0.7794837118472237
 50
315.6992600300657
 51
429.9999999999986
 73
     1
 97
       16
330
CA
330
C8
330
91
330
C9
330
CB
330
CD
330
8E
330
C2
330
C3
330
C6
330
90
330
C7
330
C5
330
C4
330
8F
330
CC
 75
     1
 76
     0
 52
45.0
 41
0.1
 77
     0
 78
     1
 53
45.0
 43
0.0
 44
0.0
 45
-0.0707106781186548
 46
0.0707106781186548
 79
     0
 98
        1
 10
0.0
 20
0.0
  0
ENDBLK
  5
40
330
3E
100
AcDbEntity
  8
0
100
AcDbBlockEnd
  0
BLOCK
  5
43
330
41
100
AcDbEntity
  8
0
100
AcDbBlockBegin
  2
_RAHMEN
 70
     0
 71
     0
 10
173.0072058884821
 20
3.89746176247309
 30
0.0
  3
_RAHMEN
  1

  0
INSERT
  5
42
330
41
100
AcDbEntity
  8
1
100
AcDbBlockReference
  2
_SCHRIFTFELD
 10
271.0072058884822
 20
-138.4525382375268
 30
0.0
  0
POINT
  5
112
330
41
100
AcDbEntity
  8
1
 62
     3
 60
     1
100
AcDbPoint
 10
228.0072058884821
 20
-121.4525382375268
 30
0.0
  0
POINT
  5
113
330
41
100
AcDbEntity
  8
1
 62
     3
 60
     1
100
AcDbPoint
 10
228.0072058884821
 20
-129.9525382375268
 30
0.0
  0
POINT
  5
114
330
41
100
AcDbEntity
  8
1
 62
     3
 60
     1
100
AcDbPoint
 10
234.0072058884821
 20
-121.4525382375268
 30
0.0
  0
POINT
  5
115
330
41
100
AcDbEntity
  8
1
 62
     3
 60
     1
100
AcDbPoint
 10
234.0072058884821
 20
-129.9525382375268
 30
0.0
  0
LINE
  5
116
330
41
100
AcDbEntity
  8
1
  6
CONTINUOUS
 62
     6
100
AcDbLine
 10
234.0072058884821
 20
-121.4525382375268
 30
0.0
 11
234.0072058884821
 21
-129.9525382375268
 31
0.0
  0
LINE
  5
117
330
41
100
AcDbEntity
  8
1
  6
CONTINUOUS
 62
     6
100
AcDbLine
 10
228.0072058884821
 20
-121.4525382375268
 30
0.0
 11
228.0072058884821
 21
-129.9525382375268
 31
0.0
  0
LINE
  5
118
330
41
100
AcDbEntity
  8
Z1
  6
CONTINUOUS
 62
     7
100
AcDbLine
 10
69.00720588848208
 20
-143.6025382375269
 30
0.0
 11
277.0072058884822
 21
-143.6025382375269
 31
0.0
  0
LINE
  5
119
330
41
100
AcDbEntity
  8
Z1
  6
CONTINUOUS
 62
     7
100
AcDbLine
 10
277.0072058884822
 20
-143.6025382375269
 30
0.0
 11
277.0072058884822
 21
151.3974617624733
 31
0.0
  0
LINE
  5
11A
330
41
100
AcDbEntity
  8
Z1
  6
CONTINUOUS
 62
     7
100
AcDbLine
 10
277.0072058884822
 20
151.3974617624733
 30
0.0
 11
69.00720588848208
 21
151.3974617624733
 31
0.0
  0
LINE
  5
11B
330
41
100
AcDbEntity
  8
Z1
  6
CONTINUOUS
 62
     7
100
AcDbLine
 10
69.00720588848208
 20
3.89746176247331
 30
0.0
 11
88.00720588848208
 21
3.89746176247331
 31
0.0
  0
LINE
  5
11C
330
41
100
AcDbEntity
  8
Z1
  6
CONTINUOUS
 62
     7
100
AcDbLine
 10
69.00720588848208
 20
151.3974617624733
 30
0.0
 11
69.00720588848208
 21
-143.6025382375269
 31
0.0
  0
LINE
  5
11D
330
41
100
AcDbEntity
  8
Z4
  6
CONTINUOUS
 62
     6
100
AcDbLine
 10
91.00720588848208
 20
146.2474617624735
 30
0.0
 11
91.00720588848208
 21
-138.4525382375268
 31
0.0
  0
LINE
  5
11E
330
41
100
AcDbEntity
  8
Z4
  6
CONTINUOUS
 62
     6
100
AcDbLine
 10
271.0072058884822
 20
-138.4525382375268
 30
0.0
 11
271.0072058884822
 21
146.2474617624733
 31
0.0
  0
LINE
  5
11F
330
41
100
AcDbEntity
  8
Z4
  6
CONTINUOUS
 62
     6
100
AcDbLine
 10
271.0072058884822
 20
146.2474617624733
 30
0.0
 11
91.00720588848208
 21
146.2474617624735
 31
0.0
  0
LINE
  5
120
330
41
100
AcDbEntity
  8
Z4
  6
CONTINUOUS
 62
     6
100
AcDbLine
 10
91.00720588848208
 20
-138.4525382375268
 30
0.0
 11
271.0072058884822
 21
-138.4525382375268
 31
0.0
  0
MTEXT
  5
121
330
41
100
AcDbEntity
  8
1
 62
     6
100
AcDbMText
 10
231.0072058884821
 20
-128.4525382375268
 30
0.0
 40
5.0
 41
0.0
 71
     8
 72
     1
  1
E
  7
CONVERTER_4
1001
ACAD
1000
MTEXTBEGIN
1070
    44
1040
1.02040816326531
1000
MTEXTEND
  0
MTEXT
  5
122
330
41
100
AcDbEntity
  8
1
 62
     6
100
AcDbMText
 10
225.0072058884821
 20
-128.4525382375268
 30
0.0
 40
5.0
 41
0.0
 71
     8
 72
     1
  1
K
  7
CONVERTER_4
1001
ACAD
1000
MTEXTBEGIN
1070
    44
1040
1.02040816326531
1000
MTEXTEND
  0
MTEXT
  5
124
330
41
100
AcDbEntity
  8
1
 62
     6
100
AcDbMText
 10
86.14185629068709
 20
71.47143975858126
 30
0.0
 40
5.0
 41
0.0
 71
     5
 72
     1
  1
Technische Änderungen vorbehalten.
  7
CONVERTER_8
 11
6.123031769111886E-17
 21
1.0
 31
0.0
1001
ACAD
1000
MTEXTBEGIN
1070
    44
1040
1.32052821128451
1000
MTEXTEND
  0
MTEXT
  5
126
330
41
100
AcDbEntity
  8
1
 62
     6
100
AcDbMText
 10
89.76654899963
 20
-97.037761488022
 30
0.0
 40
3.8
 41
0.0
 71
     4
 72
     1
  1
   Zeichnung wird bei\PÄnderung nicht ausgetauscht.
  7
CONVERTER_9
1001
ACAD
1000
MTEXTBEGIN
1070
    44
1040
1.08043217286915
1000
MTEXTEND
  0
ENDBLK
  5
44
330
41
100
AcDbEntity
  8
0
100
AcDbBlockEnd
  0
BLOCK
  5
1D5
330
1CE
100
AcDbEntity
  8
0
100
AcDbBlockBegin
  2
*D03
 70
     1
 71
     0
 10
0.0
 20
0.0
 30
0.0
  3
*D03
  1

  0
LINE
  5
1CF
330
1CE
100
AcDbEntity
  8
1
  6
CONTINUOUS
 62
     3
100
AcDbLine
 10
320.838593359732
 20
145.9313966945629
 30
0.0
 11
320.838593359732
 21
174.9313966945629
 31
0.0
  0
LINE
  5
1D0
330
1CE
100
AcDbEntity
  8
1
  6
CONTINUOUS
 62
     3
100
AcDbLine
 10
327.6168672713799
 20
174.9313966945629
 30
0.0
 11
318.838593359732
 21
174.9313966945629
 31
0.0
  0
LINE
  5
1D1
330
1CE
100
AcDbEntity
  8
1
  6
CONTINUOUS
 62
     3
100
AcDbLine
 10
369.7917138158954
 20
145.9313966945629
 30
0.0
 11
318.838593359732
 21
145.9313966945629
 31
0.0
  0
SOLID
  5
1D2
330
1CE
100
AcDbEntity
  8
1
 62
     3
100
AcDbTrace
 10
321.9905527136217
 20
166.1813966945629
 30
0.0
 11
319.6866340058423
 21
166.1813966945629
 31
0.0
 12
320.838593359732
 22
174.9313966945629
 32
0.0
 13
320.838593359732
 23
174.9313966945629
 33
0.0
  0
SOLID
  5
1D3
330
1CE
100
AcDbEntity
  8
1
 62
     3
100
AcDbTrace
 10
319.6866340058423
 20
154.6813966945629
 30
0.0
 11
321.9905527136217
 21
154.6813966945629
 31
0.0
 12
320.838593359732
 22
145.9313966945629
 32
0.0
 13
320.838593359732
 23
145.9313966945629
 33
0.0
  0
MTEXT
  5
1D4
330
1CE
100
AcDbEntity
  8
1
 62
     2
100
AcDbMText
 10
318.338593359732
 20
153.435554980304
 30
0.0
 40
8.75
 41
0.0
 71
     7
 72
     1
  1
29
  7
CONVERTER_1
 11
0.0
 21
1.0
 31
0.0
1001
ACAD
1000
MTEXTBEGIN
1070
    44
1040
0.60024009603842
1000
MTEXTEND
  0
ENDBLK
  5
1D6
330
1CE
100
AcDbEntity
  8
0
100
AcDbBlockEnd
  0
BLOCK
  5
1E2
330
1D9
100
AcDbEntity
  8
0
100
AcDbBlockBegin
  2
*D14
 70
     1
 71
     0
 10
0.0
 20
0.0
 30
0.0
  3
*D14
  1

  0
LINE
  5
1DA
330
1D9
100
AcDbEntity
  8
1
  6
CONTINUOUS
 62
     3
100
AcDbLine
 10
332.7917138158955
 20
205.3852944510727
 30
0.0
 11
311.1017371107417
 21
205.3852944510727
 31
0.0
  0
LINE
  5
1DB
330
1D9
100
AcDbEntity
  8
1
  6
CONTINUOUS
 62
     3
100
AcDbLine
 10
332.7917138158955
 20
205.3852944510727
 30
0.0
 11
342.7917138158955
 21
205.3852944510727
 31
0.0
  0
LINE
  5
1DC
330
1D9
100
AcDbEntity
  8
1
  6
CONTINUOUS
 62
     3
100
AcDbLine
 10
360.2917138158955
 20
205.3852944510727
 30
0.0
 11
342.7917138158955
 21
205.3852944510727
 31
0.0
  0
LINE
  5
1DD
330
1D9
100
AcDbEntity
  8
1
  6
CONTINUOUS
 62
     3
100
AcDbLine
 10
342.7917138158955
 20
266.4313966945629
 30
0.0
 11
342.7917138158955
 21
203.3852944510727
 31
0.0
  0
LINE
  5
1DE
330
1D9
100
AcDbEntity
  8
1
  6
CONTINUOUS
 62
     3
100
AcDbLine
 10
332.7917138158955
 20
190.9313966945629
 30
0.0
 11
332.7917138158955
 21
207.3852944510727
 31
0.0
  0
SOLID
  5
1DF
330
1D9
100
AcDbEntity
  8
1
 62
     3
100
AcDbTrace
 10
324.0417138158955
 20
204.233335097183
 30
0.0
 11
324.0417138158955
 21
206.5372538049624
 31
0.0
 12
332.7917138158955
 22
205.3852944510727
 32
0.0
 13
332.7917138158955
 23
205.3852944510727
 33
0.0
  0
SOLID
  5
1E0
330
1D9
100
AcDbEntity
  8
1
 62
     3
100
AcDbTrace
 10
351.5417138158955
 20
206.5372538049624
 30
0.0
 11
351.5417138158955
 21
204.233335097183
 31
0.0
 12
342.7917138158955
 22
205.3852944510727
 32
0.0
 13
342.7917138158955
 23
205.3852944510727
 33
0.0
  0
MTEXT
  5
1E1
330
1D9
100
AcDbEntity
  8
1
 62
     2
100
AcDbMText
 10
311.1017371107417
 20
207.8852944510727
 30
0.0
 40
8.75
 41
0.0
 71
     7
 72
     1
  1
10
  7
CONVERTER_1
 11
0.9999999999970621
 21
2.424068405545307E-6
 31
0.0
1001
ACAD
1000
MTEXTBEGIN
1070
    44
1040
0.60024009603842
1000
MTEXTEND
  0
ENDBLK
  5
1E3
330
1D9
100
AcDbEntity
  8
0
100
AcDbBlockEnd
  0
BLOCK
  5
1ED
330
1E6
100
AcDbEntity
  8
0
100
AcDbBlockBegin
  2
*D25
 70
     1
 71
     0
 10
0.0
 20
0.0
 30
0.0
  3
*D25
  1

  0
LINE
  5
1E7
330
1E6
100
AcDbEntity
  8
1
  6
CONTINUOUS
 62
     3
100
AcDbLine
 10
397.7917138158955
 20
-47.8542473331326
 30
0.0
 11
429.7917138158955
 21
-47.8542473331326
 31
0.0
  0
LINE
  5
1E8
330
1E6
100
AcDbEntity
  8
1
  6
CONTINUOUS
 62
     3
100
AcDbLine
 10
429.7917138158955
 20
51.93139669456286
 30
0.0
 11
429.7917138158955
 21
-49.8542473331326
 31
0.0
  0
LINE
  5
1E9
330
1E6
100
AcDbEntity
  8
1
  6
CONTINUOUS
 62
     3
100
AcDbLine
 10
397.7917138158955
 20
43.93139669456286
 30
0.0
 11
397.7917138158955
 21
-49.8542473331326
 31
0.0
  0
SOLID
  5
1EA
330
1E6
100
AcDbEntity
  8
1
 62
     3
100
AcDbTrace
 10
406.5417138158955
 20
-46.70228797924288
 30
0.0
 11
406.5417138158955
 21
-49.00620668702231
 31
0.0
 12
397.7917138158955
 22
-47.8542473331326
 32
0.0
 13
397.7917138158955
 23
-47.8542473331326
 33
0.0
  0
SOLID
  5
1EB
330
1E6
100
AcDbEntity
  8
1
 62
     3
100
AcDbTrace
 10
421.0417138158955
 20
-49.00620668702231
 30
0.0
 11
421.0417138158955
 21
-46.70228797924288
 31
0.0
 12
429.7917138158955
 22
-47.8542473331326
 32
0.0
 13
429.7917138158955
 23
-47.8542473331326
 33
0.0
  0
MTEXT
  5
1EC
330
1E6
100
AcDbEntity
  8
1
 62
     2
100
AcDbMText
 10
408.12308016202
 20
-45.3542473331326
 30
0.0
 40
8.75
 41
0.0
 71
     7
 72
     1
  1
32
  7
CONVERTER_1
 11
0.9999999999970621
 21
2.424068405545307E-6
 31
0.0
1001
ACAD
1000
MTEXTBEGIN
1070
    44
1040
0.60024009603842
1000
MTEXTEND
  0
ENDBLK
  5
1EE
330
1E6
100
AcDbEntity
  8
0
100
AcDbBlockEnd
  0
BLOCK
  5
1F8
330
1F1
100
AcDbEntity
  8
0
100
AcDbBlockBegin
  2
*D36
 70
     1
 71
     0
 10
0.0
 20
0.0
 30
0.0
  3
*D36
  1

  0
LINE
  5
1F2
330
1F1
100
AcDbEntity
  8
1
  6
CONTINUOUS
 62
     3
100
AcDbLine
 10
466.3132811357064
 20
43.93139669456286
 30
0.0
 11
466.3132811357064
 21
73.93139669456286
 31
0.0
  0
LINE
  5
1F3
330
1F1
100
AcDbEntity
  8
1
  6
CONTINUOUS
 62
     3
100
AcDbLine
 10
421.7917138158956
 20
43.93139669456286
 30
0.0
 11
468.3132811357064
 21
43.93139669456286
 31
0.0
  0
LINE
  5
1F4
330
1F1
100
AcDbEntity
  8
1
  6
CONTINUOUS
 62
     3
100
AcDbLine
 10
408.9046743060899
 20
73.93139669456286
 30
0.0
 11
468.3132811357064
 21
73.93139669456286
 31
0.0
  0
SOLID
  5
1F5
330
1F1
100
AcDbEntity
  8
1
 62
     3
100
AcDbTrace
 10
465.1613217818167
 20
52.68139669456286
 30
0.0
 11
467.4652404895961
 21
52.68139669456286
 31
0.0
 12
466.3132811357064
 22
43.93139669456286
 32
0.0
 13
466.3132811357064
 23
43.93139669456286
 33
0.0
  0
SOLID
  5
1F6
330
1F1
100
AcDbEntity
  8
1
 62
     3
100
AcDbTrace
 10
467.4652404895961
 20
65.18139669456286
 30
0.0
 11
465.1613217818167
 21
65.18139669456286
 31
0.0
 12
466.3132811357064
 22
73.93139669456286
 32
0.0
 13
466.3132811357064
 23
73.93139669456286
 33
0.0
  0
MTEXT
  5
1F7
330
1F1
100
AcDbEntity
  8
1
 62
     2
100
AcDbMText
 10
463.8132811357064
 20
54.79501788904599
 30
0.0
 40
8.75
 41
0.0
 71
     7
 72
     1
  1
30
  7
CONVERTER_1
 11
0.0
 21
1.0
 31
0.0
1001
ACAD
1000
MTEXTBEGIN
1070
    44
1040
0.60024009603842
1000
MTEXTEND
  0
ENDBLK
  5
1F9
330
1F1
100
AcDbEntity
  8
0
100
AcDbBlockEnd
  0
BLOCK
  5
203
330
1FC
100
AcDbEntity
  8
0
100
AcDbBlockBegin
  2
*D47
 70
     1
 71
     0
 10
0.0
 20
0.0
 30
0.0
  3
*D47
  1

  0
LINE
  5
1FD
330
1FC
100
AcDbEntity
  8
1
  6
CONTINUOUS
 62
     3
100
AcDbLine
 10
466.3132811357064
 20
73.93139669456285
 30
0.0
 11
466.3132811357064
 21
145.9313966945629
 31
0.0
  0
LINE
  5
1FE
330
1FC
100
AcDbEntity
  8
1
  6
CONTINUOUS
 62
     3
100
AcDbLine
 10
408.9046743060899
 20
73.93139669456285
 30
0.0
 11
468.3132811357064
 21
73.93139669456285
 31
0.0
  0
LINE
  5
1FF
330
1FC
100
AcDbEntity
  8
1
  6
CONTINUOUS
 62
     3
100
AcDbLine
 10
425.7917138158956
 20
145.9313966945629
 30
0.0
 11
468.3132811357064
 21
145.9313966945629
 31
0.0
  0
SOLID
  5
200
330
1FC
100
AcDbEntity
  8
1
 62
     3
100
AcDbTrace
 10
465.1613217818167
 20
82.68139669456285
 30
0.0
 11
467.4652404895961
 21
82.68139669456285
 31
0.0
 12
466.3132811357064
 22
73.93139669456285
 32
0.0
 13
466.3132811357064
 23
73.93139669456285
 33
0.0
  0
SOLID
  5
201
330
1FC
100
AcDbEntity
  8
1
 62
     3
100
AcDbTrace
 10
467.4652404895961
 20
137.1813966945629
 30
0.0
 11
465.1613217818167
 21
137.1813966945629
 31
0.0
 12
466.3132811357064
 22
145.9313966945629
 32
0.0
 13
466.3132811357064
 23
145.9313966945629
 33
0.0
  0
MTEXT
  5
202
330
1FC
100
AcDbEntity
  8
1
 62
     2
100
AcDbMText
 10
463.8132811357064
 20
101.6372125284979
 30
0.0
 40
8.75
 41
0.0
 71
     7
 72
     1
  1
72
  7
CONVERTER_1
 11
0.0
 21
1.0
 31
0.0
1001
ACAD
1000
MTEXTBEGIN
1070
    44
1040
0.60024009603842
1000
MTEXTEND
  0
ENDBLK
  5
204
330
1FC
100
AcDbEntity
  8
0
100
AcDbBlockEnd
  0
BLOCK
  5
20E
330
207
100
AcDbEntity
  8
0
100
AcDbBlockBegin
  2
*D58
 70
     1
 71
     0
 10
0.0
 20
0.0
 30
0.0
  3
*D58
  1

  0
LINE
  5
208
330
207
100
AcDbEntity
  8
1
  6
CONTINUOUS
 62
     3
100
AcDbLine
 10
300.8919510316191
 20
-13.56860330543709
 30
0.0
 11
300.8919510316191
 21
43.93139669456285
 31
0.0
  0
LINE
  5
209
330
207
100
AcDbEntity
  8
1
  6
CONTINUOUS
 62
     3
100
AcDbLine
 10
348.7917138158955
 20
43.93139669456285
 30
0.0
 11
298.8919510316191
 21
43.93139669456285
 31
0.0
  0
LINE
  5
20A
330
207
100
AcDbEntity
  8
1
  6
CONTINUOUS
 62
     3
100
AcDbLine
 10
342.7917138158955
 20
-13.56860330543709
 30
0.0
 11
298.8919510316191
 21
-13.56860330543709
 31
0.0
  0
SOLID
  5
20B
330
207
100
AcDbEntity
  8
1
 62
     3
100
AcDbTrace
 10
299.7399916777294
 20
-4.81860330543709
 30
0.0
 11
302.0439103855088
 21
-4.81860330543709
 31
0.0
 12
300.8919510316191
 22
-13.56860330543709
 32
0.0
 13
300.8919510316191
 23
-13.56860330543709
 33
0.0
  0
SOLID
  5
20C
330
207
100
AcDbEntity
  8
1
 62
     3
100
AcDbTrace
 10
302.0439103855088
 20
35.18139669456285
 30
0.0
 11
299.7399916777294
 21
35.18139669456285
 31
0.0
 12
300.8919510316191
 22
43.93139669456285
 32
0.0
 13
300.8919510316191
 23
43.93139669456285
 33
0.0
  0
MTEXT
  5
20D
330
207
100
AcDbEntity
  8
1
 62
     2
100
AcDbMText
 10
297.5169510316191
 20
4.75249975085174
 30
0.0
 40
8.75
 41
0.0
 71
     7
 72
     1
  1
57,5
  7
CONVERTER_1
 11
0.0
 21
1.0
 31
0.0
1001
ACAD
1000
MTEXTBEGIN
1070
    44
1040
0.60024009603842
1000
MTEXTEND
  0
ENDBLK
  5
20F
330
207
100
AcDbEntity
  8
0
100
AcDbBlockEnd
  0
BLOCK
  5
21A
330
212
100
AcDbEntity
  8
0
100
AcDbBlockBegin
  2
*D69
 70
     1
 71
     0
 10
0.0
 20
0.0
 30
0.0
  3
*D69
  1

  0
LINE
  5
213
330
212
100
AcDbEntity
  8
1
  6
CONTINUOUS
 62
     3
100
AcDbLine
 10
300.8919510316191
 20
158.9313966945629
 30
0.0
 11
300.8919510316191
 21
190.9313966945629
 31
0.0
  0
LINE
  5
214
330
212
100
AcDbEntity
  8
1
  6
CONTINUOUS
 62
     3
100
AcDbLine
 10
332.7917138158955
 20
190.9313966945629
 30
0.0
 11
298.8919510316191
 21
190.9313966945629
 31
0.0
  0
LINE
  5
215
330
212
100
AcDbEntity
  8
1
  6
CONTINUOUS
 62
     3
100
AcDbLine
 10
332.7917138158955
 20
158.9313966945629
 30
0.0
 11
323.45288674913
 21
158.9313966945629
 31
0.0
  0
LINE
  5
216
330
212
100
AcDbEntity
  8
1
  6
CONTINUOUS
 62
     3
100
AcDbLine
 10
305.992586912638
 20
158.9313966945629
 30
0.0
 11
298.8919510316191
 21
158.9313966945629
 31
0.0
  0
SOLID
  5
217
330
212
100
AcDbEntity
  8
1
 62
     3
100
AcDbTrace
 10
299.7399916777294
 20
167.6813966945629
 30
0.0
 11
302.0439103855088
 21
167.6813966945629
 31
0.0
 12
300.8919510316191
 22
158.9313966945629
 32
0.0
 13
300.8919510316191
 23
158.9313966945629
 33
0.0
  0
SOLID
  5
218
330
212
100
AcDbEntity
  8
1
 62
     3
100
AcDbTrace
 10
302.0439103855088
 20
182.1813966945629
 30
0.0
 11
299.7399916777294
 21
182.1813966945629
 31
0.0
 12
300.8919510316191
 22
190.9313966945629
 32
0.0
 13
300.8919510316191
 23
190.9313966945629
 33
0.0
  0
MTEXT
  5
219
330
212
100
AcDbEntity
  8
1
 62
     2
100
AcDbMText
 10
298.3919510316191
 20
169.6813966945629
 30
0.0
 40
8.75
 41
0.0
 71
     7
 72
     1
  1
32
  7
CONVERTER_1
 11
0.0
 21
1.0
 31
0.0
1001
ACAD
1000
MTEXTBEGIN
1070
    44
1040
0.60024009603842
1000
MTEXTEND
  0
ENDBLK
  5
21B
330
212
100
AcDbEntity
  8
0
100
AcDbBlockEnd
  0
BLOCK
  5
226
330
21E
100
AcDbEntity
  8
0
100
AcDbBlockBegin
  2
*D710
 70
     1
 71
     0
 10
0.0
 20
0.0
 30
0.0
  3
*D710
  1

  0
LINE
  5
21F
330
21E
100
AcDbEntity
  8
1
  6
CONTINUOUS
 62
     3
100
AcDbLine
 10
300.8919510316191
 20
108.9313966945629
 30
0.0
 11
300.8919510316191
 21
158.9313966945629
 31
0.0
  0
LINE
  5
220
330
21E
100
AcDbEntity
  8
1
  6
CONTINUOUS
 62
     3
100
AcDbLine
 10
332.7917138158955
 20
158.9313966945629
 30
0.0
 11
323.45288674913
 21
158.9313966945629
 31
0.0
  0
LINE
  5
221
330
21E
100
AcDbEntity
  8
1
  6
CONTINUOUS
 62
     3
100
AcDbLine
 10
305.992586912638
 20
158.9313966945629
 30
0.0
 11
298.8919510316191
 21
158.9313966945629
 31
0.0
  0
LINE
  5
222
330
21E
100
AcDbEntity
  8
1
  6
CONTINUOUS
 62
     3
100
AcDbLine
 10
321.7917138158955
 20
108.9313966945629
 30
0.0
 11
298.8919510316191
 21
108.9313966945629
 31
0.0
  0
SOLID
  5
223
330
21E
100
AcDbEntity
  8
1
 62
     3
100
AcDbTrace
 10
299.7399916777294
 20
117.6813966945629
 30
0.0
 11
302.0439103855088
 21
117.6813966945629
 31
0.0
 12
300.8919510316191
 22
108.9313966945629
 32
0.0
 13
300.8919510316191
 23
108.9313966945629
 33
0.0
  0
SOLID
  5
224
330
21E
100
AcDbEntity
  8
1
 62
     3
100
AcDbTrace
 10
302.0439103855088
 20
150.1813966945629
 30
0.0
 11
299.7399916777294
 21
150.1813966945629
 31
0.0
 12
300.8919510316191
 22
158.9313966945629
 32
0.0
 13
300.8919510316191
 23
158.9313966945629
 33
0.0
  0
MTEXT
  5
225
330
21E
100
AcDbEntity
  8
1
 62
     2
100
AcDbMText
 10
298.3919510316191
 20
128.6813966945629
 30
0.0
 40
8.75
 41
0.0
 71
     7
 72
     1
  1
50
  7
CONVERTER_1
 11
0.0
 21
1.0
 31
0.0
1001
ACAD
1000
MTEXTBEGIN
1070
    44
1040
0.60024009603842
1000
MTEXTEND
  0
ENDBLK
  5
227
330
21E
100
AcDbEntity
  8
0
100
AcDbBlockEnd
  0
BLOCK
  5
231
330
22A
100
AcDbEntity
  8
0
100
AcDbBlockBegin
  2
*D811
 70
     1
 71
     0
 10
0.0
 20
0.0
 30
0.0
  3
*D811
  1

  0
LINE
  5
22B
330
22A
100
AcDbEntity
  8
1
  6
CONTINUOUS
 62
     3
100
AcDbLine
 10
300.8919510316191
 20
73.93139669456286
 30
0.0
 11
300.8919510316191
 21
108.9313966945629
 31
0.0
  0
LINE
  5
22C
330
22A
100
AcDbEntity
  8
1
  6
CONTINUOUS
 62
     3
100
AcDbLine
 10
321.7917138158955
 20
108.9313966945629
 30
0.0
 11
298.8919510316191
 21
108.9313966945629
 31
0.0
  0
LINE
  5
22D
330
22A
100
AcDbEntity
  8
1
  6
CONTINUOUS
 62
     3
100
AcDbLine
 10
321.7917138158955
 20
73.93139669456286
 30
0.0
 11
298.8919510316191
 21
73.93139669456286
 31
0.0
  0
SOLID
  5
22E
330
22A
100
AcDbEntity
  8
1
 62
     3
100
AcDbTrace
 10
299.7399916777294
 20
82.68139669456286
 30
0.0
 11
302.0439103855088
 21
82.68139669456286
 31
0.0
 12
300.8919510316191
 22
73.93139669456286
 32
0.0
 13
300.8919510316191
 23
73.93139669456286
 33
0.0
  0
SOLID
  5
22F
330
22A
100
AcDbEntity
  8
1
 62
     3
100
AcDbTrace
 10
302.0439103855088
 20
100.1813966945629
 30
0.0
 11
299.7399916777294
 21
100.1813966945629
 31
0.0
 12
300.8919510316191
 22
108.9313966945629
 32
0.0
 13
300.8919510316191
 23
108.9313966945629
 33
0.0
  0
MTEXT
  5
230
330
22A
100
AcDbEntity
  8
1
 62
     2
100
AcDbMText
 10
298.3919510316191
 20
86.18139669456286
 30
0.0
 40
8.75
 41
0.0
 71
     7
 72
     1
  1
35
  7
CONVERTER_1
 11
0.0
 21
1.0
 31
0.0
1001
ACAD
1000
MTEXTBEGIN
1070
    44
1040
0.60024009603842
1000
MTEXTEND
  0
ENDBLK
  5
232
330
22A
100
AcDbEntity
  8
0
100
AcDbBlockEnd
  0
BLOCK
  5
23C
330
235
100
AcDbEntity
  8
0
100
AcDbBlockBegin
  2
*D912
 70
     1
 71
     0
 10
0.0
 20
0.0
 30
0.0
  3
*D912
  1

  0
LINE
  5
236
330
235
100
AcDbEntity
  8
1
  6
CONTINUOUS
 62
     3
100
AcDbLine
 10
300.8919510316191
 20
43.93139669456286
 30
0.0
 11
300.8919510316191
 21
73.93139669456286
 31
0.0
  0
LINE
  5
237
330
235
100
AcDbEntity
  8
1
  6
CONTINUOUS
 62
     3
100
AcDbLine
 10
321.7917138158955
 20
73.93139669456286
 30
0.0
 11
298.8919510316191
 21
73.93139669456286
 31
0.0
  0
LINE
  5
238
330
235
100
AcDbEntity
  8
1
  6
CONTINUOUS
 62
     3
100
AcDbLine
 10
348.7917138158955
 20
43.93139669456286
 30
0.0
 11
298.8919510316191
 21
43.93139669456286
 31
0.0
  0
SOLID
  5
239
330
235
100
AcDbEntity
  8
1
 62
     3
100
AcDbTrace
 10
299.7399916777294
 20
52.68139669456286
 30
0.0
 11
302.0439103855088
 21
52.68139669456286
 31
0.0
 12
300.8919510316191
 22
43.93139669456286
 32
0.0
 13
300.8919510316191
 23
43.93139669456286
 33
0.0
  0
SOLID
  5
23A
330
235
100
AcDbEntity
  8
1
 62
     3
100
AcDbTrace
 10
302.0439103855088
 20
65.18139669456286
 30
0.0
 11
299.7399916777294
 21
65.18139669456286
 31
0.0
 12
300.8919510316191
 22
73.93139669456286
 32
0.0
 13
300.8919510316191
 23
73.93139669456286
 33
0.0
  0
MTEXT
  5
23B
330
235
100
AcDbEntity
  8
1
 62
     2
100
AcDbMText
 10
298.3919510316191
 20
53.68139669456286
 30
0.0
 40
8.75
 41
0.0
 71
     7
 72
     1
  1
30
  7
CONVERTER_1
 11
0.0
 21
1.0
 31
0.0
1001
ACAD
1000
MTEXTBEGIN
1070
    44
1040
0.60024009603842
1000
MTEXTEND
  0
ENDBLK
  5
23D
330
235
100
AcDbEntity
  8
0
100
AcDbBlockEnd
  0
BLOCK
  5
249
330
240
100
AcDbEntity
  8
0
100
AcDbBlockBegin
  2
*D1013
 70
     1
 71
     0
 10
0.0
 20
0.0
 30
0.0
  3
*D1013
  1

  0
LINE
  5
241
330
240
100
AcDbEntity
  8
1
  6
CONTINUOUS
 62
     3
100
AcDbLine
 10
449.2503357754121
 20
124.4313966945629
 30
0.0
 11
449.2503357754121
 21
145.9313966945629
 31
0.0
  0
LINE
  5
242
330
240
100
AcDbEntity
  8
1
  6
CONTINUOUS
 62
     3
100
AcDbLine
 10
449.2503357754121
 20
124.4313966945629
 30
0.0
 11
449.2503357754121
 21
106.9313966945629
 31
0.0
  0
LINE
  5
243
330
240
100
AcDbEntity
  8
1
  6
CONTINUOUS
 62
     3
100
AcDbLine
 10
449.2503357754121
 20
145.9313966945629
 30
0.0
 11
449.2503357754121
 21
163.4313966945629
 31
0.0
  0
LINE
  5
244
330
240
100
AcDbEntity
  8
1
  6
CONTINUOUS
 62
     3
100
AcDbLine
 10
402.377439840464
 20
124.4313966945629
 30
0.0
 11
451.2503357754121
 21
124.4313966945629
 31
0.0
  0
LINE
  5
245
330
240
100
AcDbEntity
  8
1
  6
CONTINUOUS
 62
     3
100
AcDbLine
 10
425.7917138158956
 20
145.9313966945629
 30
0.0
 11
451.2503357754121
 21
145.9313966945629
 31
0.0
  0
SOLID
  5
246
330
240
100
AcDbEntity
  8
1
 62
     3
100
AcDbTrace
 10
450.4022951293018
 20
115.6813966945629
 30
0.0
 11
448.0983764215224
 21
115.6813966945629
 31
0.0
 12
449.2503357754121
 22
124.4313966945629
 32
0.0
 13
449.2503357754121
 23
124.4313966945629
 33
0.0
  0
SOLID
  5
247
330
240
100
AcDbEntity
  8
1
 62
     3
100
AcDbTrace
 10
448.0983764215224
 20
154.6813966945629
 30
0.0
 11
450.4022951293018
 21
154.6813966945629
 31
0.0
 12
449.2503357754121
 22
145.9313966945629
 32
0.0
 13
449.2503357754121
 23
145.9313966945629
 33
0.0
  0
MTEXT
  5
248
330
240
100
AcDbEntity
  8
1
 62
     2
100
AcDbMText
 10
445.8753357754121
 20
126.482326753039
 30
0.0
 40
8.75
 41
0.0
 71
     7
 72
     1
  1
21,5
  7
CONVERTER_1
 11
0.0
 21
1.0
 31
0.0
1001
ACAD
1000
MTEXTBEGIN
1070
    44
1040
0.60024009603842
1000
MTEXTEND
  0
ENDBLK
  5
24A
330
240
100
AcDbEntity
  8
0
100
AcDbBlockEnd
  0
BLOCK
  5
254
330
24D
100
AcDbEntity
  8
0
100
AcDbBlockBegin
  2
*D1114
 70
     1
 71
     0
 10
0.0
 20
0.0
 30
0.0
  3
*D1114
  1

  0
LINE
  5
24E
330
24D
100
AcDbEntity
  8
1
  6
CONTINUOUS
 62
     3
100
AcDbLine
 10
449.2503357754121
 20
145.9313966945629
 30
0.0
 11
449.2503357754121
 21
191.9313966945629
 31
0.0
  0
LINE
  5
24F
330
24D
100
AcDbEntity
  8
1
  6
CONTINUOUS
 62
     3
100
AcDbLine
 10
425.7917138158956
 20
145.9313966945629
 30
0.0
 11
451.2503357754121
 21
145.9313966945629
 31
0.0
  0
LINE
  5
250
330
24D
100
AcDbEntity
  8
1
  6
CONTINUOUS
 62
     3
100
AcDbLine
 10
406.7917138158956
 20
191.9313966945629
 30
0.0
 11
451.2503357754121
 21
191.9313966945629
 31
0.0
  0
SOLID
  5
251
330
24D
100
AcDbEntity
  8
1
 62
     3
100
AcDbTrace
 10
448.0983764215224
 20
154.6813966945629
 30
0.0
 11
450.4022951293018
 21
154.6813966945629
 31
0.0
 12
449.2503357754121
 22
145.9313966945629
 32
0.0
 13
449.2503357754121
 23
145.9313966945629
 33
0.0
  0
SOLID
  5
252
330
24D
100
AcDbEntity
  8
1
 62
     3
100
AcDbTrace
 10
450.4022951293018
 20
183.1813966945629
 30
0.0
 11
448.0983764215224
 21
183.1813966945629
 31
0.0
 12
449.2503357754121
 22
191.9313966945629
 32
0.0
 13
449.2503357754121
 23
191.9313966945629
 33
0.0
  0
MTEXT
  5
253
330
24D
100
AcDbEntity
  8
1
 62
     2
100
AcDbMText
 10
446.7503357754121
 20
163.6813966945629
 30
0.0
 40
8.75
 41
0.0
 71
     7
 72
     1
  1
46
  7
CONVERTER_1
 11
0.0
 21
1.0
 31
0.0
1001
ACAD
1000
MTEXTBEGIN
1070
    44
1040
0.60024009603842
1000
MTEXTEND
  0
ENDBLK
  5
255
330
24D
100
AcDbEntity
  8
0
100
AcDbBlockEnd
  0
BLOCK
  5
261
330
258
100
AcDbEntity
  8
0
100
AcDbBlockBegin
  2
*D1215
 70
     1
 71
     0
 10
0.0
 20
0.0
 30
0.0
  3
*D1215
  1

  0
LINE
  5
259
330
258
100
AcDbEntity
  8
1
  6
CONTINUOUS
 62
     3
100
AcDbLine
 10
550.1904062845133
 20
283.868202514583
 30
0.0
 11
567.6904062845133
 21
283.868202514583
 31
0.0
  0
LINE
  5
25A
330
258
100
AcDbEntity
  8
1
  6
CONTINUOUS
 62
     3
100
AcDbLine
 10
543.1904062845133
 20
283.868202514583
 30
0.0
 11
525.6904062845133
 21
283.868202514583
 31
0.0
  0
LINE
  5
25B
330
258
100
AcDbEntity
  8
1
  6
CONTINUOUS
 62
     3
100
AcDbLine
 10
543.1904062845133
 20
283.868202514583
 30
0.0
 11
550.1904062845133
 21
283.868202514583
 31
0.0
  0
LINE
  5
25C
330
258
100
AcDbEntity
  8
1
  6
CONTINUOUS
 62
     3
100
AcDbLine
 10
550.1904062845133
 20
256.4313966945629
 30
0.0
 11
550.1904062845133
 21
285.868202514583
 31
0.0
  0
LINE
  5
25D
330
258
100
AcDbEntity
  8
1
  6
CONTINUOUS
 62
     3
100
AcDbLine
 10
543.1904062845133
 20
259.4313966945629
 30
0.0
 11
543.1904062845133
 21
285.868202514583
 31
0.0
  0
SOLID
  5
25E
330
258
100
AcDbEntity
  8
1
 62
     3
100
AcDbTrace
 10
558.9404062845133
 20
285.0201618684727
 30
0.0
 11
558.9404062845133
 21
282.7162431606933
 31
0.0
 12
550.1904062845133
 22
283.868202514583
 32
0.0
 13
550.1904062845133
 23
283.868202514583
 33
0.0
  0
SOLID
  5
25F
330
258
100
AcDbEntity
  8
1
 62
     3
100
AcDbTrace
 10
534.4404062845133
 20
282.7162431606933
 30
0.0
 11
534.4404062845133
 21
285.0201618684727
 31
0.0
 12
543.1904062845133
 22
283.868202514583
 32
0.0
 13
543.1904062845133
 23
283.868202514583
 33
0.0
  0
MTEXT
  5
260
330
258
100
AcDbEntity
  8
1
 62
     2
100
AcDbMText
 10
544.512753576004
 20
286.368202514583
 30
0.0
 40
8.75
 41
0.0
 71
     7
 72
     1
  1
7
  7
CONVERTER_1
 11
0.9999999999970621
 21
2.424068405545307E-6
 31
0.0
1001
ACAD
1000
MTEXTBEGIN
1070
    44
1040
0.60024009603842
1000
MTEXTEND
  0
ENDBLK
  5
262
330
258
100
AcDbEntity
  8
0
100
AcDbBlockEnd
  0
BLOCK
  5
26E
330
265
100
AcDbEntity
  8
0
100
AcDbBlockBegin
  2
*D1316
 70
     1
 71
     0
 10
0.0
 20
0.0
 30
0.0
  3
*D1316
  1

  0
LINE
  5
266
330
265
100
AcDbEntity
  8
1
  6
CONTINUOUS
 62
     3
100
AcDbLine
 10
530.1904062845133
 20
240.618529670971
 30
0.0
 11
510.587551483079
 21
240.618529670971
 31
0.0
  0
LINE
  5
267
330
265
100
AcDbEntity
  8
1
  6
CONTINUOUS
 62
     3
100
AcDbLine
 10
530.1904062845133
 20
240.618529670971
 30
0.0
 11
537.1904062845133
 21
240.618529670971
 31
0.0
  0
LINE
  5
268
330
265
100
AcDbEntity
  8
1
  6
CONTINUOUS
 62
     3
100
AcDbLine
 10
554.6904062845133
 20
240.618529670971
 30
0.0
 11
537.1904062845133
 21
240.618529670971
 31
0.0
  0
LINE
  5
269
330
265
100
AcDbEntity
  8
1
  6
CONTINUOUS
 62
     3
100
AcDbLine
 10
537.1904062845133
 20
236.9313966945629
 30
0.0
 11
537.1904062845133
 21
242.618529670971
 31
0.0
  0
LINE
  5
26A
330
265
100
AcDbEntity
  8
1
  6
CONTINUOUS
 62
     3
100
AcDbLine
 10
530.1904062845133
 20
256.4313966945629
 30
0.0
 11
530.1904062845133
 21
238.618529670971
 31
0.0
  0
SOLID
  5
26B
330
265
100
AcDbEntity
  8
1
 62
     3
100
AcDbTrace
 10
521.4404062845133
 20
239.4665703170813
 30
0.0
 11
521.4404062845133
 21
241.7704890248607
 31
0.0
 12
530.1904062845133
 22
240.618529670971
 32
0.0
 13
530.1904062845133
 23
240.618529670971
 33
0.0
  0
SOLID
  5
26C
330
265
100
AcDbEntity
  8
1
 62
     3
100
AcDbTrace
 10
545.9404062845133
 20
241.7704890248607
 30
0.0
 11
545.9404062845133
 21
239.4665703170813
 31
0.0
 12
537.1904062845133
 22
240.618529670971
 32
0.0
 13
537.1904062845133
 23
240.618529670971
 33
0.0
  0
MTEXT
  5
26D
330
265
100
AcDbEntity
  8
1
 62
     2
100
AcDbMText
 10
510.587551483079
 20
243.118529670971
 30
0.0
 40
8.75
 41
0.0
 71
     7
 72
     1
  1
7
  7
CONVERTER_1
 11
0.9999999999970621
 21
2.424068405545307E-6
 31
0.0
1001
ACAD
1000
MTEXTBEGIN
1070
    44
1040
0.60024009603842
1000
MTEXTEND
  0
ENDBLK
  5
26F
330
265
100
AcDbEntity
  8
0
100
AcDbBlockEnd
  0
BLOCK
  5
27B
330
272
100
AcDbEntity
  8
0
100
AcDbBlockBegin
  2
*D1417
 70
     1
 71
     0
 10
0.0
 20
0.0
 30
0.0
  3
*D1417
  1

  0
LINE
  5
273
330
272
100
AcDbEntity
  8
1
  6
CONTINUOUS
 62
     3
100
AcDbLine
 10
570.883091606968
 20
266.4313966945629
 30
0.0
 11
570.883091606968
 21
283.9313966945629
 31
0.0
  0
LINE
  5
274
330
272
100
AcDbEntity
  8
1
  6
CONTINUOUS
 62
     3
100
AcDbLine
 10
570.883091606968
 20
253.4313966945629
 30
0.0
 11
570.883091606968
 21
235.9313966945629
 31
0.0
  0
LINE
  5
275
330
272
100
AcDbEntity
  8
1
  6
CONTINUOUS
 62
     3
100
AcDbLine
 10
570.883091606968
 20
253.4313966945629
 30
0.0
 11
570.883091606968
 21
266.4313966945629
 31
0.0
  0
LINE
  5
276
330
272
100
AcDbEntity
  8
1
  6
CONTINUOUS
 62
     3
100
AcDbLine
 10
540.1904062845133
 20
266.4313966945629
 30
0.0
 11
572.883091606968
 21
266.4313966945629
 31
0.0
  0
LINE
  5
277
330
272
100
AcDbEntity
  8
1
  6
CONTINUOUS
 62
     3
100
AcDbLine
 10
550.1904062845133
 20
253.4313966945629
 30
0.0
 11
572.883091606968
 21
253.4313966945629
 31
0.0
  0
SOLID
  5
278
330
272
100
AcDbEntity
  8
1
 62
     3
100
AcDbTrace
 10
569.7311322530783
 20
275.1813966945629
 30
0.0
 11
572.0350509608578
 21
275.1813966945629
 31
0.0
 12
570.883091606968
 22
266.4313966945629
 32
0.0
 13
570.883091606968
 23
266.4313966945629
 33
0.0
  0
SOLID
  5
279
330
272
100
AcDbEntity
  8
1
 62
     3
100
AcDbTrace
 10
572.0350509608578
 20
244.6813966945629
 30
0.0
 11
569.7311322530783
 21
244.6813966945629
 31
0.0
 12
570.883091606968
 22
253.4313966945629
 32
0.0
 13
570.883091606968
 23
253.4313966945629
 33
0.0
  0
MTEXT
  5
27A
330
272
100
AcDbEntity
  8
1
 62
     2
100
AcDbMText
 10
568.383091606968
 20
255.553284130679
 30
0.0
 40
8.75
 41
0.0
 71
     7
 72
     1
  1
13
  7
CONVERTER_1
 11
0.0
 21
1.0
 31
0.0
1001
ACAD
1000
MTEXTBEGIN
1070
    44
1040
0.60024009603842
1000
MTEXTEND
  0
ENDBLK
  5
27C
330
272
100
AcDbEntity
  8
0
100
AcDbBlockEnd
  0
BLOCK
  5
288
330
27F
100
AcDbEntity
  8
0
100
AcDbBlockBegin
  2
*D1518
 70
     1
 71
     0
 10
0.0
 20
0.0
 30
0.0
  3
*D1518
  1

  0
LINE
  5
280
330
27F
100
AcDbEntity
  8
1
  6
CONTINUOUS
 62
     3
100
AcDbLine
 10
570.766264188345
 20
-0.56860330543709
 30
0.0
 11
570.766264188345
 21
16.93139669456291
 31
0.0
  0
LINE
  5
281
330
27F
100
AcDbEntity
  8
1
  6
CONTINUOUS
 62
     3
100
AcDbLine
 10
570.766264188345
 20
-13.56860330543708
 30
0.0
 11
570.766264188345
 21
-31.06860330543708
 31
0.0
  0
LINE
  5
282
330
27F
100
AcDbEntity
  8
1
  6
CONTINUOUS
 62
     3
100
AcDbLine
 10
570.766264188345
 20
-13.56860330543708
 30
0.0
 11
570.766264188345
 21
-0.56860330543709
 31
0.0
  0
LINE
  5
283
330
27F
100
AcDbEntity
  8
1
  6
CONTINUOUS
 62
     3
100
AcDbLine
 10
548.1904062845133
 20
-0.56860330543709
 30
0.0
 11
572.766264188345
 21
-0.56860330543709
 31
0.0
  0
LINE
  5
284
330
27F
100
AcDbEntity
  8
1
  6
CONTINUOUS
 62
     3
100
AcDbLine
 10
540.1904062845133
 20
-13.56860330543708
 30
0.0
 11
572.766264188345
 21
-13.56860330543708
 31
0.0
  0
SOLID
  5
285
330
27F
100
AcDbEntity
  8
1
 62
     3
100
AcDbTrace
 10
571.9182235422347
 20
-22.31860330543708
 30
0.0
 11
569.6143048344552
 21
-22.31860330543708
 31
0.0
 12
570.766264188345
 22
-13.56860330543708
 32
0.0
 13
570.766264188345
 23
-13.56860330543708
 33
0.0
  0
SOLID
  5
286
330
27F
100
AcDbEntity
  8
1
 62
     3
100
AcDbTrace
 10
569.6143048344552
 20
8.18139669456291
 30
0.0
 11
571.9182235422347
 21
8.18139669456291
 31
0.0
 12
570.766264188345
 22
-0.56860330543709
 32
0.0
 13
570.766264188345
 23
-0.56860330543709
 33
0.0
  0
MTEXT
  5
287
330
27F
100
AcDbEntity
  8
1
 62
     2
100
AcDbMText
 10
568.266264188345
 20
-10.68167537621017
 30
0.0
 40
8.75
 41
0.0
 71
     7
 72
     1
  1
13
  7
CONVERTER_1
 11
0.0
 21
1.0
 31
0.0
1001
ACAD
1000
MTEXTBEGIN
1070
    44
1040
0.60024009603842
1000
MTEXTEND
  0
ENDBLK
  5
289
330
27F
100
AcDbEntity
  8
0
100
AcDbBlockEnd
  0
BLOCK
  5
295
330
28C
100
AcDbEntity
  8
0
100
AcDbBlockBegin
  2
*D1619
 70
     1
 71
     0
 10
0.0
 20
0.0
 30
0.0
  3
*D1619
  1

  0
LINE
  5
28D
330
28C
100
AcDbEntity
  8
1
  6
CONTINUOUS
 62
     3
100
AcDbLine
 10
401.791713815884
 20
167.5400046824216
 30
0.0
 11
419.291713815884
 21
167.5400046824216
 31
0.0
  0
LINE
  5
28E
330
28C
100
AcDbEntity
  8
1
  6
CONTINUOUS
 62
     3
100
AcDbLine
 10
393.791713815884
 20
167.5400046824216
 30
0.0
 11
376.291713815884
 21
167.5400046824216
 31
0.0
  0
LINE
  5
28F
330
28C
100
AcDbEntity
  8
1
  6
CONTINUOUS
 62
     3
100
AcDbLine
 10
393.791713815884
 20
167.5400046824216
 30
0.0
 11
401.791713815884
 21
167.5400046824216
 31
0.0
  0
LINE
  5
290
330
28C
100
AcDbEntity
  8
1
  6
CONTINUOUS
 62
     3
100
AcDbLine
 10
401.791713815884
 20
149.9313966945536
 30
0.0
 11
401.791713815884
 21
169.5400046824216
 31
0.0
  0
LINE
  5
291
330
28C
100
AcDbEntity
  8
1
  6
CONTINUOUS
 62
     3
100
AcDbLine
 10
393.791713815884
 20
149.9313966945536
 30
0.0
 11
393.791713815884
 21
169.5400046824216
 31
0.0
  0
SOLID
  5
292
330
28C
100
AcDbEntity
  8
1
 62
     3
100
AcDbTrace
 10
385.041713815884
 20
166.3880453285319
 30
0.0
 11
385.041713815884
 21
168.6919640363113
 31
0.0
 12
393.791713815884
 22
167.5400046824216
 32
0.0
 13
393.791713815884
 23
167.5400046824216
 33
0.0
  0
SOLID
  5
293
330
28C
100
AcDbEntity
  8
1
 62
     3
100
AcDbTrace
 10
410.541713815884
 20
168.6919640363113
 30
0.0
 11
410.541713815884
 21
166.3880453285319
 31
0.0
 12
401.791713815884
 22
167.5400046824216
 32
0.0
 13
401.791713815884
 23
167.5400046824216
 33
0.0
  0
MTEXT
  5
294
330
28C
100
AcDbEntity
  8
1
 62
     2
100
AcDbMText
 10
386.0028615604082
 20
170.03996989704
 30
0.0
 40
8.75
 41
0.0
 71
     7
 72
     1
  1
\C2;\C2;\C2;8\C7;\H6.25;
  7
CONVERTER_1
 11
0.9999999999970621
 21
2.424068405545307E-6
 31
0.0
1001
ACAD
1000
MTEXTBEGIN
1070
    44
1040
0.60024009603842
1000
MTEXTEND
  0
ENDBLK
  5
296
330
28C
100
AcDbEntity
  8
0
100
AcDbBlockEnd
  0
BLOCK
  5
2A2
330
299
100
AcDbEntity
  8
0
100
AcDbBlockBegin
  2
*D1720
 70
     1
 71
     0
 10
0.0
 20
0.0
 30
0.0
  3
*D1720
  1

  0
LINE
  5
29A
330
299
100
AcDbEntity
  8
1
  6
CONTINUOUS
 62
     3
100
AcDbLine
 10
550.1904062845133
 20
-47.8542473331326
 30
0.0
 11
567.6904062845133
 21
-47.8542473331326
 31
0.0
  0
LINE
  5
29B
330
299
100
AcDbEntity
  8
1
  6
CONTINUOUS
 62
     3
100
AcDbLine
 10
530.1904062845133
 20
-47.8542473331326
 30
0.0
 11
512.6904062845133
 21
-47.8542473331326
 31
0.0
  0
LINE
  5
29C
330
299
100
AcDbEntity
  8
1
  6
CONTINUOUS
 62
     3
100
AcDbLine
 10
530.1904062845133
 20
-47.8542473331326
 30
0.0
 11
550.1904062845133
 21
-47.8542473331326
 31
0.0
  0
LINE
  5
29D
330
299
100
AcDbEntity
  8
1
  6
CONTINUOUS
 62
     3
100
AcDbLine
 10
550.1904062845133
 20
-3.56860330543709
 30
0.0
 11
550.1904062845133
 21
-49.8542473331326
 31
0.0
  0
LINE
  5
29E
330
299
100
AcDbEntity
  8
1
  6
CONTINUOUS
 62
     3
100
AcDbLine
 10
530.1904062845133
 20
-3.56860330543709
 30
0.0
 11
530.1904062845133
 21
-49.8542473331326
 31
0.0
  0
SOLID
  5
29F
330
299
100
AcDbEntity
  8
1
 62
     3
100
AcDbTrace
 10
521.4404062845133
 20
-49.00620668702231
 30
0.0
 11
521.4404062845133
 21
-46.70228797924288
 31
0.0
 12
530.1904062845133
 22
-47.8542473331326
 32
0.0
 13
530.1904062845133
 23
-47.8542473331326
 33
0.0
  0
SOLID
  5
2A0
330
299
100
AcDbEntity
  8
1
 62
     3
100
AcDbTrace
 10
558.9404062845133
 20
-46.70228797924288
 30
0.0
 11
558.9404062845133
 21
-49.00620668702231
 31
0.0
 12
550.1904062845133
 22
-47.8542473331326
 32
0.0
 13
550.1904062845133
 23
-47.8542473331326
 33
0.0
  0
MTEXT
  5
2A1
330
299
100
AcDbEntity
  8
1
 62
     2
100
AcDbMText
 10
535.147029282749
 20
-45.3542473331326
 30
0.0
 40
8.75
 41
0.0
 71
     7
 72
     1
  1
20
  7
CONVERTER_1
 11
0.9999999999970621
 21
2.424068405545307E-6
 31
0.0
1001
ACAD
1000
MTEXTBEGIN
1070
    44
1040
0.60024009603842
1000
MTEXTEND
  0
ENDBLK
  5
2A3
330
299
100
AcDbEntity
  8
0
100
AcDbBlockEnd
  0
BLOCK
  5
2AF
330
2A6
100
AcDbEntity
  8
0
100
AcDbBlockBegin
  2
*D1821
 70
     1
 71
     0
 10
0.0
 20
0.0
 30
0.0
  3
*D1821
  1

  0
LINE
  5
2A7
330
2A6
100
AcDbEntity
  8
1
  6
CONTINUOUS
 62
     3
100
AcDbLine
 10
533.9904062845086
 20
119.6080277715664
 30
0.0
 11
507.7773888795695
 21
119.6080277715664
 31
0.0
  0
LINE
  5
2A8
330
2A6
100
AcDbEntity
  8
1
  6
CONTINUOUS
 62
     3
100
AcDbLine
 10
533.9904062845086
 20
119.6080277715664
 30
0.0
 11
541.7904062845086
 21
119.6080277715664
 31
0.0
  0
LINE
  5
2A9
330
2A6
100
AcDbEntity
  8
1
  6
CONTINUOUS
 62
     3
100
AcDbLine
 10
559.2904062845086
 20
119.6080277715664
 30
0.0
 11
541.7904062845086
 21
119.6080277715664
 31
0.0
  0
LINE
  5
2AA
330
2A6
100
AcDbEntity
  8
1
  6
CONTINUOUS
 62
     3
100
AcDbLine
 10
541.7904062845086
 20
108.9313966945534
 30
0.0
 11
541.7904062845086
 21
121.6080277715664
 31
0.0
  0
LINE
  5
2AB
330
2A6
100
AcDbEntity
  8
1
  6
CONTINUOUS
 62
     3
100
AcDbLine
 10
533.9904062845086
 20
108.9313966945534
 30
0.0
 11
533.9904062845086
 21
121.6080277715664
 31
0.0
  0
SOLID
  5
2AC
330
2A6
100
AcDbEntity
  8
1
 62
     3
100
AcDbTrace
 10
525.2404062845086
 20
118.4560684176767
 30
0.0
 11
525.2404062845086
 21
120.7599871254561
 31
0.0
 12
533.9904062845086
 22
119.6080277715664
 32
0.0
 13
533.9904062845086
 23
119.6080277715664
 33
0.0
  0
SOLID
  5
2AD
330
2A6
100
AcDbEntity
  8
1
 62
     3
100
AcDbTrace
 10
550.5404062845086
 20
120.7599871254561
 30
0.0
 11
550.5404062845086
 21
118.4560684176767
 31
0.0
 12
541.7904062845086
 22
119.6080277715664
 32
0.0
 13
541.7904062845086
 23
119.6080277715664
 33
0.0
  0
MTEXT
  5
2AE
330
2A6
100
AcDbEntity
  8
1
 62
     2
100
AcDbMText
 10
507.7773888795695
 20
122.9830277715664
 30
0.0
 40
8.75
 41
0.0
 71
     7
 72
     1
  1
7,8
  7
CONVERTER_1
 11
0.9999999999970621
 21
2.424068405545307E-6
 31
0.0
1001
ACAD
1000
MTEXTBEGIN
1070
    44
1040
0.60024009603842
1000
MTEXTEND
  0
ENDBLK
  5
2B0
330
2A6
100
AcDbEntity
  8
0
100
AcDbBlockEnd
  0
BLOCK
  5
2BC
330
2B3
100
AcDbEntity
  8
0
100
AcDbBlockBegin
  2
*D1922
 70
     1
 71
     0
 10
0.0
 20
0.0
 30
0.0
  3
*D1922
  1

  0
LINE
  5
2B4
330
2B3
100
AcDbEntity
  8
1
  6
CONTINUOUS
 62
     3
100
AcDbLine
 10
530.1904062845133
 20
66.59688339165587
 30
0.0
 11
506.5226872374391
 21
66.59688339165587
 31
0.0
  0
LINE
  5
2B5
330
2B3
100
AcDbEntity
  8
1
  6
CONTINUOUS
 62
     3
100
AcDbLine
 10
530.1904062845133
 20
66.59688339165587
 30
0.0
 11
533.9904062845162
 21
66.59688339165587
 31
0.0
  0
LINE
  5
2B6
330
2B3
100
AcDbEntity
  8
1
  6
CONTINUOUS
 62
     3
100
AcDbLine
 10
551.4904062845162
 20
66.59688339165587
 30
0.0
 11
533.9904062845162
 21
66.59688339165587
 31
0.0
  0
LINE
  5
2B7
330
2B3
100
AcDbEntity
  8
1
  6
CONTINUOUS
 62
     3
100
AcDbLine
 10
533.9904062845162
 20
73.93139669456286
 30
0.0
 11
533.9904062845162
 21
64.59688339165587
 31
0.0
  0
LINE
  5
2B8
330
2B3
100
AcDbEntity
  8
1
  6
CONTINUOUS
 62
     3
100
AcDbLine
 10
530.1904062845133
 20
-3.56860330543709
 30
0.0
 11
530.1904062845133
 21
68.59688339165587
 31
0.0
  0
SOLID
  5
2B9
330
2B3
100
AcDbEntity
  8
1
 62
     3
100
AcDbTrace
 10
521.4404062845133
 20
65.44492403776616
 30
0.0
 11
521.4404062845133
 21
67.74884274554557
 31
0.0
 12
530.1904062845133
 22
66.59688339165587
 32
0.0
 13
530.1904062845133
 23
66.59688339165587
 33
0.0
  0
SOLID
  5
2BA
330
2B3
100
AcDbEntity
  8
1
 62
     3
100
AcDbTrace
 10
542.7404062845162
 20
67.74884274554557
 30
0.0
 11
542.7404062845162
 21
65.44492403776616
 31
0.0
 12
533.9904062845162
 22
66.59688339165587
 32
0.0
 13
533.9904062845162
 23
66.59688339165587
 33
0.0
  0
MTEXT
  5
2BB
330
2B3
100
AcDbEntity
  8
1
 62
     2
100
AcDbMText
 10
506.5226872374391
 20
69.97188339165587
 30
0.0
 40
8.75
 41
0.0
 71
     7
 72
     1
  1
3,8
  7
CONVERTER_1
 11
0.9999999999970621
 21
2.424068405545307E-6
 31
0.0
1001
ACAD
1000
MTEXTBEGIN
1070
    44
1040
0.60024009603842
1000
MTEXTEND
  0
ENDBLK
  5
2BD
330
2B3
100
AcDbEntity
  8
0
100
AcDbBlockEnd
  0
BLOCK
  5
2C9
330
2C0
100
AcDbEntity
  8
0
100
AcDbBlockBegin
  2
*D2023
 70
     1
 71
     0
 10
0.0
 20
0.0
 30
0.0
  3
*D2023
  1

  0
LINE
  5
2C1
330
2C0
100
AcDbEntity
  8
1
  6
CONTINUOUS
 62
     3
100
AcDbLine
 10
545.4904062845149
 20
199.7190820467076
 30
0.0
 11
562.9904062845149
 21
199.7190820467076
 31
0.0
  0
LINE
  5
2C2
330
2C0
100
AcDbEntity
  8
1
  6
CONTINUOUS
 62
     3
100
AcDbLine
 10
533.4904062845149
 20
199.7190820467076
 30
0.0
 11
515.9904062845149
 21
199.7190820467076
 31
0.0
  0
LINE
  5
2C3
330
2C0
100
AcDbEntity
  8
1
  6
CONTINUOUS
 62
     3
100
AcDbLine
 10
533.4904062845149
 20
199.7190820467076
 30
0.0
 11
545.4904062845149
 21
199.7190820467076
 31
0.0
  0
LINE
  5
2C4
330
2C0
100
AcDbEntity
  8
1
  6
CONTINUOUS
 62
     3
100
AcDbLine
 10
545.4904062845149
 20
162.9313966945596
 30
0.0
 11
545.4904062845149
 21
201.7190820467076
 31
0.0
  0
LINE
  5
2C5
330
2C0
100
AcDbEntity
  8
1
  6
CONTINUOUS
 62
     3
100
AcDbLine
 10
533.4904062845149
 20
158.9313966945596
 30
0.0
 11
533.4904062845149
 21
201.7190820467076
 31
0.0
  0
SOLID
  5
2C6
330
2C0
100
AcDbEntity
  8
1
 62
     3
100
AcDbTrace
 10
524.7404062845149
 20
198.5671226928179
 30
0.0
 11
524.7404062845149
 21
200.8710414005973
 31
0.0
 12
533.4904062845149
 22
199.7190820467076
 32
0.0
 13
533.4904062845149
 23
199.7190820467076
 33
0.0
  0
SOLID
  5
2C7
330
2C0
100
AcDbEntity
  8
1
 62
     3
100
AcDbTrace
 10
554.2404062845149
 20
200.8710414005973
 30
0.0
 11
554.2404062845149
 21
198.5671226928179
 31
0.0
 12
545.4904062845149
 22
199.7190820467076
 32
0.0
 13
545.4904062845149
 23
199.7190820467076
 33
0.0
  0
MTEXT
  5
2C8
330
2C0
100
AcDbEntity
  8
1
 62
     2
100
AcDbMText
 10
535.4600971326697
 20
202.2190820467076
 30
0.0
 40
8.75
 41
0.0
 71
     7
 72
     1
  1
12
  7
CONVERTER_1
 11
0.9999999999970621
 21
2.424068405545307E-6
 31
0.0
1001
ACAD
1000
MTEXTBEGIN
1070
    44
1040
0.60024009603842
1000
MTEXTEND
  0
ENDBLK
  5
2CA
330
2C0
100
AcDbEntity
  8
0
100
AcDbBlockEnd
  0
BLOCK
  5
2D6
330
2CD
100
AcDbEntity
  8
0
100
AcDbBlockBegin
  2
*D2124
 70
     1
 71
     0
 10
0.0
 20
0.0
 30
0.0
  3
*D2124
  1

  0
LINE
  5
2CE
330
2CD
100
AcDbEntity
  8
1
  6
CONTINUOUS
 62
     3
100
AcDbLine
 10
530.1904062845133
 20
218.7294574996922
 30
0.0
 11
506.2090118269174
 21
218.7294574996922
 31
0.0
  0
LINE
  5
2CF
330
2CD
100
AcDbEntity
  8
1
  6
CONTINUOUS
 62
     3
100
AcDbLine
 10
530.1904062845133
 20
218.7294574996922
 30
0.0
 11
533.4904062845162
 21
218.7294574996922
 31
0.0
  0
LINE
  5
2D0
330
2CD
100
AcDbEntity
  8
1
  6
CONTINUOUS
 62
     3
100
AcDbLine
 10
550.9904062845162
 20
218.7294574996922
 30
0.0
 11
533.4904062845162
 21
218.7294574996922
 31
0.0
  0
LINE
  5
2D1
330
2CD
100
AcDbEntity
  8
1
  6
CONTINUOUS
 62
     3
100
AcDbLine
 10
533.4904062845162
 20
190.9313966945629
 30
0.0
 11
533.4904062845162
 21
220.7294574996922
 31
0.0
  0
LINE
  5
2D2
330
2CD
100
AcDbEntity
  8
1
  6
CONTINUOUS
 62
     3
100
AcDbLine
 10
530.1904062845133
 20
256.4313966945629
 30
0.0
 11
530.1904062845133
 21
216.7294574996922
 31
0.0
  0
SOLID
  5
2D3
330
2CD
100
AcDbEntity
  8
1
 62
     3
100
AcDbTrace
 10
521.4404062845133
 20
217.5774981458025
 30
0.0
 11
521.4404062845133
 21
219.8814168535819
 31
0.0
 12
530.1904062845133
 22
218.7294574996922
 32
0.0
 13
530.1904062845133
 23
218.7294574996922
 33
0.0
  0
SOLID
  5
2D4
330
2CD
100
AcDbEntity
  8
1
 62
     3
100
AcDbTrace
 10
542.2404062845162
 20
219.8814168535819
 30
0.0
 11
542.2404062845162
 21
217.5774981458025
 31
0.0
 12
533.4904062845162
 22
218.7294574996922
 32
0.0
 13
533.4904062845162
 23
218.7294574996922
 33
0.0
  0
MTEXT
  5
2D5
330
2CD
100
AcDbEntity
  8
1
 62
     2
100
AcDbMText
 10
506.2090118269174
 20
222.1044574996922
 30
0.0
 40
8.75
 41
0.0
 71
     7
 72
     1
  1
3,3
  7
CONVERTER_1
 11
0.9999999999970621
 21
2.424068405545307E-6
 31
0.0
1001
ACAD
1000
MTEXTBEGIN
1070
    44
1040
0.60024009603842
1000
MTEXTEND
  0
ENDBLK
  5
2D7
330
2CD
100
AcDbEntity
  8
0
100
AcDbBlockEnd
  0
BLOCK
  5
2E1
330
2DA
100
AcDbEntity
  8
0
100
AcDbBlockBegin
  2
*D2225
 70
     1
 71
     0
 10
0.0
 20
0.0
 30
0.0
  3
*D2225
  1

  0
LINE
  5
2DB
330
2DA
100
AcDbEntity
  8
1
  6
CONTINUOUS
 62
     3
100
AcDbLine
 10
590.126165490869
 20
-13.56860330543708
 30
0.0
 11
590.126165490869
 21
21.93139669456286
 31
0.0
  0
LINE
  5
2DC
330
2DA
100
AcDbEntity
  8
1
  6
CONTINUOUS
 62
     3
100
AcDbLine
 10
547.8404062845075
 20
21.93139669456286
 30
0.0
 11
592.126165490869
 21
21.93139669456286
 31
0.0
  0
LINE
  5
2DD
330
2DA
100
AcDbEntity
  8
1
  6
CONTINUOUS
 62
     3
100
AcDbLine
 10
557.5293184183975
 20
-13.56860330543708
 30
0.0
 11
592.126165490869
 21
-13.56860330543708
 31
0.0
  0
SOLID
  5
2DE
330
2DA
100
AcDbEntity
  8
1
 62
     3
100
AcDbTrace
 10
588.9742061369792
 20
-4.81860330543708
 30
0.0
 11
591.2781248447587
 21
-4.81860330543708
 31
0.0
 12
590.126165490869
 22
-13.56860330543708
 32
0.0
 13
590.126165490869
 23
-13.56860330543708
 33
0.0
  0
SOLID
  5
2DF
330
2DA
100
AcDbEntity
  8
1
 62
     3
100
AcDbTrace
 10
591.2781248447587
 20
13.18139669456286
 30
0.0
 11
588.9742061369792
 21
13.18139669456286
 31
0.0
 12
590.126165490869
 22
21.93139669456286
 32
0.0
 13
590.126165490869
 23
21.93139669456286
 33
0.0
  0
MTEXT
  5
2E0
330
2DA
100
AcDbEntity
  8
1
 62
     2
100
AcDbMText
 10
586.751165490869
 20
-5.53693807146628
 30
0.0
 40
8.75
 41
0.0
 71
     7
 72
     1
  1
35,5
  7
CONVERTER_1
 11
0.0
 21
1.0
 31
0.0
1001
ACAD
1000
MTEXTBEGIN
1070
    44
1040
0.60024009603842
1000
MTEXTEND
  0
ENDBLK
  5
2E2
330
2DA
100
AcDbEntity
  8
0
100
AcDbBlockEnd
  0
BLOCK
  5
2EC
330
2E5
100
AcDbEntity
  8
0
100
AcDbBlockBegin
  2
*D2326
 70
     1
 71
     0
 10
0.0
 20
0.0
 30
0.0
  3
*D2326
  1

  0
LINE
  5
2E6
330
2E5
100
AcDbEntity
  8
1
  6
CONTINUOUS
 62
     3
100
AcDbLine
 10
589.860407935191
 20
230.9313966945629
 30
0.0
 11
589.860407935191
 21
266.4313966945629
 31
0.0
  0
LINE
  5
2E7
330
2E5
100
AcDbEntity
  8
1
  6
CONTINUOUS
 62
     3
100
AcDbLine
 10
540.1904062845133
 20
266.4313966945629
 30
0.0
 11
591.860407935191
 21
266.4313966945629
 31
0.0
  0
LINE
  5
2E8
330
2E5
100
AcDbEntity
  8
1
  6
CONTINUOUS
 62
     3
100
AcDbLine
 10
547.8404062845075
 20
230.9313966945629
 30
0.0
 11
591.860407935191
 21
230.9313966945629
 31
0.0
  0
SOLID
  5
2E9
330
2E5
100
AcDbEntity
  8
1
 62
     3
100
AcDbTrace
 10
591.0123672890808
 20
257.6813966945629
 30
0.0
 11
588.7084485813012
 21
257.6813966945629
 31
0.0
 12
589.860407935191
 22
266.4313966945629
 32
0.0
 13
589.860407935191
 23
266.4313966945629
 33
0.0
  0
SOLID
  5
2EA
330
2E5
100
AcDbEntity
  8
1
 62
     3
100
AcDbTrace
 10
588.7084485813012
 20
239.6813966945629
 30
0.0
 11
591.0123672890808
 21
239.6813966945629
 31
0.0
 12
589.860407935191
 22
230.9313966945629
 32
0.0
 13
589.860407935191
 23
230.9313966945629
 33
0.0
  0
MTEXT
  5
2EB
330
2E5
100
AcDbEntity
  8
1
 62
     2
100
AcDbMText
 10
586.485407935191
 20
238.029530752167
 30
0.0
 40
8.75
 41
0.0
 71
     7
 72
     1
  1
35,5
  7
CONVERTER_1
 11
0.0
 21
1.0
 31
0.0
1001
ACAD
1000
MTEXTBEGIN
1070
    44
1040
0.60024009603842
1000
MTEXTEND
  0
ENDBLK
  5
2ED
330
2E5
100
AcDbEntity
  8
0
100
AcDbBlockEnd
  0
BLOCK
  5
2F7
330
2F0
100
AcDbEntity
  8
0
100
AcDbBlockBegin
  2
*D2427
 70
     1
 71
     0
 10
0.0
 20
0.0
 30
0.0
  3
*D2427
  1

  0
LINE
  5
2F1
330
2F0
100
AcDbEntity
  8
1
  6
CONTINUOUS
 62
     3
100
AcDbLine
 10
606.774592725572
 20
-13.56860330543708
 30
0.0
 11
606.774592725572
 21
266.4313966945629
 31
0.0
  0
LINE
  5
2F2
330
2F0
100
AcDbEntity
  8
1
  6
CONTINUOUS
 62
     3
100
AcDbLine
 10
563.5097054476937
 20
266.4313966945629
 30
0.0
 11
608.774592725572
 21
266.4313966945629
 31
0.0
  0
LINE
  5
2F3
330
2F0
100
AcDbEntity
  8
1
  6
CONTINUOUS
 62
     3
100
AcDbLine
 10
557.5293184183975
 20
-13.56860330543708
 30
0.0
 11
608.774592725572
 21
-13.56860330543708
 31
0.0
  0
SOLID
  5
2F4
330
2F0
100
AcDbEntity
  8
1
 62
     3
100
AcDbTrace
 10
607.9265520794618
 20
257.6813966945629
 30
0.0
 11
605.6226333716822
 21
257.6813966945629
 31
0.0
 12
606.774592725572
 22
266.4313966945629
 32
0.0
 13
606.774592725572
 23
266.4313966945629
 33
0.0
  0
SOLID
  5
2F5
330
2F0
100
AcDbEntity
  8
1
 62
     3
100
AcDbTrace
 10
605.6226333716822
 20
-4.81860330543708
 30
0.0
 11
607.9265520794618
 21
-4.81860330543708
 31
0.0
 12
606.774592725572
 22
-13.56860330543708
 32
0.0
 13
606.774592725572
 23
-13.56860330543708
 33
0.0
  0
MTEXT
  5
2F6
330
2F0
100
AcDbEntity
  8
1
 62
     2
100
AcDbMText
 10
604.274592725572
 20
125.150713379676
 30
0.0
 40
8.75
 41
0.0
 71
     7
 72
     1
  1
280
  7
CONVERTER_1
 11
0.0
 21
1.0
 31
0.0
1001
ACAD
1000
MTEXTBEGIN
1070
    44
1040
0.60024009603842
1000
MTEXTEND
  0
ENDBLK
  5
2F8
330
2F0
100
AcDbEntity
  8
0
100
AcDbBlockEnd
  0
BLOCK
  5
304
330
2FB
100
AcDbEntity
  8
0
100
AcDbBlockBegin
  2
*D2528
 70
     1
 71
     0
 10
0.0
 20
0.0
 30
0.0
  3
*D2528
  1

  0
LINE
  5
2FC
330
2FB
100
AcDbEntity
  8
1
  6
CONTINUOUS
 62
     3
100
AcDbLine
 10
342.7917138158955
 20
56.56870609040198
 30
0.0
 11
360.2917138158955
 21
56.56870609040198
 31
0.0
  0
LINE
  5
2FD
330
2FB
100
AcDbEntity
  8
1
  6
CONTINUOUS
 62
     3
100
AcDbLine
 10
321.7917138158955
 20
56.56870609040198
 30
0.0
 11
304.2917138158955
 21
56.56870609040198
 31
0.0
  0
LINE
  5
2FE
330
2FB
100
AcDbEntity
  8
1
  6
CONTINUOUS
 62
     3
100
AcDbLine
 10
321.7917138158955
 20
56.56870609040198
 30
0.0
 11
342.7917138158955
 21
56.56870609040198
 31
0.0
  0
LINE
  5
2FF
330
2FB
100
AcDbEntity
  8
1
  6
CONTINUOUS
 62
     3
100
AcDbLine
 10
342.7917138158955
 20
73.93139669456286
 30
0.0
 11
342.7917138158955
 21
54.56870609040198
 31
0.0
  0
LINE
  5
300
330
2FB
100
AcDbEntity
  8
1
  6
CONTINUOUS
 62
     3
100
AcDbLine
 10
321.7917138158955
 20
73.93139669456286
 30
0.0
 11
321.7917138158955
 21
54.56870609040198
 31
0.0
  0
SOLID
  5
301
330
2FB
100
AcDbEntity
  8
1
 62
     3
100
AcDbTrace
 10
313.0417138158955
 20
55.41674673651227
 30
0.0
 11
313.0417138158955
 21
57.7206654442917
 31
0.0
 12
321.7917138158955
 22
56.56870609040198
 32
0.0
 13
321.7917138158955
 23
56.56870609040198
 33
0.0
  0
SOLID
  5
302
330
2FB
100
AcDbEntity
  8
1
 62
     3
100
AcDbTrace
 10
351.5417138158955
 20
57.7206654442917
 30
0.0
 11
351.5417138158955
 21
55.41674673651227
 31
0.0
 12
342.7917138158955
 22
56.56870609040198
 32
0.0
 13
342.7917138158955
 23
56.56870609040198
 33
0.0
  0
MTEXT
  5
303
330
2FB
100
AcDbEntity
  8
1
 62
     2
100
AcDbMText
 10
328.1827602896054
 20
59.06870609040198
 30
0.0
 40
8.75
 41
0.0
 71
     7
 72
     1
  1
21
  7
CONVERTER_1
 11
0.9999999999970621
 21
2.424068405545307E-6
 31
0.0
1001
ACAD
1000
MTEXTBEGIN
1070
    44
1040
0.60024009603842
1000
MTEXTEND
  0
ENDBLK
  5
305
330
2FB
100
AcDbEntity
  8
0
100
AcDbBlockEnd
  0
BLOCK
  5
30F
330
308
100
AcDbEntity
  8
0
100
AcDbBlockBegin
  2
*D2629
 70
     1
 71
     0
 10
0.0
 20
0.0
 30
0.0
  3
*D2629
  1

  0
LINE
  5
309
330
308
100
AcDbEntity
  8
1
  6
CONTINUOUS
 62
     3
100
AcDbLine
 10
480.9514669605269
 20
43.93139669456282
 30
0.0
 11
480.9514669605269
 21
208.9313966945628
 31
0.0
  0
LINE
  5
30A
330
308
100
AcDbEntity
  8
1
  6
CONTINUOUS
 62
     3
100
AcDbLine
 10
421.7917138158955
 20
43.93139669456282
 30
0.0
 11
482.9514669605269
 21
43.93139669456282
 31
0.0
  0
LINE
  5
30B
330
308
100
AcDbEntity
  8
1
  6
CONTINUOUS
 62
     3
100
AcDbLine
 10
421.7917138158955
 20
208.9313966945628
 30
0.0
 11
482.9514669605269
 21
208.9313966945628
 31
0.0
  0
SOLID
  5
30C
330
308
100
AcDbEntity
  8
1
 62
     3
100
AcDbTrace
 10
479.7995076066372
 20
52.68139669456282
 30
0.0
 11
482.1034263144166
 21
52.68139669456282
 31
0.0
 12
480.9514669605269
 22
43.93139669456282
 32
0.0
 13
480.9514669605269
 23
43.93139669456282
 33
0.0
  0
SOLID
  5
30D
330
308
100
AcDbEntity
  8
1
 62
     3
100
AcDbTrace
 10
482.1034263144166
 20
200.1813966945628
 30
0.0
 11
479.7995076066372
 21
200.1813966945628
 31
0.0
 12
480.9514669605269
 22
208.9313966945628
 32
0.0
 13
480.9514669605269
 23
208.9313966945628
 33
0.0
  0
MTEXT
  5
30E
330
308
100
AcDbEntity
  8
1
 62
     2
100
AcDbMText
 10
478.4514669605269
 20
115.4300999954488
 30
0.0
 40
8.75
 41
0.0
 71
     7
 72
     1
  1
165
  7
CONVERTER_1
 11
0.0
 21
1.0
 31
0.0
1001
ACAD
1000
MTEXTBEGIN
1070
    44
1040
0.60024009603842
1000
MTEXTEND
  0
ENDBLK
  5
310
330
308
100
AcDbEntity
  8
0
100
AcDbBlockEnd
  0
BLOCK
  5
31C
330
313
100
AcDbEntity
  8
0
100
AcDbBlockBegin
  2
*D2730
 70
     1
 71
     0
 10
0.0
 20
0.0
 30
0.0
  3
*D2730
  1

  0
LINE
  5
314
330
313
100
AcDbEntity
  8
1
  6
CONTINUOUS
 62
     3
100
AcDbLine
 10
360.3508572793216
 20
-130.9395714771883
 30
0.0
 11
360.3508572793216
 21
-113.4395714771883
 31
0.0
  0
LINE
  5
315
330
313
100
AcDbEntity
  8
1
  6
CONTINUOUS
 62
     3
100
AcDbLine
 10
360.3508572793216
 20
-113.4395714771883
 30
0.0
 11
360.3508572793216
 21
-112.939571477188
 31
0.0
  0
LINE
  5
316
330
313
100
AcDbEntity
  8
1
  6
CONTINUOUS
 62
     3
100
AcDbLine
 10
360.3508572793216
 20
-112.939571477188
 30
0.0
 11
360.3508572793216
 21
-87.18022563787451
 31
0.0
  0
LINE
  5
317
330
313
100
AcDbEntity
  8
1
  6
CONTINUOUS
 62
     3
100
AcDbLine
 10
379.5917138158824
 20
-113.4395714771883
 30
0.0
 11
358.3508572793216
 21
-113.4395714771883
 31
0.0
  0
LINE
  5
318
330
313
100
AcDbEntity
  8
1
  6
CONTINUOUS
 62
     3
100
AcDbLine
 10
345.7917138158826
 20
-112.939571477188
 30
0.0
 11
362.3508572793216
 21
-112.939571477188
 31
0.0
  0
SOLID
  5
319
330
313
100
AcDbEntity
  8
1
 62
     3
100
AcDbTrace
 10
359.1988979254319
 20
-104.189571477188
 30
0.0
 11
361.5028166332113
 21
-104.189571477188
 31
0.0
 12
360.3508572793216
 22
-112.939571477188
 32
0.0
 13
360.3508572793216
 23
-112.939571477188
 33
0.0
  0
SOLID
  5
31A
330
313
100
AcDbEntity
  8
1
 62
     3
100
AcDbTrace
 10
361.5028166332113
 20
-122.1895714771883
 30
0.0
 11
359.1988979254319
 21
-122.1895714771883
 31
0.0
 12
360.3508572793216
 22
-113.4395714771883
 32
0.0
 13
360.3508572793216
 23
-113.4395714771883
 33
0.0
  0
MTEXT
  5
31B
330
313
100
AcDbEntity
  8
1
 62
     2
100
AcDbMText
 10
356.9758572793216
 20
-100.1302256378745
 30
0.0
 40
8.75
 41
0.0
 71
     7
 72
     1
  1
0,5
  7
CONVERTER_1
 11
0.0
 21
1.0
 31
0.0
1001
ACAD
1000
MTEXTBEGIN
1070
    44
1040
0.60024009603842
1000
MTEXTEND
  0
ENDBLK
  5
31D
330
313
100
AcDbEntity
  8
0
100
AcDbBlockEnd
  0
BLOCK
  5
329
330
320
100
AcDbEntity
  8
0
100
AcDbBlockBegin
  2
*D2831
 70
     1
 71
     0
 10
0.0
 20
0.0
 30
0.0
  3
*D2831
  1

  0
LINE
  5
321
330
320
100
AcDbEntity
  8
1
  6
CONTINUOUS
 62
     3
100
AcDbLine
 10
454.1775559517555
 20
-146.439571477186
 30
0.0
 11
454.1775559517555
 21
-128.939571477186
 31
0.0
  0
LINE
  5
322
330
320
100
AcDbEntity
  8
1
  6
CONTINUOUS
 62
     3
100
AcDbLine
 10
454.1775559517555
 20
-128.939571477186
 30
0.0
 11
454.1775559517555
 21
-113.439571477186
 31
0.0
  0
LINE
  5
323
330
320
100
AcDbEntity
  8
1
  6
CONTINUOUS
 62
     3
100
AcDbLine
 10
454.1775559517555
 20
-113.439571477186
 30
0.0
 11
454.1775559517555
 21
-84.74750684825337
 31
0.0
  0
LINE
  5
324
330
320
100
AcDbEntity
  8
1
  6
CONTINUOUS
 62
     3
100
AcDbLine
 10
415.0917138158835
 20
-128.939571477186
 30
0.0
 11
456.1775559517555
 21
-128.939571477186
 31
0.0
  0
LINE
  5
325
330
320
100
AcDbEntity
  8
1
  6
CONTINUOUS
 62
     3
100
AcDbLine
 10
415.9917138158834
 20
-113.439571477186
 30
0.0
 11
456.1775559517555
 21
-113.439571477186
 31
0.0
  0
SOLID
  5
326
330
320
100
AcDbEntity
  8
1
 62
     3
100
AcDbTrace
 10
453.0255965978658
 20
-104.689571477186
 30
0.0
 11
455.3295153056452
 21
-104.689571477186
 31
0.0
 12
454.1775559517555
 22
-113.439571477186
 32
0.0
 13
454.1775559517555
 23
-113.439571477186
 33
0.0
  0
SOLID
  5
327
330
320
100
AcDbEntity
  8
1
 62
     3
100
AcDbTrace
 10
455.3295153056452
 20
-137.689571477186
 30
0.0
 11
453.0255965978658
 21
-137.689571477186
 31
0.0
 12
454.1775559517555
 22
-128.939571477186
 32
0.0
 13
454.1775559517555
 23
-128.939571477186
 33
0.0
  0
MTEXT
  5
328
330
320
100
AcDbEntity
  8
1
 62
     2
100
AcDbMText
 10
450.8025559517555
 20
-101.8975068482534
 30
0.0
 40
8.75
 41
0.0
 71
     7
 72
     1
  1
15,5
  7
CONVERTER_1
 11
0.0
 21
1.0
 31
0.0
1001
ACAD
1000
MTEXTBEGIN
1070
    44
1040
0.60024009603842
1000
MTEXTEND
  0
ENDBLK
  5
32A
330
320
100
AcDbEntity
  8
0
100
AcDbBlockEnd
  0
BLOCK
  5
334
330
32D
100
AcDbEntity
  8
0
100
AcDbBlockBegin
  2
*D2932
 70
     1
 71
     0
 10
0.0
 20
0.0
 30
0.0
  3
*D2932
  1

  0
LINE
  5
32E
330
32D
100
AcDbEntity
  8
1
  6
CONTINUOUS
 62
     3
100
AcDbLine
 10
342.7917138158956
 20
-47.8542473331326
 30
0.0
 11
397.7917138158956
 21
-47.8542473331326
 31
0.0
  0
LINE
  5
32F
330
32D
100
AcDbEntity
  8
1
  6
CONTINUOUS
 62
     3
100
AcDbLine
 10
397.7917138158956
 20
43.93139669456286
 30
0.0
 11
397.7917138158956
 21
-49.8542473331326
 31
0.0
  0
LINE
  5
330
330
32D
100
AcDbEntity
  8
1
  6
CONTINUOUS
 62
     3
100
AcDbLine
 10
342.7917138158956
 20
-13.56860330543708
 30
0.0
 11
342.7917138158956
 21
-49.8542473331326
 31
0.0
  0
SOLID
  5
331
330
32D
100
AcDbEntity
  8
1
 62
     3
100
AcDbTrace
 10
389.0417138158956
 20
-49.00620668702231
 30
0.0
 11
389.0417138158956
 21
-46.70228797924288
 31
0.0
 12
397.7917138158956
 22
-47.8542473331326
 32
0.0
 13
397.7917138158956
 23
-47.8542473331326
 33
0.0
  0
SOLID
  5
332
330
32D
100
AcDbEntity
  8
1
 62
     3
100
AcDbTrace
 10
351.5417138158956
 20
-46.70228797924288
 30
0.0
 11
351.5417138158956
 21
-49.00620668702231
 31
0.0
 12
342.7917138158956
 22
-47.8542473331326
 32
0.0
 13
342.7917138158956
 23
-47.8542473331326
 33
0.0
  0
MTEXT
  5
333
330
32D
100
AcDbEntity
  8
1
 62
     2
100
AcDbMText
 10
368.0000000000001
 20
-45.3542473331326
 30
0.0
 40
8.75
 41
0.0
 71
     7
 72
     1
  1
 
  7
CONVERTER_1
 11
0.9999999999970621
 21
2.424068405545307E-6
 31
0.0
1001
ACAD
1000
MTEXTBEGIN
1070
    44
1040
0.60024009603842
1000
MTEXTEND
  0
ENDBLK
  5
335
330
32D
100
AcDbEntity
  8
0
100
AcDbBlockEnd
  0
BLOCK
  5
341
330
338
100
AcDbEntity
  8
0
100
AcDbBlockBegin
  2
*D3033
 70
     1
 71
     0
 10
0.0
 20
0.0
 30
0.0
  3
*D3033
  1

  0
LINE
  5
339
330
338
100
AcDbEntity
  8
1
  6
CONTINUOUS
 62
     3
100
AcDbLine
 10
449.562223861668
 20
48.43139669456286
 30
0.0
 11
449.562223861668
 21
65.93139669456286
 31
0.0
  0
LINE
  5
33A
330
338
100
AcDbEntity
  8
1
  6
CONTINUOUS
 62
     3
100
AcDbLine
 10
449.562223861668
 20
65.93139669456286
 30
0.0
 11
449.562223861668
 21
73.93139669456286
 31
0.0
  0
LINE
  5
33B
330
338
100
AcDbEntity
  8
1
  6
CONTINUOUS
 62
     3
100
AcDbLine
 10
449.562223861668
 20
73.93139669456286
 30
0.0
 11
449.562223861668
 21
94.74054702229239
 31
0.0
  0
LINE
  5
33C
330
338
100
AcDbEntity
  8
1
  6
CONTINUOUS
 62
     3
100
AcDbLine
 10
425.7917138158955
 20
65.93139669456286
 30
0.0
 11
451.562223861668
 21
65.93139669456286
 31
0.0
  0
LINE
  5
33D
330
338
100
AcDbEntity
  8
1
  6
CONTINUOUS
 62
     3
100
AcDbLine
 10
408.9046743060899
 20
73.93139669456286
 30
0.0
 11
451.562223861668
 21
73.93139669456286
 31
0.0
  0
SOLID
  5
33E
330
338
100
AcDbEntity
  8
1
 62
     3
100
AcDbTrace
 10
448.4102645077783
 20
82.68139669456286
 30
0.0
 11
450.7141832155577
 21
82.68139669456286
 31
0.0
 12
449.562223861668
 22
73.93139669456286
 32
0.0
 13
449.562223861668
 23
73.93139669456286
 33
0.0
  0
SOLID
  5
33F
330
338
100
AcDbEntity
  8
1
 62
     3
100
AcDbTrace
 10
450.7141832155577
 20
57.18139669456286
 30
0.0
 11
448.4102645077783
 21
57.18139669456286
 31
0.0
 12
449.562223861668
 22
65.93139669456286
 32
0.0
 13
449.562223861668
 23
65.93139669456286
 33
0.0
  0
MTEXT
  5
340
330
338
100
AcDbEntity
  8
1
 62
     2
100
AcDbMText
 10
447.062223861668
 20
90.5405470222924
 30
0.0
 40
8.75
 41
0.0
 71
     7
 72
     1
  1
8
  7
CONVERTER_1
 11
0.0
 21
1.0
 31
0.0
1001
ACAD
1000
MTEXTBEGIN
1070
    44
1040
0.60024009603842
1000
MTEXTEND
  0
ENDBLK
  5
342
330
338
100
AcDbEntity
  8
0
100
AcDbBlockEnd
  0
BLOCK
  5
34E
330
345
100
AcDbEntity
  8
0
100
AcDbBlockBegin
  2
*D3134
 70
     1
 71
     0
 10
0.0
 20
0.0
 30
0.0
  3
*D3134
  1

  0
LINE
  5
346
330
345
100
AcDbEntity
  8
1
  6
CONTINUOUS
 62
     3
100
AcDbLine
 10
366.2917138158957
 20
-152.0392244324119
 30
0.0
 11
348.7917138158957
 21
-152.0392244324119
 31
0.0
  0
LINE
  5
347
330
345
100
AcDbEntity
  8
1
  6
CONTINUOUS
 62
     3
100
AcDbLine
 10
342.7917138158955
 20
-152.0392244324119
 30
0.0
 11
348.7917138158957
 21
-152.0392244324119
 31
0.0
  0
LINE
  5
348
330
345
100
AcDbEntity
  8
1
  6
CONTINUOUS
 62
     3
100
AcDbLine
 10
342.7917138158955
 20
-152.0392244324119
 30
0.0
 11
325.2917138158955
 21
-152.0392244324119
 31
0.0
  0
LINE
  5
349
330
345
100
AcDbEntity
  8
1
  6
CONTINUOUS
 62
     3
100
AcDbLine
 10
342.7917138158955
 20
-132.9395714771781
 30
0.0
 11
342.7917138158955
 21
-154.0392244324119
 31
0.0
  0
LINE
  5
34A
330
345
100
AcDbEntity
  8
1
  6
CONTINUOUS
 62
     3
100
AcDbLine
 10
348.7917138158957
 20
-132.4395714771781
 30
0.0
 11
348.7917138158957
 21
-154.0392244324119
 31
0.0
  0
SOLID
  5
34B
330
345
100
AcDbEntity
  8
1
 62
     3
100
AcDbTrace
 10
334.0417138158955
 20
-153.1911837863016
 30
0.0
 11
334.0417138158955
 21
-150.8872650785222
 31
0.0
 12
342.7917138158955
 22
-152.0392244324119
 32
0.0
 13
342.7917138158955
 23
-152.0392244324119
 33
0.0
  0
SOLID
  5
34C
330
345
100
AcDbEntity
  8
1
 62
     3
100
AcDbTrace
 10
357.5417138158957
 20
-150.8872650785222
 30
0.0
 11
357.5417138158957
 21
-153.1911837863016
 31
0.0
 12
348.7917138158957
 22
-152.0392244324119
 32
0.0
 13
348.7917138158957
 23
-152.0392244324119
 33
0.0
  0
MTEXT
  5
34D
330
345
100
AcDbEntity
  8
1
 62
     2
100
AcDbMText
 10
327.178318314671
 20
-149.5392244324119
 30
0.0
 40
8.75
 41
0.0
 71
     7
 72
     1
  1
6
  7
CONVERTER_1
 11
0.9999999999970621
 21
2.424068405545307E-6
 31
0.0
1001
ACAD
1000
MTEXTBEGIN
1070
    44
1040
0.60024009603842
1000
MTEXTEND
  0
ENDBLK
  5
34F
330
345
100
AcDbEntity
  8
0
100
AcDbBlockEnd
  0
ENDSEC
  0
SECTION
  2
ENTITIES
  0
INSERT
  5
45
330
1F
100
AcDbEntity
  8
0
100
AcDbBlockReference
  2
_RAHMEN
 10
432.5180147212053
 20
9.74365440618271
 30
0.0
 41
2.5
 42
2.5
 43
2.5
  0
LINE
  5
127
330
1F
100
AcDbEntity
  8
1
  6
DOT_CENTER
 62
     3
100
AcDbLine
 10
327.61686727138
 20
174.9313966945629
 30
0.0
 11
363.9979833504901
 21
174.9313966945629
 31
0.0
  0
LINE
  5
128
330
1F
100
AcDbEntity
  8
MK
  6
CONTINUOUS
 62
     3
100
AcDbLine
 10
341.0567456569614
 20
-0.56860330543709
 30
0.0
 11
351.140246748392
 21
-0.56860330543709
 31
0.0
  0
LINE
  5
129
330
1F
100
AcDbEntity
  8
VB
  6
CONTINUOUS
 62
     4
100
AcDbLine
 10
345.7917138158955
 20
-13.06860330543706
 30
0.0
 11
345.7917138158955
 21
-13.56860330543708
 31
0.0
  0
LINE
  5
12A
330
1F
100
AcDbEntity
  8
MK
  6
CONTINUOUS
 62
     3
100
AcDbLine
 10
340.759211904826
 20
253.4313966945629
 30
0.0
 11
350.268452904833
 21
253.4313966945629
 31
0.0
  0
LINE
  5
12B
330
1F
100
AcDbEntity
  8
VB
  6
CONTINUOUS
 62
     4
100
AcDbLine
 10
345.7917138158955
 20
265.9313966945629
 30
0.0
 11
345.7917138158955
 21
-13.06860330543708
 31
0.0
  0
LINE
  5
12C
330
1F
100
AcDbEntity
  8
MK
  6
DOT_CENTER
 62
     3
100
AcDbLine
 10
548.1904062845133
 20
253.4313966945629
 30
0.0
 11
550.1904062845133
 21
253.4313966945629
 31
0.0
  0
LINE
  5
12D
330
1F
100
AcDbEntity
  8
1
  6
DOT_CENTER
 62
     3
100
AcDbLine
 10
542.1904062845133
 20
230.9313966945629
 30
0.0
 11
547.8404062845075
 21
230.9313966945629
 31
0.0
  0
LINE
  5
12E
330
1F
100
AcDbEntity
  8
MK
  6
DOT_CENTER
 62
     3
100
AcDbLine
 10
536.6904062845133
 20
253.4313966945629
 30
0.0
 11
548.1904062845133
 21
253.4313966945629
 31
0.0
  0
LINE
  5
12F
330
1F
100
AcDbEntity
  8
MK
  6
DOT_CENTER
 62
     3
100
AcDbLine
 10
543.1904062845133
 20
247.9313966945629
 30
0.0
 11
543.1904062845133
 21
259.4313966945629
 31
0.0
  0
LINE
  5
130
330
1F
100
AcDbEntity
  8
MK
  6
DOT_CENTER
 62
     3
100
AcDbLine
 10
537.1904062845133
 20
228.2813966945542
 30
0.0
 11
537.1904062845133
 21
233.5813966945571
 31
0.0
  0
LINE
  5
131
330
1F
100
AcDbEntity
  8
MK
  6
DOT_CENTER
 62
     3
100
AcDbLine
 10
537.1904062845133
 20
225.4313966945629
 30
0.0
 11
537.1904062845133
 21
228.2813966945542
 31
0.0
  0
LINE
  5
132
330
1F
100
AcDbEntity
  8
MK
  6
DOT_CENTER
 62
     3
100
AcDbLine
 10
537.1904062845133
 20
233.5813966945571
 30
0.0
 11
537.1904062845133
 21
236.9313966945629
 31
0.0
  0
LINE
  5
133
330
1F
100
AcDbEntity
  8
MK
  6
DOT_CENTER
 62
     3
100
AcDbLine
 10
548.1904062845133
 20
-0.56860330543709
 30
0.0
 11
549.1904062845133
 21
-0.56860330543709
 31
0.0
  0
LINE
  5
134
330
1F
100
AcDbEntity
  8
1
  6
DOT_CENTER
 62
     3
100
AcDbLine
 10
542.1904062845133
 20
21.93139669456286
 30
0.0
 11
532.5404062845046
 21
21.93139669456286
 31
0.0
  0
LINE
  5
135
330
1F
100
AcDbEntity
  8
MK
  6
DOT_CENTER
 62
     3
100
AcDbLine
 10
536.6904062845133
 20
-0.56860330543709
 30
0.0
 11
548.1904062845133
 21
-0.56860330543709
 31
0.0
  0
LINE
  5
136
330
1F
100
AcDbEntity
  8
MK
  6
DOT_CENTER
 62
     3
100
AcDbLine
 10
543.1904062845133
 20
5.93139669456291
 30
0.0
 11
543.1904062845133
 21
-7.06860330543709
 31
0.0
  0
LINE
  5
137
330
1F
100
AcDbEntity
  8
MK
  6
DOT_CENTER
 62
     3
100
AcDbLine
 10
537.1904062845133
 20
28.43139669456291
 30
0.0
 11
537.1904062845133
 21
15.43139669456291
 31
0.0
  0
LINE
  5
138
330
1F
100
AcDbEntity
  8
VB
  6
CONTINUOUS
 62
     4
100
AcDbLine
 10
421.7917138158955
 20
43.93139669456286
 30
0.0
 11
429.7917138158955
 21
51.93139669456286
 31
0.0
  0
LINE
  5
139
330
1F
100
AcDbEntity
  8
VB
  6
CONTINUOUS
 62
     4
100
AcDbLine
 10
421.7917138158955
 20
208.9313966945629
 30
0.0
 11
429.7917138158955
 21
200.9313966945629
 31
0.0
  0
LINE
  5
13A
330
1F
100
AcDbEntity
  8
MN
  6
DOT_CENTER
 62
     3
100
AcDbLine
 10
397.7917138158955
 20
165.8572960463789
 30
0.0
 11
397.7917138158955
 21
131.1005617126793
 31
0.0
  0
LINE
  5
13B
330
1F
100
AcDbEntity
  8
1
  6
CONTINUOUS
 62
     3
100
AcDbLine
 10
557.5293184183975
 20
-13.56860330543708
 30
0.0
 11
540.1904062845133
 21
-13.56860330543708
 31
0.0
  0
LINE
  5
13C
330
1F
100
AcDbEntity
  8
1
  6
CONTINUOUS
 62
     3
100
AcDbLine
 10
563.5097054476937
 20
266.4313966945629
 30
0.0
 11
540.1904062845133
 21
266.4313966945629
 31
0.0
  0
LINE
  5
13D
330
1F
100
AcDbEntity
  8
1
  6
DOT_CENTER
 62
     3
100
AcDbLine
 10
538.4904062845162
 20
62.93139669456286
 30
0.0
 11
538.4904062845162
 21
46.93139669456286
 31
0.0
  0
LINE
  5
13E
330
1F
100
AcDbEntity
  8
1
  6
DOT_CENTER
 62
     3
100
AcDbLine
 10
530.4904062845162
 20
54.93139669456286
 30
0.0
 11
546.4904062845162
 21
54.93139669456286
 31
0.0
  0
LINE
  5
13F
330
1F
100
AcDbEntity
  8
1
  6
DOT_CENTER
 62
     3
100
AcDbLine
 10
547.8404062845075
 20
21.93139669456286
 30
0.0
 11
542.1904062845133
 21
21.93139669456286
 31
0.0
  0
LINE
  5
140
330
1F
100
AcDbEntity
  8
1
  6
DOT_CENTER
 62
     3
100
AcDbLine
 10
532.5404062845046
 20
230.9313966945629
 30
0.0
 11
542.1904062845133
 21
230.9313966945629
 31
0.0
  0
LINE
  5
141
330
1F
100
AcDbEntity
  8
1
  6
CONTINUOUS
 62
     4
100
AcDbLine
 10
533.9904062845162
 20
73.93139669456286
 30
0.0
 11
533.9904062845162
 21
108.9313966945629
 31
0.0
  0
LINE
  5
142
330
1F
100
AcDbEntity
  8
1
  6
CONTINUOUS
 62
     4
100
AcDbLine
 10
541.7904062845046
 20
73.93139669456286
 30
0.0
 11
533.9904062845162
 21
73.93139669456286
 31
0.0
  0
LINE
  5
143
330
1F
100
AcDbEntity
  8
1
  6
CONTINUOUS
 62
     4
100
AcDbLine
 10
541.7904062845046
 20
108.9313966945629
 30
0.0
 11
541.7904062845046
 21
73.93139669456286
 31
0.0
  0
LINE
  5
144
330
1F
100
AcDbEntity
  8
1
  6
CONTINUOUS
 62
     4
100
AcDbLine
 10
533.9904062845162
 20
108.9313966945629
 30
0.0
 11
541.7904062845046
 21
108.9313966945629
 31
0.0
  0
LINE
  5
145
330
1F
100
AcDbEntity
  8
1
  6
CONTINUOUS
 62
     4
100
AcDbLine
 10
536.4904062845162
 20
161.9313966945629
 30
0.0
 11
536.4904062845162
 21
158.9313966945629
 31
0.0
  0
LINE
  5
146
330
1F
100
AcDbEntity
  8
1
  6
CONTINUOUS
 62
     4
100
AcDbLine
 10
545.4904062845162
 20
162.9313966945629
 30
0.0
 11
536.4904062845162
 21
161.9313966945629
 31
0.0
  0
LINE
  5
147
330
1F
100
AcDbEntity
  8
1
  6
CONTINUOUS
 62
     4
100
AcDbLine
 10
545.4904062845162
 20
186.9313966945629
 30
0.0
 11
545.4904062845162
 21
162.9313966945629
 31
0.0
  0
LINE
  5
148
330
1F
100
AcDbEntity
  8
1
  6
CONTINUOUS
 62
     4
100
AcDbLine
 10
536.4904062845162
 20
187.9313966945629
 30
0.0
 11
536.4904062845162
 21
161.9313966945629
 31
0.0
  0
LINE
  5
149
330
1F
100
AcDbEntity
  8
1
  6
CONTINUOUS
 62
     4
100
AcDbLine
 10
536.4904062845162
 20
187.9313966945629
 30
0.0
 11
545.4904062845162
 21
186.9313966945629
 31
0.0
  0
LINE
  5
14A
330
1F
100
AcDbEntity
  8
1
  6
CONTINUOUS
 62
     4
100
AcDbLine
 10
533.4904062845162
 20
158.9313966945629
 30
0.0
 11
533.4904062845162
 21
190.9313966945629
 31
0.0
  0
LINE
  5
14B
330
1F
100
AcDbEntity
  8
1
  6
CONTINUOUS
 62
     4
100
AcDbLine
 10
536.4904062845162
 20
158.9313966945629
 30
0.0
 11
533.4904062845162
 21
158.9313966945629
 31
0.0
  0
LINE
  5
14C
330
1F
100
AcDbEntity
  8
1
  6
CONTINUOUS
 62
     4
100
AcDbLine
 10
536.4904062845162
 20
190.9313966945629
 30
0.0
 11
536.4904062845162
 21
187.9313966945629
 31
0.0
  0
LINE
  5
14D
330
1F
100
AcDbEntity
  8
1
  6
CONTINUOUS
 62
     4
100
AcDbLine
 10
533.4904062845162
 20
190.9313966945629
 30
0.0
 11
536.4904062845162
 21
190.9313966945629
 31
0.0
  0
LINE
  5
14E
330
1F
100
AcDbEntity
  8
1
  6
CONTINUOUS
 62
     4
100
AcDbLine
 10
550.1904062845133
 20
256.4313966945629
 30
0.0
 11
550.1904062845133
 21
-3.56860330543708
 31
0.0
  0
LINE
  5
14F
330
1F
100
AcDbEntity
  8
1
  6
CONTINUOUS
 62
     4
100
AcDbLine
 10
530.1904062845133
 20
256.4313966945629
 30
0.0
 11
530.1904062845133
 21
-3.56860330543708
 31
0.0
  0
LINE
  5
150
330
1F
100
AcDbEntity
  8
1
  6
DOT_CENTER
 62
     3
100
AcDbLine
 10
393.0719195414567
 20
124.4313966945629
 30
0.0
 11
402.3774398404639
 21
124.4313966945629
 31
0.0
  0
LINE
  5
151
330
1F
100
AcDbEntity
  8
1
  6
DOT_CENTER
 62
     3
100
AcDbLine
 10
397.7917138158955
 20
141.4313966945629
 30
0.0
 11
397.7917138158955
 21
43.93139669456286
 31
0.0
  0
LINE
  5
152
330
1F
100
AcDbEntity
  8
1
  6
DOT_CENTER
 62
     3
100
AcDbLine
 10
388.7917138158955
 20
191.9313966945629
 30
0.0
 11
406.7917138158955
 21
191.9313966945629
 31
0.0
  0
LINE
  5
153
330
1F
100
AcDbEntity
  8
1
  6
DOT_CENTER
 62
     3
100
AcDbLine
 10
387.7917138158955
 20
145.9313966945629
 30
0.0
 11
407.7917138158955
 21
145.9313966945629
 31
0.0
  0
LINE
  5
154
330
1F
100
AcDbEntity
  8
1
  6
CONTINUOUS
 62
     4
100
AcDbLine
 10
348.7917138158955
 20
160.9313966945629
 30
0.0
 11
356.2917138158955
 21
160.9313966945629
 31
0.0
  0
LINE
  5
155
330
1F
100
AcDbEntity
  8
1
  6
CONTINUOUS
 62
     4
100
AcDbLine
 10
348.7917138158955
 20
188.9313966945629
 30
0.0
 11
356.2917138158955
 21
188.9313966945629
 31
0.0
  0
LINE
  5
156
330
1F
100
AcDbEntity
  8
1
  6
DOT_CENTER
 62
     3
100
AcDbLine
 10
332.2917138158955
 20
108.9313966945629
 30
0.0
 11
332.2917138158955
 21
73.93139669456286
 31
0.0
  0
LINE
  5
157
330
1F
100
AcDbEntity
  8
1
  6
DOT_CENTER
 62
     3
100
AcDbLine
 10
321.7917138158955
 20
108.9313966945629
 30
0.0
 11
321.7917138158955
 21
73.93139669456286
 31
0.0
  0
LINE
  5
158
330
1F
100
AcDbEntity
  8
VB
  6
CONTINUOUS
 62
     4
100
AcDbLine
 10
342.7917138158955
 20
73.93139669456286
 30
0.0
 11
342.7917138158955
 21
-13.56860330543708
 31
0.0
  0
LINE
  5
159
330
1F
100
AcDbEntity
  8
1
  6
DOT_CENTER
 62
     3
100
AcDbLine
 10
321.7917138158955
 20
73.93139669456286
 30
0.0
 11
342.7917138158955
 21
73.93139669456286
 31
0.0
  0
LINE
  5
15A
330
1F
100
AcDbEntity
  8
VB
  6
CONTINUOUS
 62
     4
100
AcDbLine
 10
342.7917138158955
 20
161.9313966945629
 30
0.0
 11
342.7917138158955
 21
73.93139669456286
 31
0.0
  0
LINE
  5
15B
330
1F
100
AcDbEntity
  8
1
  6
DOT_CENTER
 62
     3
100
AcDbLine
 10
321.7917138158955
 20
108.9313966945629
 30
0.0
 11
342.7917138158955
 21
108.9313966945629
 31
0.0
  0
LINE
  5
15C
330
1F
100
AcDbEntity
  8
VB
  6
DOT_CENTER
 62
     3
100
AcDbLine
 10
321.7917138158955
 20
108.9313966945629
 30
0.0
 11
320.9917138158926
 21
108.13139669456
 31
0.0
  0
LINE
  5
15D
330
1F
100
AcDbEntity
  8
VB
  6
DOT_CENTER
 62
     3
100
AcDbLine
 10
332.2917138158955
 20
108.9313966945629
 30
0.0
 11
331.4917138158926
 21
108.13139669456
 31
0.0
  0
LINE
  5
15E
330
1F
100
AcDbEntity
  8
VB
  6
DOT_CENTER
 62
     3
100
AcDbLine
 10
321.7917138158955
 20
73.93139669456286
 30
0.0
 11
320.9917138158926
 21
74.73139669456577
 31
0.0
  0
LINE
  5
15F
330
1F
100
AcDbEntity
  8
VB
  6
DOT_CENTER
 62
     3
100
AcDbLine
 10
332.2917138158955
 20
73.93139669456286
 30
0.0
 11
331.4917138158926
 21
74.73139669456577
 31
0.0
  0
LINE
  5
160
330
1F
100
AcDbEntity
  8
VB
  6
DOT_CENTER
 62
     3
100
AcDbLine
 10
320.9917138158926
 20
108.13139669456
 30
0.0
 11
320.9917138158926
 21
74.73139669456577
 31
0.0
  0
LINE
  5
161
330
1F
100
AcDbEntity
  8
VB
  6
DOT_CENTER
 62
     3
100
AcDbLine
 10
331.4917138158926
 20
108.13139669456
 30
0.0
 11
331.4917138158926
 21
74.73139669456577
 31
0.0
  0
LINE
  5
162
330
1F
100
AcDbEntity
  8
1
  6
DOT_CENTER
 62
     3
100
AcDbLine
 10
378.7917138158955
 20
74.93139669456286
 30
0.0
 11
378.7917138158955
 21
56.93139669456286
 31
0.0
  0
LINE
  5
163
330
1F
100
AcDbEntity
  8
1
  6
DOT_CENTER
 62
     3
100
AcDbLine
 10
369.7917138158955
 20
65.93139669456286
 30
0.0
 11
387.7917138158955
 21
65.93139669456286
 31
0.0
  0
LINE
  5
164
330
1F
100
AcDbEntity
  8
1
  6
DOT_CENTER
 62
     3
100
AcDbLine
 10
416.7917138158955
 20
75.18139669456286
 30
0.0
 11
416.7917138158955
 21
57.18139669456286
 31
0.0
  0
LINE
  5
165
330
1F
100
AcDbEntity
  8
1
  6
DOT_CENTER
 62
     3
100
AcDbLine
 10
407.7917138158955
 20
65.93139669456286
 30
0.0
 11
425.7917138158955
 21
65.93139669456286
 31
0.0
  0
LINE
  5
166
330
1F
100
AcDbEntity
  8
1
  6
DOT_CENTER
 62
     3
100
AcDbLine
 10
416.7917138158955
 20
154.9313966945629
 30
0.0
 11
416.7917138158955
 21
136.9313966945629
 31
0.0
  0
LINE
  5
167
330
1F
100
AcDbEntity
  8
1
  6
DOT_CENTER
 62
     3
100
AcDbLine
 10
407.7917138158955
 20
145.9313966945629
 30
0.0
 11
425.7917138158955
 21
145.9313966945629
 31
0.0
  0
LINE
  5
168
330
1F
100
AcDbEntity
  8
1
  6
DOT_CENTER
 62
     3
100
AcDbLine
 10
378.7917138158955
 20
154.9313966945629
 30
0.0
 11
378.7917138158955
 21
136.9313966945629
 31
0.0
  0
LINE
  5
169
330
1F
100
AcDbEntity
  8
1
  6
DOT_CENTER
 62
     3
100
AcDbLine
 10
369.7917138158955
 20
145.9313966945629
 30
0.0
 11
387.7917138158955
 21
145.9313966945629
 31
0.0
  0
LINE
  5
16A
330
1F
100
AcDbEntity
  8
1
  6
CONTINUOUS
 62
     4
100
AcDbLine
 10
393.7917138158955
 20
141.9313966945629
 30
0.0
 11
393.7917138158955
 21
149.9313966945629
 31
0.0
  0
LINE
  5
16B
330
1F
100
AcDbEntity
  8
1
  6
CONTINUOUS
 62
     4
100
AcDbLine
 10
401.7917138158955
 20
141.9313966945629
 30
0.0
 11
393.7917138158955
 21
141.9313966945629
 31
0.0
  0
LINE
  5
16C
330
1F
100
AcDbEntity
  8
1
  6
CONTINUOUS
 62
     4
100
AcDbLine
 10
401.7917138158955
 20
149.9313966945629
 30
0.0
 11
401.7917138158955
 21
141.9313966945629
 31
0.0
  0
LINE
  5
16D
330
1F
100
AcDbEntity
  8
1
  6
CONTINUOUS
 62
     4
100
AcDbLine
 10
393.7917138158955
 20
149.9313966945629
 30
0.0
 11
401.7917138158955
 21
149.9313966945629
 31
0.0
  0
LINE
  5
16E
330
1F
100
AcDbEntity
  8
1
  6
DOT_CENTER
 62
     3
100
AcDbLine
 10
386.2867066595791
 20
73.93139669456286
 30
0.0
 11
408.9046743060899
 21
73.93139669456286
 31
0.0
  0
LINE
  5
16F
330
1F
100
AcDbEntity
  8
1
  6
CONTINUOUS
 62
     4
100
AcDbLine
 10
402.9417138158897
 20
53.93139669456286
 30
0.0
 11
402.9417138158897
 21
66.98157655300747
 31
0.0
  0
LINE
  5
170
330
1F
100
AcDbEntity
  8
1
  6
CONTINUOUS
 62
     4
100
AcDbLine
 10
392.6417138158868
 20
53.93139669456286
 30
0.0
 11
392.6417138158868
 21
66.98157655300747
 31
0.0
  0
LINE
  5
171
330
1F
100
AcDbEntity
  8
VB
  6
CONTINUOUS
 62
     4
100
AcDbLine
 10
429.7917138158955
 20
200.9313966945629
 30
0.0
 11
429.7917138158955
 21
51.93139669456286
 31
0.0
  0
LINE
  5
172
330
1F
100
AcDbEntity
  8
VB
  6
CONTINUOUS
 62
     4
100
AcDbLine
 10
348.7917138158955
 20
43.93139669456286
 30
0.0
 11
421.7917138158955
 21
43.93139669456286
 31
0.0
  0
LINE
  5
173
330
1F
100
AcDbEntity
  8
VB
  6
CONTINUOUS
 62
     4
100
AcDbLine
 10
348.7917138158955
 20
208.9313966945629
 30
0.0
 11
421.7917138158955
 21
208.9313966945629
 31
0.0
  0
LINE
  5
174
330
1F
100
AcDbEntity
  8
VB
  6
CONTINUOUS
 62
     4
100
AcDbLine
 10
342.7917138158955
 20
-13.56860330543708
 30
0.0
 11
345.7917138158955
 21
-13.56860330543708
 31
0.0
  0
LINE
  5
175
330
1F
100
AcDbEntity
  8
VB
  6
CONTINUOUS
 62
     4
100
AcDbLine
 10
342.7917138158955
 20
266.4313966945629
 30
0.0
 11
342.7917138158955
 21
187.9313966945629
 31
0.0
  0
LINE
  5
176
330
1F
100
AcDbEntity
  8
VB
  6
CONTINUOUS
 62
     4
100
AcDbLine
 10
332.7917138158955
 20
190.9313966945629
 30
0.0
 11
342.7917138158955
 21
190.9313966945629
 31
0.0
  0
LINE
  5
177
330
1F
100
AcDbEntity
  8
VB
  6
CONTINUOUS
 62
     4
100
AcDbLine
 10
332.7917138158955
 20
158.9313966945629
 30
0.0
 11
342.7917138158955
 21
158.9313966945629
 31
0.0
  0
LINE
  5
178
330
1F
100
AcDbEntity
  8
MK
  6
CONTINUOUS
 62
     3
100
AcDbLine
 10
341.0567456569614
 20
21.93139669456286
 30
0.0
 11
351.140246748392
 21
21.93139669456286
 31
0.0
  0
LINE
  5
179
330
1F
100
AcDbEntity
  8
VB
  6
CONTINUOUS
 62
     4
100
AcDbLine
 10
341.9917138158926
 20
108.13139669456
 30
0.0
 11
341.9917138158926
 21
74.73139669456577
 31
0.0
  0
LINE
  5
17A
330
1F
100
AcDbEntity
  8
VB
  6
CONTINUOUS
 62
     4
100
AcDbLine
 10
342.7917138158955
 20
108.9313966945629
 30
0.0
 11
341.9917138158926
 21
108.13139669456
 31
0.0
  0
LINE
  5
17B
330
1F
100
AcDbEntity
  8
VB
  6
CONTINUOUS
 62
     4
100
AcDbLine
 10
342.7917138158955
 20
73.93139669456286
 30
0.0
 11
341.9917138158926
 21
74.73139669456577
 31
0.0
  0
LINE
  5
17C
330
1F
100
AcDbEntity
  8
VB
  6
CONTINUOUS
 62
     4
100
AcDbLine
 10
342.7917138158955
 20
266.4313966945629
 30
0.0
 11
345.7917138158955
 21
266.4313966945629
 31
0.0
  0
LINE
  5
17D
330
1F
100
AcDbEntity
  8
MK
  6
CONTINUOUS
 62
     3
100
AcDbLine
 10
340.759211904826
 20
230.9313966945629
 30
0.0
 11
350.268452904833
 21
230.9313966945629
 31
0.0
  0
LINE
  5
17E
330
1F
100
AcDbEntity
  8
1
  6
CONTINUOUS
 62
     4
100
AcDbLine
 10
332.7917138158955
 20
190.9313966945629
 30
0.0
 11
332.7917138158955
 21
158.9313966945629
 31
0.0
  0
LINE
  5
17F
330
1F
100
AcDbEntity
  8
VB
  6
CONTINUOUS
 62
     4
100
AcDbLine
 10
332.7917138158955
 20
187.9313966945629
 30
0.0
 11
342.7917138158955
 21
187.9313966945629
 31
0.0
  0
LINE
  5
180
330
1F
100
AcDbEntity
  8
VB
  6
CONTINUOUS
 62
     4
100
AcDbLine
 10
332.7917138158955
 20
161.9313966945629
 30
0.0
 11
342.7917138158955
 21
161.9313966945629
 31
0.0
  0
LINE
  5
181
330
1F
100
AcDbEntity
  8
1
  6
CONTINUOUS
 62
     4
100
AcDbLine
 10
342.7917138158955
 20
187.9313966945629
 30
0.0
 11
342.7917138158955
 21
161.9313966945629
 31
0.0
  0
LINE
  5
182
330
1F
100
AcDbEntity
  8
1
  6
CONTINUOUS
 62
     4
100
AcDbLine
 10
332.7917138158955
 20
187.9313966945629
 30
0.0
 11
342.7917138158955
 21
186.9313966945629
 31
0.0
  0
LINE
  5
183
330
1F
100
AcDbEntity
  8
1
  6
CONTINUOUS
 62
     4
100
AcDbLine
 10
332.7917138158955
 20
161.9313966945629
 30
0.0
 11
342.7917138158955
 21
162.9313966945629
 31
0.0
  0
LINE
  5
184
330
1F
100
AcDbEntity
  8
MN
  6
DOT_CENTER
 62
     3
100
AcDbLine
 10
397.7917138158955
 20
208.9313966945629
 30
0.0
 11
397.7917138158955
 21
181.291734836399
 31
0.0
  0
LINE
  5
185
330
1F
100
AcDbEntity
  8
VB
  6
CONTINUOUS
 62
     4
100
AcDbLine
 10
345.7917138158955
 20
266.4313966945629
 30
0.0
 11
345.7917138158955
 21
265.9313966945629
 31
0.0
  0
LINE
  5
186
330
1F
100
AcDbEntity
  8
1
  6
CONTINUOUS
 62
     4
100
AcDbLine
 10
342.7917138158955
 20
-112.9395714771781
 30
0.0
 11
345.7917138158955
 21
-112.9395714771781
 31
0.0
  0
LINE
  5
187
330
1F
100
AcDbEntity
  8
1
  6
CONTINUOUS
 62
     4
100
AcDbLine
 10
345.7917138158955
 20
-112.9395714771781
 30
0.0
 11
345.7917138158956
 21
-113.4395714771781
 31
0.0
  0
LINE
  5
188
330
1F
100
AcDbEntity
  8
1
  6
CONTINUOUS
 62
     4
100
AcDbLine
 10
345.7917138158955
 20
-132.9395714771781
 30
0.0
 11
342.7917138158955
 21
-132.9395714771781
 31
0.0
  0
LINE
  5
189
330
1F
100
AcDbEntity
  8
1
  6
CONTINUOUS
 62
     4
100
AcDbLine
 10
342.7917138158955
 20
-132.9395714771781
 30
0.0
 11
342.7917138158955
 21
-128.239571477181
 31
0.0
  0
LINE
  5
18A
330
1F
100
AcDbEntity
  8
1
  6
CONTINUOUS
 62
     4
100
AcDbLine
 10
342.7917138158955
 20
-116.239571477181
 30
0.0
 11
332.7917138158955
 21
-116.239571477181
 31
0.0
  0
LINE
  5
18B
330
1F
100
AcDbEntity
  8
1
  6
CONTINUOUS
 62
     4
100
AcDbLine
 10
342.7917138158955
 20
-116.239571477181
 30
0.0
 11
342.7917138158955
 21
-112.9395714771781
 31
0.0
  0
LINE
  5
18C
330
1F
100
AcDbEntity
  8
1
  6
CONTINUOUS
 62
     4
100
AcDbLine
 10
332.7917138158955
 20
-116.239571477181
 30
0.0
 11
332.7917138158955
 21
-119.239571477181
 31
0.0
  0
LINE
  5
18D
330
1F
100
AcDbEntity
  8
1
  6
CONTINUOUS
 62
     4
100
AcDbLine
 10
332.7917138158955
 20
-119.239571477181
 30
0.0
 11
342.7917138158955
 21
-119.239571477181
 31
0.0
  0
LINE
  5
18E
330
1F
100
AcDbEntity
  8
1
  6
CONTINUOUS
 62
     4
100
AcDbLine
 10
342.7917138158955
 20
-119.239571477181
 30
0.0
 11
342.7917138158955
 21
-116.239571477181
 31
0.0
  0
LINE
  5
18F
330
1F
100
AcDbEntity
  8
1
  6
CONTINUOUS
 62
     4
100
AcDbLine
 10
332.7917138158955
 20
-119.239571477181
 30
0.0
 11
342.7917138158955
 21
-128.239571477181
 31
0.0
  0
LINE
  5
190
330
1F
100
AcDbEntity
  8
1
  6
CONTINUOUS
 62
     4
100
AcDbLine
 10
342.7917138158955
 20
-128.239571477181
 30
0.0
 11
342.7917138158955
 21
-119.239571477181
 31
0.0
  0
LINE
  5
191
330
1F
100
AcDbEntity
  8
1
  6
CONTINUOUS
 62
     4
100
AcDbLine
 10
348.7917138158957
 20
-114.239571477181
 30
0.0
 11
378.7917138158955
 21
-114.239571477181
 31
0.0
  0
LINE
  5
192
330
1F
100
AcDbEntity
  8
1
  6
CONTINUOUS
 62
     4
100
AcDbLine
 10
345.7917138158955
 20
-114.239571477181
 30
0.0
 11
345.7917138158955
 21
-127.239571477181
 31
0.0
  0
LINE
  5
193
330
1F
100
AcDbEntity
  8
1
  6
CONTINUOUS
 62
     4
100
AcDbLine
 10
416.7917138158955
 20
-114.239571477181
 30
0.0
 11
429.7917138158955
 21
-114.239571477181
 31
0.0
  0
LINE
  5
194
330
1F
100
AcDbEntity
  8
1
  6
CONTINUOUS
 62
     4
100
AcDbLine
 10
348.7917138158957
 20
-127.239571477181
 30
0.0
 11
378.7917138158955
 21
-127.239571477181
 31
0.0
  0
LINE
  5
195
330
1F
100
AcDbEntity
  8
1
  6
CONTINUOUS
 62
     4
100
AcDbLine
 10
345.7917138158955
 20
-127.239571477181
 30
0.0
 11
345.7917138158956
 21
-132.4395714771781
 31
0.0
  0
LINE
  5
196
330
1F
100
AcDbEntity
  8
1
  6
CONTINUOUS
 62
     4
100
AcDbLine
 10
416.7917138158955
 20
-127.239571477181
 30
0.0
 11
429.7917138158955
 21
-127.239571477181
 31
0.0
  0
LINE
  5
197
330
1F
100
AcDbEntity
  8
1
  6
CONTINUOUS
 62
     4
100
AcDbLine
 10
429.7917138158955
 20
-114.239571477181
 30
0.0
 11
429.7917138158955
 21
-127.239571477181
 31
0.0
  0
LINE
  5
198
330
1F
100
AcDbEntity
  8
1
  6
CONTINUOUS
 62
     4
100
AcDbLine
 10
378.7917138158955
 20
-114.239571477181
 30
0.0
 11
379.5917138158839
 21
-113.4395714771781
 31
0.0
  0
LINE
  5
199
330
1F
100
AcDbEntity
  8
1
  6
CONTINUOUS
 62
     4
100
AcDbLine
 10
379.5917138158839
 20
-113.4395714771781
 30
0.0
 11
415.9917138158926
 21
-113.4395714771781
 31
0.0
  0
LINE
  5
19A
330
1F
100
AcDbEntity
  8
1
  6
CONTINUOUS
 62
     4
100
AcDbLine
 10
416.7917138158955
 20
-114.239571477181
 30
0.0
 11
415.9917138158926
 21
-113.4395714771781
 31
0.0
  0
LINE
  5
19B
330
1F
100
AcDbEntity
  8
1
  6
CONTINUOUS
 62
     4
100
AcDbLine
 10
416.7917138158955
 20
-127.239571477181
 30
0.0
 11
415.0917138158839
 21
-128.9395714771781
 31
0.0
  0
LINE
  5
19C
330
1F
100
AcDbEntity
  8
1
  6
CONTINUOUS
 62
     4
100
AcDbLine
 10
378.7917138158955
 20
-127.239571477181
 30
0.0
 11
380.4917138158926
 21
-128.9395714771781
 31
0.0
  0
LINE
  5
19D
330
1F
100
AcDbEntity
  8
1
  6
CONTINUOUS
 62
     4
100
AcDbLine
 10
380.4917138158926
 20
-128.9395714771781
 30
0.0
 11
415.0917138158839
 21
-128.9395714771781
 31
0.0
  0
LINE
  5
19E
330
1F
100
AcDbEntity
  8
1
  6
CONTINUOUS
 62
     4
100
AcDbLine
 10
378.7917138158955
 20
-114.239571477181
 30
0.0
 11
416.7917138158955
 21
-114.239571477181
 31
0.0
  0
LINE
  5
19F
330
1F
100
AcDbEntity
  8
1
  6
CONTINUOUS
 62
     4
100
AcDbLine
 10
378.7917138158955
 20
-127.239571477181
 30
0.0
 11
416.7917138158955
 21
-127.239571477181
 31
0.0
  0
LINE
  5
1A0
330
1F
100
AcDbEntity
  8
1
  6
DOT_CENTER
 62
     3
100
AcDbLine
 10
397.7917138158955
 20
-111.1227678164396
 30
0.0
 11
397.7917138158955
 21
-131.3804876857721
 31
0.0
  0
LINE
  5
1A1
330
1F
100
AcDbEntity
  8
VB
  6
CONTINUOUS
 62
     4
100
AcDbLine
 10
348.7917138158955
 20
265.9313966945629
 30
0.0
 11
348.7917138158955
 21
208.9313966945629
 31
0.0
  0
LINE
  5
1A2
330
1F
100
AcDbEntity
  8
VB
  6
CONTINUOUS
 62
     4
100
AcDbLine
 10
345.7917138158955
 20
-13.06860330543706
 30
0.0
 11
348.7917138158955
 21
-13.06860330543708
 31
0.0
  0
LINE
  5
1A3
330
1F
100
AcDbEntity
  8
VB
  6
CONTINUOUS
 62
     4
100
AcDbLine
 10
345.7917138158955
 20
265.9313966945629
 30
0.0
 11
348.7917138158955
 21
265.9313966945629
 31
0.0
  0
LINE
  5
1A4
330
1F
100
AcDbEntity
  8
VB
  6
CONTINUOUS
 62
     4
100
AcDbLine
 10
348.7917138158955
 20
43.93139669456286
 30
0.0
 11
348.7917138158955
 21
-13.06860330543708
 31
0.0
  0
LINE
  5
1A5
330
1F
100
AcDbEntity
  8
VB
  6
CONTINUOUS
 62
     4
100
AcDbLine
 10
348.7917138158955
 20
188.9313966945629
 30
0.0
 11
348.7917138158955
 21
160.9313966945629
 31
0.0
  0
LINE
  5
1A6
330
1F
100
AcDbEntity
  8
VB
  6
CONTINUOUS
 62
     4
100
AcDbLine
 10
348.7917138158955
 20
208.9313966945629
 30
0.0
 11
348.7917138158955
 21
188.9313966945629
 31
0.0
  0
LINE
  5
1A7
330
1F
100
AcDbEntity
  8
VB
  6
CONTINUOUS
 62
     4
100
AcDbLine
 10
348.7917138158955
 20
160.9313966945629
 30
0.0
 11
348.7917138158955
 21
43.93139669456286
 31
0.0
  0
LINE
  5
1A8
330
1F
100
AcDbEntity
  8
1
  6
CONTINUOUS
 62
     4
100
AcDbLine
 10
345.7917138158956
 20
-113.4395714771781
 30
0.0
 11
348.7917138158957
 21
-113.4395714771781
 31
0.0
  0
LINE
  5
1A9
330
1F
100
AcDbEntity
  8
1
  6
CONTINUOUS
 62
     4
100
AcDbLine
 10
345.7917138158956
 20
-113.4395714771781
 30
0.0
 11
345.7917138158955
 21
-114.239571477181
 31
0.0
  0
LINE
  5
1AA
330
1F
100
AcDbEntity
  8
1
  6
CONTINUOUS
 62
     4
100
AcDbLine
 10
348.7917138158957
 20
-113.4395714771781
 30
0.0
 11
348.7917138158957
 21
-127.239571477181
 31
0.0
  0
LINE
  5
1AB
330
1F
100
AcDbEntity
  8
1
  6
CONTINUOUS
 62
     4
100
AcDbLine
 10
348.7917138158957
 20
-132.4395714771781
 30
0.0
 11
345.7917138158956
 21
-132.4395714771781
 31
0.0
  0
LINE
  5
1AC
330
1F
100
AcDbEntity
  8
1
  6
CONTINUOUS
 62
     4
100
AcDbLine
 10
345.7917138158956
 20
-132.4395714771781
 30
0.0
 11
345.7917138158955
 21
-132.9395714771781
 31
0.0
  0
LINE
  5
1AD
330
1F
100
AcDbEntity
  8
1
  6
CONTINUOUS
 62
     4
100
AcDbLine
 10
348.7917138158957
 20
-127.239571477181
 30
0.0
 11
348.7917138158957
 21
-132.4395714771781
 31
0.0
  0
ARC
  5
1AE
330
1F
100
AcDbEntity
  8
BREIT-VOLL-LINIE
  6
CONTINUOUS
 62
     4
100
AcDbCircle
 10
537.1904062845133
 20
230.9313966945629
 30
0.0
 40
2.650000000008703
100
AcDbArc
 50
-90.0
 51
90.0
  0
ARC
  5
1AF
330
1F
100
AcDbEntity
  8
BREIT-VOLL-LINIE
  6
CONTINUOUS
 62
     4
100
AcDbCircle
 10
537.1904062845133
 20
230.9313966945629
 30
0.0
 40
2.649999999994208
100
AcDbArc
 50
90.0
 51
-90.0
  0
ARC
  5
1B0
330
1F
100
AcDbEntity
  8
1
  6
CONTINUOUS
 62
     4
100
AcDbCircle
 10
540.1904062845133
 20
-3.56860330543709
 30
0.0
 40
9.999999999999993
100
AcDbArc
 50
-90.0
 51
0.0
  0
ARC
  5
1B1
330
1F
100
AcDbEntity
  8
1
  6
CONTINUOUS
 62
     4
100
AcDbCircle
 10
540.1904062845133
 20
256.4313966945629
 30
0.0
 40
10.0
100
AcDbArc
 50
90.0
 51
180.0
  0
ARC
  5
1B2
330
1F
100
AcDbEntity
  8
1
  6
CONTINUOUS
 62
     4
100
AcDbCircle
 10
540.1904062845133
 20
-3.56860330543709
 30
0.0
 40
10.0
100
AcDbArc
 50
180.0
 51
-90.0
  0
ARC
  5
1B3
330
1F
100
AcDbEntity
  8
1
  6
CONTINUOUS
 62
     4
100
AcDbCircle
 10
540.1904062845133
 20
256.4313966945629
 30
0.0
 40
10.0
100
AcDbArc
 50
0.0
 51
90.0
  0
ARC
  5
1B4
330
1F
100
AcDbEntity
  8
1
  6
CONTINUOUS
 62
     4
100
AcDbCircle
 10
356.2917138158955
 20
163.4313966945629
 30
0.0
 40
2.5
100
AcDbArc
 50
-90.0
 51
15.25219124254656
  0
ARC
  5
1B5
330
1F
100
AcDbEntity
  8
1
  6
CONTINUOUS
 62
     4
100
AcDbCircle
 10
394.3503127998847
 20
174.9296908843098
 30
0.0
 40
37.25859898398636
100
AcDbArc
 50
163.1846351203171
 51
-163.0847833326929
  0
ARC
  5
1B6
330
1F
100
AcDbEntity
  8
1
  6
CONTINUOUS
 62
     4
100
AcDbCircle
 10
356.2917138158955
 20
186.4313966945629
 30
0.0
 40
2.500000000003439
100
AcDbArc
 50
-16.81536487988292
 51
90.0
  0
ARC
  5
1B7
330
1F
100
AcDbEntity
  8
1
  6
CONTINUOUS
 62
     4
100
AcDbCircle
 10
397.7917138158955
 20
73.93139669456286
 30
0.0
 40
8.649999999994776
100
AcDbArc
 50
-53.46057885686849
 51
-126.5394211432084
  0
ARC
  5
1B8
330
1F
100
AcDbEntity
  8
VB
  6
CONTINUOUS
 62
     4
100
AcDbCircle
 10
397.7917138158955
 20
53.93139669456286
 30
0.0
 40
5.150000000008674
100
AcDbArc
 50
180.0
 51
0.0
  0
CIRCLE
  5
1B9
330
1F
100
AcDbEntity
  8
1
  6
CONTINUOUS
 62
     4
100
AcDbCircle
 10
543.1904062845133
 20
253.4313966945629
 30
0.0
 40
5.0
  0
CIRCLE
  5
1BA
330
1F
100
AcDbEntity
  8
1
  6
CONTINUOUS
 62
     4
100
AcDbCircle
 10
537.1904062845133
 20
230.9313966945629
 30
0.0
 40
5.0
  0
CIRCLE
  5
1BB
330
1F
100
AcDbEntity
  8
BREIT-VOLL-LINIE
  6
CONTINUOUS
 62
     4
100
AcDbCircle
 10
543.1904062845133
 20
253.4313966945629
 30
0.0
 40
2.649999999994179
  0
CIRCLE
  5
1BC
330
1F
100
AcDbEntity
  8
1
  6
CONTINUOUS
 62
     4
100
AcDbCircle
 10
543.1904062845133
 20
-0.56860330543709
 30
0.0
 40
5.0
  0
CIRCLE
  5
1BD
330
1F
100
AcDbEntity
  8
1
  6
CONTINUOUS
 62
     4
100
AcDbCircle
 10
537.1904062845133
 20
21.93139669456286
 30
0.0
 40
5.0
  0
CIRCLE
  5
1BE
330
1F
100
AcDbEntity
  8
BREIT-VOLL-LINIE
  6
CONTINUOUS
 62
     4
100
AcDbCircle
 10
543.1904062845133
 20
-0.56860330543709
 30
0.0
 40
2.649999999994179
  0
CIRCLE
  5
1BF
330
1F
100
AcDbEntity
  8
BREIT-VOLL-LINIE
  6
CONTINUOUS
 62
     4
100
AcDbCircle
 10
537.1904062845133
 20
21.93139669456286
 30
0.0
 40
2.649999999994179
  0
CIRCLE
  5
1C0
330
1F
100
AcDbEntity
  8
1
  6
CONTINUOUS
 62
     4
100
AcDbCircle
 10
416.7917138158955
 20
65.93139669456286
 30
0.0
 40
4.5
  0
CIRCLE
  5
1C1
330
1F
100
AcDbEntity
  8
1
  6
CONTINUOUS
 62
     4
100
AcDbCircle
 10
538.4904062845162
 20
54.93139669456286
 30
0.0
 40
4.75
  0
CIRCLE
  5
1C2
330
1F
100
AcDbEntity
  8
1
  6
CONTINUOUS
 62
     4
100
AcDbCircle
 10
538.4904062845162
 20
54.93139669456286
 30
0.0
 40
3.0
  0
CIRCLE
  5
1C3
330
1F
100
AcDbEntity
  8
1
  6
CONTINUOUS
 62
     4
100
AcDbCircle
 10
397.7917138158955
 20
191.9313966945629
 30
0.0
 40
4.0
  0
CIRCLE
  5
1C4
330
1F
100
AcDbEntity
  8
1
  6
CONTINUOUS
 62
     4
100
AcDbCircle
 10
397.7917138158955
 20
124.4313966945629
 30
0.0
 40
4.0
  0
CIRCLE
  5
1C5
330
1F
100
AcDbEntity
  8
1
  6
CONTINUOUS
 62
     4
100
AcDbCircle
 10
416.7917138158955
 20
145.9313966945629
 30
0.0
 40
4.0
  0
CIRCLE
  5
1C6
330
1F
100
AcDbEntity
  8
1
  6
CONTINUOUS
 62
     4
100
AcDbCircle
 10
378.7917138158955
 20
145.9313966945629
 30
0.0
 40
4.0
  0
CIRCLE
  5
1C7
330
1F
100
AcDbEntity
  8
1
  6
CONTINUOUS
 62
     4
100
AcDbCircle
 10
397.7917138158955
 20
145.9313966945629
 30
0.0
 40
10.75
  0
CIRCLE
  5
1C8
330
1F
100
AcDbEntity
  8
1
  6
CONTINUOUS
 62
     4
100
AcDbCircle
 10
378.7917138158955
 20
65.93139669456286
 30
0.0
 40
4.5
  0
LWPOLYLINE
  5
1C9
330
1F
100
AcDbEntity
  8
1
 62
     7
100
AcDbPolyline
 90
        8
 70
     1
 43
0.0
 10
312.275404587049
 20
137.14875252333
 10
312.275404587049
 20
137.14875252333
 42
0.4142135623731
 10
317.587904587049
 20
142.46125252333
 10
317.587904587049
 20
142.46125252333
 42
0.4142135623731
 10
312.275404587049
 20
147.77375252333
 10
312.275404587049
 20
147.77375252333
 42
0.4142135623731
 10
306.962904587049
 20
142.46125252333
 10
306.962904587049
 20
142.46125252333
 42
0.4142135623731
  0
MTEXT
  5
1CA
330
1F
100
AcDbEntity
  8
1
 62
     7
100
AcDbMText
 10
312.275404587049
 20
142.46125252333
 30
0.0
 40
6.25
 41
0.0
 71
     5
 72
     1
  1
a
  7
CONVERTER_1
1001
ACAD
1000
MTEXTBEGIN
1070
    44
1040
1.32052821128451
1000
MTEXTEND
  0
MTEXT
  5
1CB
330
1F
100
AcDbEntity
  8
1
 62
     2
100
AcDbMText
 10
446.7856551995967
 20
-72.01529303492207
 30
0.0
 40
8.75
 41
0.0
 71
     5
 72
     1
  1
-0,5
  7
CONVERTER_1
 11
6.123031769111886E-17
 21
1.0
 31
0.0
1001
ACAD
1000
MTEXTBEGIN
1070
    44
1040
1.32052821128451
1000
MTEXTEND
  0
MTEXT
  5
1CC
330
1F
100
AcDbEntity
  8
1
 62
     2
100
AcDbMText
 10
352.5856551995967
 20
-76.71529303492206
 30
0.0
 40
8.75
 41
0.0
 71
     5
 72
     1
  1
min
  7
CONVERTER_1
 11
6.123031769111886E-17
 21
1.0
 31
0.0
1001
ACAD
1000
MTEXTBEGIN
1070
    44
1040
1.32052821128451
1000
MTEXTEND
  0
MTEXT
  5
1CD
330
1F
100
AcDbEntity
  8
1
 62
     2
100
AcDbMText
 10
370.2040217210831
 20
-39.94689535899641
 30
0.0
 40
8.75
 41
0.0
 71
     5
 72
     1
  1
Dornmaß
  7
CONVERTER_6
1001
ACAD
1000
MTEXTBEGIN
1070
    44
1040
1.32052821128451
1000
MTEXTEND
  0
DIMENSION
  5
1D8
330
1F
100
AcDbEntity
  8
1
100
AcDbDimension
  2
*D03
 10
320.838593359732
 20
174.9313966945629
 30
0.0
 11
313.963593359732
 21
158.685554980304
 31
0.0
  1
<>
 53
90.0
  3
ME10_DIM_0
100
AcDbAlignedDimension
 13
369.7917138158955
 23
145.9313966945629
 33
0.0
 14
327.61686727138
 24
174.9313966945629
 34
0.0
 50
90.0
100
AcDbRotatedDimension
  0
DIMENSION
  5
1E5
330
1F
100
AcDbEntity
  8
1
100
AcDbDimension
  2
*D14
 10
332.7917138158955
 20
205.3852944510727
 30
0.0
 11
315.3017371107417
 21
212.2602944510727
 31
0.0
  1
<>
 53
0.00013888888889
  3
ME10_DIM_1
100
AcDbAlignedDimension
 13
342.7917138158955
 23
266.4313966945629
 33
0.0
 14
332.7917138158955
 24
190.9313966945629
 34
0.0
100
AcDbRotatedDimension
  0
DIMENSION
  5
1F0
330
1F
100
AcDbEntity
  8
1
100
AcDbDimension
  2
*D25
 10
397.7917138158955
 20
-47.8542473331326
 30
0.0
 11
413.37308016202
 21
-40.9792473331326
 31
0.0
  1
<>
 53
0.00013888888889
  3
ME10_DIM_2
100
AcDbAlignedDimension
 13
429.7917138158955
 23
51.93139669456286
 33
0.0
 14
397.7917138158955
 24
43.93139669456286
 34
0.0
100
AcDbRotatedDimension
  0
DIMENSION
  5
1FB
330
1F
100
AcDbEntity
  8
1
100
AcDbDimension
  2
*D36
 10
466.3132811357064
 20
43.93139669456286
 30
0.0
 11
459.4382811357064
 21
60.04501788904599
 31
0.0
  1
<>
 53
90.0
  3
ME10_DIM_3
100
AcDbAlignedDimension
 13
408.9046743060899
 23
73.93139669456286
 33
0.0
 14
421.7917138158955
 24
43.93139669456286
 34
0.0
 50
90.0
100
AcDbRotatedDimension
  0
DIMENSION
  5
206
330
1F
100
AcDbEntity
  8
1
100
AcDbDimension
  2
*D47
 10
466.3132811357064
 20
73.93139669456285
 30
0.0
 11
459.4382811357064
 21
106.8872125284979
 31
0.0
  1
<>
 53
90.0
  3
ME10_DIM_4
100
AcDbAlignedDimension
 13
425.7917138158955
 23
145.9313966945629
 33
0.0
 14
408.9046743060899
 24
73.93139669456286
 34
0.0
 50
90.0
100
AcDbRotatedDimension
  0
DIMENSION
  5
211
330
1F
100
AcDbEntity
  8
1
100
AcDbDimension
  2
*D58
 10
300.8919510316191
 20
-13.56860330543709
 30
0.0
 11
293.5794510316191
 21
14.37749975085174
 31
0.0
  1
<>
 53
90.0
  3
ME10_DIM_5
100
AcDbAlignedDimension
 13
348.7917138158955
 23
43.93139669456286
 33
0.0
 14
342.7917138158955
 24
-13.56860330543708
 34
0.0
 50
90.0
100
AcDbRotatedDimension
  0
DIMENSION
  5
21D
330
1F
100
AcDbEntity
  8
1
100
AcDbDimension
  2
*D69
 10
300.8919510316191
 20
158.9313966945629
 30
0.0
 11
294.0169510316191
 21
174.9313966945629
 31
0.0
  1
<>
 53
90.0
  3
ME10_DIM_6
100
AcDbAlignedDimension
 13
332.7917138158955
 23
190.9313966945629
 33
0.0
 14
332.7917138158955
 24
158.9313966945629
 34
0.0
 50
90.0
100
AcDbRotatedDimension
  0
DIMENSION
  5
229
330
1F
100
AcDbEntity
  8
1
100
AcDbDimension
  2
*D710
 10
300.8919510316191
 20
108.9313966945629
 30
0.0
 11
294.0169510316191
 21
133.9313966945629
 31
0.0
  1
<>
 53
90.0
  3
ME10_DIM_7
100
AcDbAlignedDimension
 13
332.7917138158955
 23
158.9313966945629
 33
0.0
 14
321.7917138158955
 24
108.9313966945629
 34
0.0
 50
90.0
100
AcDbRotatedDimension
  0
DIMENSION
  5
234
330
1F
100
AcDbEntity
  8
1
100
AcDbDimension
  2
*D811
 10
300.8919510316191
 20
73.93139669456286
 30
0.0
 11
294.0169510316191
 21
91.43139669456286
 31
0.0
  1
<>
 53
90.0
  3
ME10_DIM_8
100
AcDbAlignedDimension
 13
321.7917138158955
 23
108.9313966945629
 33
0.0
 14
321.7917138158955
 24
73.93139669456286
 34
0.0
 50
90.0
100
AcDbRotatedDimension
  0
DIMENSION
  5
23F
330
1F
100
AcDbEntity
  8
1
100
AcDbDimension
  2
*D912
 10
300.8919510316191
 20
43.93139669456286
 30
0.0
 11
294.0169510316191
 21
58.93139669456286
 31
0.0
  1
<>
 53
90.0
  3
ME10_DIM_9
100
AcDbAlignedDimension
 13
321.7917138158955
 23
73.93139669456286
 33
0.0
 14
348.7917138158955
 24
43.93139669456286
 34
0.0
 50
90.0
100
AcDbRotatedDimension
  0
DIMENSION
  5
24C
330
1F
100
AcDbEntity
  8
1
100
AcDbDimension
  2
*D1013
 10
449.2503357754121
 20
124.4313966945629
 30
0.0
 11
441.9378357754121
 21
135.057326753039
 31
0.0
  1
<>
 53
90.0
  3
ME10_DIM_10
100
AcDbAlignedDimension
 13
425.7917138158955
 23
145.9313966945629
 33
0.0
 14
402.3774398404639
 24
124.4313966945629
 34
0.0
 50
90.0
100
AcDbRotatedDimension
  0
DIMENSION
  5
257
330
1F
100
AcDbEntity
  8
1
100
AcDbDimension
  2
*D1114
 10
449.2503357754121
 20
145.9313966945629
 30
0.0
 11
442.3753357754121
 21
168.9313966945629
 31
0.0
  1
<>
 53
90.0
  3
ME10_DIM_11
100
AcDbAlignedDimension
 13
406.7917138158955
 23
191.9313966945629
 33
0.0
 14
425.7917138158955
 24
145.9313966945629
 34
0.0
 50
90.0
100
AcDbRotatedDimension
  0
DIMENSION
  5
264
330
1F
100
AcDbEntity
  8
1
100
AcDbDimension
  2
*D1215
 10
550.1904062845133
 20
283.868202514583
 30
0.0
 11
546.612753576004
 21
290.743202514583
 31
0.0
  1
<>
 53
0.00013888888889
  3
ME10_DIM_12
100
AcDbAlignedDimension
 13
543.1904062845133
 23
259.4313966945629
 33
0.0
 14
550.1904062845133
 24
256.4313966945629
 34
0.0
100
AcDbRotatedDimension
  0
DIMENSION
  5
271
330
1F
100
AcDbEntity
  8
1
100
AcDbDimension
  2
*D1316
 10
530.1904062845133
 20
240.618529670971
 30
0.0
 11
512.687551483079
 21
247.493529670971
 31
0.0
  1
<>
 53
0.00013888888889
  3
ME10_DIM_13
100
AcDbAlignedDimension
 13
537.1904062845133
 23
236.9313966945629
 33
0.0
 14
530.1904062845133
 24
256.4313966945629
 34
0.0
100
AcDbRotatedDimension
  0
DIMENSION
  5
27E
330
1F
100
AcDbEntity
  8
1
100
AcDbDimension
  2
*D1417
 10
570.883091606968
 20
266.4313966945629
 30
0.0
 11
564.008091606968
 21
259.753284130679
 31
0.0
  1
<>
 53
90.0
  3
ME10_DIM_14
100
AcDbAlignedDimension
 13
550.1904062845133
 23
253.4313966945629
 33
0.0
 14
540.1904062845133
 24
266.4313966945629
 34
0.0
 50
90.0
100
AcDbRotatedDimension
  0
DIMENSION
  5
28B
330
1F
100
AcDbEntity
  8
1
100
AcDbDimension
  2
*D1518
 10
570.766264188345
 20
-13.56860330543708
 30
0.0
 11
563.891264188345
 21
-6.48167537621017
 31
0.0
  1
<>
 53
90.0
  3
ME10_DIM_15
100
AcDbAlignedDimension
 13
548.1904062845133
 23
-0.56860330543709
 33
0.0
 14
540.1904062845133
 24
-13.56860330543708
 34
0.0
 50
90.0
100
AcDbRotatedDimension
  0
DIMENSION
  5
298
330
1F
100
AcDbEntity
  8
1
100
AcDbDimension
  2
*D1619
 10
393.791713815884
 20
167.5400046824216
 30
0.0
 11
397.815361560366
 21
174.4150046824216
 31
0.0
  1
<>
 53
0.00013888888889
  3
ME10_DIM_16
100
AcDbAlignedDimension
 13
401.7917138158955
 23
149.9313966945629
 33
0.0
 14
393.7917138158955
 24
149.9313966945629
 34
0.0
100
AcDbRotatedDimension
  0
DIMENSION
  5
2A5
330
1F
100
AcDbEntity
  8
1
100
AcDbDimension
  2
*D1720
 10
530.1904062845133
 20
-47.8542473331326
 30
0.0
 11
540.397029282749
 21
-40.9792473331326
 31
0.0
  1
<>
 53
0.00013888888889
  3
ME10_DIM_17
100
AcDbAlignedDimension
 13
550.1904062845133
 23
-3.56860330543709
 33
0.0
 14
530.1904062845133
 24
-3.56860330543709
 34
0.0
100
AcDbRotatedDimension
  0
DIMENSION
  5
2B2
330
1F
100
AcDbEntity
  8
1
100
AcDbDimension
  2
*D1821
 10
533.9904062845086
 20
119.6080277715664
 30
0.0
 11
514.2523888795695
 21
126.9205277715664
 31
0.0
  1
<>
 53
0.00013888888889
  3
ME10_DIM_18
100
AcDbAlignedDimension
 13
541.7904062845046
 23
108.9313966945629
 33
0.0
 14
533.9904062845162
 24
108.9313966945629
 34
0.0
100
AcDbRotatedDimension
  0
DIMENSION
  5
2BF
330
1F
100
AcDbEntity
  8
1
100
AcDbDimension
  2
*D1922
 10
530.1904062845133
 20
66.59688339165587
 30
0.0
 11
512.9976872374391
 21
73.90938339165587
 31
0.0
  1
<>
 53
0.00013888888889
  3
ME10_DIM_19
100
AcDbAlignedDimension
 13
533.9904062845162
 23
73.93139669456286
 33
0.0
 14
530.1904062845133
 24
-3.56860330543709
 34
0.0
100
AcDbRotatedDimension
  0
DIMENSION
  5
2CC
330
1F
100
AcDbEntity
  8
1
100
AcDbDimension
  2
*D2023
 10
533.4904062845149
 20
199.7190820467076
 30
0.0
 11
539.6600971326698
 21
206.5940820467076
 31
0.0
  1
<>
 53
0.00013888888889
  3
ME10_DIM_20
100
AcDbAlignedDimension
 13
545.4904062845162
 23
162.9313966945629
 33
0.0
 14
533.4904062845162
 24
158.9313966945629
 34
0.0
100
AcDbRotatedDimension
  0
DIMENSION
  5
2D9
330
1F
100
AcDbEntity
  8
1
100
AcDbDimension
  2
*D2124
 10
530.1904062845133
 20
218.7294574996922
 30
0.0
 11
512.6840118269174
 21
226.0419574996922
 31
0.0
  1
<>
 53
0.00013888888889
  3
ME10_DIM_21
100
AcDbAlignedDimension
 13
533.4904062845162
 23
190.9313966945629
 33
0.0
 14
530.1904062845133
 24
256.4313966945629
 34
0.0
100
AcDbRotatedDimension
  0
DIMENSION
  5
2E4
330
1F
100
AcDbEntity
  8
1
100
AcDbDimension
  2
*D2225
 10
590.126165490869
 20
-13.56860330543708
 30
0.0
 11
582.813665490869
 21
4.08806192853372
 31
0.0
  1
<>
 53
90.0
  3
ME10_DIM_22
100
AcDbAlignedDimension
 13
547.8404062845075
 23
21.93139669456286
 33
0.0
 14
557.5293184183975
 24
-13.56860330543708
 34
0.0
 50
90.0
100
AcDbRotatedDimension
  0
DIMENSION
  5
2EF
330
1F
100
AcDbEntity
  8
1
100
AcDbDimension
  2
*D2326
 10
589.860407935191
 20
266.4313966945629
 30
0.0
 11
582.547907935191
 21
247.654530752167
 31
0.0
  1
<>
 53
90.0
  3
ME10_DIM_23
100
AcDbAlignedDimension
 13
547.8404062845075
 23
230.9313966945629
 33
0.0
 14
540.1904062845133
 24
266.4313966945629
 34
0.0
 50
90.0
100
AcDbRotatedDimension
  0
DIMENSION
  5
2FA
330
1F
100
AcDbEntity
  8
1
100
AcDbDimension
  2
*D2427
 10
606.774592725572
 20
266.4313966945629
 30
0.0
 11
599.899592725572
 21
133.550713379676
 31
0.0
  1
<>
 53
90.0
  3
ME10_DIM_24
100
AcDbAlignedDimension
 13
557.5293184183975
 23
-13.56860330543708
 33
0.0
 14
563.5097054476937
 24
266.4313966945629
 34
0.0
 50
90.0
100
AcDbRotatedDimension
  0
DIMENSION
  5
307
330
1F
100
AcDbEntity
  8
1
100
AcDbDimension
  2
*D2528
 10
321.7917138158955
 20
56.56870609040198
 30
0.0
 11
332.3827602896054
 21
63.44370609040198
 31
0.0
  1
<>
 53
0.00013888888889
  3
ME10_DIM_25
100
AcDbAlignedDimension
 13
342.7917138158955
 23
73.93139669456286
 33
0.0
 14
321.7917138158955
 24
73.93139669456286
 34
0.0
100
AcDbRotatedDimension
  0
DIMENSION
  5
312
330
1F
100
AcDbEntity
  8
1
100
AcDbDimension
  2
*D2629
 10
480.9514669605269
 20
43.93139669456282
 30
0.0
 11
474.0764669605269
 21
122.7800999954488
 31
0.0
  1
<>
 53
90.0
  3
ME10_DIM_26
100
AcDbAlignedDimension
 13
421.7917138158955
 23
208.9313966945629
 33
0.0
 14
421.7917138158955
 24
43.93139669456286
 34
0.0
 50
90.0
100
AcDbRotatedDimension
  0
DIMENSION
  5
31F
330
1F
100
AcDbEntity
  8
1
100
AcDbDimension
  2
*D2730
 10
360.3508572793216
 20
-112.939571477188
 30
0.0
 11
353.0383572793216
 21
-93.65522563787451
 31
0.0
  1
<>
 53
90.0
  3
ME10_DIM_27
100
AcDbAlignedDimension
 13
379.5917138158839
 23
-113.4395714771781
 33
0.0
 14
345.7917138158955
 24
-112.9395714771781
 34
0.0
 50
90.0
100
AcDbRotatedDimension
  0
DIMENSION
  5
32C
330
1F
100
AcDbEntity
  8
1
100
AcDbDimension
  2
*D2831
 10
454.1775559517555
 20
-113.439571477186
 30
0.0
 11
446.8650559517555
 21
-93.32250684825337
 31
0.0
  1
<>
 53
90.0
  3
ME10_DIM_28
100
AcDbAlignedDimension
 13
415.0917138158839
 23
-128.9395714771781
 33
0.0
 14
415.9917138158926
 24
-113.4395714771781
 34
0.0
 50
90.0
100
AcDbRotatedDimension
  0
DIMENSION
  5
337
330
1F
100
AcDbEntity
  8
1
100
AcDbDimension
  2
*D2932
 10
397.7917138158956
 20
-47.8542473331326
 30
0.0
 11
370.8000000000001
 21
-40.9792473331326
 31
0.0
  1
 
 53
0.00013888888889
  3
ME10_DIM_29
100
AcDbAlignedDimension
 13
342.7917138158955
 23
-13.56860330543708
 33
0.0
 14
397.7917138158955
 24
43.93139669456286
 34
0.0
100
AcDbRotatedDimension
  0
DIMENSION
  5
344
330
1F
100
AcDbEntity
  8
1
100
AcDbDimension
  2
*D3033
 10
449.562223861668
 20
73.93139669456286
 30
0.0
 11
442.687223861668
 21
92.6405470222924
 31
0.0
  1
<>
 53
90.0
  3
ME10_DIM_30
100
AcDbAlignedDimension
 13
425.7917138158955
 23
65.93139669456286
 33
0.0
 14
408.9046743060899
 24
73.93139669456286
 34
0.0
 50
90.0
100
AcDbRotatedDimension
  0
DIMENSION
  5
351
330
1F
100
AcDbEntity
  8
1
100
AcDbDimension
  2
*D3134
 10
342.7917138158955
 20
-152.0392244324119
 30
0.0
 11
329.278318314671
 21
-145.1642244324119
 31
0.0
  1
<>
 53
0.00013888888889
  3
ME10_DIM_31
100
AcDbAlignedDimension
 13
348.7917138158957
 23
-132.4395714771781
 33
0.0
 14
342.7917138158955
 24
-132.9395714771781
 34
0.0
100
AcDbRotatedDimension
  0
ENDSEC
  0
SECTION
  2
OBJECTS
  0
DICTIONARY
  5
C
330
0
100
AcDbDictionary
  3
ACAD_GROUP
350
D
  3
ACAD_LAYOUT
350
1A
  3
ACAD_MLINESTYLE
350
17
  3
ACAD_PLOTSETTINGS
350
19
  3
ACAD_TABLESTYLE
350
2A
  3
ACDBHEADERROUNDTRIPXREC
350
352
  3
ACDBVARIABLEDICTIONARY
350
2C
  0
DICTIONARY
  5
372
330
29
100
AcDbDictionary
280
     1
  3
ACAD_XREC_ROUNDTRIP
360
373
  0
DICTIONARY
  5
D
102
{ACAD_REACTORS
330
C
102
}
330
C
100
AcDbDictionary
  0
DICTIONARY
  5
1A
102
{ACAD_REACTORS
330
C
102
}
330
C
100
AcDbDictionary
  0
DICTIONARY
  5
17
102
{ACAD_REACTORS
330
C
102
}
330
C
100
AcDbDictionary
  3
STANDARD
350
18
  0
DICTIONARY
  5
19
102
{ACAD_REACTORS
330
C
102
}
330
C
100
AcDbDictionary
  0
DICTIONARY
  5
2A
102
{ACAD_REACTORS
330
C
102
}
330
C
100
AcDbDictionary
  3
STANDARD
350
2B
  0
DICTIONARY
  5
352
102
{ACAD_REACTORS
330
C
102
}
330
C
100
AcDbDictionary
  3
CEPSNTYPE
350
35B
  3
DIMSTYLEDATA
350
371
  3
FINGERPRINTGUID
350
35C
  3
HYPERLINKBASE
350
355
  3
INSUNITS
350
35A
  3
LAYOUTDICT
350
357
  3
LWETCUNION
350
359
  3
PLOTSETDICT
350
358
  3
PSVPSCALE
350
35E
  3
PUCSBASE
350
361
  3
PUCSORGBACK
350
367
  3
PUCSORGBOTTOM
350
363
  3
PUCSORGFRONT
350
366
  3
PUCSORGLEFT
350
364
  3
PUCSORGRIGHT
350
365
  3
PUCSORGTOP
350
362
  3
PUCSORTHOREF
350
35F
  3
PUCSORTHOVIEW
350
360
  3
STYLESHEET
350
356
  3
TSTACKALIGN
350
353
  3
TSTACKSIZE
350
354
  3
UCSBASE
350
36A
  3
UCSORGBACK
350
370
  3
UCSORGBOTTOM
350
36C
  3
UCSORGFRONT
350
36F
  3
UCSORGLEFT
350
36D
  3
UCSORGRIGHT
350
36E
  3
UCSORGTOP
350
36B
  3
UCSORTHOREF
350
368
  3
UCSORTHOVIEW
350
369
  3
VERSIONGUID
350
35D
  0
DICTIONARY
  5
2C
102
{ACAD_REACTORS
330
C
102
}
330
C
100
AcDbDictionary
  3
CTABLESTYLE
350
2D
  0
XRECORD
  5
373
102
{ACAD_REACTORS
330
372
102
}
330
372
100
AcDbXrecord
102
UCS
 74
     0
 71
     1
 10
0.0
 20
0.0
 30
0.0
 10
1.0
 20
0.0
 30
0.0
 10
0.0
 20
1.0
 30
0.0
146
0.0
 79
     0
102
VIEW
281
     0
  0
MLINESTYLE
  5
18
102
{ACAD_REACTORS
330
17
102
}
330
17
100
AcDbMlineStyle
  2
Standard
 70
     0
  3

 62
   256
 51
90.0
 52
90.0
 71
     2
 49
0.5
 62
   256
  6
BYLAYER
 49
-0.5
 62
   256
  6
BYLAYER
  0
TABLESTYLE
  5
2B
102
{ACAD_REACTORS
330
2A
102
}
330
2A
100
AcDbTableStyle
  3
Standard
 70
     0
 71
     0
 40
0.06
 41
0.06
280
     0
281
     0
  7
STANDARD
140
0.18
170
     2
 62
     0
 63
     7
283
     0
274
    -2
284
     1
 64
     0
275
    -2
285
     1
 65
     0
276
    -2
286
     1
 66
     0
277
    -2
287
     1
 67
     0
278
    -2
288
     1
 68
     0
279
    -2
289
     1
 69
     0
  7
STANDARD
140
0.25
170
     5
 62
     0
 63
     7
283
     0
274
    -2
284
     1
 64
     0
275
    -2
285
     1
 65
     0
276
    -2
286
     1
 66
     0
277
    -2
287
     1
 67
     0
278
    -2
288
     1
 68
     0
279
    -2
289
     1
 69
     0
  7
STANDARD
140
0.18
170
     5
 62
     0
 63
     7
283
     0
274
    -2
284
     1
 64
     0
275
    -2
285
     1
 65
     0
276
    -2
286
     1
 66
     0
277
    -2
287
     1
 67
     0
278
    -2
288
     1
 68
     0
279
    -2
289
     1
 69
     0
  0
XRECORD
  5
35B
102
{ACAD_REACTORS
330
352
102
}
330
352
100
AcDbXrecord
 90
        0
  0
XRECORD
  5
371
102
{ACAD_REACTORS
330
352
102
}
330
352
100
AcDbXrecord
1000
DSTYLE
1002
{
1070
   171
 70
     2
1070
   143
 40
25.4
1070
   274
 70
     2
1070
    41
 40
0.18
1070
   141
 40
0.09
1070
   271
 70
     4
1070
    43
 40
0.38
1070
    44
 40
0.18
1070
   278
 70
    46
1070
    42
 40
0.0625
1070
   147
 40
0.09
1070
    77
 70
     0
1070
   272
 70
     4
1070
    73
 70
     1
1070
   172
 70
     0
1070
    74
 70
     1
1070
   283
 70
     1
1070
   340
340
11
1070
   140
 40
0.18
1070
   284
 70
     0
1070
    78
 70
     0
1002
}
  0
XRECORD
  5
35C
102
{ACAD_REACTORS
330
352
102
}
330
352
100
AcDbXrecord
  1
{FAEB1C30-E019-11D5-929B-00C0DF256EC4}
  0
XRECORD
  5
355
102
{ACAD_REACTORS
330
352
102
}
330
352
100
AcDbXrecord
  1

  0
XRECORD
  5
35A
102
{ACAD_REACTORS
330
352
102
}
330
352
100
AcDbXrecord
 90
        1
  0
XRECORD
  5
357
102
{ACAD_REACTORS
330
352
102
}
330
352
100
AcDbXrecord
340
1A
  0
XRECORD
  5
359
102
{ACAD_REACTORS
330
352
102
}
330
352
100
AcDbXrecord
 90
     2560
  0
XRECORD
  5
358
102
{ACAD_REACTORS
330
352
102
}
330
352
100
AcDbXrecord
340
19
  0
XRECORD
  5
35E
102
{ACAD_REACTORS
330
352
102
}
330
352
100
AcDbXrecord
 40
0.0
  0
XRECORD
  5
361
102
{ACAD_REACTORS
330
352
102
}
330
352
100
AcDbXrecord
340
0
  0
XRECORD
  5
367
102
{ACAD_REACTORS
330
352
102
}
330
352
100
AcDbXrecord
 10
0.0
 20
0.0
 30
0.0
  0
XRECORD
  5
363
102
{ACAD_REACTORS
330
352
102
}
330
352
100
AcDbXrecord
 10
0.0
 20
0.0
 30
0.0
  0
XRECORD
  5
366
102
{ACAD_REACTORS
330
352
102
}
330
352
100
AcDbXrecord
 10
0.0
 20
0.0
 30
0.0
  0
XRECORD
  5
364
102
{ACAD_REACTORS
330
352
102
}
330
352
100
AcDbXrecord
 10
0.0
 20
0.0
 30
0.0
  0
XRECORD
  5
365
102
{ACAD_REACTORS
330
352
102
}
330
352
100
AcDbXrecord
 10
0.0
 20
0.0
 30
0.0
  0
XRECORD
  5
362
102
{ACAD_REACTORS
330
352
102
}
330
352
100
AcDbXrecord
 10
0.0
 20
0.0
 30
0.0
  0
XRECORD
  5
35F
102
{ACAD_REACTORS
330
352
102
}
330
352
100
AcDbXrecord
340
0
  0
XRECORD
  5
360
102
{ACAD_REACTORS
330
352
102
}
330
352
100
AcDbXrecord
 70
     0
  0
XRECORD
  5
356
102
{ACAD_REACTORS
330
352
102
}
330
352
100
AcDbXrecord
  1

  0
XRECORD
  5
353
102
{ACAD_REACTORS
330
352
102
}
330
352
100
AcDbXrecord
 90
        1
  0
XRECORD
  5
354
102
{ACAD_REACTORS
330
352
102
}
330
352
100
AcDbXrecord
 90
       70
  0
XRECORD
  5
36A
102
{ACAD_REACTORS
330
352
102
}
330
352
100
AcDbXrecord
340
0
  0
XRECORD
  5
370
102
{ACAD_REACTORS
330
352
102
}
330
352
100
AcDbXrecord
 10
0.0
 20
0.0
 30
0.0
  0
XRECORD
  5
36C
102
{ACAD_REACTORS
330
352
102
}
330
352
100
AcDbXrecord
 10
0.0
 20
0.0
 30
0.0
  0
XRECORD
  5
36F
102
{ACAD_REACTORS
330
352
102
}
330
352
100
AcDbXrecord
 10
0.0
 20
0.0
 30
0.0
  0
XRECORD
  5
36D
102
{ACAD_REACTORS
330
352
102
}
330
352
100
AcDbXrecord
 10
0.0
 20
0.0
 30
0.0
  0
XRECORD
  5
36E
102
{ACAD_REACTORS
330
352
102
}
330
352
100
AcDbXrecord
 10
0.0
 20
0.0
 30
0.0
  0
XRECORD
  5
36B
102
{ACAD_REACTORS
330
352
102
}
330
352
100
AcDbXrecord
 10
0.0
 20
0.0
 30
0.0
  0
XRECORD
  5
368
102
{ACAD_REACTORS
330
352
102
}
330
352
100
AcDbXrecord
340
0
  0
XRECORD
  5
369
102
{ACAD_REACTORS
330
352
102
}
330
352
100
AcDbXrecord
 70
     0
  0
XRECORD
  5
35D
102
{ACAD_REACTORS
330
352
102
}
330
352
100
AcDbXrecord
  1
{FAEB1C32-E019-11D5-929B-00C0DF256EC4}
  0
DICTIONARYVAR
  5
2D
102
{ACAD_REACTORS
330
2C
102
}
330
2C
100
DictionaryVariables
280
     0
  1
Standard
  0
ENDSEC
  0
EOF
