  0
SECTION
  2
HEADER
  9
$ACADVER
  1
AC1021
  9
$ACADMAINTVER
 70
    25
  9
$DWGCODEPAGE
  3
ANSI_1252
  9
$INSBASE
 10
0.0
 20
0.0
 30
0.0
  9
$EXTMIN
 10
3620.6903227457
 20
734.249609400324
 30
0.0
  9
$EXTMAX
 10
3762.28670900197
 20
834.681875588616
 30
0.0
  9
$LIMMIN
 10
0.0
 20
0.0
  9
$LIMMAX
 10
12.0
 20
9.0
  9
$ORTHOMODE
 70
     0
  9
$REGENMODE
 70
     1
  9
$FILLMODE
 70
     1
  9
$QTEXTMODE
 70
     0
  9
$MIRRTEXT
 70
     1
  9
$LTSCALE
 40
1.0
  9
$ATTMODE
 70
     1
  9
$TEXTSIZE
 40
0.2
  9
$TRACEWID
 40
0.05
  9
$TEXTSTYLE
  7
Standard
  9
$CLAYER
  8
0
  9
$CELTYPE
  6
ByLayer
  9
$CECOLOR
 62
   256
  9
$CELTSCALE
 40
1.0
  9
$DISPSILH
 70
     0
  9
$DIMSCALE
 40
1.0
  9
$DIMASZ
 40
0.18
  9
$DIMEXO
 40
0.0625
  9
$DIMDLI
 40
0.38
  9
$DIMRND
 40
0.0
  9
$DIMDLE
 40
0.0
  9
$DIMEXE
 40
0.18
  9
$DIMTP
 40
0.0
  9
$DIMTM
 40
0.0
  9
$DIMTXT
 40
0.18
  9
$DIMCEN
 40
0.09
  9
$DIMTSZ
 40
0.0
  9
$DIMTOL
 70
     0
  9
$DIMLIM
 70
     0
  9
$DIMTIH
 70
     1
  9
$DIMTOH
 70
     1
  9
$DIMSE1
 70
     0
  9
$DIMSE2
 70
     0
  9
$DIMTAD
 70
     0
  9
$DIMZIN
 70
     0
  9
$DIMBLK
  1

  9
$DIMASO
 70
     1
  9
$DIMSHO
 70
     1
  9
$DIMPOST
  1

  9
$DIMAPOST
  1

  9
$DIMALT
 70
     0
  9
$DIMALTD
 70
     2
  9
$DIMALTF
 40
25.4
  9
$DIMLFAC
 40
1.0
  9
$DIMTOFL
 70
     0
  9
$DIMTVP
 40
0.0
  9
$DIMTIX
 70
     0
  9
$DIMSOXD
 70
     0
  9
$DIMSAH
 70
     0
  9
$DIMBLK1
  1

  9
$DIMBLK2
  1

  9
$DIMSTYLE
  2
Standard
  9
$DIMCLRD
 70
     0
  9
$DIMCLRE
 70
     0
  9
$DIMCLRT
 70
     0
  9
$DIMTFAC
 40
1.0
  9
$DIMGAP
 40
0.09
  9
$DIMJUST
 70
     0
  9
$DIMSD1
 70
     0
  9
$DIMSD2
 70
     0
  9
$DIMTOLJ
 70
     1
  9
$DIMTZIN
 70
     0
  9
$DIMALTZ
 70
     0
  9
$DIMALTTZ
 70
     0
  9
$DIMUPT
 70
     0
  9
$DIMDEC
 70
     4
  9
$DIMTDEC
 70
     4
  9
$DIMALTU
 70
     2
  9
$DIMALTTD
 70
     2
  9
$DIMTXSTY
  7
Standard
  9
$DIMAUNIT
 70
     0
  9
$DIMADEC
 70
     0
  9
$DIMALTRND
 40
0.0
  9
$DIMAZIN
 70
     0
  9
$DIMDSEP
 70
    46
  9
$DIMATFIT
 70
     3
  9
$DIMFRAC
 70
     0
  9
$DIMLDRBLK
  1

  9
$DIMLUNIT
 70
     2
  9
$DIMLWD
 70
    -2
  9
$DIMLWE
 70
    -2
  9
$DIMTMOVE
 70
     0
  9
$DIMFXL
 40
1.0
  9
$DIMFXLON
 70
     0
  9
$DIMJOGANG
 40
0.78539816339745
  9
$DIMTFILL
 70
     0
  9
$DIMTFILLCLR
 70
     0
  9
$DIMARCSYM
 70
     0
  9
$DIMLTYPE
  6

  9
$DIMLTEX1
  6

  9
$DIMLTEX2
  6

  9
$LUNITS
 70
     2
  9
$LUPREC
 70
     4
  9
$SKETCHINC
 40
0.1
  9
$FILLETRAD
 40
0.5
  9
$AUNITS
 70
     0
  9
$AUPREC
 70
     0
  9
$MENU
  1
.
  9
$ELEVATION
 40
0.0
  9
$PELEVATION
 40
0.0
  9
$THICKNESS
 40
0.0
  9
$LIMCHECK
 70
     0
  9
$CHAMFERA
 40
0.5
  9
$CHAMFERB
 40
0.5
  9
$CHAMFERC
 40
1.0
  9
$CHAMFERD
 40
0.0
  9
$SKPOLY
 70
     0
  9
$TDCREATE
 40
2456988.336294074
  9
$TDUCREATE
 40
2456988.294627408
  9
$TDUPDATE
 40
2456988.336294595
  9
$TDUUPDATE
 40
2456988.294627928
  9
$TDINDWG
 40
0.0000000116
  9
$TDUSRTIMER
 40
0.0000000116
  9
$USRTIMER
 70
     1
  9
$ANGBASE
 50
0.0
  9
$ANGDIR
 70
     0
  9
$PDMODE
 70
     0
  9
$PDSIZE
 40
0.0
  9
$PLINEWID
 40
0.0
  9
$SPLFRAME
 70
     0
  9
$SPLINETYPE
 70
     6
  9
$SPLINESEGS
 70
     8
  9
$HANDSEED
  5
338
  9
$SURFTAB1
 70
     6
  9
$SURFTAB2
 70
     6
  9
$SURFTYPE
 70
     6
  9
$SURFU
 70
     6
  9
$SURFV
 70
     6
  9
$UCSBASE
  2

  9
$UCSNAME
  2

  9
$UCSORG
 10
0.0
 20
0.0
 30
0.0
  9
$UCSXDIR
 10
1.0
 20
0.0
 30
0.0
  9
$UCSYDIR
 10
0.0
 20
1.0
 30
0.0
  9
$UCSORTHOREF
  2

  9
$UCSORTHOVIEW
 70
     0
  9
$UCSORGTOP
 10
0.0
 20
0.0
 30
0.0
  9
$UCSORGBOTTOM
 10
0.0
 20
0.0
 30
0.0
  9
$UCSORGLEFT
 10
0.0
 20
0.0
 30
0.0
  9
$UCSORGRIGHT
 10
0.0
 20
0.0
 30
0.0
  9
$UCSORGFRONT
 10
0.0
 20
0.0
 30
0.0
  9
$UCSORGBACK
 10
0.0
 20
0.0
 30
0.0
  9
$PUCSBASE
  2

  9
$PUCSNAME
  2

  9
$PUCSORG
 10
0.0
 20
0.0
 30
0.0
  9
$PUCSXDIR
 10
1.0
 20
0.0
 30
0.0
  9
$PUCSYDIR
 10
0.0
 20
1.0
 30
0.0
  9
$PUCSORTHOREF
  2

  9
$PUCSORTHOVIEW
 70
     0
  9
$PUCSORGTOP
 10
0.0
 20
0.0
 30
0.0
  9
$PUCSORGBOTTOM
 10
0.0
 20
0.0
 30
0.0
  9
$PUCSORGLEFT
 10
0.0
 20
0.0
 30
0.0
  9
$PUCSORGRIGHT
 10
0.0
 20
0.0
 30
0.0
  9
$PUCSORGFRONT
 10
0.0
 20
0.0
 30
0.0
  9
$PUCSORGBACK
 10
0.0
 20
0.0
 30
0.0
  9
$USERI1
 70
     0
  9
$USERI2
 70
     0
  9
$USERI3
 70
     0
  9
$USERI4
 70
     0
  9
$USERI5
 70
     0
  9
$USERR1
 40
18.1
  9
$USERR2
 40
0.0
  9
$USERR3
 40
0.0
  9
$USERR4
 40
0.0
  9
$USERR5
 40
0.0
  9
$WORLDVIEW
 70
     1
  9
$SHADEDGE
 70
     3
  9
$SHADEDIF
 70
    70
  9
$TILEMODE
 70
     1
  9
$MAXACTVP
 70
    64
  9
$PINSBASE
 10
0.0
 20
0.0
 30
0.0
  9
$PLIMCHECK
 70
     0
  9
$PEXTMIN
 10
1.00000000000000E+20
 20
1.00000000000000E+20
 30
1.00000000000000E+20
  9
$PEXTMAX
 10
-1.00000000000000E+20
 20
-1.00000000000000E+20
 30
-1.00000000000000E+20
  9
$PLIMMIN
 10
0.0
 20
0.0
  9
$PLIMMAX
 10
12.0
 20
9.0
  9
$UNITMODE
 70
     0
  9
$VISRETAIN
 70
     1
  9
$PLINEGEN
 70
     0
  9
$PSLTSCALE
 70
     1
  9
$TREEDEPTH
 70
  3020
  9
$CMLSTYLE
  2
Standard
  9
$CMLJUST
 70
     0
  9
$CMLSCALE
 40
1.0
  9
$PROXYGRAPHICS
 70
     1
  9
$MEASUREMENT
 70
     1
  9
$CELWEIGHT
370
    -1
  9
$ENDCAPS
280
     0
  9
$JOINSTYLE
280
     0
  9
$LWDISPLAY
290
     0
  9
$INSUNITS
 70
     4
  9
$HYPERLINKBASE
  1

  9
$STYLESHEET
  1

  9
$XEDIT
290
     1
  9
$CEPSNTYPE
380
     0
  9
$PSTYLEMODE
290
     1
  9
$FINGERPRINTGUID
  2
{37FA1012-DAB8-4549-8102-70561A4B028C}
  9
$VERSIONGUID
  2
{FAEB1C32-E019-11D5-929B-00C0DF256EC4}
  9
$EXTNAMES
290
     1
  9
$PSVPSCALE
 40
0.0
  9
$OLESTARTUP
290
     0
  9
$SORTENTS
280
   127
  9
$INDEXCTL
280
     0
  9
$HIDETEXT
280
     1
  9
$XCLIPFRAME
290
     0
  9
$HALOGAP
280
     0
  9
$OBSCOLOR
 70
   257
  9
$OBSLTYPE
280
     0
  9
$INTERSECTIONDISPLAY
280
     0
  9
$INTERSECTIONCOLOR
 70
   257
  9
$DIMASSOC
280
     2
  9
$PROJECTNAME
  1

  9
$CAMERADISPLAY
290
     0
  9
$LENSLENGTH
 40
50.0
  9
$CAMERAHEIGHT
 40
0.0
  9
$STEPSPERSEC
 40
2.0
  9
$STEPSIZE
 40
6.0
  9
$3DDWFPREC
 40
2.0
  9
$PSOLWIDTH
 40
0.25
  9
$PSOLHEIGHT
 40
4.0
  9
$LOFTANG1
 40
1.5707963267949
  9
$LOFTANG2
 40
1.5707963267949
  9
$LOFTMAG1
 40
0.0
  9
$LOFTMAG2
 40
0.0
  9
$LOFTPARAM
 70
     7
  9
$LOFTNORMALS
280
     1
  9
$LATITUDE
 40
37.795
  9
$LONGITUDE
 40
-122.394
  9
$NORTHDIRECTION
 40
0.0
  9
$TIMEZONE
 70
 -8000
  9
$LIGHTGLYPHDISPLAY
280
     1
  9
$TILEMODELIGHTSYNCH
280
     1
  9
$SOLIDHIST
280
     1
  9
$SHOWHIST
280
     1
  9
$DWFFRAME
280
     2
  9
$DGNFRAME
280
     2
  9
$REALWORLDSCALE
290
     1
  9
$INTERFERECOLOR
 62
   256
  9
$CSHADOW
280
     0
  9
$SHADOWPLANELOCATION
 40
0.0
  0
ENDSEC
  0
SECTION
  2
CLASSES
  0
CLASS
  1
ACDBDICTIONARYWDFLT
  2
AcDbDictionaryWithDefault
  3
ObjectDBX Classes
 90
        0
 91
        4
280
     0
281
     0
  0
CLASS
  1
VISUALSTYLE
  2
AcDbVisualStyle
  3
ObjectDBX Classes
 90
     4095
 91
        4
280
     0
281
     0
  0
CLASS
  1
MATERIAL
  2
AcDbMaterial
  3
ObjectDBX Classes
 90
     1153
 91
        4
280
     0
281
     0
  0
ENDSEC
  0
SECTION
  2
TABLES
  0
TABLE
  2
VPORT
  5
8
330
0
100
AcDbSymbolTable
 70
     1
  0
VPORT
  5
29
330
8
100
AcDbSymbolTableRecord
100
AcDbViewportTableRecord
  2
*Active
 70
     0
 10
0.0
 20
0.0
 11
1.0
 21
1.0
 12
3691.488515873835
 22
784.46574249447
 13
0.0
 23
0.0
 14
0.5
 24
0.5
 15
0.5
 25
0.5
 16
0.0
 26
0.0
 36
1.0
 17
0.0
 27
0.0
 37
0.0
 40
110.4754928071212
 41
1.60267857142857
 42
50.0
 43
0.0
 44
0.0
 50
0.0
 51
0.0
 71
     0
 72
   100
 73
     1
 74
     3
 75
     0
 76
     0
 77
     0
 78
     0
281
     0
 65
     1
110
0.0
120
0.0
130
0.0
111
1.0
121
0.0
131
0.0
112
0.0
122
1.0
132
0.0
 79
     0
146
0.0
 60
     3
 61
     5
292
     1
282
     1
141
0.0
142
0.0
 63
   250
  0
ENDTAB
  0
TABLE
  2
LTYPE
  5
5
330
0
100
AcDbSymbolTable
 70
     8
  0
LTYPE
  5
14
330
5
100
AcDbSymbolTableRecord
100
AcDbLinetypeTableRecord
  2
ByBlock
 70
     0
  3

 72
    65
 73
     0
 40
0.0
  0
LTYPE
  5
15
330
5
100
AcDbSymbolTableRecord
100
AcDbLinetypeTableRecord
  2
ByLayer
 70
     0
  3

 72
    65
 73
     0
 40
0.0
  0
LTYPE
  5
16
330
5
100
AcDbSymbolTableRecord
100
AcDbLinetypeTableRecord
  2
Continuous
 70
     0
  3
Solid line
 72
    65
 73
     0
 40
0.0
  0
LTYPE
  5
3F
330
5
100
AcDbSymbolTableRecord
100
AcDbLinetypeTableRecord
  2
DASHED
 70
     0
  3
Dashed
 72
    65
 73
     2
 40
15.0
 49
7.0
 74
     0
 49
-8.0
 74
     0
  0
LTYPE
  5
40
330
5
100
AcDbSymbolTableRecord
100
AcDbLinetypeTableRecord
  2
DOTTED
 70
     0
  3
Dotted
 72
    65
 73
     2
 40
1.0
 49
0.0
 74
     0
 49
-1.0
 74
     0
  0
LTYPE
  5
41
330
5
100
AcDbSymbolTableRecord
100
AcDbLinetypeTableRecord
  2
DOT_CENTER
 70
     0
  3
Dot_Center
 72
    65
 73
     4
 40
14.0
 49
12.0
 74
     0
 49
-1.0
 74
     0
 49
0.0
 74
     0
 49
-1.0
 74
     0
  0
LTYPE
  5
42
330
5
100
AcDbSymbolTableRecord
100
AcDbLinetypeTableRecord
  2
LONG_DASHED
 70
     0
  3
Long_Dashed
 72
    65
 73
     2
 40
15.0
 49
10.0
 74
     0
 49
-5.0
 74
     0
  0
LTYPE
  5
43
330
5
100
AcDbSymbolTableRecord
100
AcDbLinetypeTableRecord
  2
DASH_CENTER
 70
     0
  3
Dash_Center
 72
    65
 73
     4
 40
14.0
 49
11.0
 74
     0
 49
-1.0
 74
     0
 49
1.0
 74
     0
 49
-1.0
 74
     0
  0
LTYPE
  5
44
330
5
100
AcDbSymbolTableRecord
100
AcDbLinetypeTableRecord
  2
PHANTOM
 70
     0
  3
Phantom
 72
    65
 73
     6
 40
13.0
 49
10.0
 74
     0
 49
-1.0
 74
     0
 49
0.0
 74
     0
 49
-1.0
 74
     0
 49
0.0
 74
     0
 49
-1.0
 74
     0
  0
LTYPE
  5
45
330
5
100
AcDbSymbolTableRecord
100
AcDbLinetypeTableRecord
  2
CENTER_DASH_DASH
 70
     0
  3
Center_Dash_Dash
 72
    65
 73
     6
 40
14.0
 49
9.0
 74
     0
 49
-1.0
 74
     0
 49
1.0
 74
     0
 49
-1.0
 74
     0
 49
1.0
 74
     0
 49
-1.0
 74
     0
  0
ENDTAB
  0
TABLE
  2
LAYER
  5
2
330
0
100
AcDbSymbolTable
 70
    12
  0
LAYER
  5
10
330
2
100
AcDbSymbolTableRecord
100
AcDbLayerTableRecord
  2
0
 70
     0
 62
     7
  6
Continuous
370
    -3
390
F
347
3E
  0
LAYER
  5
46
330
2
100
AcDbSymbolTableRecord
100
AcDbLayerTableRecord
  2
1
 70
     0
 62
     7
  6
Continuous
370
    -3
390
F
347
3E
  0
LAYER
  5
47
330
2
100
AcDbSymbolTableRecord
100
AcDbLayerTableRecord
  2
A_ACHSEN
 70
     0
 62
     7
  6
Continuous
370
    -3
390
F
347
3E
  0
LAYER
  5
48
330
2
100
AcDbSymbolTableRecord
100
AcDbLayerTableRecord
  2
A_BEMASSUNGEN
 70
     0
 62
     7
  6
Continuous
370
    -3
390
F
347
3E
  0
LAYER
  5
49
330
2
100
AcDbSymbolTableRecord
100
AcDbLayerTableRecord
  2
A_RUNDUNGEN
 70
     0
 62
     7
  6
Continuous
370
    -3
390
F
347
3E
  0
LAYER
  5
4A
330
2
100
AcDbSymbolTableRecord
100
AcDbLayerTableRecord
  2
DEFAULT_2
 70
     0
 62
     7
  6
Continuous
370
    -3
390
F
347
3E
  0
LAYER
  5
4B
330
2
100
AcDbSymbolTableRecord
100
AcDbLayerTableRecord
  2
Dichtungen
 70
     0
 62
     7
  6
Continuous
370
    -3
390
F
347
3E
  0
LAYER
  5
4C
330
2
100
AcDbSymbolTableRecord
100
AcDbLayerTableRecord
  2
PROFILI
 70
     0
 62
     7
  6
Continuous
370
    -3
390
F
347
3E
  0
LAYER
  5
4D
330
2
100
AcDbSymbolTableRecord
100
AcDbLayerTableRecord
  2
Profile
 70
     0
 62
     7
  6
Continuous
370
    -3
390
F
347
3E
  0
LAYER
  5
4E
330
2
100
AcDbSymbolTableRecord
100
AcDbLayerTableRecord
  2
en_0_20
 70
     0
 62
     7
  6
Continuous
370
    -3
390
F
347
3E
  0
LAYER
  5
4F
330
2
100
AcDbSymbolTableRecord
100
AcDbLayerTableRecord
  2
lienien
 70
     0
 62
     7
  6
Continuous
370
    -3
390
F
347
3E
  0
LAYER
  5
50
330
2
100
AcDbSymbolTableRecord
100
AcDbLayerTableRecord
  2
w
 70
     0
 62
     7
  6
Continuous
370
    -3
390
F
347
3E
  0
ENDTAB
  0
TABLE
  2
STYLE
  5
3
330
0
100
AcDbSymbolTable
 70
     2
  0
STYLE
  5
11
330
3
100
AcDbSymbolTableRecord
100
AcDbTextStyleTableRecord
  2
Standard
 70
     0
 40
0.0
 41
1.0
 50
0.0
 71
     0
 42
0.2
  3
txt
  4

  0
STYLE
  5
2B4
330
3
100
AcDbSymbolTableRecord
100
AcDbTextStyleTableRecord
  2
CONVERTER_11
 70
     0
 40
0.0
 41
0.9
 50
0.0
 71
     0
 42
0.2
  3
txt.shx
  4

  0
ENDTAB
  0
TABLE
  2
VIEW
  5
6
330
0
100
AcDbSymbolTable
 70
     0
  0
ENDTAB
  0
TABLE
  2
UCS
  5
7
330
0
100
AcDbSymbolTable
 70
     0
  0
ENDTAB
  0
TABLE
  2
APPID
  5
9
330
0
100
AcDbSymbolTable
 70
     1
  0
APPID
  5
12
330
9
100
AcDbSymbolTableRecord
100
AcDbRegAppTableRecord
  2
ACAD
 70
     0
  0
ENDTAB
  0
TABLE
  2
DIMSTYLE
  5
A
330
0
100
AcDbSymbolTable
 70
    10
100
AcDbDimStyleTable
  0
DIMSTYLE
105
27
330
A
100
AcDbSymbolTableRecord
100
AcDbDimStyleTableRecord
  2
Standard
 70
     0
178
     0
340
11
  0
DIMSTYLE
105
2B8
102
{ACAD_REACTORS
330
2B9
102
}
330
A
100
AcDbSymbolTableRecord
100
AcDbDimStyleTableRecord
  2
ME10_DIM_10
 70
     0
 41
3.5
 42
0.0
 44
2.0
 73
     0
 74
     0
 77
     1
 78
     8
140
3.5
147
2.0
172
     1
173
     1
174
     1
175
     1
176
     2
177
     2
271
     3
178
     2
271
     3
340
2B4
  0
DIMSTYLE
105
2C3
102
{ACAD_REACTORS
330
2C4
102
}
330
A
100
AcDbSymbolTableRecord
100
AcDbDimStyleTableRecord
  2
ME10_DIM_11
 70
     0
 41
3.5
 42
0.0
 44
2.0
 73
     0
 74
     0
 77
     1
 78
     8
140
3.5
147
2.0
172
     1
173
     1
174
     1
175
     1
176
     2
177
     2
271
     3
178
     2
271
     3
340
2B4
  0
DIMSTYLE
105
2CE
102
{ACAD_REACTORS
330
2CF
102
}
330
A
100
AcDbSymbolTableRecord
100
AcDbDimStyleTableRecord
  2
ME10_DIM_12
 70
     0
 41
3.5
 42
0.0
 44
2.0
 73
     0
 74
     0
 77
     1
 78
     8
140
3.5
147
2.0
172
     1
173
     1
174
     1
175
     1
176
     2
177
     2
271
     3
178
     2
271
     3
340
2B4
  0
DIMSTYLE
105
2D9
102
{ACAD_REACTORS
330
2DA
102
}
330
A
100
AcDbSymbolTableRecord
100
AcDbDimStyleTableRecord
  2
ME10_DIM_13
 70
     0
 41
3.5
 42
0.0
 44
2.0
 73
     0
 74
     0
 77
     1
 78
     8
140
3.5
147
2.0
172
     1
173
     1
174
     1
175
     1
176
     2
177
     2
271
     3
178
     2
271
     3
340
2B4
  0
DIMSTYLE
105
2E6
102
{ACAD_REACTORS
330
2E7
102
}
330
A
100
AcDbSymbolTableRecord
100
AcDbDimStyleTableRecord
  2
ME10_DIM_14
 70
     0
 41
3.5
 42
0.0
 44
2.0
 73
     0
 74
     0
 77
     1
 78
     8
140
3.5
147
2.0
172
     1
173
     1
174
     1
175
     1
176
     2
177
     2
271
     3
178
     2
271
     3
340
2B4
  0
DIMSTYLE
105
2F1
102
{ACAD_REACTORS
330
2F2
102
}
330
A
100
AcDbSymbolTableRecord
100
AcDbDimStyleTableRecord
  2
ME10_DIM_15
 70
     0
 41
3.5
 42
0.0
 44
2.0
 73
     0
 74
     0
 77
     1
 78
     8
140
3.5
147
2.0
172
     1
173
     1
174
     1
175
     1
176
     2
177
     2
271
     3
178
     2
271
     3
340
2B4
  0
DIMSTYLE
105
2FC
102
{ACAD_REACTORS
330
2FD
102
}
330
A
100
AcDbSymbolTableRecord
100
AcDbDimStyleTableRecord
  2
ME10_DIM_16
 70
     0
 41
3.5
 42
0.0
 44
2.0
 73
     0
 74
     0
 77
     1
 78
     8
140
3.5
147
2.0
172
     1
173
     1
174
     1
175
     1
176
     2
177
     2
271
     3
178
     2
271
     3
340
2B4
  0
DIMSTYLE
105
309
102
{ACAD_REACTORS
330
30A
102
}
330
A
100
AcDbSymbolTableRecord
100
AcDbDimStyleTableRecord
  2
ME10_DIM_17
 70
     0
 41
3.5
 42
0.0
 44
2.0
 73
     0
 74
     0
 77
     1
 78
     8
140
3.5
147
2.0
172
     1
173
     1
174
     1
175
     1
176
     2
177
     2
271
     3
178
     2
271
     3
340
2B4
  0
DIMSTYLE
105
314
102
{ACAD_REACTORS
330
315
102
}
330
A
100
AcDbSymbolTableRecord
100
AcDbDimStyleTableRecord
  2
ME10_DIM_18
 70
     0
 41
3.5
 42
0.0
 44
2.0
 73
     0
 74
     0
 77
     1
 78
     8
140
3.5
147
2.0
172
     1
173
     1
174
     1
175
     1
176
     2
177
     2
271
     3
178
     2
271
     3
340
2B4
  0
ENDTAB
  0
TABLE
  2
BLOCK_RECORD
  5
1
330
0
100
AcDbSymbolTable
 70
    10
  0
BLOCK_RECORD
  5
1F
330
1
100
AcDbSymbolTableRecord
100
AcDbBlockTableRecord
  2
*Model_Space
340
22
 70
     0
280
     1
281
     0
  0
BLOCK_RECORD
  5
1B
330
1
100
AcDbSymbolTableRecord
100
AcDbBlockTableRecord
  2
*Paper_Space
340
1E
 70
     0
280
     1
281
     0
  0
BLOCK_RECORD
  5
23
330
1
100
AcDbSymbolTableRecord
100
AcDbBlockTableRecord
  2
*Paper_Space0
340
26
 70
     0
280
     1
281
     0
  0
BLOCK_RECORD
  5
2AE
330
1
100
AcDbSymbolTableRecord
100
AcDbBlockTableRecord
  2
*D1
340
0
 70
     0
280
     1
281
     0
  0
BLOCK_RECORD
  5
2BA
330
1
100
AcDbSymbolTableRecord
100
AcDbBlockTableRecord
  2
*D2
340
0
 70
     0
280
     1
281
     0
  0
BLOCK_RECORD
  5
2C5
330
1
100
AcDbSymbolTableRecord
100
AcDbBlockTableRecord
  2
*D3
340
0
 70
     0
280
     1
281
     0
  0
BLOCK_RECORD
  5
2D0
330
1
100
AcDbSymbolTableRecord
100
AcDbBlockTableRecord
  2
*D4
340
0
 70
     0
280
     1
281
     0
  0
BLOCK_RECORD
  5
2DB
330
1
100
AcDbSymbolTableRecord
100
AcDbBlockTableRecord
  2
*D5
340
0
 70
     0
280
     1
281
     0
  0
BLOCK_RECORD
  5
2E8
330
1
100
AcDbSymbolTableRecord
100
AcDbBlockTableRecord
  2
*D6
340
0
 70
     0
280
     1
281
     0
  0
BLOCK_RECORD
  5
2F3
330
1
100
AcDbSymbolTableRecord
100
AcDbBlockTableRecord
  2
*D7
340
0
 70
     0
280
     1
281
     0
  0
BLOCK_RECORD
  5
2FE
330
1
100
AcDbSymbolTableRecord
100
AcDbBlockTableRecord
  2
*D8
340
0
 70
     0
280
     1
281
     0
  0
BLOCK_RECORD
  5
30B
330
1
100
AcDbSymbolTableRecord
100
AcDbBlockTableRecord
  2
*D9
340
0
 70
     0
280
     1
281
     0
  0
ENDTAB
  0
ENDSEC
  0
SECTION
  2
BLOCKS
  0
BLOCK
  5
20
330
1F
100
AcDbEntity
  8
0
100
AcDbBlockBegin
  2
*Model_Space
 70
     0
 10
0.0
 20
0.0
 30
0.0
  3
*Model_Space
  1

  0
ENDBLK
  5
21
330
1F
100
AcDbEntity
  8
0
100
AcDbBlockEnd
  0
BLOCK
  5
1C
330
1B
100
AcDbEntity
 67
     1
  8
0
100
AcDbBlockBegin
  2
*Paper_Space
 70
     0
 10
0.0
 20
0.0
 30
0.0
  3
*Paper_Space
  1

  0
ENDBLK
  5
1D
330
1B
100
AcDbEntity
 67
     1
  8
0
100
AcDbBlockEnd
  0
BLOCK
  5
24
330
23
100
AcDbEntity
  8
0
100
AcDbBlockBegin
  2
*Paper_Space0
 70
     0
 10
0.0
 20
0.0
 30
0.0
  3
*Paper_Space0
  1

  0
ENDBLK
  5
25
330
23
100
AcDbEntity
  8
0
100
AcDbBlockEnd
  0
BLOCK
  5
2B6
330
2AE
100
AcDbEntity
  8
0
100
AcDbBlockBegin
  2
*D1
 70
     1
 10
0.0
 20
0.0
 30
0.0
  3
*D1
  1

  0
LINE
  5
2AF
330
2AE
100
AcDbEntity
  8
1
  6
Continuous
 62
     2
100
AcDbLine
 10
3633.61238610596
 20
797.3674717906507
 30
0.0
 11
3633.61238610596
 21
769.3674717906507
 31
0.0
  0
LINE
  5
2B0
330
2AE
100
AcDbEntity
  8
1
  6
Continuous
 62
     2
100
AcDbLine
 10
3659.17619274792
 20
797.3674717906507
 30
0.0
 11
3631.61238610596
 21
797.3674717906507
 31
0.0
  0
LINE
  5
2B1
330
2AE
100
AcDbEntity
  8
1
  6
Continuous
 62
     2
100
AcDbLine
 10
3659.97619274792
 20
769.3674717906507
 30
0.0
 11
3631.61238610596
 21
769.3674717906507
 31
0.0
  0
SOLID
  5
2B2
330
2AE
100
AcDbEntity
  8
1
 62
     2
100
AcDbTrace
 10
3634.073169847516
 20
793.8674717906507
 30
0.0
 11
3633.151602364404
 21
793.8674717906507
 31
0.0
 12
3633.61238610596
 22
797.3674717906507
 32
0.0
 13
3633.61238610596
 23
797.3674717906507
 33
0.0
  0
SOLID
  5
2B3
330
2AE
100
AcDbEntity
  8
1
 62
     2
100
AcDbTrace
 10
3633.151602364404
 20
772.8674717906507
 30
0.0
 11
3634.073169847516
 21
772.8674717906507
 31
0.0
 12
3633.61238610596
 22
769.3674717906507
 32
0.0
 13
3633.61238610596
 23
769.3674717906507
 33
0.0
  0
MTEXT
  5
2B5
330
2AE
100
AcDbEntity
  8
1
 62
     2
100
AcDbMText
 10
3631.61238610596
 20
780.611639769439
 30
0.0
 40
3.5
 41
0.0
 46
0.0
 71
     7
 72
     1
  1
28
  7
CONVERTER_11
 11
0.0
 21
1.0
 31
0.0
 73
     1
 44
0.60024009603842
  0
ENDBLK
  5
2B7
330
2AE
100
AcDbEntity
  8
0
100
AcDbBlockEnd
  0
BLOCK
  5
2C1
330
2BA
100
AcDbEntity
  8
0
100
AcDbBlockBegin
  2
*D2
 70
     1
 10
0.0
 20
0.0
 30
0.0
  3
*D2
  1

  0
LINE
  5
2BB
330
2BA
100
AcDbEntity
  8
1
  6
Continuous
 62
     2
100
AcDbLine
 10
3751.19590254507
 20
786.3674717906507
 30
0.0
 11
3751.19590254507
 21
758.3674717906507
 31
0.0
  0
LINE
  5
2BC
330
2BA
100
AcDbEntity
  8
1
  6
Continuous
 62
     2
100
AcDbLine
 10
3736.47619274792
 20
758.3674717906507
 30
0.0
 11
3753.19590254507
 21
758.3674717906507
 31
0.0
  0
LINE
  5
2BD
330
2BA
100
AcDbEntity
  8
1
  6
Continuous
 62
     2
100
AcDbLine
 10
3736.47619274792
 20
786.3674717906507
 30
0.0
 11
3753.19590254507
 21
786.3674717906507
 31
0.0
  0
SOLID
  5
2BE
330
2BA
100
AcDbEntity
  8
1
 62
     2
100
AcDbTrace
 10
3751.656686286626
 20
782.8674717906507
 30
0.0
 11
3750.735118803514
 21
782.8674717906507
 31
0.0
 12
3751.19590254507
 22
786.3674717906507
 32
0.0
 13
3751.19590254507
 23
786.3674717906507
 33
0.0
  0
SOLID
  5
2BF
330
2BA
100
AcDbEntity
  8
1
 62
     2
100
AcDbTrace
 10
3750.735118803514
 20
761.8674717906507
 30
0.0
 11
3751.656686286626
 21
761.8674717906507
 31
0.0
 12
3751.19590254507
 22
758.3674717906507
 32
0.0
 13
3751.19590254507
 23
758.3674717906507
 33
0.0
  0
MTEXT
  5
2C0
330
2BA
100
AcDbEntity
  8
1
 62
     2
100
AcDbMText
 10
3749.19590254507
 20
769.762872026125
 30
0.0
 40
3.5
 41
0.0
 46
0.0
 71
     7
 72
     1
  1
28
  7
CONVERTER_11
 11
0.0
 21
1.0
 31
0.0
 73
     1
 44
0.60024009603842
  0
ENDBLK
  5
2C2
330
2BA
100
AcDbEntity
  8
0
100
AcDbBlockEnd
  0
BLOCK
  5
2CC
330
2C5
100
AcDbEntity
  8
0
100
AcDbBlockBegin
  2
*D3
 70
     1
 10
0.0
 20
0.0
 30
0.0
  3
*D3
  1

  0
LINE
  5
2C6
330
2C5
100
AcDbEntity
  8
1
  6
Continuous
 62
     2
100
AcDbLine
 10
3659.97619274792
 20
740.866750759272
 30
0.0
 11
3689.97619274792
 21
740.866750759272
 31
0.0
  0
LINE
  5
2C7
330
2C5
100
AcDbEntity
  8
1
  6
Continuous
 62
     2
100
AcDbLine
 10
3659.97619274792
 20
769.3674717906507
 30
0.0
 11
3659.97619274792
 21
738.866750759272
 31
0.0
  0
LINE
  5
2C8
330
2C5
100
AcDbEntity
  8
1
  6
Continuous
 62
     2
100
AcDbLine
 10
3689.97619274792
 20
750.5674717904507
 30
0.0
 11
3689.97619274792
 21
738.866750759272
 31
0.0
  0
SOLID
  5
2C9
330
2C5
100
AcDbEntity
  8
1
 62
     2
100
AcDbTrace
 10
3663.47619274792
 20
741.3275345008279
 30
0.0
 11
3663.47619274792
 21
740.4059670177161
 31
0.0
 12
3659.97619274792
 22
740.866750759272
 32
0.0
 13
3659.97619274792
 23
740.866750759272
 33
0.0
  0
SOLID
  5
2CA
330
2C5
100
AcDbEntity
  8
1
 62
     2
100
AcDbTrace
 10
3686.47619274792
 20
740.4059670177161
 30
0.0
 11
3686.47619274792
 21
741.3275345008279
 31
0.0
 12
3689.97619274792
 22
740.866750759272
 32
0.0
 13
3689.97619274792
 23
740.866750759272
 33
0.0
  0
MTEXT
  5
2CB
330
2C5
100
AcDbEntity
  8
1
 62
     2
100
AcDbMText
 10
3672.08426047769
 20
742.866750759272
 30
0.0
 40
3.5
 41
0.0
 46
0.0
 71
     7
 72
     1
  1
30
  7
CONVERTER_11
 11
0.9999999999970619
 21
2.424068405545306E-6
 31
0.0
 73
     1
 44
0.60024009603842
  0
ENDBLK
  5
2CD
330
2C5
100
AcDbEntity
  8
0
100
AcDbBlockEnd
  0
BLOCK
  5
2D7
330
2D0
100
AcDbEntity
  8
0
100
AcDbBlockBegin
  2
*D4
 70
     1
 10
0.0
 20
0.0
 30
0.0
  3
*D4
  1

  0
LINE
  5
2D1
330
2D0
100
AcDbEntity
  8
1
  6
Continuous
 62
     2
100
AcDbLine
 10
3693.47619274792
 20
740.866750759272
 30
0.0
 11
3736.47619274792
 21
740.866750759272
 31
0.0
  0
LINE
  5
2D2
330
2D0
100
AcDbEntity
  8
1
  6
Continuous
 62
     2
100
AcDbLine
 10
3693.47619274792
 20
750.3674717906507
 30
0.0
 11
3693.47619274792
 21
738.866750759272
 31
0.0
  0
LINE
  5
2D3
330
2D0
100
AcDbEntity
  8
1
  6
Continuous
 62
     2
100
AcDbLine
 10
3736.47619274792
 20
758.3674717906507
 30
0.0
 11
3736.47619274792
 21
738.866750759272
 31
0.0
  0
SOLID
  5
2D4
330
2D0
100
AcDbEntity
  8
1
 62
     2
100
AcDbTrace
 10
3696.97619274792
 20
741.3275345008279
 30
0.0
 11
3696.97619274792
 21
740.4059670177161
 31
0.0
 12
3693.47619274792
 22
740.866750759272
 32
0.0
 13
3693.47619274792
 23
740.866750759272
 33
0.0
  0
SOLID
  5
2D5
330
2D0
100
AcDbEntity
  8
1
 62
     2
100
AcDbTrace
 10
3732.97619274792
 20
740.4059670177161
 30
0.0
 11
3732.97619274792
 21
741.3275345008279
 31
0.0
 12
3736.47619274792
 22
740.866750759272
 32
0.0
 13
3736.47619274792
 23
740.866750759272
 33
0.0
  0
MTEXT
  5
2D6
330
2D0
100
AcDbEntity
  8
1
 62
     2
100
AcDbMText
 10
3712.35119274792
 20
742.866750759272
 30
0.0
 40
3.5
 41
0.0
 46
0.0
 71
     7
 72
     1
  1
43
  7
CONVERTER_11
 11
0.9999999999970619
 21
2.424068405545306E-6
 31
0.0
 73
     1
 44
0.60024009603842
  0
ENDBLK
  5
2D8
330
2D0
100
AcDbEntity
  8
0
100
AcDbBlockEnd
  0
BLOCK
  5
2E4
330
2DB
100
AcDbEntity
  8
0
100
AcDbBlockBegin
  2
*D5
 70
     1
 10
0.0
 20
0.0
 30
0.0
  3
*D5
  1

  0
LINE
  5
2DC
330
2DB
100
AcDbEntity
  8
1
  6
Continuous
 62
     2
100
AcDbLine
 10
3682.97619274792
 20
740.866750759272
 30
0.0
 11
3689.97619274792
 21
740.866750759272
 31
0.0
  0
LINE
  5
2DD
330
2DB
100
AcDbEntity
  8
1
  6
Continuous
 62
     2
100
AcDbLine
 10
3689.97619274792
 20
740.866750759272
 30
0.0
 11
3693.47619274792
 21
740.866750759272
 31
0.0
  0
LINE
  5
2DE
330
2DB
100
AcDbEntity
  8
1
  6
Continuous
 62
     2
100
AcDbLine
 10
3693.47619274792
 20
740.866750759272
 30
0.0
 11
3700.47619274792
 21
740.866750759272
 31
0.0
  0
LINE
  5
2DF
330
2DB
100
AcDbEntity
  8
1
  6
Continuous
 62
     2
100
AcDbLine
 10
3689.97619274792
 20
750.5674717904507
 30
0.0
 11
3689.97619274792
 21
738.866750759272
 31
0.0
  0
LINE
  5
2E0
330
2DB
100
AcDbEntity
  8
1
  6
Continuous
 62
     2
100
AcDbLine
 10
3693.47619274792
 20
750.3674717906507
 30
0.0
 11
3693.47619274792
 21
738.866750759272
 31
0.0
  0
SOLID
  5
2E1
330
2DB
100
AcDbEntity
  8
1
 62
     2
100
AcDbTrace
 10
3686.47619274792
 20
740.4059670177161
 30
0.0
 11
3686.47619274792
 21
741.3275345008279
 31
0.0
 12
3689.97619274792
 22
740.866750759272
 32
0.0
 13
3689.97619274792
 23
740.866750759272
 33
0.0
  0
SOLID
  5
2E2
330
2DB
100
AcDbEntity
  8
1
 62
     2
100
AcDbTrace
 10
3696.97619274792
 20
741.3275345008279
 30
0.0
 11
3696.97619274792
 21
740.4059670177161
 31
0.0
 12
3693.47619274792
 22
740.866750759272
 32
0.0
 13
3693.47619274792
 23
740.866750759272
 33
0.0
  0
MTEXT
  5
2E3
330
2DB
100
AcDbEntity
  8
1
 62
     2
100
AcDbMText
 10
3688.49819782743
 20
734.249609400324
 30
0.0
 40
3.5
 41
0.0
 46
0.0
 71
     7
 72
     1
  1
3.5
  7
CONVERTER_11
 11
0.9999999999970619
 21
2.424068405545306E-6
 31
0.0
 73
     1
 44
0.60024009603842
  0
ENDBLK
  5
2E5
330
2DB
100
AcDbEntity
  8
0
100
AcDbBlockEnd
  0
BLOCK
  5
2EF
330
2E8
100
AcDbEntity
  8
0
100
AcDbBlockBegin
  2
*D6
 70
     1
 10
0.0
 20
0.0
 30
0.0
  3
*D6
  1

  0
LINE
  5
2E9
330
2E8
100
AcDbEntity
  8
1
  6
Continuous
 62
     2
100
AcDbLine
 10
3626.1903227457
 20
797.3674717906507
 30
0.0
 11
3626.1903227457
 21
764.3674717906507
 31
0.0
  0
LINE
  5
2EA
330
2E8
100
AcDbEntity
  8
1
  6
Continuous
 62
     2
100
AcDbLine
 10
3659.17619274792
 20
797.3674717906507
 30
0.0
 11
3624.1903227457
 21
797.3674717906507
 31
0.0
  0
LINE
  5
2EB
330
2E8
100
AcDbEntity
  8
1
  6
Continuous
 62
     2
100
AcDbLine
 10
3675.97619274792
 20
764.3674717906507
 30
0.0
 11
3624.1903227457
 21
764.3674717906507
 31
0.0
  0
SOLID
  5
2EC
330
2E8
100
AcDbEntity
  8
1
 62
     2
100
AcDbTrace
 10
3626.651106487256
 20
793.8674717906507
 30
0.0
 11
3625.729539004144
 21
793.8674717906507
 31
0.0
 12
3626.1903227457
 22
797.3674717906507
 32
0.0
 13
3626.1903227457
 23
797.3674717906507
 33
0.0
  0
SOLID
  5
2ED
330
2E8
100
AcDbEntity
  8
1
 62
     2
100
AcDbTrace
 10
3625.729539004144
 20
767.8674717906507
 30
0.0
 11
3626.651106487256
 21
767.8674717906507
 31
0.0
 12
3626.1903227457
 22
764.3674717906507
 32
0.0
 13
3626.1903227457
 23
764.3674717906507
 33
0.0
  0
MTEXT
  5
2EE
330
2E8
100
AcDbEntity
  8
1
 62
     2
100
AcDbMText
 10
3624.1903227457
 20
779.290764086678
 30
0.0
 40
3.5
 41
0.0
 46
0.0
 71
     7
 72
     1
  1
33
  7
CONVERTER_11
 11
0.0
 21
1.0
 31
0.0
 73
     1
 44
0.60024009603842
  0
ENDBLK
  5
2F0
330
2E8
100
AcDbEntity
  8
0
100
AcDbBlockEnd
  0
BLOCK
  5
2FA
330
2F3
100
AcDbEntity
  8
0
100
AcDbBlockBegin
  2
*D7
 70
     1
 10
0.0
 20
0.0
 30
0.0
  3
*D7
  1

  0
LINE
  5
2F4
330
2F3
100
AcDbEntity
  8
1
  6
Continuous
 62
     2
100
AcDbLine
 10
3626.1903227457
 20
764.3674717906507
 30
0.0
 11
3626.1903227457
 21
750.3674717906497
 31
0.0
  0
LINE
  5
2F5
330
2F3
100
AcDbEntity
  8
1
  6
Continuous
 62
     2
100
AcDbLine
 10
3675.97619274792
 20
764.3674717906507
 30
0.0
 11
3624.1903227457
 21
764.3674717906507
 31
0.0
  0
LINE
  5
2F6
330
2F3
100
AcDbEntity
  8
1
  6
Continuous
 62
     2
100
AcDbLine
 10
3641.19036470365
 20
750.3674717906497
 30
0.0
 11
3624.1903227457
 21
750.3674717906497
 31
0.0
  0
SOLID
  5
2F7
330
2F3
100
AcDbEntity
  8
1
 62
     2
100
AcDbTrace
 10
3626.651106487256
 20
760.8674717906507
 30
0.0
 11
3625.729539004144
 21
760.8674717906507
 31
0.0
 12
3626.1903227457
 22
764.3674717906507
 32
0.0
 13
3626.1903227457
 23
764.3674717906507
 33
0.0
  0
SOLID
  5
2F8
330
2F3
100
AcDbEntity
  8
1
 62
     2
100
AcDbTrace
 10
3625.729539004144
 20
753.8674717906497
 30
0.0
 11
3626.651106487256
 21
753.8674717906497
 31
0.0
 12
3626.1903227457
 22
750.3674717906497
 32
0.0
 13
3626.1903227457
 23
750.3674717906497
 33
0.0
  0
MTEXT
  5
2F9
330
2F3
100
AcDbEntity
  8
1
 62
     2
100
AcDbMText
 10
3624.1903227457
 20
755.2674717906501
 30
0.0
 40
3.5
 41
0.0
 46
0.0
 71
     7
 72
     1
  1
14
  7
CONVERTER_11
 11
0.0
 21
1.0
 31
0.0
 73
     1
 44
0.60024009603842
  0
ENDBLK
  5
2FB
330
2F3
100
AcDbEntity
  8
0
100
AcDbBlockEnd
  0
BLOCK
  5
307
330
2FE
100
AcDbEntity
  8
0
100
AcDbBlockBegin
  2
*D8
 70
     1
 10
0.0
 20
0.0
 30
0.0
  3
*D8
  1

  0
LINE
  5
2FF
330
2FE
100
AcDbEntity
  8
1
  6
Continuous
 62
     2
100
AcDbLine
 10
3760.28670900197
 20
743.3674717906507
 30
0.0
 11
3760.28670900197
 21
750.3674717906507
 31
0.0
  0
LINE
  5
300
330
2FE
100
AcDbEntity
  8
1
  6
Continuous
 62
     2
100
AcDbLine
 10
3760.28670900197
 20
750.3674717906507
 30
0.0
 11
3760.28670900197
 21
754.3674717906507
 31
0.0
  0
LINE
  5
301
330
2FE
100
AcDbEntity
  8
1
  6
Continuous
 62
     2
100
AcDbLine
 10
3760.28670900197
 20
754.3674717906507
 30
0.0
 11
3760.28670900197
 21
761.3674717906507
 31
0.0
  0
LINE
  5
302
330
2FE
100
AcDbEntity
  8
1
  6
Continuous
 62
     2
100
AcDbLine
 10
3742.89573629599
 20
750.3674717906507
 30
0.0
 11
3762.28670900197
 21
750.3674717906507
 31
0.0
  0
LINE
  5
303
330
2FE
100
AcDbEntity
  8
1
  6
Continuous
 62
     2
100
AcDbLine
 10
3713.47619274792
 20
754.3674717906507
 30
0.0
 11
3762.28670900197
 21
754.3674717906507
 31
0.0
  0
SOLID
  5
304
330
2FE
100
AcDbEntity
  8
1
 62
     2
100
AcDbTrace
 10
3760.747492743526
 20
746.8674717906507
 30
0.0
 11
3759.825925260414
 21
746.8674717906507
 31
0.0
 12
3760.28670900197
 22
750.3674717906507
 32
0.0
 13
3760.28670900197
 23
750.3674717906507
 33
0.0
  0
SOLID
  5
305
330
2FE
100
AcDbEntity
  8
1
 62
     2
100
AcDbTrace
 10
3759.825925260414
 20
757.8674717906507
 30
0.0
 11
3760.747492743526
 21
757.8674717906507
 31
0.0
 12
3760.28670900197
 22
754.3674717906507
 32
0.0
 13
3760.28670900197
 23
754.3674717906507
 33
0.0
  0
MTEXT
  5
306
330
2FE
100
AcDbEntity
  8
1
 62
     2
100
AcDbMText
 10
3758.28670900197
 20
744.32895429188
 30
0.0
 40
3.5
 41
0.0
 46
0.0
 71
     7
 72
     1
  1
4
  7
CONVERTER_11
 11
0.0
 21
1.0
 31
0.0
 73
     1
 44
0.60024009603842
  0
ENDBLK
  5
308
330
2FE
100
AcDbEntity
  8
0
100
AcDbBlockEnd
  0
BLOCK
  5
312
330
30B
100
AcDbEntity
  8
0
100
AcDbBlockBegin
  2
*D9
 70
     1
 10
0.0
 20
0.0
 30
0.0
  3
*D9
  1

  0
LINE
  5
30C
330
30B
100
AcDbEntity
  8
1
  6
Continuous
 62
     2
100
AcDbLine
 10
3760.28670900197
 20
754.3674717906507
 30
0.0
 11
3760.28670900197
 21
786.3674717906507
 31
0.0
  0
LINE
  5
30D
330
30B
100
AcDbEntity
  8
1
  6
Continuous
 62
     2
100
AcDbLine
 10
3713.47619274792
 20
754.3674717906507
 30
0.0
 11
3762.28670900197
 21
754.3674717906507
 31
0.0
  0
LINE
  5
30E
330
30B
100
AcDbEntity
  8
1
  6
Continuous
 62
     2
100
AcDbLine
 10
3736.47619274792
 20
786.3674717906507
 30
0.0
 11
3762.28670900197
 21
786.3674717906507
 31
0.0
  0
SOLID
  5
30F
330
30B
100
AcDbEntity
  8
1
 62
     2
100
AcDbTrace
 10
3759.825925260414
 20
757.8674717906507
 30
0.0
 11
3760.747492743526
 21
757.8674717906507
 31
0.0
 12
3760.28670900197
 22
754.3674717906507
 32
0.0
 13
3760.28670900197
 23
754.3674717906507
 33
0.0
  0
SOLID
  5
310
330
30B
100
AcDbEntity
  8
1
 62
     2
100
AcDbTrace
 10
3760.747492743526
 20
782.8674717906507
 30
0.0
 11
3759.825925260414
 21
782.8674717906507
 31
0.0
 12
3760.28670900197
 22
786.3674717906507
 32
0.0
 13
3760.28670900197
 23
786.3674717906507
 33
0.0
  0
MTEXT
  5
311
330
30B
100
AcDbEntity
  8
1
 62
     2
100
AcDbMText
 10
3758.28670900197
 20
767.7424717906507
 30
0.0
 40
3.5
 41
0.0
 46
0.0
 71
     7
 72
     1
  1
32
  7
CONVERTER_11
 11
0.0
 21
1.0
 31
0.0
 73
     1
 44
0.60024009603842
  0
ENDBLK
  5
313
330
30B
100
AcDbEntity
  8
0
100
AcDbBlockEnd
  0
ENDSEC
  0
SECTION
  2
ENTITIES
  0
POINT
  5
51
330
1F
100
AcDbEntity
  8
1
 62
     3
 60
     1
100
AcDbPoint
 10
3641.19036470365
 20
750.3674717906497
 30
0.0
  0
POINT
  5
52
330
1F
100
AcDbEntity
  8
1
 62
     3
 60
     1
100
AcDbPoint
 10
3699.974170561626
 20
830.200081608017
 30
0.0
  0
POINT
  5
53
330
1F
100
AcDbEntity
  8
A_BEMASSUNGEN
 62
     7
100
AcDbPoint
 10
3680.47619274792
 20
765.3674717906507
 30
0.0
  0
POINT
  5
54
330
1F
100
AcDbEntity
  8
A_BEMASSUNGEN
 62
     7
100
AcDbPoint
 10
3673.16664484472
 20
793.0050027677507
 30
0.0
  0
POINT
  5
55
330
1F
100
AcDbEntity
  8
A_BEMASSUNGEN
 62
     7
100
AcDbPoint
 10
3665.49178268782
 20
788.1155763318508
 30
0.0
  0
POINT
  5
56
330
1F
100
AcDbEntity
  8
A_BEMASSUNGEN
 62
     7
100
AcDbPoint
 10
3670.40526273632
 20
793.6171864427507
 30
0.0
  0
POINT
  5
57
330
1F
100
AcDbEntity
  8
A_BEMASSUNGEN
 62
     7
100
AcDbPoint
 10
3689.97619274792
 20
774.8674717906507
 30
0.0
  0
POINT
  5
58
330
1F
100
AcDbEntity
  8
A_BEMASSUNGEN
 62
     7
100
AcDbPoint
 10
3702.59012421242
 20
767.4883948516507
 30
0.0
  0
POINT
  5
59
330
1F
100
AcDbEntity
  8
A_BEMASSUNGEN
 62
     7
100
AcDbPoint
 10
3693.22619274792
 20
785.5674717906508
 30
0.0
  0
POINT
  5
5A
330
1F
100
AcDbEntity
  8
A_BEMASSUNGEN
 62
     7
100
AcDbPoint
 10
3677.71129112672
 20
793.8674717906507
 30
0.0
  0
POINT
  5
5B
330
1F
100
AcDbEntity
  8
A_BEMASSUNGEN
 62
     7
100
AcDbPoint
 10
3709.89396070402
 20
766.2753839939508
 30
0.0
  0
POINT
  5
5C
330
1F
100
AcDbEntity
  8
A_BEMASSUNGEN
 62
     7
100
AcDbPoint
 10
3705.41957996872
 20
758.8773904685507
 30
0.0
  0
POINT
  5
5D
330
1F
100
AcDbEntity
  8
A_BEMASSUNGEN
 62
     7
100
AcDbPoint
 10
3713.47619274792
 20
754.3674717906507
 30
0.0
  0
POINT
  5
5E
330
1F
100
AcDbEntity
  8
A_BEMASSUNGEN
 62
     7
100
AcDbPoint
 10
3713.47619274792
 20
754.3674717906507
 30
0.0
  0
POINT
  5
5F
330
1F
100
AcDbEntity
  8
A_BEMASSUNGEN
 62
     7
100
AcDbPoint
 10
3730.47619274792
 20
771.6067764432507
 30
0.0
  0
LINE
  5
60
330
1F
100
AcDbEntity
  8
1
  6
DOT_CENTER
 62
     2
100
AcDbLine
 10
3641.19036470365
 20
830.200081608017
 30
0.0
 11
3641.19036470365
 21
834.681875588616
 31
0.0
  0
LINE
  5
61
330
1F
100
AcDbEntity
  8
1
  6
DOT_CENTER
 62
     2
100
AcDbLine
 10
3641.19036470365
 20
830.200081608017
 30
0.0
 11
3637.4558913046
 21
830.200081608017
 31
0.0
  0
LINE
  5
62
330
1F
100
AcDbEntity
  8
1
  6
DOT_CENTER
 62
     2
100
AcDbLine
 10
3641.19036470365
 20
750.3674717906497
 30
0.0
 11
3641.19036470365
 21
752.3674717906507
 31
0.0
  0
LINE
  5
63
330
1F
100
AcDbEntity
  8
1
  6
DOT_CENTER
 62
     2
100
AcDbLine
 10
3641.19036470365
 20
752.3674717906507
 30
0.0
 11
3641.19036470365
 21
752.8674717906507
 31
0.0
  0
LINE
  5
64
330
1F
100
AcDbEntity
  8
1
  6
DOT_CENTER
 62
     2
100
AcDbLine
 10
3641.19036470365
 20
752.8674717906507
 30
0.0
 11
3641.19036470365
 21
830.200081608017
 31
0.0
  0
LINE
  5
65
330
1F
100
AcDbEntity
  8
1
  6
DOT_CENTER
 62
     2
100
AcDbLine
 10
3699.974170561626
 20
830.200081608017
 30
0.0
 11
3700.28078405981
 21
830.200081608017
 31
0.0
  0
LINE
  5
66
330
1F
100
AcDbEntity
  8
1
  6
DOT_CENTER
 62
     2
100
AcDbLine
 10
3700.28078405981
 20
830.200081608017
 30
0.0
 11
3702.47619274792
 21
830.200081608017
 31
0.0
  0
LINE
  5
67
330
1F
100
AcDbEntity
  8
1
  6
DOT_CENTER
 62
     2
100
AcDbLine
 10
3702.47619274792
 20
830.200081608017
 30
0.0
 11
3706.15642369075
 21
830.200081608017
 31
0.0
  0
LINE
  5
68
330
1F
100
AcDbEntity
  8
1
  6
DOT_CENTER
 62
     2
100
AcDbLine
 10
3641.19036470365
 20
830.200081608017
 30
0.0
 11
3699.974170561626
 21
830.200081608017
 31
0.0
  0
LINE
  5
69
330
1F
100
AcDbEntity
  8
1
  6
DOT_CENTER
 62
     2
100
AcDbLine
 10
3641.19036470365
 20
748.121810398716
 30
0.0
 11
3641.19036470365
 21
750.3674717906497
 31
0.0
  0
LINE
  5
10F
330
1F
100
AcDbEntity
  8
0
  6
Continuous
 62
     7
100
AcDbLine
 10
3702.47619274792
 20
830.200081608017
 30
0.0
 11
3702.47619274792
 21
800.6674717906507
 31
0.0
  0
LINE
  5
110
330
1F
100
AcDbEntity
  8
en_0_20
  6
Continuous
 62
     7
100
AcDbLine
 10
3699.974170561626
 20
830.200081608017
 30
0.0
 11
3699.97417056162
 21
809.1003176041997
 31
0.0
  0
LINE
  5
111
330
1F
100
AcDbEntity
  8
en_0_20
  6
Continuous
 62
     7
100
AcDbLine
 10
3700.28078405981
 20
830.200081608017
 30
0.0
 11
3700.28078405981
 21
810.0602717056307
 31
0.0
  0
LINE
  5
112
330
1F
100
AcDbEntity
  8
en_0_20
  6
Continuous
 62
     7
100
AcDbLine
 10
3701.41485716165
 20
809.3396739982207
 30
0.0
 11
3701.00124710647
 21
809.3398086589717
 31
0.0
  0
LINE
  5
113
330
1F
100
AcDbEntity
  8
en_0_20
  6
Continuous
 62
     7
100
AcDbLine
 10
3701.03382539686
 20
809.0002718179896
 30
0.0
 11
3701.41474662069
 21
809.0001477998777
 31
0.0
  0
LINE
  5
114
330
1F
100
AcDbEntity
  8
Dichtungen
  6
Continuous
 62
     7
100
AcDbLine
 10
3701.41474662069
 20
809.0001477998777
 30
0.0
 11
3701.41485720549
 21
809.3398086589717
 31
0.0
  0
LINE
  5
115
330
1F
100
AcDbEntity
  8
0
  6
Continuous
 62
     7
100
AcDbLine
 10
3641.19036470365
 20
750.3674717906497
 30
0.0
 11
3689.77619274812
 21
750.3674717906497
 31
0.0
  0
LINE
  5
116
330
1F
100
AcDbEntity
  8
en_0_20
  6
Continuous
 62
     7
100
AcDbLine
 10
3688.47619274792
 20
752.3674717906507
 30
0.0
 11
3641.19036470365
 21
752.3674717906507
 31
0.0
  0
LINE
  5
117
330
1F
100
AcDbEntity
  8
PROFILI
  6
Continuous
 62
     3
100
AcDbLine
 10
3689.97939078424
 20
800.1674717906507
 30
0.0
 11
3689.97939078424
 21
797.5674717906506
 31
0.0
  0
LINE
  5
118
330
1F
100
AcDbEntity
  8
0
  6
Continuous
 62
     7
100
AcDbLine
 10
3659.17619274792
 20
763.3674717906497
 30
0.0
 11
3689.97619274792
 21
763.3674717906487
 31
0.0
  0
LINE
  5
119
330
1F
100
AcDbEntity
  8
0
  6
Continuous
 62
     7
100
AcDbLine
 10
3659.17619274792
 20
797.3674717906507
 30
0.0
 11
3689.97619274792
 21
797.3674717906497
 31
0.0
  0
LINE
  5
11A
330
1F
100
AcDbEntity
  8
0
  6
Continuous
 62
     7
100
AcDbLine
 10
3689.97619274792
 20
763.1674717906507
 30
0.0
 11
3689.97619274792
 21
763.0491441320597
 31
0.0
  0
LINE
  5
11B
330
1F
100
AcDbEntity
  8
0
  6
Continuous
 62
     7
100
AcDbLine
 10
3688.47619274792
 20
752.8674717906507
 30
0.0
 11
3641.19036470365
 21
752.8674717906507
 31
0.0
  0
LINE
  5
11C
330
1F
100
AcDbEntity
  8
Profile
  6
Continuous
 62
     7
100
AcDbLine
 10
3689.97619274792
 20
763.0491441320597
 30
0.0
 11
3689.65786508933
 21
763.3674717906517
 31
0.0
  0
LINE
  5
11D
330
1F
100
AcDbEntity
  8
lienien
  6
Continuous
 62
     7
100
AcDbLine
 10
3695.76087188189
 20
809.1003176041997
 30
0.0
 11
3699.97417056162
 21
809.1003176041997
 31
0.0
  0
LINE
  5
11E
330
1F
100
AcDbEntity
  8
lienien
  6
Continuous
 62
     7
100
AcDbLine
 10
3695.37295413026
 20
809.4999486804887
 30
0.0
 11
3695.37295413026
 21
809.6294670841797
 31
0.0
  0
LINE
  5
11F
330
1F
100
AcDbEntity
  8
lienien
  6
Continuous
 62
     7
100
AcDbLine
 10
3695.76173619245
 20
810.0290981604567
 30
0.0
 11
3698.97295403083
 21
810.0289562048127
 31
0.0
  0
LINE
  5
120
330
1F
100
AcDbEntity
  8
lienien
  6
Continuous
 62
     7
100
AcDbLine
 10
3698.97295403083
 20
810.0289562048127
 30
0.0
 11
3698.97295403083
 21
810.3971438132187
 31
0.0
  0
LINE
  5
121
330
1F
100
AcDbEntity
  8
lienien
  6
Continuous
 62
     7
100
AcDbLine
 10
3698.97295403083
 20
810.3971438132187
 30
0.0
 11
3695.80391912983
 21
810.3971438132177
 31
0.0
  0
LINE
  5
122
330
1F
100
AcDbEntity
  8
lienien
  6
Continuous
 62
     7
100
AcDbLine
 10
3695.82765969794
 20
811.4050022489597
 30
0.0
 11
3696.07123507972
 21
811.4050022489597
 31
0.0
  0
LINE
  5
123
330
1F
100
AcDbEntity
  8
lienien
  6
Continuous
 62
     7
100
AcDbLine
 10
3697.78262555557
 20
811.3986270756197
 30
0.0
 11
3698.97295413025
 21
811.3987609354107
 31
0.0
  0
LINE
  5
124
330
1F
100
AcDbEntity
  8
lienien
  6
Continuous
 62
     7
100
AcDbLine
 10
3698.97295413025
 20
811.3987609354107
 30
0.0
 11
3698.97295413025
 21
813.4987609354107
 31
0.0
  0
LINE
  5
125
330
1F
100
AcDbEntity
  8
lienien
  6
Continuous
 62
     7
100
AcDbLine
 10
3698.97295413025
 20
813.4987609354107
 30
0.0
 11
3696.67295413025
 21
813.4987609354107
 31
0.0
  0
LINE
  5
126
330
1F
100
AcDbEntity
  8
lienien
  6
Continuous
 62
     7
100
AcDbLine
 10
3696.67295413025
 20
812.7631918955167
 30
0.0
 11
3696.67295413025
 21
813.4987609354107
 31
0.0
  0
LINE
  5
127
330
1F
100
AcDbEntity
  8
lienien
  6
Continuous
 62
     7
100
AcDbLine
 10
3696.30300544218
 20
814.2992737491587
 30
0.0
 11
3698.92278027131
 21
814.2992737491587
 31
0.0
  0
LINE
  5
128
330
1F
100
AcDbEntity
  8
lienien
  6
Continuous
 62
     7
100
AcDbLine
 10
3698.92278027131
 20
814.2992737491587
 30
0.0
 11
3699.14461129365
 21
814.6447806156467
 31
0.0
  0
LINE
  5
129
330
1F
100
AcDbEntity
  8
lienien
  6
Continuous
 62
     7
100
AcDbLine
 10
3699.14461129365
 20
814.6447806156467
 30
0.0
 11
3699.81457665395
 21
814.6447806156467
 31
0.0
  0
LINE
  5
12A
330
1F
100
AcDbEntity
  8
lienien
  6
Continuous
 62
     7
100
AcDbLine
 10
3699.81457665395
 20
814.6447806156467
 30
0.0
 11
3699.97417056162
 21
814.4741469065267
 31
0.0
  0
LINE
  5
12B
330
1F
100
AcDbEntity
  8
lienien
  6
Continuous
 62
     7
100
AcDbLine
 10
3699.97417056162
 20
814.4741469065267
 30
0.0
 11
3699.97417056162
 21
809.1003176041997
 31
0.0
  0
LINE
  5
12C
330
1F
100
AcDbEntity
  8
lienien
  6
Continuous
 62
     7
100
AcDbLine
 10
3695.53400018891
 20
811.0868359645197
 30
0.0
 11
3695.82744884273
 21
811.4047998497327
 31
0.0
  0
LINE
  5
12D
330
1F
100
AcDbEntity
  8
lienien
  6
Continuous
 62
     7
100
AcDbLine
 10
3695.94178247468
 20
813.5037148244887
 30
0.0
 11
3696.43223425368
 21
812.6142546962627
 31
0.0
  0
LINE
  5
12E
330
1F
100
AcDbEntity
  8
1
  6
Continuous
 62
     7
100
AcDbLine
 10
3689.97619274792
 20
764.3674717906507
 30
0.0
 11
3689.97619274792
 21
763.3674717906487
 31
0.0
  0
LINE
  5
12F
330
1F
100
AcDbEntity
  8
A_ACHSEN
  6
Continuous
 62
     7
100
AcDbLine
 10
3677.87082778552
 20
772.4066857768507
 30
0.0
 11
3680.968890776519
 21
774.3803695745684
 31
0.0
  0
LINE
  5
130
330
1F
100
AcDbEntity
  8
A_ACHSEN
  6
Continuous
 62
     7
100
AcDbLine
 10
3670.40526273632
 20
793.6171864427507
 30
0.0
 11
3666.10396636272
 21
790.8769584401507
 31
0.0
  0
LINE
  5
131
330
1F
100
AcDbEntity
  8
A_ACHSEN
  6
Continuous
 62
     7
100
AcDbLine
 10
3665.49178268782
 20
788.1155763318508
 30
0.0
 11
3675.10944567722
 21
773.0188694517507
 31
0.0
  0
LINE
  5
132
330
1F
100
AcDbEntity
  8
1
  6
DOT_CENTER
 62
     2
100
AcDbLine
 10
3667.817881958842
 20
792.9326052901872
 30
0.0
 11
3680.608161309005
 21
772.8558882666952
 31
0.0
  0
LINE
  5
133
330
1F
100
AcDbEntity
  8
0
  6
Continuous
 62
     7
100
AcDbLine
 10
3678.97619274792
 20
765.3674717906507
 30
0.0
 11
3689.97619274792
 21
765.3674717906507
 31
0.0
  0
LINE
  5
134
330
1F
100
AcDbEntity
  8
0
  6
Continuous
 62
     7
100
AcDbLine
 10
3663.47619274792
 20
774.3674717906507
 30
0.0
 11
3663.47619274792
 21
792.3674717906507
 31
0.0
  0
LINE
  5
135
330
1F
100
AcDbEntity
  8
0
  6
Continuous
 62
     7
100
AcDbLine
 10
3672.47619274792
 20
771.8674717906507
 30
0.0
 11
3663.47619274792
 21
774.3674717906507
 31
0.0
  0
LINE
  5
136
330
1F
100
AcDbEntity
  8
0
  6
Continuous
 62
     7
100
AcDbLine
 10
3672.47619274792
 20
771.8674717906507
 30
0.0
 11
3674.97619274792
 21
771.8674717906507
 31
0.0
  0
LINE
  5
137
330
1F
100
AcDbEntity
  8
A_RUNDUNGEN
  6
Continuous
 62
     7
100
AcDbLine
 10
3678.97619274792
 20
767.8674717906507
 30
0.0
 11
3678.97619274792
 21
765.3674717906507
 31
0.0
  0
LINE
  5
138
330
1F
100
AcDbEntity
  8
A_RUNDUNGEN
  6
DASHED
 62
     2
100
AcDbLine
 10
3673.16664484472
 20
793.0050027677507
 30
0.0
 11
3676.507147156518
 21
787.7614644686065
 31
0.0
  0
LINE
  5
139
330
1F
100
AcDbEntity
  8
0
  6
Continuous
 62
     7
100
AcDbLine
 10
3689.97619274792
 20
764.3674717906507
 30
0.0
 11
3689.97619274792
 21
775.690347446183
 31
0.0
  0
LINE
  5
13A
330
1F
100
AcDbEntity
  8
0
  6
Continuous
 62
     7
100
AcDbLine
 10
3663.47619274792
 20
792.3674717906507
 30
0.0
 11
3672.47619274792
 21
794.8674717906507
 31
0.0
  0
LINE
  5
13B
330
1F
100
AcDbEntity
  8
0
  6
Continuous
 62
     7
100
AcDbLine
 10
3672.47619274792
 20
794.8674717906507
 30
0.0
 11
3689.97619274792
 21
794.8674717906507
 31
0.0
  0
LINE
  5
13C
330
1F
100
AcDbEntity
  8
0
  6
Continuous
 62
     7
100
AcDbLine
 10
3659.97619274792
 20
769.3674717906507
 30
0.0
 11
3659.97619274792
 21
797.3674717906507
 31
0.0
  0
LINE
  5
13D
330
1F
100
AcDbEntity
  8
0
  6
Continuous
 62
     7
100
AcDbLine
 10
3660.97619274792
 20
795.6258020398508
 30
0.0
 11
3660.97619274792
 21
771.1091415415507
 31
0.0
  0
LINE
  5
13E
330
1F
100
AcDbEntity
  8
0
  6
Continuous
 62
     7
100
AcDbLine
 10
3662.97619274792
 20
772.8896131223507
 30
0.0
 11
3662.97619274792
 21
793.8238782512507
 31
0.0
  0
LINE
  5
13F
330
1F
100
AcDbEntity
  8
0
  6
Continuous
 62
     7
100
AcDbLine
 10
3689.97619274792
 20
764.3674717906507
 30
0.0
 11
3675.97619274792
 21
764.3674717906507
 31
0.0
  0
LINE
  5
140
330
1F
100
AcDbEntity
  8
0
  6
Continuous
 62
     7
100
AcDbLine
 10
3667.47619274792
 20
769.3674717906507
 30
0.0
 11
3660.97619274792
 21
771.1091415415507
 31
0.0
  0
LINE
  5
141
330
1F
100
AcDbEntity
  8
0
  6
Continuous
 62
     7
100
AcDbLine
 10
3670.97619274792
 20
770.7460195828507
 30
0.0
 11
3662.97619274792
 21
772.8896131223507
 31
0.0
  0
LINE
  5
142
330
1F
100
AcDbEntity
  8
0
  6
Continuous
 62
     7
100
AcDbLine
 10
3675.47619274792
 20
769.3674717906507
 30
0.0
 11
3675.47619274792
 21
770.6674717906507
 31
0.0
  0
LINE
  5
143
330
1F
100
AcDbEntity
  8
0
  6
Continuous
 62
     7
100
AcDbLine
 10
3675.97619274792
 20
764.3674717906507
 30
0.0
 11
3675.97619274792
 21
769.3674717906507
 31
0.0
  0
LINE
  5
144
330
1F
100
AcDbEntity
  8
0
  6
Continuous
 62
     7
100
AcDbLine
 10
3675.47619274792
 20
770.6674717906507
 30
0.0
 11
3670.97619274792
 21
770.7460195828507
 31
0.0
  0
LINE
  5
145
330
1F
100
AcDbEntity
  8
0
  6
Continuous
 62
     7
100
AcDbLine
 10
3687.97619274792
 20
797.3674717906507
 30
0.0
 11
3687.97619274792
 21
797.0674717906508
 31
0.0
  0
LINE
  5
146
330
1F
100
AcDbEntity
  8
0
  6
Continuous
 62
     7
100
AcDbLine
 10
3689.97619274792
 20
794.8674717906507
 30
0.0
 11
3689.97619274792
 21
797.3674717906507
 31
0.0
  0
LINE
  5
147
330
1F
100
AcDbEntity
  8
0
  6
Continuous
 62
     7
100
AcDbLine
 10
3684.97619274792
 20
796.1674717906507
 30
0.0
 11
3687.97619274792
 21
797.0674717906508
 31
0.0
  0
LINE
  5
148
330
1F
100
AcDbEntity
  8
0
  6
Continuous
 62
     7
100
AcDbLine
 10
3670.97619274792
 20
795.9674717906507
 30
0.0
 11
3684.97619274792
 21
796.1674717906507
 31
0.0
  0
LINE
  5
149
330
1F
100
AcDbEntity
  8
0
  6
Continuous
 62
     3
100
AcDbLine
 10
3659.97619274792
 20
797.3674717906507
 30
0.0
 11
3667.47619274792
 21
797.3674717906507
 31
0.0
  0
LINE
  5
14A
330
1F
100
AcDbEntity
  8
0
  6
Continuous
 62
     7
100
AcDbLine
 10
3662.97619274792
 20
793.8238782512507
 30
0.0
 11
3670.97619274792
 21
795.9674717906507
 31
0.0
  0
LINE
  5
14B
330
1F
100
AcDbEntity
  8
0
  6
Continuous
 62
     7
100
AcDbLine
 10
3660.97619274792
 20
795.6258020398508
 30
0.0
 11
3667.47619274792
 21
797.3674717906507
 31
0.0
  0
LINE
  5
14C
330
1F
100
AcDbEntity
  8
0
  6
Continuous
 62
     7
100
AcDbLine
 10
3659.97619274792
 20
769.3674717906507
 30
0.0
 11
3667.47619274792
 21
769.3674717906507
 31
0.0
  0
LINE
  5
14D
330
1F
100
AcDbEntity
  8
0
  6
DASHED
 62
     2
100
AcDbLine
 10
3689.97619274792
 20
775.690347446183
 30
0.0
 11
3689.97619274792
 21
788.9943991804561
 31
0.0
  0
LINE
  5
14E
330
1F
100
AcDbEntity
  8
0
  6
Continuous
 62
     7
100
AcDbLine
 10
3689.97619274792
 20
788.9943991804561
 30
0.0
 11
3689.97619274792
 21
794.8674717906507
 31
0.0
  0
LINE
  5
14F
330
1F
100
AcDbEntity
  8
A_ACHSEN
  6
DASHED
 62
     2
100
AcDbLine
 10
3680.968890776519
 20
774.3803695745684
 30
0.0
 11
3682.17212415912
 21
775.1469137794508
 31
0.0
  0
LINE
  5
150
330
1F
100
AcDbEntity
  8
A_RUNDUNGEN
  6
DASHED
 62
     2
100
AcDbLine
 10
3682.580215161002
 20
778.2286572131376
 30
0.0
 11
3682.78430783412
 21
777.9082958877507
 31
0.0
  0
LINE
  5
151
330
1F
100
AcDbEntity
  8
A_RUNDUNGEN
  6
Continuous
 62
     7
100
AcDbLine
 10
3676.507147156518
 20
787.7614644686065
 30
0.0
 11
3682.580215161002
 21
778.2286572131376
 31
0.0
  0
LINE
  5
152
330
1F
100
AcDbEntity
  8
0
  6
Continuous
 62
     7
100
AcDbLine
 10
3667.47619274792
 20
769.3674717906507
 30
0.0
 11
3675.47619274792
 21
769.3674717906507
 31
0.0
  0
LINE
  5
153
330
1F
100
AcDbEntity
  8
0
  6
Continuous
 62
     7
100
AcDbLine
 10
3675.47619274792
 20
769.3674717906507
 30
0.0
 11
3675.97619274792
 21
769.3674717906507
 31
0.0
  0
LINE
  5
154
330
1F
100
AcDbEntity
  8
0
  6
Continuous
 62
     7
100
AcDbLine
 10
3667.47619274792
 20
797.3674717906507
 30
0.0
 11
3687.97619274792
 21
797.3674717906507
 31
0.0
  0
LINE
  5
155
330
1F
100
AcDbEntity
  8
0
  6
Continuous
 62
     7
100
AcDbLine
 10
3687.97619274792
 20
797.3674717906507
 30
0.0
 11
3689.97619274792
 21
797.3674717906507
 31
0.0
  0
LINE
  5
156
330
1F
100
AcDbEntity
  8
A_RUNDUNGEN
  6
Continuous
 62
     7
100
AcDbLine
 10
3673.16123846392
 20
785.1940584294507
 30
0.0
 11
3683.29607903762
 21
792.9707951205507
 31
0.0
  0
LINE
  5
157
330
1F
100
AcDbEntity
  8
0
  6
Continuous
 62
     7
100
AcDbLine
 10
3684.61125628222
 20
788.1593613057507
 30
0.0
 11
3687.960879894446
 21
783.5489999254434
 31
0.0
  0
LINE
  5
158
330
1F
100
AcDbEntity
  8
A_RUNDUNGEN
  6
Continuous
 62
     7
100
AcDbLine
 10
3701.82548068592
 20
765.3613172117507
 30
0.0
 11
3705.41957996872
 21
758.8773904685507
 31
0.0
  0
LINE
  5
159
330
1F
100
AcDbEntity
  8
0
  6
Continuous
 62
     7
100
AcDbLine
 10
3691.53009655562
 20
786.5076332621508
 30
0.0
 11
3688.69359329242
 21
791.0469873760507
 31
0.0
  0
LINE
  5
15A
330
1F
100
AcDbEntity
  8
0
  6
Continuous
 62
     7
100
AcDbLine
 10
3699.76376978262
 20
772.5872732163507
 30
0.0
 11
3702.59012421242
 21
767.4883948516507
 31
0.0
  0
LINE
  5
15B
330
1F
100
AcDbEntity
  8
0
  6
Continuous
 62
     7
100
AcDbLine
 10
3696.72619274792
 20
785.5674717906508
 30
0.0
 11
3693.22619274792
 21
785.5674717906508
 31
0.0
  0
LINE
  5
15C
330
1F
100
AcDbEntity
  8
0
  6
Continuous
 62
     7
100
AcDbLine
 10
3701.82548068592
 20
765.3613172117507
 30
0.0
 11
3697.07441057012
 21
763.1458568323507
 31
0.0
  0
LINE
  5
15D
330
1F
100
AcDbEntity
  8
A_RUNDUNGEN
  6
Continuous
 62
     7
100
AcDbLine
 10
3701.82548068592
 20
765.3613172117507
 30
0.0
 11
3701.91212204432
 21
765.4017187406507
 31
0.0
  0
LINE
  5
15E
330
1F
100
AcDbEntity
  8
0
  6
Continuous
 62
     7
100
AcDbLine
 10
3709.89396070402
 20
766.2753839939508
 30
0.0
 11
3702.654774186756
 21
779.3352221804028
 31
0.0
  0
LINE
  5
15F
330
1F
100
AcDbEntity
  8
A_RUNDUNGEN
  6
Continuous
 62
     7
100
AcDbLine
 10
3677.71129112672
 20
793.8674717906507
 30
0.0
 11
3683.60530471542
 21
793.8674717906507
 31
0.0
  0
LINE
  5
160
330
1F
100
AcDbEntity
  8
0
  6
Continuous
 62
     7
100
AcDbLine
 10
3676.41265344312
 20
793.7252478333507
 30
0.0
 11
3669.86043429222
 21
792.2726558191507
 31
0.0
  0
LINE
  5
161
330
1F
100
AcDbEntity
  8
A_RUNDUNGEN
  6
Continuous
 62
     7
100
AcDbLine
 10
3700.87797492572
 20
754.9890867489507
 30
0.0
 11
3707.18195203162
 21
757.9286795502508
 31
0.0
  0
LINE
  5
162
330
1F
100
AcDbEntity
  8
0
  6
DASHED
 62
     2
100
AcDbLine
 10
3687.960879894446
 20
783.5489999254434
 30
0.0
 11
3691.68110777602
 21
778.4285455291507
 31
0.0
  0
LINE
  5
163
330
1F
100
AcDbEntity
  8
0
  6
DASHED
 62
     2
100
AcDbLine
 10
3702.654774186756
 20
779.3352221804028
 30
0.0
 11
3700.39959551792
 21
783.4036721956508
 31
0.0
  0
LINE
  5
164
330
1F
100
AcDbEntity
  8
1
  6
DOT_CENTER
 62
     2
100
AcDbLine
 10
3676.626192747927
 20
788.3674717906507
 30
0.0
 11
3664.826192747913
 21
788.3674717906507
 31
0.0
  0
LINE
  5
165
330
1F
100
AcDbEntity
  8
1
  6
DOT_CENTER
 62
     2
100
AcDbLine
 10
3670.72619274792
 20
794.2674717906581
 30
0.0
 11
3670.72619274792
 21
782.4674717906435
 31
0.0
  0
LINE
  5
166
330
1F
100
AcDbEntity
  8
1
  6
DOT_CENTER
 62
     2
100
AcDbLine
 10
3705.426192747939
 20
759.0674717906508
 30
0.0
 11
3692.5261927479
 21
759.0674717906508
 31
0.0
  0
LINE
  5
167
330
1F
100
AcDbEntity
  8
1
  6
DOT_CENTER
 62
     2
100
AcDbLine
 10
3698.97619274792
 20
765.5174717906704
 30
0.0
 11
3698.97619274792
 21
752.6174717906312
 31
0.0
  0
LINE
  5
168
330
1F
100
AcDbEntity
  8
1
  6
Continuous
 62
     7
100
AcDbLine
 10
3693.47619274792
 20
754.4674717906507
 30
0.0
 11
3693.47619274792
 21
754.3674717906507
 31
0.0
  0
LINE
  5
169
330
1F
100
AcDbEntity
  8
0
  6
Continuous
 62
     7
100
AcDbLine
 10
3700.97619274792
 20
785.8674717906507
 30
0.0
 11
3700.97619274792
 21
786.3674717906507
 31
0.0
  0
LINE
  5
16A
330
1F
100
AcDbEntity
  8
0
  6
Continuous
 62
     7
100
AcDbLine
 10
3704.97619274792
 20
785.0674717906508
 30
0.0
 11
3700.97619274792
 21
785.8674717906507
 31
0.0
  0
LINE
  5
16B
330
1F
100
AcDbEntity
  8
0
  6
Continuous
 62
     7
100
AcDbLine
 10
3723.67619274792
 20
784.7410620765507
 30
0.0
 11
3704.97619274792
 21
785.0674717906508
 31
0.0
  0
LINE
  5
16C
330
1F
100
AcDbEntity
  8
0
  6
Continuous
 62
     7
100
AcDbLine
 10
3713.47619274792
 20
754.3674717906507
 30
0.0
 11
3693.47619274792
 21
754.3674717906507
 31
0.0
  0
LINE
  5
16D
330
1F
100
AcDbEntity
  8
0
  6
Continuous
 62
     7
100
AcDbLine
 10
3726.67619274792
 20
760.0978786477507
 30
0.0
 11
3734.67619274792
 21
761.5978786477507
 31
0.0
  0
LINE
  5
16E
330
1F
100
AcDbEntity
  8
0
  6
Continuous
 62
     7
100
AcDbLine
 10
3725.97619274792
 20
758.3674717906507
 30
0.0
 11
3734.68495239932
 21
759.5914081413507
 31
0.0
  0
LINE
  5
16F
330
1F
100
AcDbEntity
  8
0
  6
Continuous
 62
     7
100
AcDbLine
 10
3713.47619274792
 20
759.8674717906507
 30
0.0
 11
3726.67619274792
 21
760.0978786477507
 31
0.0
  0
LINE
  5
170
330
1F
100
AcDbEntity
  8
0
  6
Continuous
 62
     7
100
AcDbLine
 10
3736.47619274792
 20
758.3674717906507
 30
0.0
 11
3725.97619274792
 21
758.3674717906507
 31
0.0
  0
LINE
  5
171
330
1F
100
AcDbEntity
  8
0
  6
Continuous
 62
     7
100
AcDbLine
 10
3734.68495239932
 20
785.1435354400508
 30
0.0
 11
3725.97619274792
 21
786.3674717906507
 31
0.0
  0
LINE
  5
172
330
1F
100
AcDbEntity
  8
0
  6
Continuous
 62
     7
100
AcDbLine
 10
3734.67619274792
 20
782.2410620765507
 30
0.0
 11
3723.67619274792
 21
784.7410620765507
 31
0.0
  0
LINE
  5
173
330
1F
100
AcDbEntity
  8
0
  6
Continuous
 62
     7
100
AcDbLine
 10
3713.47619274792
 20
754.3674717906507
 30
0.0
 11
3713.47619274792
 21
758.3674717906507
 31
0.0
  0
LINE
  5
174
330
1F
100
AcDbEntity
  8
0
  6
Continuous
 62
     7
100
AcDbLine
 10
3734.67619274792
 20
761.5978786477507
 30
0.0
 11
3734.67619274792
 21
782.2410620765507
 31
0.0
  0
LINE
  5
175
330
1F
100
AcDbEntity
  8
0
  6
Continuous
 62
     7
100
AcDbLine
 10
3735.97619274792
 20
761.0768102444507
 30
0.0
 11
3735.97619274792
 21
783.6581333369508
 31
0.0
  0
LINE
  5
176
330
1F
100
AcDbEntity
  8
0
  6
Continuous
 62
     7
100
AcDbLine
 10
3736.47619274792
 20
758.3674717906507
 30
0.0
 11
3736.47619274792
 21
786.3674717906507
 31
0.0
  0
LINE
  5
177
330
1F
100
AcDbEntity
  8
1
  6
DOT_CENTER
 62
     2
100
AcDbLine
 10
3697.138494492102
 20
769.9559992657095
 30
0.0
 11
3732.179151668182
 21
766.890410889938
 31
0.0
  0
LINE
  5
178
330
1F
100
AcDbEntity
  8
0
  6
Continuous
 62
     7
100
AcDbLine
 10
3693.47619274792
 20
754.4674717906507
 30
0.0
 11
3693.47619274792
 21
776.3674717906507
 31
0.0
  0
LINE
  5
179
330
1F
100
AcDbEntity
  8
0
  6
Continuous
 62
     7
100
AcDbLine
 10
3704.47619274792
 20
754.4674717906507
 30
0.0
 11
3693.47619274792
 21
754.4674717906507
 31
0.0
  0
LINE
  5
17A
330
1F
100
AcDbEntity
  8
A_ACHSEN
  6
Continuous
 62
     7
100
AcDbLine
 10
3698.80924055892
 20
772.3695714827508
 30
0.0
 11
3698.36475661502
 21
767.2889776174508
 31
0.0
  0
LINE
  5
17B
330
1F
100
AcDbEntity
  8
0
  6
Continuous
 62
     7
100
AcDbLine
 10
3722.47619274792
 20
760.1674717906507
 30
0.0
 11
3730.47619274792
 21
761.6674717906507
 31
0.0
  0
LINE
  5
17C
330
1F
100
AcDbEntity
  8
0
  6
DASHED
 62
     2
100
AcDbLine
 10
3705.47619274792
 20
760.1674717906507
 30
0.0
 11
3709.722269492494
 21
760.1674717906507
 31
0.0
  0
LINE
  5
17D
330
1F
100
AcDbEntity
  8
0
  6
DASHED
 62
     2
100
AcDbLine
 10
3704.47619274792
 20
758.9674717906507
 30
0.0
 11
3704.47619274792
 21
756.6669632751438
 31
0.0
  0
LINE
  5
17E
330
1F
100
AcDbEntity
  8
DEFAULT_2
  6
Continuous
 62
     7
100
AcDbLine
 10
3704.47619274792
 20
758.9674717906507
 30
0.0
 11
3704.47619274792
 21
759.1674717906507
 31
0.0
  0
LINE
  5
17F
330
1F
100
AcDbEntity
  8
A_RUNDUNGEN
  6
Continuous
 62
     7
100
AcDbLine
 10
3730.47619274792
 20
762.4720175486553
 30
0.0
 11
3728.394796411214
 21
762.6541118622303
 31
0.0
  0
LINE
  5
180
330
1F
100
AcDbEntity
  8
0
  6
Continuous
 62
     7
100
AcDbLine
 10
3713.47619274792
 20
784.6674717906507
 30
0.0
 11
3713.47619274792
 21
784.9674717906507
 31
0.0
  0
LINE
  5
181
330
1F
100
AcDbEntity
  8
A_RUNDUNGEN
  6
DASHED
 62
     2
100
AcDbLine
 10
3700.97593773892
 20
774.1876538048507
 30
0.0
 11
3705.739105967701
 21
773.7709403544803
 31
0.0
  0
LINE
  5
182
330
1F
100
AcDbEntity
  8
0
  6
Continuous
 62
     7
100
AcDbLine
 10
3726.18717890692
 20
782.6674717906507
 30
0.0
 11
3726.038704479914
 21
782.6674717906507
 31
0.0
  0
LINE
  5
183
330
1F
100
AcDbEntity
  8
0
  6
DASHED
 62
     2
100
AcDbLine
 10
3693.47619274792
 20
784.9674717906507
 30
0.0
 11
3699.110541044832
 21
784.9674717906507
 31
0.0
  0
LINE
  5
184
330
1F
100
AcDbEntity
  8
0
  6
Continuous
 62
     7
100
AcDbLine
 10
3730.47619274792
 20
780.6674717906507
 30
0.0
 11
3726.18717890692
 21
782.6674717906507
 31
0.0
  0
LINE
  5
185
330
1F
100
AcDbEntity
  8
A_RUNDUNGEN
  6
Continuous
 62
     7
100
AcDbLine
 10
3730.03874943032
 20
763.0121978118507
 30
0.0
 11
3730.03874943032
 21
763.6222123569283
 31
0.0
  0
LINE
  5
186
330
1F
100
AcDbEntity
  8
A_ACHSEN
  6
Continuous
 62
     7
100
AcDbLine
 10
3730.47619274792
 20
780.6674717906507
 30
0.0
 11
3730.47619274792
 21
771.6067764431556
 31
0.0
  0
LINE
  5
187
330
1F
100
AcDbEntity
  8
A_ACHSEN
  6
Continuous
 62
     7
100
AcDbLine
 10
3730.47619274792
 20
762.4720175486553
 30
0.0
 11
3730.47619274792
 21
761.6674717906507
 31
0.0
  0
LINE
  5
188
330
1F
100
AcDbEntity
  8
0
  6
Continuous
 62
     7
100
AcDbLine
 10
3699.110541044832
 20
784.9674717906507
 30
0.0
 11
3713.47619274792
 21
784.9674717906507
 31
0.0
  0
LINE
  5
189
330
1F
100
AcDbEntity
  8
0
  6
DASHED
 62
     2
100
AcDbLine
 10
3693.47619274792
 20
776.3674717906507
 30
0.0
 11
3693.47619274792
 21
785.5674717906508
 31
0.0
  0
LINE
  5
18A
330
1F
100
AcDbEntity
  8
1
  6
Continuous
 62
     7
100
AcDbLine
 10
3693.47619274792
 20
786.3674717906507
 30
0.0
 11
3693.47619274792
 21
785.5674717906508
 31
0.0
  0
LINE
  5
18B
330
1F
100
AcDbEntity
  8
0
  6
Continuous
 62
     7
100
AcDbLine
 10
3704.47619274792
 20
756.6669632751438
 30
0.0
 11
3704.47619274792
 21
754.4674717906507
 31
0.0
  0
LINE
  5
18C
330
1F
100
AcDbEntity
  8
0
  6
Continuous
 62
     7
100
AcDbLine
 10
3709.722269492494
 20
760.1674717906507
 30
0.0
 11
3722.47619274792
 21
760.1674717906507
 31
0.0
  0
LINE
  5
18D
330
1F
100
AcDbEntity
  8
A_RUNDUNGEN
  6
DASHED
 62
     2
100
AcDbLine
 10
3710.586359065182
 20
764.212111709344
 30
0.0
 11
3701.134346890962
 21
765.0390362303564
 31
0.0
  0
LINE
  5
18E
330
1F
100
AcDbEntity
  8
A_RUNDUNGEN
  6
Continuous
 62
     7
100
AcDbLine
 10
3701.134346890962
 20
765.0390362303564
 30
0.0
 11
3700.18283893722
 21
765.1222804374507
 31
0.0
  0
LINE
  5
18F
330
1F
100
AcDbEntity
  8
A_RUNDUNGEN
  6
Continuous
 62
     7
100
AcDbLine
 10
3705.739105967701
 20
773.7709403544803
 30
0.0
 11
3723.329667534745
 21
772.2320017211011
 31
0.0
  0
LINE
  5
190
330
1F
100
AcDbEntity
  8
A_RUNDUNGEN
  6
Continuous
 62
     7
100
AcDbLine
 10
3729.6065547396
 20
771.6828581261057
 30
0.0
 11
3730.47619274792
 21
771.6067764431556
 31
0.0
  0
LINE
  5
191
330
1F
100
AcDbEntity
  8
A_RUNDUNGEN
  6
DASHED
 62
     2
100
AcDbLine
 10
3723.329667534745
 20
772.2320017211011
 30
0.0
 11
3729.6065547396
 21
771.6828581261057
 31
0.0
  0
LINE
  5
192
330
1F
100
AcDbEntity
  8
A_RUNDUNGEN
  6
Continuous
 62
     7
100
AcDbLine
 10
3724.264490282856
 20
763.0154583516206
 30
0.0
 11
3710.586359065182
 21
764.212111709344
 31
0.0
  0
LINE
  5
193
330
1F
100
AcDbEntity
  8
A_RUNDUNGEN
  6
DASHED
 62
     2
100
AcDbLine
 10
3728.394796411214
 20
762.6541118622303
 30
0.0
 11
3724.264490282856
 21
763.0154583516206
 31
0.0
  0
LINE
  5
194
330
1F
100
AcDbEntity
  8
A_RUNDUNGEN
  6
DASHED
 62
     2
100
AcDbLine
 10
3730.03874943032
 20
763.6222123569283
 30
0.0
 11
3730.03874943032
 21
771.1431370476507
 31
0.0
  0
LINE
  5
195
330
1F
100
AcDbEntity
  8
0
  6
Continuous
 62
     7
100
AcDbLine
 10
3725.97619274792
 20
786.3674717906507
 30
0.0
 11
3700.97619274792
 21
786.3674717906507
 31
0.0
  0
LINE
  5
196
330
1F
100
AcDbEntity
  8
0
  6
Continuous
 62
     7
100
AcDbLine
 10
3700.97619274792
 20
786.3674717906507
 30
0.0
 11
3693.47619274792
 21
786.3674717906507
 31
0.0
  0
LINE
  5
197
330
1F
100
AcDbEntity
  8
0
  6
Continuous
 62
     7
100
AcDbLine
 10
3713.47619274792
 20
758.3674717906507
 30
0.0
 11
3713.47619274792
 21
759.8674717906507
 31
0.0
  0
LINE
  5
198
330
1F
100
AcDbEntity
  8
0
  6
Continuous
 62
     7
100
AcDbLine
 10
3725.97619274792
 20
758.3674717906507
 30
0.0
 11
3713.47619274792
 21
758.3674717906507
 31
0.0
  0
LINE
  5
199
330
1F
100
AcDbEntity
  8
0
  6
DASHED
 62
     2
100
AcDbLine
 10
3726.038704479914
 20
782.6674717906507
 30
0.0
 11
3715.47619274792
 21
782.6674717906507
 31
0.0
  0
LINE
  5
19A
330
1F
100
AcDbEntity
  8
1
  6
DOT_CENTER
 62
     2
100
AcDbLine
 10
3742.89573629599
 20
750.3674717906507
 30
0.0
 11
3742.89573629599
 21
747.336180260267
 31
0.0
  0
LINE
  5
19B
330
1F
100
AcDbEntity
  8
1
  6
DOT_CENTER
 62
     2
100
AcDbLine
 10
3742.89573629599
 20
795.3674717906507
 30
0.0
 11
3742.89573629599
 21
750.3674717906507
 31
0.0
  0
LINE
  5
19C
330
1F
100
AcDbEntity
  8
1
  6
DOT_CENTER
 62
     2
100
AcDbLine
 10
3742.89573629599
 20
797.506027414655
 30
0.0
 11
3742.89573629599
 21
795.3674717906507
 31
0.0
  0
LINE
  5
19D
330
1F
100
AcDbEntity
  8
0
  6
Continuous
 62
     7
100
AcDbLine
 10
3742.89573629599
 20
750.3674717906507
 30
0.0
 11
3693.47619274792
 21
750.3674717906507
 31
0.0
  0
LINE
  5
19E
330
1F
100
AcDbEntity
  8
0
  6
Continuous
 62
     7
100
AcDbLine
 10
3742.89573629599
 20
795.3674717906507
 30
0.0
 11
3693.47619274792
 21
795.3674717906507
 31
0.0
  0
LINE
  5
19F
330
1F
100
AcDbEntity
  8
1
  6
Continuous
 62
     7
100
AcDbLine
 10
3693.47619274792
 20
786.3674717906507
 30
0.0
 11
3693.47619274792
 21
795.3674717906507
 31
0.0
  0
LINE
  5
1A0
330
1F
100
AcDbEntity
  8
1
  6
Continuous
 62
     7
100
AcDbLine
 10
3693.47619274792
 20
754.3674717906507
 30
0.0
 11
3693.47619274792
 21
750.3674717906507
 31
0.0
  0
LINE
  5
1A1
330
1F
100
AcDbEntity
  8
0
  6
Continuous
 62
     7
100
AcDbLine
 10
3722.52924812542
 20
783.9553000144507
 30
0.0
 11
3722.42619274792
 21
783.9588987875508
 31
0.0
  0
LINE
  5
1A2
330
1F
100
AcDbEntity
  8
0
  6
Continuous
 62
     7
100
AcDbLine
 10
3680.47619274792
 20
770.5674717906508
 30
0.0
 11
3680.47619274792
 21
770.0674717906508
 31
0.0
  0
LINE
  5
1A3
330
1F
100
AcDbEntity
  8
0
  6
Continuous
 62
     7
100
AcDbLine
 10
3689.47619274792
 20
770.0674717906508
 30
0.0
 11
3689.47619274792
 21
774.3674717906507
 31
0.0
  0
LINE
  5
1A4
330
1F
100
AcDbEntity
  8
0
  6
Continuous
 62
     7
100
AcDbLine
 10
3705.97619274792
 20
779.6674717906507
 30
0.0
 11
3705.97619274792
 21
779.7674717906507
 31
0.0
  0
LINE
  5
1A5
330
1F
100
AcDbEntity
  8
0
  6
Continuous
 62
     7
100
AcDbLine
 10
3691.47619274792
 20
776.3674717906507
 30
0.0
 11
3695.72619274792
 21
776.3674717906507
 31
0.0
  0
LINE
  5
1A6
330
1F
100
AcDbEntity
  8
0
  6
Continuous
 62
     7
100
AcDbLine
 10
3703.27602718322
 20
779.3674717906507
 30
0.0
 11
3705.67619274792
 21
779.3674717906507
 31
0.0
  0
LINE
  5
1A7
330
1F
100
AcDbEntity
  8
0
  6
Continuous
 62
     7
100
AcDbLine
 10
3713.27619274792
 20
779.3674717906507
 30
0.0
 11
3719.55419274792
 21
779.3674717906507
 31
0.0
  0
LINE
  5
1A8
330
1F
100
AcDbEntity
  8
0
  6
Continuous
 62
     7
100
AcDbLine
 10
3712.97619274792
 20
779.7674717906507
 30
0.0
 11
3712.97619274792
 21
779.6674717906507
 31
0.0
  0
LINE
  5
1A9
330
1F
100
AcDbEntity
  8
0
  6
Continuous
 62
     7
100
AcDbLine
 10
3706.27619274792
 20
780.0674717906508
 30
0.0
 11
3712.67619274792
 21
780.0674717906508
 31
0.0
  0
LINE
  5
1AA
330
1F
100
AcDbEntity
  8
0
  6
Continuous
 62
     7
100
AcDbLine
 10
3710.72619274792
 20
784.3674717906507
 30
0.0
 11
3698.66144504882
 21
784.3674717906507
 31
0.0
  0
LINE
  5
1AB
330
1F
100
AcDbEntity
  8
A_RUNDUNGEN
  6
Continuous
 62
     7
100
AcDbLine
 10
3710.72619274792
 20
784.3674717906507
 30
0.0
 11
3722.42619274792
 21
783.9588987875508
 31
0.0
  0
LINE
  5
1AC
330
1F
100
AcDbEntity
  8
0
  6
DASHED
 62
     2
100
AcDbLine
 10
3722.01530738592
 20
778.0829643551507
 30
0.0
 11
3722.42619274792
 21
783.9588987875508
 31
0.0
  0
LINE
  5
1AD
330
1F
100
AcDbEntity
  8
0
  6
Continuous
 62
     7
100
AcDbLine
 10
3722.50861600702
 20
776.8884163236507
 30
0.0
 11
3723.33291454682
 21
772.2135870005508
 31
0.0
  0
LINE
  5
1AE
330
1F
100
AcDbEntity
  8
0
  6
Continuous
 62
     7
100
AcDbLine
 10
3729.42085097812
 20
772.2398066974507
 30
0.0
 11
3728.22869766332
 21
779.0008441183508
 31
0.0
  0
LINE
  5
1AF
330
1F
100
AcDbEntity
  8
1
  6
DOT_CENTER
 62
     2
100
AcDbLine
 10
3733.72619274792
 20
767.3674717906507
 30
0.0
 11
3719.72619274792
 21
767.3674717906507
 31
0.0
  0
LINE
  5
1B0
330
1F
100
AcDbEntity
  8
1
  6
DOT_CENTER
 62
     2
100
AcDbLine
 10
3726.72619274792
 20
774.3674717906507
 30
0.0
 11
3726.72619274792
 21
760.3674717906507
 31
0.0
  0
LINE
  5
1B1
330
1F
100
AcDbEntity
  8
1
  6
DOT_CENTER
 62
     2
100
AcDbLine
 10
3691.42619274792
 20
770.0674717906508
 30
0.0
 11
3678.52619274792
 21
770.0674717906508
 31
0.0
  0
LINE
  5
1B2
330
1F
100
AcDbEntity
  8
1
  6
DOT_CENTER
 62
     2
100
AcDbLine
 10
3684.97619274792
 20
776.5174717906507
 30
0.0
 11
3684.97619274792
 21
763.6174717906507
 31
0.0
  0
LINE
  5
1B3
330
1F
100
AcDbEntity
  8
1
  6
DOT_CENTER
 62
     2
100
AcDbLine
 10
3702.726192747942
 20
781.3674717906507
 30
0.0
 11
3688.726192747898
 21
781.3674717906507
 31
0.0
  0
LINE
  5
1B4
330
1F
100
AcDbEntity
  8
1
  6
DOT_CENTER
 62
     2
100
AcDbLine
 10
3695.72619274792
 20
788.3674717906728
 30
0.0
 11
3695.72619274792
 21
774.3674717906287
 31
0.0
  0
LINE
  5
1B5
330
1F
100
AcDbEntity
  8
0
  6
Continuous
 62
     7
100
AcDbLine
 10
3736.47619274792
 20
786.3674717906507
 30
0.0
 11
3725.97619274792
 21
786.3674717906507
 31
0.0
  0
ARC
  5
266
330
1F
100
AcDbEntity
  8
en_0_20
  6
Continuous
 62
     7
100
AcDbCircle
 10
3701.03417050545
 20
810.0602717056307
 30
0.0
 40
1.059999943820003
100
AcDbArc
 50
180.0
 51
269.9813459744326
  0
ARC
  5
267
330
1F
100
AcDbEntity
  8
en_0_20
  6
Continuous
 62
     7
100
AcDbCircle
 10
3701.00124710647
 20
810.0602717056307
 30
0.0
 40
0.7204630466603703
100
AcDbArc
 50
180.0
 51
270.0
  0
ARC
  5
268
330
1F
100
AcDbEntity
  8
0
  6
Continuous
 62
     7
100
AcDbCircle
 10
3698.77619274792
 20
813.1674717906496
 30
0.0
 40
0.1999999999990723
100
AcDbArc
 50
10.32500493544747
 51
90.0
  0
ARC
  5
269
330
1F
100
AcDbEntity
  8
0
  6
Continuous
 62
     7
100
AcDbCircle
 10
3698.77619274792
 20
811.7674717906497
 30
0.0
 40
0.1999999999979991
100
AcDbArc
 50
270.000000002866
 51
349.674995064873
  0
ARC
  5
26A
330
1F
100
AcDbEntity
  8
A_RUNDUNGEN
  6
Continuous
 62
     7
100
AcDbCircle
 10
3674.97619274792
 20
767.8674717906507
 30
0.0
 40
4.0
100
AcDbArc
 50
0.0
 51
90.0
  0
ARC
  5
26B
330
1F
100
AcDbEntity
  8
A_RUNDUNGEN
  6
Continuous
 62
     7
100
AcDbCircle
 10
3676.79622856882
 20
774.0934686684508
 30
0.0
 40
1.999999999981871
100
AcDbArc
 50
212.5000000005503
 51
302.5000000005465
  0
ARC
  5
26C
330
1F
100
AcDbEntity
  8
A_RUNDUNGEN
  6
Continuous
 62
     7
100
AcDbCircle
 10
3671.47986195302
 20
791.9304035510507
 30
0.0
 40
2.000000000065802
100
AcDbArc
 50
32.49999999901463
 51
122.4999999990194
  0
ARC
  5
26D
330
1F
100
AcDbEntity
  8
A_RUNDUNGEN
  6
Continuous
 62
     7
100
AcDbCircle
 10
3667.17856557942
 20
789.1901755485507
 30
0.0
 40
1.999999999981897
100
AcDbArc
 50
122.5000000005576
 51
212.5000000005448
  0
ARC
  5
26E
330
1F
100
AcDbEntity
  8
A_RUNDUNGEN
  6
DASHED
 62
     2
100
AcDbCircle
 10
3681.09752494242
 20
776.8336966710507
 30
0.0
 40
1.999999999981557
100
AcDbArc
 50
302.5000000005483
 51
32.49999999900763
  0
ARC
  5
26F
330
1F
100
AcDbEntity
  8
0
  6
Continuous
 62
     7
100
AcDbCircle
 10
3670.72619274792
 20
788.3674717906507
 30
0.0
 40
4.000000000008436
100
AcDbArc
 50
102.4999999992037
 51
307.4999999993016
  0
ARC
  5
270
330
1F
100
AcDbEntity
  8
0
  6
Continuous
 62
     7
100
AcDbCircle
 10
3677.71129112672
 20
787.8674717906507
 30
0.0
 40
6.0
100
AcDbArc
 50
90.0
 51
102.4999999997754
  0
ARC
  5
271
330
1F
100
AcDbEntity
  8
A_RUNDUNGEN
  6
Continuous
 62
     7
100
AcDbCircle
 10
3683.60530471542
 20
787.8674717906507
 30
0.0
 40
6.000000000052255
100
AcDbArc
 50
31.99999999969619
 51
90.0
  0
ARC
  5
272
330
1F
100
AcDbEntity
  8
A_RUNDUNGEN
  6
Continuous
 62
     7
100
AcDbCircle
 10
3680.97067980752
 20
785.5143276703508
 30
0.0
 40
4.500000000059643
100
AcDbArc
 50
36.00000000076752
 51
127.4999999999947
  0
ARC
  5
273
330
1F
100
AcDbEntity
  8
A_RUNDUNGEN
  6
Continuous
 62
     7
100
AcDbCircle
 10
3682.99169832312
 20
793.3674717906507
 30
0.0
 40
0.499999999961117
100
AcDbArc
 50
307.500000002787
 51
90.0
  0
ARC
  5
274
330
1F
100
AcDbEntity
  8
0
  6
DASHED
 62
     2
100
AcDbCircle
 10
3692.76681212552
 20
768.7087962544507
 30
0.0
 40
8.000000000000098
100
AcDbArc
 50
73.20296275258667
 51
76.8415572212059
  0
ARC
  5
275
330
1F
100
AcDbEntity
  8
0
  6
Continuous
 62
     7
100
AcDbCircle
 10
3704.64624246122
 20
763.3665262724508
 30
0.0
 40
5.999999999963209
100
AcDbArc
 50
294.9999999996963
 51
29.00000000035127
  0
ARC
  5
276
330
1F
100
AcDbEntity
  8
0
  6
Continuous
 62
     7
100
AcDbCircle
 10
3698.97619274792
 20
759.0674717906508
 30
0.0
 40
4.50000000001759
100
AcDbArc
 50
114.9999999994265
 51
294.9999999994311
  0
ARC
  5
277
330
1F
100
AcDbEntity
  8
A_RUNDUNGEN
  6
Continuous
 62
     7
100
AcDbCircle
 10
3704.10765040802
 20
758.1501760381508
 30
0.0
 40
1.500000000000099
100
AcDbArc
 50
294.9999999999956
 51
29.00000000118915
  0
ARC
  5
278
330
1F
100
AcDbEntity
  8
A_RUNDUNGEN
  6
Continuous
 62
     7
100
AcDbCircle
 10
3701.27819465172
 20
766.7611804212507
 30
0.0
 40
1.500000000036186
100
AcDbArc
 50
294.9999999988929
 51
29.00000000118073
  0
ARC
  5
279
330
1F
100
AcDbEntity
  8
0
  6
Continuous
 62
     7
100
AcDbCircle
 10
3693.22619274792
 20
787.5674717906508
 30
0.0
 40
2.000000000006938
100
AcDbArc
 50
212.0000000010104
 51
270.0
  0
ARC
  5
27A
330
1F
100
AcDbEntity
  8
0
  6
DASHED
 62
     2
100
AcDbCircle
 10
3695.72619274792
 20
781.3674717906507
 30
0.0
 40
5.000000000042556
100
AcDbArc
 50
216.0000000001788
 51
256.8415572215745
  0
ARC
  5
27B
330
1F
100
AcDbEntity
  8
0
  6
Continuous
 62
     7
100
AcDbCircle
 10
3696.72619274792
 20
781.3674717906507
 30
0.0
 40
4.199999999999505
100
AcDbArc
 50
45.58469140281391
 51
90.0
  0
ARC
  5
27C
330
1F
100
AcDbEntity
  8
0
  6
Continuous
 62
     7
100
AcDbCircle
 10
3692.76681212552
 20
768.7087962544507
 30
0.0
 40
7.999999999952244
100
AcDbArc
 50
28.99999999961061
 51
73.20296275258667
  0
ARC
  5
27D
330
1F
100
AcDbEntity
  8
0
  6
DASHED
 62
     2
100
AcDbCircle
 10
3696.72619274792
 20
781.3674717906507
 30
0.0
 40
4.199999999995901
100
AcDbArc
 50
28.99999999949178
 51
45.58469140281391
  0
ARC
  5
27E
330
1F
100
AcDbEntity
  8
0
  6
Continuous
 62
     7
100
AcDbCircle
 10
3734.47619274792
 20
761.0768102444507
 30
0.0
 40
1.499999999982214
100
AcDbArc
 50
277.999999998557
 51
0.0
  0
ARC
  5
27F
330
1F
100
AcDbEntity
  8
0
  6
Continuous
 62
     7
100
AcDbCircle
 10
3734.47619274792
 20
783.6581333369508
 30
0.0
 40
1.5
100
AcDbArc
 50
0.0
 51
82.00000000144294
  0
ARC
  5
280
330
1F
100
AcDbEntity
  8
0
  6
DASHED
 62
     2
100
AcDbCircle
 10
3705.47619274792
 20
759.1674717906507
 30
0.0
 40
1.0
100
AcDbArc
 50
90.0
 51
180.0
  0
ARC
  5
281
330
1F
100
AcDbEntity
  8
0
  6
DASHED
 62
     2
100
AcDbCircle
 10
3715.47619274792
 20
784.6674717906507
 30
0.0
 40
2.000000000000606
100
AcDbArc
 50
191.4616769319982
 51
270.0
  0
ARC
  5
282
330
1F
100
AcDbEntity
  8
A_RUNDUNGEN
  6
Continuous
 62
     7
100
AcDbCircle
 10
3700.80163031002
 20
772.1952640537507
 30
0.0
 40
2.000000000022832
100
AcDbArc
 50
141.9508707306357
 51
175.0001166539812
  0
ARC
  5
283
330
1F
100
AcDbEntity
  8
A_RUNDUNGEN
  6
Continuous
 62
     7
100
AcDbCircle
 10
3700.35714636612
 20
767.1146701885507
 30
0.0
 40
2.000000000014808
100
AcDbArc
 50
175.0001166568343
 51
265.0001166568301
  0
ARC
  5
284
330
1F
100
AcDbEntity
  8
A_RUNDUNGEN
  6
DASHED
 62
     2
100
AcDbCircle
 10
3700.80163031002
 20
772.1952640537507
 30
0.0
 40
2.000000000014479
100
AcDbArc
 50
85.00011665683016
 51
141.9508707306357
  0
ARC
  5
285
330
1F
100
AcDbEntity
  8
0
  6
Continuous
 62
     7
100
AcDbCircle
 10
3715.47619274792
 20
784.6674717906507
 30
0.0
 40
2.0
100
AcDbArc
 50
180.0
 51
191.4616769319982
  0
ARC
  5
286
330
1F
100
AcDbEntity
  8
0
  6
Continuous
 62
     7
100
AcDbCircle
 10
3695.47619274792
 20
770.5674717906508
 30
0.0
 40
15.00000000000011
100
AcDbArc
 50
88.67394562329909
 51
180.0
  0
ARC
  5
287
330
1F
100
AcDbEntity
  8
0
  6
Continuous
 62
     7
100
AcDbCircle
 10
3703.27602718322
 20
773.3674717906507
 30
0.0
 40
6.0
100
AcDbArc
 50
90.0
 51
133.3417582271985
  0
ARC
  5
288
330
1F
100
AcDbEntity
  8
0
  6
Continuous
 62
     7
100
AcDbCircle
 10
3722.31985114522
 20
777.9589550523507
 30
0.0
 40
6.00000000002592
100
AcDbArc
 50
9.99999999994166
 51
88.00000000013907
  0
ARC
  5
289
330
1F
100
AcDbEntity
  8
0
  6
Continuous
 62
     7
100
AcDbCircle
 10
3726.72619274792
 20
767.3674717906507
 30
0.0
 40
4.999999999999416
100
AcDbArc
 50
140.007419335802
 51
48.21595763329461
  0
ARC
  5
28A
330
1F
100
AcDbEntity
  8
0
  6
Continuous
 62
     7
100
AcDbCircle
 10
3684.97619274792
 20
770.0674717906508
 30
0.0
 40
4.5
100
AcDbArc
 50
180.0
 51
0.0
  0
ARC
  5
28B
330
1F
100
AcDbEntity
  8
0
  6
Continuous
 62
     7
100
AcDbCircle
 10
3719.55419274792
 20
776.3674717906507
 30
0.0
 40
3.000000000062446
100
AcDbArc
 50
9.99999999977502
 51
34.87799575804924
  0
ARC
  5
28C
330
1F
100
AcDbEntity
  8
A_RUNDUNGEN
  6
Continuous
 62
     7
100
AcDbCircle
 10
3719.55419274792
 20
776.3674717906507
 30
0.0
 40
3.000000000038974
100
AcDbArc
 50
34.87799575804924
 51
90.0
  0
ARC
  5
28D
330
1F
100
AcDbEntity
  8
0
  6
Continuous
 62
     7
100
AcDbCircle
 10
3691.47619274792
 20
774.3674717906507
 30
0.0
 40
2.0
100
AcDbArc
 50
90.0
 51
180.0
  0
ARC
  5
28E
330
1F
100
AcDbEntity
  8
0
  6
Continuous
 62
     7
100
AcDbCircle
 10
3721.36329904082
 20
771.8662906451507
 30
0.0
 40
1.999999999947397
100
AcDbArc
 50
320.0074193368688
 51
10.00000000198956
  0
ARC
  5
28F
330
1F
100
AcDbEntity
  8
0
  6
Continuous
 62
     7
100
AcDbCircle
 10
3731.39046648422
 20
772.5871030528507
 30
0.0
 40
2.000000000085593
100
AcDbArc
 50
190.0000000014909
 51
228.2159576320106
  0
ARC
  5
290
330
1F
100
AcDbEntity
  8
0
  6
Continuous
 62
     7
100
AcDbCircle
 10
3713.27619274792
 20
779.6674717906507
 30
0.0
 40
0.3000000000001819
100
AcDbArc
 50
180.0
 51
270.0
  0
ARC
  5
291
330
1F
100
AcDbEntity
  8
0
  6
Continuous
 62
     7
100
AcDbCircle
 10
3712.67619274792
 20
779.7674717906507
 30
0.0
 40
0.2999999999997272
100
AcDbArc
 50
0.0
 51
90.0
  0
ARC
  5
292
330
1F
100
AcDbEntity
  8
0
  6
Continuous
 62
     7
100
AcDbCircle
 10
3706.27619274792
 20
779.7674717906507
 30
0.0
 40
0.3000000000000682
100
AcDbArc
 50
90.0
 51
180.0
  0
ARC
  5
293
330
1F
100
AcDbEntity
  8
0
  6
Continuous
 62
     7
100
AcDbCircle
 10
3705.67619274792
 20
779.6674717906507
 30
0.0
 40
0.2999999999999545
100
AcDbArc
 50
270.0
 51
0.0
  0
ARC
  5
294
330
1F
100
AcDbEntity
  8
0
  6
Continuous
 62
     7
100
AcDbCircle
 10
3695.72619274792
 20
781.3674717906507
 30
0.0
 40
5.0
100
AcDbArc
 50
270.0
 51
313.3417582274948
  0
ARC
  5
295
330
1F
100
AcDbEntity
  8
0
  6
Continuous
 62
     7
100
AcDbCircle
 10
3695.72619274792
 20
781.3674717906507
 30
0.0
 40
4.197106869015819
100
AcDbArc
 50
45.62501517238456
 51
88.67394562330941
  0
CIRCLE
  5
296
330
1F
100
AcDbEntity
  8
1
  6
Continuous
 62
     7
100
AcDbCircle
 10
3698.97619274792
 20
759.0674717906508
 30
0.0
 40
2.0
  0
CIRCLE
  5
297
330
1F
100
AcDbEntity
  8
1
  6
Continuous
 62
     7
100
AcDbCircle
 10
3670.72619274792
 20
788.3674717906507
 30
0.0
 40
2.0
  0
CIRCLE
  5
298
330
1F
100
AcDbEntity
  8
1
  6
Continuous
 62
     7
100
AcDbCircle
 10
3684.97619274792
 20
770.0674717906508
 30
0.0
 40
2.0
  0
CIRCLE
  5
299
330
1F
100
AcDbEntity
  8
1
  6
Continuous
 62
     7
100
AcDbCircle
 10
3695.72619274792
 20
781.3674717906507
 30
0.0
 40
2.0
  0
CIRCLE
  5
29A
330
1F
100
AcDbEntity
  8
1
  6
Continuous
 62
     7
100
AcDbCircle
 10
3726.72619274792
 20
767.3674717906507
 30
0.0
 40
2.0
  0
SPLINE
  5
29B
330
1F
100
AcDbEntity
  8
w
  6
Continuous
 62
     7
100
AcDbSpline
210
0.0
220
0.0
230
1.0
 70
     8
 71
     3
 72
     9
 73
     5
 74
     3
 42
0.000000001
 43
0.0000000001
 44
0.00000001
 40
0.0
 40
0.0
 40
0.0
 40
0.0
 40
0.0815098793243783
 40
0.1836880574626509
 40
0.1836880574626509
 40
0.1836880574626509
 40
0.1836880574626509
 10
3696.6132171955
 20
812.6136016189297
 30
0.0
 10
3696.586564038108
 20
812.6064245953226
 30
0.0
 10
3696.526499332547
 20
812.5902507040717
 30
0.0
 10
3696.465927753365
 20
812.6056748575359
 30
0.0
 10
3696.43223425368
 20
812.6142546962627
 30
0.0
 11
3696.6132171955
 21
812.6136016189297
 31
0.0
 11
3696.533157914967
 21
812.598292395941
 31
0.0
 11
3696.43223425368
 21
812.6142546962627
 31
0.0
  0
SPLINE
  5
29C
330
1F
100
AcDbEntity
  8
w
  6
Continuous
 62
     7
100
AcDbSpline
210
0.0
220
0.0
230
1.0
 70
     8
 71
     3
 72
     9
 73
     5
 74
     3
 42
0.000000001
 43
0.0000000001
 44
0.00000001
 40
0.0
 40
0.0
 40
0.0
 40
0.0
 40
0.1544002453345204
 40
0.3089315217345171
 40
0.3089315217345171
 40
0.3089315217345171
 40
0.3089315217345171
 10
3696.72498148932
 20
811.3979561657306
 30
0.0
 10
3696.737671192579
 20
811.4524821004501
 30
0.0
 10
3696.76306138273
 20
811.5615802335176
 30
0.0
 10
3696.872145397566
 20
811.5870698536273
 30
0.0
 10
3696.92671054337
 20
811.5998200620166
 30
0.0
 11
3696.72498148932
 21
811.3979561657306
 31
0.0
 11
3696.783956317461
 21
811.5406495663755
 31
0.0
 11
3696.92671054337
 21
811.5998200620166
 31
0.0
  0
SPLINE
  5
29D
330
1F
100
AcDbEntity
  8
w
  6
Continuous
 62
     7
100
AcDbSpline
210
0.0
220
0.0
230
1.0
 70
     8
 71
     3
 72
     9
 73
     5
 74
     3
 42
0.000000001
 43
0.0000000001
 44
0.00000001
 40
0.0
 40
0.0
 40
0.0
 40
0.0
 40
0.1545312763908471
 40
0.3089315217228876
 40
0.3089315217228876
 40
0.3089315217228876
 40
0.3089315217228876
 10
3696.92671054337
 20
811.5998200620166
 30
0.0
 10
3696.981295029444
 20
811.5871529064437
 30
0.0
 10
3697.090417708442
 20
811.5618293215289
 30
0.0
 10
3697.115973896357
 20
811.4527699539663
 30
0.0
 10
3697.1287465633
 20
811.3982633937657
 30
0.0
 11
3696.92671054337
 21
811.5998200620166
 31
0.0
 11
3697.069554650509
 21
811.5408668804032
 31
0.0
 11
3697.1287465633
 21
811.3982633937657
 31
0.0
  0
SPLINE
  5
29E
330
1F
100
AcDbEntity
  8
w
  6
Continuous
 62
     7
100
AcDbSpline
210
0.0
220
0.0
230
1.0
 70
    24
 71
     3
 72
     9
 73
     5
 74
     3
 42
0.000000001
 43
0.0000000001
 44
0.00000001
 40
0.0
 40
0.0
 40
0.0
 40
0.0
 40
0.1250569661177671
 40
0.2501139322355339
 40
0.2501139322355339
 40
0.2501139322355339
 40
0.2501139322355339
 10
3697.1287465633
 20
811.3982633937657
 30
0.0
 10
3697.170432206605
 20
811.3982951127009
 30
0.0
 10
3697.253803493215
 20
811.398358550571
 30
0.0
 10
3697.337174779824
 20
811.3984219884408
 30
0.0
 10
3697.37886042313
 20
811.3984537073757
 30
0.0
 11
3697.1287465633
 21
811.3982633937657
 31
0.0
 11
3697.253803493215
 21
811.3983585505707
 31
0.0
 11
3697.37886042313
 21
811.3984537073757
 31
0.0
  0
SPLINE
  5
29F
330
1F
100
AcDbEntity
  8
w
  6
Continuous
 62
     7
100
AcDbSpline
210
0.0
220
0.0
230
1.0
 70
     8
 71
     3
 72
     9
 73
     5
 74
     3
 42
0.000000001
 43
0.0000000001
 44
0.00000001
 40
0.0
 40
0.0
 40
0.0
 40
0.0
 40
0.1544002453336841
 40
0.3089315217258297
 40
0.3089315217258297
 40
0.3089315217258297
 40
0.3089315217258297
 10
3697.37886042313
 20
811.3984537073757
 30
0.0
 10
3697.391550126389
 20
811.4529796420949
 30
0.0
 10
3697.416940316537
 20
811.5620777751594
 30
0.0
 10
3697.52602433137
 20
811.5875673952714
 30
0.0
 10
3697.58058947717
 20
811.6003176036617
 30
0.0
 11
3697.37886042313
 21
811.3984537073757
 31
0.0
 11
3697.43783525127
 21
811.5411471080201
 31
0.0
 11
3697.58058947717
 21
811.6003176036617
 31
0.0
  0
SPLINE
  5
2A0
330
1F
100
AcDbEntity
  8
w
  6
Continuous
 62
     7
100
AcDbSpline
210
0.0
220
0.0
230
1.0
 70
     8
 71
     3
 72
     9
 73
     5
 74
     3
 42
0.000000001
 43
0.0000000001
 44
0.00000001
 40
0.0
 40
0.0
 40
0.0
 40
0.0
 40
0.3035293439851124
 40
0.6041845546254045
 40
0.6041845546254045
 40
0.6041845546254045
 40
0.6041845546254045
 10
3695.37295413026
 20
809.4999486804887
 30
0.0
 10
3695.395849356945
 20
809.3920305585661
 30
0.0
 10
3695.441423029001
 20
809.1772162057152
 30
0.0
 10
3695.654727160202
 20
809.1258690463229
 30
0.0
 10
3695.76087188189
 20
809.1003176041997
 30
0.0
 11
3695.37295413026
 21
809.4999486804887
 31
0.0
 11
3695.483972332268
 21
809.2174508506986
 31
0.0
 11
3695.76087188189
 21
809.1003176041997
 31
0.0
  0
SPLINE
  5
2A1
330
1F
100
AcDbEntity
  8
w
  6
Continuous
 62
     7
100
AcDbSpline
210
0.0
220
0.0
230
1.0
 70
     8
 71
     3
 72
     9
 73
     5
 74
     3
 42
0.000000001
 43
0.0000000001
 44
0.00000001
 40
0.0
 40
0.0
 40
0.0
 40
0.0
 40
0.3035293439864126
 40
0.6041845546339777
 40
0.6041845546339777
 40
0.6041845546339777
 40
0.6041845546339777
 10
3695.41600137819
 20
810.7967748895067
 30
0.0
 10
3695.438896604877
 20
810.688856767584
 30
0.0
 10
3695.484470276932
 20
810.4740424147294
 30
0.0
 10
3695.697774408137
 20
810.4226952553398
 30
0.0
 10
3695.80391912983
 20
810.3971438132177
 30
0.0
 11
3695.41600137819
 21
810.7967748895067
 31
0.0
 11
3695.5270195802
 21
810.5142770597158
 31
0.0
 11
3695.80391912983
 21
810.3971438132177
 31
0.0
  0
SPLINE
  5
2A2
330
1F
100
AcDbEntity
  8
w
  6
Continuous
 62
     7
100
AcDbSpline
210
0.0
220
0.0
230
1.0
 70
     8
 71
     3
 72
     9
 73
     5
 74
     3
 42
0.000000001
 43
0.0000000001
 44
0.00000001
 40
0.0
 40
0.0
 40
0.0
 40
0.0
 40
0.3038067715871824
 40
0.6045614875358195
 40
0.6045614875358195
 40
0.6045614875358195
 40
0.6045614875358195
 10
3695.37295413026
 20
809.6294670841797
 30
0.0
 10
3695.396137909925
 20
809.737383420953
 30
0.0
 10
3695.442272578657
 20
809.9521319530695
 30
0.0
 10
3695.6556073162
 20
810.003529253813
 30
0.0
 10
3695.76173619245
 20
810.0290981604567
 30
0.0
 11
3695.37295413026
 21
809.6294670841797
 31
0.0
 11
3695.484728604005
 21
809.9119649139601
 31
0.0
 11
3695.76173619245
 21
810.0290981604567
 31
0.0
  0
SPLINE
  5
2A3
330
1F
100
AcDbEntity
  8
w
  6
Continuous
 62
     7
100
AcDbSpline
210
0.0
220
0.0
230
1.0
 70
     8
 71
     3
 72
     9
 73
     5
 74
     3
 42
0.000000001
 43
0.0000000001
 44
0.00000001
 40
0.0
 40
0.0
 40
0.0
 40
0.0
 40
0.1582456226388777
 40
0.3091929417366381
 40
0.3091929417366381
 40
0.3091929417366381
 40
0.3091929417366381
 10
3695.41600137819
 20
810.7967748895067
 30
0.0
 10
3695.4210667846
 20
810.8504987723608
 30
0.0
 10
3695.430963998956
 20
810.9554687818736
 30
0.0
 10
3695.495517875666
 20
811.0386686672318
 30
0.0
 10
3695.52703294573
 20
811.0792866652417
 30
0.0
 11
3695.41600137819
 21
810.7967748895067
 31
0.0
 11
3695.445514453887
 21
810.9522440377306
 31
0.0
 11
3695.52703294573
 21
811.0792866652417
 31
0.0
  0
SPLINE
  5
2A4
330
1F
100
AcDbEntity
  8
w
  6
Continuous
 62
     7
100
AcDbSpline
210
0.0
220
0.0
230
1.0
 70
     8
 71
     3
 72
     9
 73
     5
 74
     3
 42
0.000000001
 43
0.0000000001
 44
0.00000001
 40
0.0
 40
0.0
 40
0.0
 40
0.0
 40
0.0946739721856876
 40
0.1678146298388226
 40
0.1678146298388226
 40
0.1678146298388226
 40
0.1678146298388226
 10
3696.67295413025
 20
812.7631918955167
 30
0.0
 10
3696.673434919282
 20
812.7298611713583
 30
0.0
 10
3696.67428712544
 20
812.670780703256
 30
0.0
 10
3696.631754642999
 20
812.6309580135118
 30
0.0
 10
3696.6132171955
 20
812.6136016189297
 30
0.0
 11
3696.67295413025
 21
812.7631918955167
 31
0.0
 11
3696.660588255327
 21
812.6693289812088
 31
0.0
 11
3696.6132171955
 21
812.6136016189297
 31
0.0
  0
SPLINE
  5
2A5
330
1F
100
AcDbEntity
  8
w
  6
Continuous
 62
     7
100
AcDbSpline
210
0.0
220
0.0
230
1.0
 70
     8
 71
     3
 72
     9
 73
     5
 74
     3
 42
0.000000001
 43
0.0000000001
 44
0.00000001
 40
0.0
 40
0.0
 40
0.0
 40
0.0
 40
0.316526415592297
 40
0.6201145555237926
 40
0.6201145555237926
 40
0.6201145555237926
 40
0.6201145555237926
 10
3695.87932691695
 20
813.9025382777057
 30
0.0
 10
3695.913912897848
 20
814.010722821562
 30
0.0
 10
3695.981671143629
 20
814.2226697669797
 30
0.0
 10
3696.197394312846
 20
814.2740967566551
 30
0.0
 10
3696.30300544218
 20
814.2992737491587
 30
0.0
 11
3695.87932691695
 21
813.9025382777057
 31
0.0
 11
3696.021635795855
 21
814.1852698765434
 31
0.0
 11
3696.30300544218
 21
814.2992737491587
 31
0.0
  0
SPLINE
  5
2A6
330
1F
100
AcDbEntity
  8
w
  6
Continuous
 62
     7
100
AcDbSpline
210
0.0
220
0.0
230
1.0
 70
     8
 71
     3
 72
     9
 73
     5
 74
     3
 42
0.000000001
 43
0.0000000001
 44
0.00000001
 40
0.0
 40
0.0
 40
0.0
 40
0.0
 40
0.1908657654624273
 40
0.4113176053362346
 40
0.4113176053362346
 40
0.4113176053362346
 40
0.4113176053362346
 10
3695.94178247468
 20
813.5037148244887
 30
0.0
 10
3695.91360304514
 20
813.5622361552071
 30
0.0
 10
3695.852876115535
 20
813.6883502049611
 30
0.0
 10
3695.870097075041
 20
813.8277987418797
 30
0.0
 10
3695.87932691695
 20
813.9025382777057
 30
0.0
 11
3695.94178247468
 21
813.5037148244887
 31
0.0
 11
3695.874028594245
 21
813.6821501148477
 31
0.0
 11
3695.87932691695
 21
813.9025382777057
 31
0.0
  0
SPLINE
  5
2A7
330
1F
100
AcDbEntity
  8
w
  6
Continuous
 62
     7
100
AcDbSpline
210
0.0
220
0.0
230
1.0
 70
     8
 71
     3
 72
     9
 73
     5
 74
     3
 42
0.000000001
 43
0.0000000001
 44
0.00000001
 40
0.0
 40
0.0
 40
0.0
 40
0.0
 40
0.1506653272126846
 40
0.30194823400734
 40
0.30194823400734
 40
0.30194823400734
 40
0.30194823400734
 10
3696.07123507972
 20
811.4050022489597
 30
0.0
 10
3696.085168704814
 20
811.4576200391671
 30
0.0
 10
3696.113093083611
 20
811.563071290791
 30
0.0
 10
3696.219512877046
 20
811.5872223166185
 30
0.0
 10
3696.27283160956
 20
811.5993225203717
 30
0.0
 11
3696.07123507972
 21
811.4050022489597
 31
0.0
 11
3696.132579624269
 21
811.542613617698
 31
0.0
 11
3696.27283160956
 21
811.5993225203717
 31
0.0
  0
SPLINE
  5
2A8
330
1F
100
AcDbEntity
  8
w
  6
Continuous
 62
     7
100
AcDbSpline
210
0.0
220
0.0
230
1.0
 70
     8
 71
     3
 72
     9
 73
     5
 74
     3
 42
0.000000001
 43
0.0000000001
 44
0.00000001
 40
0.0
 40
0.0
 40
0.0
 40
0.0
 40
0.1545312763925719
 40
0.3089315217285905
 40
0.3089315217285905
 40
0.3089315217285905
 40
0.3089315217285905
 10
3696.27283160956
 20
811.5993225203717
 30
0.0
 10
3696.327416095634
 20
811.5866553647985
 30
0.0
 10
3696.436538774633
 20
811.5613317798834
 30
0.0
 10
3696.462094962555
 20
811.4522724123207
 30
0.0
 10
3696.4748676295
 20
811.3977658521197
 30
0.0
 11
3696.27283160956
 21
811.5993225203717
 31
0.0
 11
3696.4156757167
 21
811.5403693387582
 31
0.0
 11
3696.4748676295
 21
811.3977658521197
 31
0.0
  0
SPLINE
  5
2A9
330
1F
100
AcDbEntity
  8
w
  6
Continuous
 62
     7
100
AcDbSpline
210
0.0
220
0.0
230
1.0
 70
    24
 71
     3
 72
     9
 73
     5
 74
     3
 42
0.000000001
 43
0.0000000001
 44
0.00000001
 40
0.0
 40
0.0
 40
0.0
 40
0.0
 40
0.1250569661127653
 40
0.2501139322255301
 40
0.2501139322255301
 40
0.2501139322255301
 40
0.2501139322255301
 10
3696.4748676295
 20
811.3977658521197
 30
0.0
 10
3696.516553272803
 20
811.397797571055
 30
0.0
 10
3696.59992455941
 20
811.3978610089257
 30
0.0
 10
3696.683295846016
 20
811.3979244467955
 30
0.0
 10
3696.72498148932
 20
811.3979561657306
 30
0.0
 11
3696.4748676295
 21
811.3977658521197
 31
0.0
 11
3696.59992455941
 21
811.3978610089252
 31
0.0
 11
3696.72498148932
 21
811.3979561657306
 31
0.0
  0
SPLINE
  5
2AA
330
1F
100
AcDbEntity
  8
w
  6
Continuous
 62
     7
100
AcDbSpline
210
0.0
220
0.0
230
1.0
 70
     8
 71
     3
 72
     9
 73
     5
 74
     3
 42
0.000000001
 43
0.0000000001
 44
0.00000001
 40
0.0
 40
0.0
 40
0.0
 40
0.0
 40
0.1545312763999781
 40
0.308931521731458
 40
0.308931521731458
 40
0.308931521731458
 40
0.308931521731458
 10
3697.58058947717
 20
811.6003176036617
 30
0.0
 10
3697.635173963247
 20
811.5876504480892
 30
0.0
 10
3697.744296642252
 20
811.562326863177
 30
0.0
 10
3697.769852830166
 20
811.4532674956107
 30
0.0
 10
3697.78262549711
 20
811.3987609354107
 30
0.0
 11
3697.58058947717
 21
811.6003176036617
 31
0.0
 11
3697.723433584318
 21
811.5413644220474
 31
0.0
 11
3697.78262549711
 21
811.3987609354107
 31
0.0
  0
SPLINE
  5
2AB
330
1F
100
AcDbEntity
  8
A_RUNDUNGEN
  6
Continuous
 62
     7
100
AcDbSpline
210
0.0
220
0.0
230
1.0
 70
     8
 71
     3
 72
    23
 73
    19
 74
    17
 42
0.000000001
 43
0.0000000001
 44
0.00000001
 40
0.0
 40
0.0
 40
0.0
 40
0.0
 40
0.0163842845121645
 40
0.0334166750837459
 40
0.0520961933993685
 40
0.0704381935445153
 40
0.095379207703505
 40
0.1204708826080467
 40
0.1513145954769946
 40
0.1821006353285463
 40
0.2177992771831392
 40
0.2535198481025022
 40
0.2930661343731258
 40
0.3325961387761823
 40
0.3747539884574878
 40
0.4169546437581163
 40
0.4605847781264177
 40
0.5040563830935818
 40
0.5040563830935818
 40
0.5040563830935818
 40
0.5040563830935818
 10
3730.08249376202
 20
771.6412198335507
 30
0.0
 10
3730.078424324371
 20
771.6373413417426
 30
0.0
 10
3730.07012446489
 20
771.6294309477861
 30
0.0
 10
3730.067637816101
 20
771.6115158410024
 30
0.0
 10
3730.063832530447
 20
771.594109499699
 30
0.0
 10
3730.060117041079
 20
771.5737272665747
 30
0.0
 10
3730.056974544492
 20
771.5511673292872
 30
0.0
 10
3730.054130651946
 20
771.524350944376
 30
0.0
 10
3730.051408871257
 20
771.4955738510515
 30
0.0
 10
3730.048783627183
 20
771.4632357412573
 30
0.0
 10
3730.046510891676
 20
771.429242287782
 30
0.0
 10
3730.044488040483
 20
771.39230848978
 30
0.0
 10
3730.042749294207
 20
771.354081838621
 30
0.0
 10
3730.041296159398
 20
771.3136960111106
 30
0.0
 10
3730.040198952208
 20
771.272413772271
 30
0.0
 10
3730.039384380181
 20
771.2297588401665
 30
0.0
 10
3730.038689310179
 20
771.1866622907753
 30
0.0
 10
3730.038729418974
 20
771.1576278473192
 30
0.0
 10
3730.03874943032
 20
771.1431370476507
 30
0.0
 11
3730.08249376202
 21
771.6412198335507
 31
0.0
 11
3730.071897263017
 21
771.6287234767401
 31
0.0
 11
3730.067532319381
 21
771.6122598931051
 31
0.0
 11
3730.063907122754
 21
771.5939355282038
 31
0.0
 11
3730.060621596125
 21
771.5758901885575
 31
0.0
 11
3730.057115710095
 21
771.5511968099498
 31
0.0
 11
3730.054375447563
 21
771.5262552160299
 31
0.0
 11
3730.051475179255
 21
771.4955481636827
 31
0.0
 11
3730.048983659756
 21
771.4648631090462
 31
0.0
 11
3730.046582896076
 21
771.4292452853974
 31
0.0
 11
3730.044610059449
 21
771.3935792357111
 31
0.0
 11
3730.042811554606
 21
771.3540738672666
 31
0.0
 11
3730.041387536275
 21
771.3145695204441
 31
0.0
 11
3730.040251842329
 21
771.2724269708507
 31
0.0
 11
3730.03941400497
 21
771.2302346334636
 31
0.0
 11
3730.038816011854
 21
771.1866085971983
 31
0.0
 11
3730.03874943032
 21
771.1431370476507
 31
0.0
  0
SPLINE
  5
2AC
330
1F
100
AcDbEntity
  8
A_RUNDUNGEN
  6
Continuous
 62
     7
100
AcDbSpline
210
0.0
220
0.0
230
1.0
 70
     8
 71
     3
 72
    21
 73
    17
 74
    15
 42
0.000000001
 43
0.0000000001
 44
0.00000001
 40
0.0
 40
0.0
 40
0.0
 40
0.0
 40
0.0859597861742572
 40
0.1719195953585144
 40
0.2117370750741721
 40
0.2515592062530449
 40
0.2876579605589298
 40
0.3237422154182914
 40
0.3550058229223761
 40
0.3863118259318886
 40
0.4119261206969012
 40
0.4374282604956596
 40
0.4564068237647476
 40
0.475638766617979
 40
0.4936855357436328
 40
0.5112409328836296
 40
0.5112409328836296
 40
0.5112409328836296
 40
0.5112409328836296
 10
3730.03874943032
 20
763.0121978118507
 30
0.0
 10
3730.038871943477
 20
762.9835443236094
 30
0.0
 10
3730.039116956384
 20
762.9262373393557
 30
0.0
 10
3730.040788468064
 20
762.8556730429242
 30
0.0
 10
3730.042757615707
 20
762.8005080413884
 30
0.0
 10
3730.044489185712
 20
762.7619668323913
 30
0.0
 10
3730.046514303892
 20
762.7246861141318
 30
0.0
 10
3730.048790112878
 20
762.6902781897425
 30
0.0
 10
3730.05140689111
 20
762.6574963571175
 30
0.0
 10
3730.054131861525
 20
762.6282293476743
 30
0.0
 10
3730.057002860764
 20
762.600899168134
 30
0.0
 10
3730.060143756949
 20
762.5777565182302
 30
0.0
 10
3730.063807056998
 20
762.5567861617753
 30
0.0
 10
3730.067623802222
 20
762.5385863298696
 30
0.0
 10
3730.070393959489
 20
762.5199394986179
 30
0.0
 10
3730.078497780671
 20
762.5109122645865
 30
0.0
 10
3730.08249376202
 20
762.5064609390507
 30
0.0
 11
3730.03874943032
 21
763.0121978118507
 31
0.0
 11
3730.039395007459
 21
762.9262404540701
 31
0.0
 11
3730.041387536297
 21
762.8403037411094
 31
0.0
 11
3730.042818686592
 21
762.800511989457
 31
0.0
 11
3730.04461005948
 21
762.7607301705723
 31
0.0
 11
3730.046585329493
 21
762.7246854987145
 31
0.0
 11
3730.048983659794
 21
762.6886810342891
 31
0.0
 11
3730.051474136438
 21
762.6575167810763
 31
0.0
 11
3730.054375447609
 21
762.6263455088082
 31
0.0
 11
3730.057134825942
 21
762.600880279097
 31
0.0
 11
3730.060621596178
 21
762.5756176275268
 31
0.0
 11
3730.063890034233
 21
762.5569226235122
 31
0.0
 11
3730.067532319438
 21
762.538038731449
 31
0.0
 11
3730.0720389137
 21
762.5205637071964
 31
0.0
 11
3730.08249376202
 21
762.5064609390507
 31
0.0
  0
LWPOLYLINE
  5
2AD
330
1F
100
AcDbEntity
  8
0
  6
Continuous
 62
     7
100
AcDbPolyline
 90
      342
 70
     1
 43
0.0
 10
3684.27091601096
 20
760.8674717906367
 10
3684.57619274792
 20
760.8674717906467
 42
-0.4142135623716
 10
3684.77619274791
 20
760.6674717906467
 10
3684.77619274792
 20
756.0674717906506
 42
-0.41421356237443
 10
3684.57619274792
 20
755.8674717906497
 10
3684.17619274792
 20
755.8674717906497
 42
0.4142135623731
 10
3683.976192747921
 20
755.6674717906507
 10
3683.97619274792
 20
754.0674717906497
 42
0.4142135623731
 10
3684.17619274792
 20
753.8674717906495
 10
3685.57619274792
 20
753.8674717906497
 42
0.4142135623716
 10
3685.77619274792
 20
754.0674717906487
 10
3685.77619274792
 20
754.4453685168527
 42
-0.26794919243065
 10
3685.87619274792
 20
754.6185735976087
 42
0.57735026919015
 10
3685.87619274792
 20
754.9649837591228
 42
-0.57735026918996
 10
3685.87619274792
 20
755.3113939206366
 42
0.57735026918929
 10
3685.87619274792
 20
755.6578040821489
 42
-0.57735026918996
 10
3685.87619274792
 20
756.0042142436637
 42
0.5773502691893
 10
3685.87619274792
 20
756.3506244051775
 42
-0.57735026919015
 10
3685.87619274792
 20
756.6970345666907
 42
0.57735026918996
 10
3685.87619274792
 20
757.0434447282046
 42
-0.57735026918996
 10
3685.87619274792
 20
757.3898548897187
 42
0.57735026919015
 10
3685.87619274792
 20
757.7362650512327
 42
-0.57735026918929
 10
3685.87619274792
 20
758.0826752127457
 42
0.57735026919099
 10
3685.87619274792
 20
758.42908537426
 42
-0.57735026918997
 10
3685.87619274792
 20
758.7754955357747
 42
0.5773502691893
 10
3685.87619274792
 20
759.1219056972885
 42
-0.26794919243118
 10
3685.77619274792
 20
759.2951107780447
 10
3685.77619274792
 20
759.6674717906507
 42
-0.4142135623716
 10
3685.97619274792
 20
759.8674717906497
 10
3688.27619274792
 20
759.8674717906497
 42
-0.4142135623716
 10
3688.47619274792
 20
759.6674717906507
 10
3688.47619274792
 20
751.6674717909317
 42
0.19891236737775
 10
3688.534771391681
 20
751.5260504346949
 10
3689.63477139202
 20
750.4260504343547
 42
0.66817863792468
 10
3689.976192747923
 20
750.5674717904507
 10
3689.97619274792
 20
763.1674717906507
 42
0.4142135623731
 10
3689.77619274792
 20
763.3674717906505
 10
3685.97619275092
 20
763.3674717906507
 10
3683.97619275292
 20
762.8674717906507
 10
3663.97619274292
 20
762.8674717906497
 10
3661.97619274492
 20
763.3674717906497
 10
3659.17619274792
 20
763.3674717906497
 42
-0.41421356237309
 10
3658.97619274792
 20
763.5674717906497
 10
3658.97619274792
 20
797.1674717906507
 42
-0.4142135623716
 10
3659.17619274792
 20
797.3674717906507
 10
3662.21226072263
 20
797.3674717906507
 10
3664.21226072063
 20
798.3674717906507
 10
3683.74012477521
 20
798.3674717906507
 10
3685.74012477321
 20
797.3674717906507
 10
3689.77619274792
 20
797.3674717906497
 42
0.4142135623731
 10
3689.97619274792
 20
797.5674717906497
 10
3689.97619274792
 20
800.1674717906507
 42
-0.4142135623731
 10
3690.17619274792
 20
800.3674717906507
 10
3693.77619275612
 20
800.3674717906507
 42
0.4142135623731
 10
3693.97619275592
 20
800.5674717904507
 10
3693.97619275592
 20
807.0674717906506
 42
-0.15000000015002
 10
3697.97619275192
 20
807.0674717906517
 10
3697.97619275192
 20
800.5674717904507
 42
0.4142135623731
 10
3698.17619275172
 20
800.3674717906505
 10
3702.27619274792
 20
800.3674717906507
 42
0.41421356237459
 10
3702.47619274792
 20
800.5674717906517
 10
3702.47619274792
 20
800.6674717906507
 42
0.26794919242981
 10
3702.37619274792
 20
800.8406768714065
 10
3699.97591300042
 20
802.2264790297597
 42
-0.26794919243172
 10
3699.87591300042
 20
802.3996841105167
 10
3699.87591300042
 20
802.6674717906517
 42
-0.4142135623731
 10
3700.07591300042
 20
802.8674717906507
 10
3700.37619274792
 20
802.8674717906507
 42
0.4142135623731
 10
3700.57619274792
 20
803.0674717906506
 10
3700.57619274792
 20
803.6674717906507
 42
0.4142135623731
 10
3700.37619274792
 20
803.8674717906505
 10
3699.77619274792
 20
803.8674717906507
 42
-0.41421356237309
 10
3699.57619274792
 20
804.0674717906517
 10
3699.57619274792
 20
804.6674717906517
 42
-0.4142135623731
 10
3699.77619274792
 20
804.8674717906517
 10
3700.07619274792
 20
804.8674717906507
 42
0.4142135623731
 10
3700.27619274792
 20
805.0674717906506
 10
3700.27619274792
 20
805.6674717906507
 42
0.4142135623731
 10
3700.07619274792
 20
805.8674717906509
 10
3699.47619274792
 20
805.8674717906517
 42
-0.41421356237309
 10
3699.27619274792
 20
806.0674717906517
 10
3699.27619274792
 20
806.6674717906517
 42
-0.4142135623731
 10
3699.47619274792
 20
806.8674717906517
 10
3699.77619274792
 20
806.8674717906517
 42
0.4142135623731
 10
3699.97619274792
 20
807.0674717906517
 10
3699.97619274792
 20
807.6674717906507
 42
0.4142135623731
 10
3699.77619274792
 20
807.8674717906505
 10
3699.17619274792
 20
807.8674717906507
 42
-0.41421356237309
 10
3698.97619274792
 20
808.0674717906506
 10
3698.97619274792
 20
808.6674717906507
 42
0.4142135623731
 10
3698.77619274792
 20
808.8674717906505
 10
3695.17619274792
 20
808.8674717906507
 42
-0.41421356237459
 10
3694.97619274792
 20
809.0674717906517
 10
3694.97619274792
 20
811.3674717906507
 42
-0.4142135623716
 10
3695.17619274792
 20
811.5674717906497
 10
3695.33701472961
 20
811.5674717906497
 42
-0.26794919243318
 10
3695.51021981037
 20
811.4674717906497
 42
0.57735026918514
 10
3695.856629971888
 20
811.4674717906462
 42
-0.57735026919179
 10
3696.2030401334
 20
811.4674717906507
 42
0.57735026918243
 10
3696.549450294902
 20
811.4674717906543
 42
-0.57735026918773
 10
3696.89586045642
 20
811.4674717906507
 42
0.57735026919355
 10
3697.24227061794
 20
811.4674717906499
 42
-0.57735026918662
 10
3697.58868077945
 20
811.4674717906497
 42
0.57735026918361
 10
3697.935090940967
 20
811.4674717906454
 42
-0.26794919243324
 10
3698.10829602172
 20
811.5674717906497
 10
3698.77619274793
 20
811.5674717906517
 42
0.41421356235994
 10
3698.976192747918
 20
811.7674717906507
 10
3698.97619274792
 20
813.1674717906507
 42
0.4142135623716
 10
3698.77619274792
 20
813.3674717906495
 10
3697.17619274792
 20
813.3674717906517
 42
0.4142135623716
 10
3696.976192747919
 20
813.1674717906517
 10
3696.97619274792
 20
812.7674717906527
 42
-0.41421356237609
 10
3696.77619274792
 20
812.5674717906517
 10
3693.67619274792
 20
812.5674717906577
 42
0.31529878887587
 10
3693.488254223765
 20
812.4358758193256
 10
3693.25906109529
 20
811.8061728741427
 42
-0.19891236737953
 10
3693.15564622348
 20
811.6933153453997
 10
3692.66495183225
 20
811.4645007929577
 42
0.41421356236819
 10
3692.568213927192
 20
811.1987155832036
 10
3692.79702847964
 20
810.7080211919767
 42
-0.41421356236952
 10
3692.70029057458
 20
810.4422359822207
 10
3692.20959618335
 20
810.2134214297787
 42
0.41421356236692
 10
3692.11285827829
 20
809.9476362200248
 10
3692.34167283073
 20
809.4569418287967
 42
-0.19891236737774
 10
3692.34834979748
 20
809.3040141477827
 10
3691.97619275592
 20
808.2815210796537
 10
3691.97619275592
 20
802.5674717906517
 42
-0.4142135623731
 10
3691.77619275592
 20
802.3674717906517
 10
3687.17619274804
 20
802.3674717906507
 42
-0.41421356238775
 10
3686.97619274804
 20
802.5674717906606
 10
3686.97619274817
 20
803.1346175562527
 42
-0.19891236731865
 10
3687.03477139193
 20
803.2760389124447
 10
3687.41761410444
 20
803.6588816249567
 42
0.41421356236827
 10
3687.41761410444
 20
803.9417243374312
 10
3687.03477139197
 20
804.3245670499057
 42
-0.41421356238793
 10
3687.03477139197
 20
804.6074097623797
 10
3687.4176141043
 20
804.9902524747137
 42
0.41421356236733
 10
3687.4176141043
 20
805.2730951871877
 10
3687.03477139183
 20
805.6559378996637
 42
-0.41421356238499
 10
3687.03477139183
 20
805.9387806121357
 10
3687.4176141043
 20
806.3216233246106
 42
0.41421356236839
 10
3687.417614104299
 20
806.6044660370852
 10
3687.03477139183
 20
806.9873087495597
 42
-0.41421356238816
 10
3687.03477139183
 20
807.2701514620347
 10
3687.41761410416
 20
807.6529941743677
 42
0.41421356236744
 10
3687.417614104161
 20
807.9358368868427
 10
3687.03477139169
 20
808.3186795993176
 42
-0.41421356238616
 10
3687.03477139169
 20
808.6015223117907
 10
3687.41761410416
 20
808.9843650242647
 42
0.41421356236839
 10
3687.417614104159
 20
809.2672077367392
 10
3687.03477139169
 20
809.6500504492147
 42
-0.4142135623871
 10
3687.03477139169
 20
809.9328931616888
 10
3687.41761410416
 20
810.3157358741637
 42
0.41421356236839
 10
3687.417614104159
 20
810.5985785866383
 10
3687.03477139169
 20
810.9814212991128
 42
-0.41421356236733
 10
3687.03477139169
 20
811.2642640115877
 10
3687.41761410416
 20
811.6471067240617
 42
0.41421356236733
 10
3687.41761410416
 20
811.9299494365357
 10
3687.03477139169
 20
812.3127921490106
 42
-0.41421356238816
 10
3687.03477139169
 20
812.5956348614857
 10
3687.41761410416
 20
812.9784775739616
 42
0.41421356236638
 10
3687.417614104159
 20
813.2613202864343
 10
3687.03477139169
 20
813.6441629989097
 42
-0.41421356236744
 10
3687.03477139169
 20
813.9270057113847
 10
3687.41761410416
 20
814.3098484238587
 42
0.41421356238887
 10
3687.417614104159
 20
814.5926911363331
 10
3687.03477139169
 20
814.9755338488077
 42
-0.41421356236627
 10
3687.03477139169
 20
815.2583765612817
 10
3687.41761410416
 20
815.6412192737577
 42
0.41421356238805
 10
3687.41761410416
 20
815.9240619862317
 10
3687.03477139169
 20
816.3069046987057
 42
-0.4142135623685
 10
3687.03477139169
 20
816.5897474111817
 10
3687.41761410416
 20
816.9725901236546
 42
0.41421356238911
 10
3687.417614104159
 20
817.2554328361292
 10
3687.03477139169
 20
817.6382755486047
 42
-0.41421356236638
 10
3687.03477139169
 20
817.9211182610787
 10
3687.41761410416
 20
818.3039609735537
 42
0.41421356238911
 10
3687.417614104159
 20
818.5868036860282
 10
3687.03477139169
 20
818.9696463985027
 42
-0.41421356236839
 10
3687.03477139169
 20
819.2524891109787
 10
3687.41761410416
 20
819.6353318234517
 42
0.41421356238911
 10
3687.41761410416
 20
819.9181745359272
 10
3687.03477139177
 20
820.3010172483247
 42
-0.41421356238593
 10
3687.03477139177
 20
820.5838599607977
 10
3687.41761410424
 20
820.9667026732727
 42
0.41421356236827
 10
3687.417614104239
 20
821.2495453857472
 10
3687.03477139176
 20
821.6323880982217
 42
-0.41421356236744
 10
3687.03477139176
 20
821.9152308106967
 10
3687.41761410424
 20
822.2980735231718
 42
0.41421356236815
 10
3687.417614104239
 20
822.5809162356461
 10
3687.03477139177
 20
822.9637589481197
 42
-0.4142135623685
 10
3687.03477139177
 20
823.2466016605957
 10
3687.41761410424
 20
823.6294443730696
 42
0.41421356236744
 10
3687.41761410424
 20
823.9122870855438
 10
3687.03477139177
 20
824.2951297980187
 42
-0.41421356238828
 10
3687.03477139177
 20
824.5779725104937
 10
3687.41761410424
 20
824.9608152229697
 42
0.41421356236627
 10
3687.417614104239
 20
825.2436579354422
 10
3687.03477139177
 20
825.6265006479177
 42
-0.41421356236638
 10
3687.03477139177
 20
825.9093433603917
 10
3687.41761410424
 20
826.2921860728657
 42
0.41421356236839
 10
3687.417614104239
 20
826.5750287853402
 10
3687.03477139178
 20
826.9578714978037
 42
-0.19891236738945
 10
3686.97619274802
 20
827.0992928540506
 10
3686.97619274804
 20
827.6674717906297
 42
0.41421356240373
 10
3686.77619274804
 20
827.8674717906505
 10
3685.87619274914
 20
827.8674717906507
 42
0.4142135623731
 10
3685.676192749341
 20
827.6674717908517
 10
3685.67619274934
 20
801.5674717906506
 42
-0.4142135623716
 10
3685.47619274934
 20
801.3674717906507
 10
3670.97619274793
 20
801.3674717906507
 42
-0.41421356237176
 10
3670.77619274793
 20
801.5674717906497
 10
3670.77619274792
 20
804.6674717906496
 42
0.4142135623731
 10
3670.57619274792
 20
804.8674717906499
 10
3667.97619274792
 20
804.8674717906487
 42
0.4142135623716
 10
3667.776192747921
 20
804.6674717906507
 10
3667.77619274792
 20
803.5674717906497
 42
0.4142135623731
 10
3667.97619274792
 20
803.3674717906499
 10
3669.07619274792
 20
803.3674717906487
 42
-0.4142135623716
 10
3669.27619274792
 20
803.1674717906507
 10
3669.27619274793
 20
801.5674717906506
 42
-0.4142135623731
 10
3669.07619274792
 20
801.3674717906507
 10
3658.17619274792
 20
801.3674717906507
 42
-0.41421356237309
 10
3657.97619274792
 20
801.5674717906506
 10
3657.97619274792
 20
817.1674717846507
 42
0.4142135623731
 10
3657.77619274792
 20
817.3674717846505
 10
3650.47619274792
 20
817.3674717846498
 42
0.4142135623731
 10
3650.276192747921
 20
817.1674717846507
 10
3650.27619274792
 20
809.5674717904507
 42
0.4142135623731
 10
3650.47619274772
 20
809.3674717906509
 10
3651.63204090191
 20
809.3674717906497
 42
0.32282280605551
 10
3651.82177756152
 20
809.5042262374466
 10
3652.27619274592
 20
810.8674717906497
 10
3652.27619274592
 20
815.1674717848507
 42
-0.4142135623731
 10
3652.47619274572
 20
815.3674717846498
 10
3654.27619274612
 20
815.3674717846498
 42
-0.4142135623731
 10
3654.47619274592
 20
815.1674717848507
 10
3654.47619274593
 20
767.5674717906497
 42
-0.41421356238775
 10
3654.27619274592
 20
767.3674717906497
 10
3652.47619274572
 20
767.3674717906497
 42
-0.41421356237309
 10
3652.27619274592
 20
767.5674717904496
 10
3652.27619274592
 20
771.8674717846507
 10
3651.82177756152
 20
773.2307173378537
 42
0.32282280605561
 10
3651.63204090191
 20
773.3674717846504
 10
3650.47619274772
 20
773.3674717846498
 42
0.4142135623731
 10
3650.276192747921
 20
773.1674717848507
 10
3650.27619274792
 20
765.5674717906506
 42
0.4142135623731
 10
3650.47619274792
 20
765.3674717906508
 10
3654.27619274593
 20
765.3674717906507
 42
-0.41421356235695
 10
3654.47619274593
 20
765.1674717906507
 10
3654.47619274593
 20
761.0674717906487
 42
0.41421356238775
 10
3654.67619274593
 20
760.8674717906584
 10
3654.98075731351
 20
760.8674717906787
 42
-0.19891236738269
 10
3655.12217866975
 20
760.8088931469147
 10
3655.50502138208
 20
760.4260504345807
 42
0.41421356237816
 10
3655.787864094559
 20
760.4260504345804
 10
3656.17070680703
 20
760.8088931470556
 42
-0.4142135623771
 10
3656.45354951951
 20
760.8088931470556
 10
3656.83639223198
 20
760.4260504345807
 42
0.41421356237863
 10
3657.119234944461
 20
760.426050434581
 10
3657.50207765693
 20
760.8088931470556
 42
-0.41421356236886
 10
3657.7849203694
 20
760.8088931470556
 10
3658.16776308188
 20
760.4260504345797
 42
0.41421356236862
 10
3658.450605794355
 20
760.4260504345744
 10
3658.83344850683
 20
760.8088931470537
 42
-0.41421356236674
 10
3659.1162912193
 20
760.8088931470537
 10
3659.49913393178
 20
760.4260504345797
 42
0.41421356236721
 10
3659.781976644245
 20
760.4260504345845
 10
3660.16481935673
 20
760.8088931470547
 42
-0.41421356236768
 10
3660.4476620692
 20
760.8088931470537
 10
3660.83050478168
 20
760.4260504345787
 42
0.41421356236792
 10
3661.113347494146
 20
760.4260504345839
 10
3661.49619020663
 20
760.8088931470527
 42
-0.41421356236756
 10
3661.7790329191
 20
760.8088931470537
 10
3662.16187563157
 20
760.4260504345787
 42
0.41421356238039
 10
3662.444718344051
 20
760.4260504345793
 10
3662.82756105652
 20
760.8088931470537
 42
-0.41421356237757
 10
3663.110403769
 20
760.8088931470537
 10
3663.49324648147
 20
760.4260504345777
 42
0.41421356238016
 10
3663.77608919395
 20
760.4260504345784
 10
3664.15893190642
 20
760.8088931470517
 42
-0.41421356238134
 10
3664.4417746189
 20
760.8088931470517
 10
3664.82461733137
 20
760.4260504345787
 42
0.4142135623811
 10
3665.10746004385
 20
760.4260504345789
 10
3665.49030275632
 20
760.8088931470537
 42
-0.41421356236897
 10
3665.77314546879
 20
760.8088931470517
 10
3666.15598818127
 20
760.4260504345777
 42
0.41421356236933
 10
3666.438830893745
 20
760.426050434573
 10
3666.82167360622
 20
760.8088931470508
 42
-0.4142135623698
 10
3667.10451631869
 20
760.8088931470517
 10
3667.48735903117
 20
760.4260504345777
 42
0.41421356236886
 10
3667.770201743645
 20
760.4260504345725
 10
3668.15304445604
 20
760.8088931469757
 42
-0.41421356236792
 10
3668.43588716851
 20
760.8088931469767
 10
3668.81872988099
 20
760.4260504345017
 42
0.41421356236815
 10
3669.101572593466
 20
760.4260504344969
 10
3669.48441530594
 20
760.8088931469767
 42
-0.41421356236909
 10
3669.76725801841
 20
760.8088931469767
 10
3670.15010073089
 20
760.4260504344996
 42
0.41421356236792
 10
3670.432943443366
 20
760.4260504344949
 10
3670.81578615584
 20
760.8088931469747
 42
-0.4142135623665
 10
3671.09862886831
 20
760.8088931469747
 10
3671.48147158079
 20
760.4260504345007
 42
0.4142135623665
 10
3671.764314293255
 20
760.4260504345059
 10
3672.14715700573
 20
760.8088931469757
 42
-0.41421356237828
 10
3672.42999971821
 20
760.8088931469747
 10
3672.81284243069
 20
760.4260504344987
 42
0.41421356236556
 10
3673.095685143155
 20
760.4260504345044
 10
3673.47852785563
 20
760.8088931469737
 42
-0.4142135623771
 10
3673.76137056811
 20
760.8088931469737
 10
3674.14421328058
 20
760.4260504344987
 42
0.41421356237804
 10
3674.42705599306
 20
760.4260504344994
 10
3674.80989870552
 20
760.8088931469637
 42
-0.41421356236886
 10
3675.09274141799
 20
760.8088931469617
 10
3675.47558413047
 20
760.4260504344877
 42
0.41421356236886
 10
3675.758426842945
 20
760.4260504344829
 10
3676.14126955542
 20
760.8088931469607
 42
-0.41421356237015
 10
3676.42411226789
 20
760.8088931469617
 10
3676.80695498037
 20
760.4260504344877
 42
0.41421356236933
 10
3677.089797692835
 20
760.4260504344925
 10
3677.47264040524
 20
760.8088931468857
 42
-0.41421356236815
 10
3677.75548311771
 20
760.8088931468867
 10
3678.13832583019
 20
760.4260504344116
 42
0.41421356236792
 10
3678.421168542656
 20
760.4260504344169
 10
3678.80401125514
 20
760.8088931468867
 42
-0.41421356236862
 10
3679.08685396761
 20
760.8088931468867
 10
3679.46969668009
 20
760.4260504344097
 42
0.41421356236815
 10
3679.752539392556
 20
760.426050434415
 10
3680.13538210503
 20
760.8088931468847
 42
-0.41421356237686
 10
3680.41822481751
 20
760.8088931468847
 10
3680.80106752998
 20
760.4260504344107
 42
0.4142135623771
 10
3681.08391024246
 20
760.426050434411
 10
3681.46675295493
 20
760.8088931468857
 42
-0.41421356237828
 10
3681.74959566741
 20
760.8088931468847
 10
3682.13243837988
 20
760.4260504344087
 42
0.41421356237639
 10
3682.415281092361
 20
760.4260504344094
 10
3682.79812380483
 20
760.8088931468837
 42
-0.41421356237733
 10
3683.08096651731
 20
760.8088931468837
 10
3683.46380922978
 20
760.4260504344087
 42
0.41421356237863
 10
3683.746651942261
 20
760.4260504344095
 10
3684.12949465472
 20
760.8088931468717
 42
-0.198912367383
 10
3684.27091601096
 20
760.8674717906367
  0
DIMENSION
  5
2B9
330
1F
100
AcDbEntity
  8
1
100
AcDbDimension
  2
*D1
 10
3633.61238610596
 20
797.3674717906507
 30
0.0
 11
3629.86238610596
 21
783.236639769439
 31
0.0
 70
    32
  1
<>
 71
     5
 42
-1.0
 73
     0
 74
     0
 75
     0
 53
90.0
  3
ME10_DIM_10
100
AcDbAlignedDimension
 13
3659.97619274792
 23
769.3674717906507
 33
0.0
 14
3659.17619274792
 24
797.3674717906507
 34
0.0
 50
90.0
100
AcDbRotatedDimension
  0
DIMENSION
  5
2C4
330
1F
100
AcDbEntity
  8
1
100
AcDbDimension
  2
*D2
 10
3751.19590254507
 20
786.3674717906507
 30
0.0
 11
3747.44590254507
 21
772.387872026125
 31
0.0
 70
    32
  1
<>
 71
     5
 42
-1.0
 73
     0
 74
     0
 75
     0
 53
90.0
  3
ME10_DIM_11
100
AcDbAlignedDimension
 13
3736.47619274792
 23
758.3674717906507
 33
0.0
 14
3736.47619274792
 24
786.3674717906507
 34
0.0
 50
90.0
100
AcDbRotatedDimension
  0
DIMENSION
  5
2CF
330
1F
100
AcDbEntity
  8
1
100
AcDbDimension
  2
*D3
 10
3659.97619274792
 20
740.866750759272
 30
0.0
 11
3674.70926047769
 21
744.616750759272
 31
0.0
 70
    32
  1
<>
 71
     5
 42
-1.0
 73
     0
 74
     0
 75
     0
 53
0.00013888888889
  3
ME10_DIM_12
100
AcDbAlignedDimension
 13
3689.97619274792
 23
750.5674717904507
 33
0.0
 14
3659.97619274792
 24
769.3674717906507
 34
0.0
100
AcDbRotatedDimension
  0
DIMENSION
  5
2DA
330
1F
100
AcDbEntity
  8
1
100
AcDbDimension
  2
*D4
 10
3693.47619274792
 20
740.866750759272
 30
0.0
 11
3714.97619274792
 21
744.616750759272
 31
0.0
 70
    32
  1
<>
 71
     5
 42
-1.0
 73
     0
 74
     0
 75
     0
 53
0.00013888888889
  3
ME10_DIM_13
100
AcDbAlignedDimension
 13
3736.47619274792
 23
758.3674717906507
 33
0.0
 14
3693.47619274792
 24
750.3674717906507
 34
0.0
100
AcDbRotatedDimension
  0
DIMENSION
  5
2E7
330
1F
100
AcDbEntity
  8
1
100
AcDbDimension
  2
*D5
 10
3689.97619274792
 20
740.866750759272
 30
0.0
 11
3691.69194782743
 21
735.999609400324
 31
0.0
 70
    32
  1
<>
 71
     5
 42
-1.0
 73
     0
 74
     0
 75
     0
 53
0.00013888888889
  3
ME10_DIM_14
100
AcDbAlignedDimension
 13
3693.47619274792
 23
750.3674717906507
 33
0.0
 14
3689.97619274792
 24
750.5674717904507
 34
0.0
100
AcDbRotatedDimension
  0
DIMENSION
  5
2F2
330
1F
100
AcDbEntity
  8
1
100
AcDbDimension
  2
*D6
 10
3626.1903227457
 20
797.3674717906507
 30
0.0
 11
3622.4403227457
 21
781.915764086678
 31
0.0
 70
    32
  1
<>
 71
     5
 42
-1.0
 73
     0
 74
     0
 75
     0
 53
90.0
  3
ME10_DIM_15
100
AcDbAlignedDimension
 13
3675.97619274792
 23
764.3674717906507
 33
0.0
 14
3659.17619274792
 24
797.3674717906507
 34
0.0
 50
90.0
100
AcDbRotatedDimension
  0
DIMENSION
  5
2FD
330
1F
100
AcDbEntity
  8
1
100
AcDbDimension
  2
*D7
 10
3626.1903227457
 20
764.3674717906507
 30
0.0
 11
3622.4403227457
 21
757.3674717906501
 31
0.0
 70
    32
  1
<>
 71
     5
 42
-1.0
 73
     0
 74
     0
 75
     0
 53
90.0
  3
ME10_DIM_16
100
AcDbAlignedDimension
 13
3641.19036470365
 23
750.3674717906497
 33
0.0
 14
3675.97619274792
 24
764.3674717906507
 34
0.0
 50
90.0
100
AcDbRotatedDimension
  0
DIMENSION
  5
30A
330
1F
100
AcDbEntity
  8
1
100
AcDbDimension
  2
*D8
 10
3760.28670900197
 20
750.3674717906507
 30
0.0
 11
3756.53670900197
 21
745.37895429188
 31
0.0
 70
    32
  1
<>
 71
     5
 42
-1.0
 73
     0
 74
     0
 75
     0
 53
90.0
  3
ME10_DIM_17
100
AcDbAlignedDimension
 13
3713.47619274792
 23
754.3674717906507
 33
0.0
 14
3742.89573629599
 24
750.3674717906507
 34
0.0
 50
90.0
100
AcDbRotatedDimension
  0
DIMENSION
  5
315
330
1F
100
AcDbEntity
  8
1
100
AcDbDimension
  2
*D9
 10
3760.28670900197
 20
754.3674717906507
 30
0.0
 11
3756.53670900197
 21
770.3674717906507
 31
0.0
 70
    32
  1
<>
 71
     5
 42
-1.0
 73
     0
 74
     0
 75
     0
 53
90.0
  3
ME10_DIM_18
100
AcDbAlignedDimension
 13
3736.47619274792
 23
786.3674717906507
 33
0.0
 14
3713.47619274792
 24
754.3674717906507
 34
0.0
 50
90.0
100
AcDbRotatedDimension
  0
ENDSEC
  0
SECTION
  2
OBJECTS
  0
DICTIONARY
  5
C
330
0
100
AcDbDictionary
281
     1
  3
ACAD_GROUP
350
D
  3
ACAD_LAYOUT
350
1A
  3
ACAD_MATERIAL
350
3B
  3
ACAD_MLEADERSTYLE
350
337
  3
ACAD_MLINESTYLE
350
17
  3
ACAD_PLOTSETTINGS
350
19
  3
ACAD_PLOTSTYLENAME
350
E
  3
ACAD_TABLESTYLE
350
336
  3
ACAD_VISUALSTYLE
350
2A
  0
DICTIONARY
  5
D
102
{ACAD_REACTORS
330
C
102
}
330
C
100
AcDbDictionary
281
     1
  0
DICTIONARY
  5
1A
102
{ACAD_REACTORS
330
C
102
}
330
C
100
AcDbDictionary
281
     1
  3
Layout1
350
1E
  3
Layout2
350
26
  3
Model
350
22
  0
DICTIONARY
  5
3B
102
{ACAD_REACTORS
330
C
102
}
330
C
100
AcDbDictionary
281
     1
  3
ByBlock
350
3D
  3
ByLayer
350
3C
  3
Global
350
3E
  0
DICTIONARY
  5
337
102
{ACAD_REACTORS
330
C
102
}
330
C
100
AcDbDictionary
281
     1
  0
DICTIONARY
  5
17
102
{ACAD_REACTORS
330
C
102
}
330
C
100
AcDbDictionary
281
     1
  3
Standard
350
18
  0
DICTIONARY
  5
19
102
{ACAD_REACTORS
330
C
102
}
330
C
100
AcDbDictionary
281
     1
  0
ACDBDICTIONARYWDFLT
  5
E
102
{ACAD_REACTORS
330
C
102
}
330
C
100
AcDbDictionary
281
     1
  3
Normal
350
F
100
AcDbDictionaryWithDefault
340
F
  0
DICTIONARY
  5
336
102
{ACAD_REACTORS
330
C
102
}
330
C
100
AcDbDictionary
281
     1
  0
DICTIONARY
  5
2A
102
{ACAD_REACTORS
330
C
102
}
330
C
100
AcDbDictionary
281
     1
  3
2dWireframe
350
2F
  3
3D Hidden
350
31
  3
3dWireframe
350
30
  3
Basic
350
32
  3
Brighten
350
36
  3
ColorChange
350
3A
  3
Conceptual
350
34
  3
Dim
350
35
  3
Facepattern
350
39
  3
Flat
350
2B
  3
FlatWithEdges
350
2C
  3
Gouraud
350
2D
  3
GouraudWithEdges
350
2E
  3
Linepattern
350
38
  3
Realistic
350
33
  3
Thicken
350
37
  0
LAYOUT
  5
1E
102
{ACAD_REACTORS
330
1A
102
}
330
1A
100
AcDbPlotSettings
  1

  2
none_device
  4

  6

 40
0.0
 41
0.0
 42
0.0
 43
0.0
 44
0.0
 45
0.0
 46
0.0
 47
0.0
 48
0.0
 49
0.0
140
0.0
141
0.0
142
1.0
143
1.0
 70
   688
 72
     0
 73
     0
 74
     5
  7

 75
    16
 76
     0
 77
     2
 78
   300
147
1.0
148
0.0
149
0.0
100
AcDbLayout
  1
Layout1
 70
     1
 71
     1
 10
0.0
 20
0.0
 11
12.0
 21
9.0
 12
0.0
 22
0.0
 32
0.0
 14
1.00000000000000E+20
 24
1.00000000000000E+20
 34
1.00000000000000E+20
 15
-1.00000000000000E+20
 25
-1.00000000000000E+20
 35
-1.00000000000000E+20
146
0.0
 13
0.0
 23
0.0
 33
0.0
 16
1.0
 26
0.0
 36
0.0
 17
0.0
 27
1.0
 37
0.0
 76
     0
330
1B
  0
LAYOUT
  5
26
102
{ACAD_REACTORS
330
1A
102
}
330
1A
100
AcDbPlotSettings
  1

  2
none_device
  4

  6

 40
0.0
 41
0.0
 42
0.0
 43
0.0
 44
0.0
 45
0.0
 46
0.0
 47
0.0
 48
0.0
 49
0.0
140
0.0
141
0.0
142
1.0
143
1.0
 70
   688
 72
     0
 73
     0
 74
     5
  7

 75
    16
 76
     0
 77
     2
 78
   300
147
1.0
148
0.0
149
0.0
100
AcDbLayout
  1
Layout2
 70
     1
 71
     2
 10
0.0
 20
0.0
 11
0.0
 21
0.0
 12
0.0
 22
0.0
 32
0.0
 14
0.0
 24
0.0
 34
0.0
 15
0.0
 25
0.0
 35
0.0
146
0.0
 13
0.0
 23
0.0
 33
0.0
 16
1.0
 26
0.0
 36
0.0
 17
0.0
 27
1.0
 37
0.0
 76
     0
330
23
  0
LAYOUT
  5
22
102
{ACAD_REACTORS
330
1A
102
}
330
1A
100
AcDbPlotSettings
  1

  2
none_device
  4

  6

 40
0.0
 41
0.0
 42
0.0
 43
0.0
 44
0.0
 45
0.0
 46
0.0
 47
0.0
 48
0.0
 49
0.0
140
0.0
141
0.0
142
1.0
143
1.0
 70
  1712
 72
     0
 73
     0
 74
     0
  7

 75
     0
 76
     0
 77
     2
 78
   300
147
1.0
148
0.0
149
0.0
100
AcDbLayout
  1
Model
 70
     1
 71
     0
 10
0.0
 20
0.0
 11
12.0
 21
9.0
 12
0.0
 22
0.0
 32
0.0
 14
3620.6903227457
 24
734.249609400324
 34
0.0
 15
3762.28670900197
 25
834.681875588616
 35
0.0
146
0.0
 13
0.0
 23
0.0
 33
0.0
 16
1.0
 26
0.0
 36
0.0
 17
0.0
 27
1.0
 37
0.0
 76
     0
330
1F
331
29
  0
MATERIAL
  5
3D
102
{ACAD_REACTORS
330
3B
102
}
330
3B
100
AcDbMaterial
  1
ByBlock
 72
     1
 94
      127
  0
MATERIAL
  5
3C
102
{ACAD_REACTORS
330
3B
102
}
330
3B
100
AcDbMaterial
  1
ByLayer
 72
     1
 94
      127
  0
MATERIAL
  5
3E
102
{ACAD_REACTORS
330
3B
102
}
330
3B
100
AcDbMaterial
  1
Global
 72
     1
 94
      127
  0
MLINESTYLE
  5
18
102
{ACAD_REACTORS
330
17
102
}
330
17
100
AcDbMlineStyle
  2
Standard
 70
     0
  3

 62
   256
 51
90.0
 52
90.0
 71
     2
 49
0.5
 62
   256
  6
BYLAYER
 49
-0.5
 62
   256
  6
BYLAYER
  0
ACDBPLACEHOLDER
  5
F
102
{ACAD_REACTORS
330
E
102
}
330
E
  0
VISUALSTYLE
  5
2F
102
{ACAD_REACTORS
330
2A
102
}
102
{ACAD_XDICTIONARY
360
31E
102
}
330
2A
100
AcDbVisualStyle
  2
2dWireframe
 70
     4
 71
     0
 72
     2
 73
     0
 90
        0
 40
-0.6
 41
-30.0
 62
     5
 63
     7
421
 16777215
 74
     1
 91
        4
 64
     7
 65
   257
 75
     1
175
     1
 42
1.0
 92
        0
 66
   257
 43
1.0
 76
     1
 77
     6
 78
     2
 67
     7
 79
     5
170
     0
171
     0
290
     0
174
     0
 93
        1
 44
0.0
173
     0
291
     0
 45
0.0
  0
VISUALSTYLE
  5
31
102
{ACAD_REACTORS
330
2A
102
}
102
{ACAD_XDICTIONARY
360
322
102
}
330
2A
100
AcDbVisualStyle
  2
3D Hidden
 70
     6
 71
     1
 72
     2
 73
     2
 90
        0
 40
-0.6
 41
-30.0
 62
     5
 63
     7
421
 16777215
 74
     2
 91
        2
 64
     7
 65
   257
 75
     2
175
     1
 42
40.0
 92
        0
 66
   257
 43
1.0
 76
     1
 77
     6
 78
     2
 67
     7
 79
     3
170
     0
171
     0
290
     0
174
     0
 93
        1
 44
0.0
173
     0
291
     0
 45
0.0
  0
VISUALSTYLE
  5
30
102
{ACAD_REACTORS
330
2A
102
}
102
{ACAD_XDICTIONARY
360
320
102
}
330
2A
100
AcDbVisualStyle
  2
3dWireframe
 70
     5
 71
     0
 72
     2
 73
     0
 90
        0
 40
-0.6
 41
-30.0
 62
     5
 63
     7
421
 16777215
 74
     1
 91
        4
 64
     7
 65
   257
 75
     1
175
     1
 42
1.0
 92
        0
 66
   257
 43
1.0
 76
     1
 77
     6
 78
     2
 67
     7
 79
     5
170
     0
171
     0
290
     0
174
     0
 93
        1
 44
0.0
173
     0
291
     0
 45
0.0
  0
VISUALSTYLE
  5
32
102
{ACAD_REACTORS
330
2A
102
}
102
{ACAD_XDICTIONARY
360
324
102
}
330
2A
100
AcDbVisualStyle
  2
Basic
 70
     7
 71
     1
 72
     0
 73
     1
 90
        0
 40
-0.6
 41
-30.0
 62
     5
 63
     7
421
 16777215
 74
     0
 91
        4
 64
     7
 65
   257
 75
     1
175
     1
 42
1.0
 92
        8
 66
     7
 43
1.0
 76
     1
 77
     6
 78
     2
 67
     7
 79
     5
170
     0
171
     0
290
     0
174
     0
 93
        1
 44
0.0
173
     0
291
     1
 45
0.0
  0
VISUALSTYLE
  5
36
102
{ACAD_REACTORS
330
2A
102
}
102
{ACAD_XDICTIONARY
360
32C
102
}
330
2A
100
AcDbVisualStyle
  2
Brighten
 70
    12
 71
     2
 72
     2
 73
     0
 90
        0
 40
-0.6
 41
-30.0
 62
     5
 63
     7
421
 16777215
 74
     1
 91
        4
 64
     7
 65
   257
 75
     1
175
     1
 42
1.0
 92
        8
 66
     7
 43
1.0
 76
     1
 77
     6
 78
     2
 67
     7
 79
     5
170
     0
171
     0
290
     0
174
     0
 93
        1
 44
50.0
173
     0
291
     1
 45
0.0
  0
VISUALSTYLE
  5
3A
102
{ACAD_REACTORS
330
2A
102
}
102
{ACAD_XDICTIONARY
360
334
102
}
330
2A
100
AcDbVisualStyle
  2
ColorChange
 70
    16
 71
     2
 72
     2
 73
     3
 90
        0
 40
-0.6
 41
-30.0
 62
     5
 63
     8
421
  8421504
 74
     1
 91
        4
 64
     7
 65
   257
 75
     1
175
     1
 42
1.0
 92
        8
 66
     8
424
  8421504
 43
1.0
 76
     1
 77
     6
 78
     2
 67
     7
 79
     5
170
     0
171
     0
290
     0
174
     0
 93
        1
 44
0.0
173
     0
291
     1
 45
0.0
  0
VISUALSTYLE
  5
34
102
{ACAD_REACTORS
330
2A
102
}
102
{ACAD_XDICTIONARY
360
328
102
}
330
2A
100
AcDbVisualStyle
  2
Conceptual
 70
     9
 71
     3
 72
     2
 73
     0
 90
        0
 40
-0.6
 41
-30.0
 62
     5
 63
     7
421
 16777215
 74
     2
 91
        2
 64
     7
 65
   257
 75
     1
175
     1
 42
40.0
 92
        8
 66
     7
 43
1.0
 76
     1
 77
     6
 78
     2
 67
     7
 79
     3
170
     0
171
     0
290
     0
174
     0
 93
        1
 44
0.0
173
     0
291
     0
 45
0.0
  0
VISUALSTYLE
  5
35
102
{ACAD_REACTORS
330
2A
102
}
102
{ACAD_XDICTIONARY
360
32A
102
}
330
2A
100
AcDbVisualStyle
  2
Dim
 70
    11
 71
     2
 72
     2
 73
     0
 90
        0
 40
-0.6
 41
-30.0
 62
     5
 63
     7
421
 16777215
 74
     1
 91
        4
 64
     7
 65
   257
 75
     1
175
     1
 42
1.0
 92
        8
 66
     7
 43
1.0
 76
     1
 77
     6
 78
     2
 67
     7
 79
     5
170
     0
171
     0
290
     0
174
     0
 93
        1
 44
-50.0
173
     0
291
     1
 45
0.0
  0
VISUALSTYLE
  5
39
102
{ACAD_REACTORS
330
2A
102
}
102
{ACAD_XDICTIONARY
360
332
102
}
330
2A
100
AcDbVisualStyle
  2
Facepattern
 70
    15
 71
     2
 72
     2
 73
     0
 90
        0
 40
-0.6
 41
-30.0
 62
     5
 63
     7
421
 16777215
 74
     1
 91
        4
 64
     7
 65
   257
 75
     1
175
     1
 42
1.0
 92
        8
 66
     7
 43
1.0
 76
     1
 77
     6
 78
     2
 67
     7
 79
     5
170
     0
171
     0
290
     0
174
     0
 93
        1
 44
0.0
173
     0
291
     1
 45
0.0
  0
VISUALSTYLE
  5
2B
102
{ACAD_REACTORS
330
2A
102
}
102
{ACAD_XDICTIONARY
360
316
102
}
330
2A
100
AcDbVisualStyle
  2
Flat
 70
     0
 71
     2
 72
     1
 73
     1
 90
        2
 40
-0.6
 41
30.0
 62
     5
 63
     7
421
 16777215
 74
     0
 91
        4
 64
     7
 65
   257
 75
     1
175
     1
 42
1.0
 92
        8
 66
     7
 43
1.0
 76
     1
 77
     6
 78
     2
 67
     7
 79
     5
170
     0
171
     0
290
     0
174
     0
 93
       13
 44
0.0
173
     0
291
     1
 45
0.0
  0
VISUALSTYLE
  5
2C
102
{ACAD_REACTORS
330
2A
102
}
102
{ACAD_XDICTIONARY
360
318
102
}
330
2A
100
AcDbVisualStyle
  2
FlatWithEdges
 70
     1
 71
     2
 72
     1
 73
     1
 90
        2
 40
-0.6
 41
30.0
 62
     5
 63
     7
421
 16777215
 74
     1
 91
        4
 64
     7
 65
   257
 75
     1
175
     1
 42
1.0
 92
        0
 66
   257
 43
1.0
 76
     1
 77
     6
 78
     2
 67
     7
 79
     5
170
     0
171
     0
290
     0
174
     0
 93
       13
 44
0.0
173
     0
291
     1
 45
0.0
  0
VISUALSTYLE
  5
2D
102
{ACAD_REACTORS
330
2A
102
}
102
{ACAD_XDICTIONARY
360
31A
102
}
330
2A
100
AcDbVisualStyle
  2
Gouraud
 70
     2
 71
     2
 72
     2
 73
     1
 90
        2
 40
-0.6
 41
30.0
 62
     5
 63
     7
421
 16777215
 74
     0
 91
        4
 64
     7
 65
   257
 75
     1
175
     1
 42
1.0
 92
        0
 66
     7
 43
1.0
 76
     1
 77
     6
 78
     2
 67
     7
 79
     5
170
     0
171
     0
290
     0
174
     0
 93
       13
 44
0.0
173
     0
291
     1
 45
0.0
  0
VISUALSTYLE
  5
2E
102
{ACAD_REACTORS
330
2A
102
}
102
{ACAD_XDICTIONARY
360
31C
102
}
330
2A
100
AcDbVisualStyle
  2
GouraudWithEdges
 70
     3
 71
     2
 72
     2
 73
     1
 90
        2
 40
-0.6
 41
30.0
 62
     5
 63
     7
421
 16777215
 74
     1
 91
        4
 64
     7
 65
   257
 75
     1
175
     1
 42
1.0
 92
        0
 66
   257
 43
1.0
 76
     1
 77
     6
 78
     2
 67
     7
 79
     5
170
     0
171
     0
290
     0
174
     0
 93
       13
 44
0.0
173
     0
291
     1
 45
0.0
  0
VISUALSTYLE
  5
38
102
{ACAD_REACTORS
330
2A
102
}
102
{ACAD_XDICTIONARY
360
330
102
}
330
2A
100
AcDbVisualStyle
  2
Linepattern
 70
    14
 71
     2
 72
     2
 73
     0
 90
        0
 40
-0.6
 41
-30.0
 62
     5
 63
     7
421
 16777215
 74
     1
 91
        4
 64
     7
 65
   257
 75
     7
175
     7
 42
1.0
 92
        8
 66
     7
 43
1.0
 76
     1
 77
     6
 78
     2
 67
     7
 79
     5
170
     0
171
     0
290
     0
174
     0
 93
        1
 44
0.0
173
     0
291
     1
 45
0.0
  0
VISUALSTYLE
  5
33
102
{ACAD_REACTORS
330
2A
102
}
102
{ACAD_XDICTIONARY
360
326
102
}
330
2A
100
AcDbVisualStyle
  2
Realistic
 70
     8
 71
     2
 72
     2
 73
     0
 90
        0
 40
-0.6
 41
-30.0
 62
     5
 63
     7
421
 16777215
 74
     1
 91
        0
 64
     7
 65
   257
 75
     1
175
     1
 42
1.0
 92
        8
 66
     8
424
  7895160
 43
1.0
 76
     1
 77
     6
 78
     2
 67
     7
 79
     5
170
     0
171
     0
290
     0
174
     0
 93
       13
 44
0.0
173
     0
291
     0
 45
0.0
  0
VISUALSTYLE
  5
37
102
{ACAD_REACTORS
330
2A
102
}
102
{ACAD_XDICTIONARY
360
32E
102
}
330
2A
100
AcDbVisualStyle
  2
Thicken
 70
    13
 71
     2
 72
     2
 73
     0
 90
        0
 40
-0.6
 41
-30.0
 62
     5
 63
     7
421
 16777215
 74
     1
 91
        4
 64
     7
 65
   257
 75
     1
175
     1
 42
1.0
 92
       12
 66
     7
 43
1.0
 76
     1
 77
     6
 78
     2
 67
     7
 79
     5
170
     0
171
     0
290
     0
174
     0
 93
        1
 44
0.0
173
     0
291
     1
 45
0.0
  0
DICTIONARY
  5
31E
330
2F
100
AcDbDictionary
280
     1
281
     1
  3
ACAD_XREC_ROUNDTRIP
360
31F
  0
DICTIONARY
  5
322
330
31
100
AcDbDictionary
280
     1
281
     1
  3
ACAD_XREC_ROUNDTRIP
360
323
  0
DICTIONARY
  5
320
330
30
100
AcDbDictionary
280
     1
281
     1
  3
ACAD_XREC_ROUNDTRIP
360
321
  0
DICTIONARY
  5
324
330
32
100
AcDbDictionary
280
     1
281
     1
  3
ACAD_XREC_ROUNDTRIP
360
325
  0
DICTIONARY
  5
32C
330
36
100
AcDbDictionary
280
     1
281
     1
  3
ACAD_XREC_ROUNDTRIP
360
32D
  0
DICTIONARY
  5
334
330
3A
100
AcDbDictionary
280
     1
281
     1
  3
ACAD_XREC_ROUNDTRIP
360
335
  0
DICTIONARY
  5
328
330
34
100
AcDbDictionary
280
     1
281
     1
  3
ACAD_XREC_ROUNDTRIP
360
329
  0
DICTIONARY
  5
32A
330
35
100
AcDbDictionary
280
     1
281
     1
  3
ACAD_XREC_ROUNDTRIP
360
32B
  0
DICTIONARY
  5
332
330
39
100
AcDbDictionary
280
     1
281
     1
  3
ACAD_XREC_ROUNDTRIP
360
333
  0
DICTIONARY
  5
316
330
2B
100
AcDbDictionary
280
     1
281
     1
  3
ACAD_XREC_ROUNDTRIP
360
317
  0
DICTIONARY
  5
318
330
2C
100
AcDbDictionary
280
     1
281
     1
  3
ACAD_XREC_ROUNDTRIP
360
319
  0
DICTIONARY
  5
31A
330
2D
100
AcDbDictionary
280
     1
281
     1
  3
ACAD_XREC_ROUNDTRIP
360
31B
  0
DICTIONARY
  5
31C
330
2E
100
AcDbDictionary
280
     1
281
     1
  3
ACAD_XREC_ROUNDTRIP
360
31D
  0
DICTIONARY
  5
330
330
38
100
AcDbDictionary
280
     1
281
     1
  3
ACAD_XREC_ROUNDTRIP
360
331
  0
DICTIONARY
  5
326
330
33
100
AcDbDictionary
280
     1
281
     1
  3
ACAD_XREC_ROUNDTRIP
360
327
  0
DICTIONARY
  5
32E
330
37
100
AcDbDictionary
280
     1
281
     1
  3
ACAD_XREC_ROUNDTRIP
360
32F
  0
XRECORD
  5
31F
102
{ACAD_REACTORS
330
31E
102
}
330
31E
100
AcDbXrecord
280
     1
102
RTVSPropertyOp0
 70
     1
102
RTVSPropertyOp1
 70
     1
102
RTVSPropertyOp2
 70
     1
102
RTVSPropertyOp3
 70
     1
102
RTVSPropertyOp4
 70
     1
102
RTVSPropertyOp5
 70
     1
102
RTVSPropertyOp6
 70
     1
102
RTVSPropertyOp7
 70
     1
102
RTVSPropertyOp8
 70
     1
102
RTVSPropertyOp9
 70
     1
102
RTVSPropertyOp10
 70
     1
102
RTVSPropertyOp11
 70
     1
102
RTVSPropertyOp12
 70
     1
102
RTVSPropertyOp13
 70
     1
102
RTVSPropertyOp14
 70
     1
102
RTVSPropertyOp15
 70
     1
102
RTVSPropertyOp16
 70
     1
102
RTVSPropertyOp17
 70
     1
102
RTVSPropertyOp18
 70
     1
102
RTVSPropertyOp19
 70
     1
102
RTVSPropertyOp20
 70
     1
102
RTVSPropertyOp21
 70
     1
102
RTVSPropertyOp22
 70
     1
102
RTVSPropertyOp23
 70
     1
102
RTVSPropertyOp24
 70
     1
102
RTVSPropertyOp25
 70
     1
102
RTVSPropertyOp26
 70
     1
102
RTVSPropertyOp27
 70
     1
102
RTVSPropertyOp28
 70
     1
102
RTVSPropertyOp29
 70
     1
102
RTVSPropertyOp30
 70
     1
102
RTVSPropertyOp31
 70
     1
102
RTVSPropertyOp32
 70
     1
  0
XRECORD
  5
323
102
{ACAD_REACTORS
330
322
102
}
330
322
100
AcDbXrecord
280
     1
102
RTVSPropertyOp0
 70
     1
102
RTVSPropertyOp1
 70
     1
102
RTVSPropertyOp2
 70
     1
102
RTVSPropertyOp3
 70
     1
102
RTVSPropertyOp4
 70
     1
102
RTVSPropertyOp5
 70
     1
102
RTVSPropertyOp6
 70
     1
102
RTVSPropertyOp7
 70
     1
102
RTVSPropertyOp8
 70
     1
102
RTVSPropertyOp9
 70
     1
102
RTVSPropertyOp10
 70
     1
102
RTVSPropertyOp11
 70
     1
102
RTVSPropertyOp12
 70
     1
102
RTVSPropertyOp13
 70
     1
102
RTVSPropertyOp14
 70
     1
102
RTVSPropertyOp15
 70
     1
102
RTVSPropertyOp16
 70
     1
102
RTVSPropertyOp17
 70
     1
102
RTVSPropertyOp18
 70
     1
102
RTVSPropertyOp19
 70
     1
102
RTVSPropertyOp20
 70
     1
102
RTVSPropertyOp21
 70
     1
102
RTVSPropertyOp22
 70
     1
102
RTVSPropertyOp23
 70
     1
102
RTVSPropertyOp24
 70
     1
102
RTVSPropertyOp25
 70
     1
102
RTVSPropertyOp26
 70
     1
102
RTVSPropertyOp27
 70
     1
102
RTVSPropertyOp28
 70
     1
102
RTVSPropertyOp29
 70
     1
102
RTVSPropertyOp30
 70
     1
102
RTVSPropertyOp31
 70
     1
102
RTVSPropertyOp32
 70
     1
  0
XRECORD
  5
321
102
{ACAD_REACTORS
330
320
102
}
330
320
100
AcDbXrecord
280
     1
102
RTVSPropertyOp0
 70
     1
102
RTVSPropertyOp1
 70
     1
102
RTVSPropertyOp2
 70
     1
102
RTVSPropertyOp3
 70
     1
102
RTVSPropertyOp4
 70
     1
102
RTVSPropertyOp5
 70
     1
102
RTVSPropertyOp6
 70
     1
102
RTVSPropertyOp7
 70
     1
102
RTVSPropertyOp8
 70
     1
102
RTVSPropertyOp9
 70
     1
102
RTVSPropertyOp10
 70
     1
102
RTVSPropertyOp11
 70
     1
102
RTVSPropertyOp12
 70
     1
102
RTVSPropertyOp13
 70
     1
102
RTVSPropertyOp14
 70
     1
102
RTVSPropertyOp15
 70
     1
102
RTVSPropertyOp16
 70
     1
102
RTVSPropertyOp17
 70
     1
102
RTVSPropertyOp18
 70
     1
102
RTVSPropertyOp19
 70
     1
102
RTVSPropertyOp20
 70
     1
102
RTVSPropertyOp21
 70
     1
102
RTVSPropertyOp22
 70
     1
102
RTVSPropertyOp23
 70
     1
102
RTVSPropertyOp24
 70
     1
102
RTVSPropertyOp25
 70
     1
102
RTVSPropertyOp26
 70
     1
102
RTVSPropertyOp27
 70
     1
102
RTVSPropertyOp28
 70
     1
102
RTVSPropertyOp29
 70
     1
102
RTVSPropertyOp30
 70
     1
102
RTVSPropertyOp31
 70
     1
102
RTVSPropertyOp32
 70
     1
  0
XRECORD
  5
325
102
{ACAD_REACTORS
330
324
102
}
330
324
100
AcDbXrecord
280
     1
102
RTVSPropertyOp0
 70
     1
102
RTVSPropertyOp1
 70
     1
102
RTVSPropertyOp2
 70
     1
102
RTVSPropertyOp3
 70
     1
102
RTVSPropertyOp4
 70
     1
102
RTVSPropertyOp5
 70
     1
102
RTVSPropertyOp6
 70
     1
102
RTVSPropertyOp7
 70
     1
102
RTVSPropertyOp8
 70
     1
102
RTVSPropertyOp9
 70
     1
102
RTVSPropertyOp10
 70
     1
102
RTVSPropertyOp11
 70
     1
102
RTVSPropertyOp12
 70
     1
102
RTVSPropertyOp13
 70
     1
102
RTVSPropertyOp14
 70
     1
102
RTVSPropertyOp15
 70
     1
102
RTVSPropertyOp16
 70
     1
102
RTVSPropertyOp17
 70
     1
102
RTVSPropertyOp18
 70
     1
102
RTVSPropertyOp19
 70
     1
102
RTVSPropertyOp20
 70
     1
102
RTVSPropertyOp21
 70
     1
102
RTVSPropertyOp22
 70
     1
102
RTVSPropertyOp23
 70
     1
102
RTVSPropertyOp24
 70
     1
102
RTVSPropertyOp25
 70
     1
102
RTVSPropertyOp26
 70
     1
102
RTVSPropertyOp27
 70
     1
102
RTVSPropertyOp28
 70
     1
102
RTVSPropertyOp29
 70
     1
102
RTVSPropertyOp30
 70
     1
102
RTVSPropertyOp31
 70
     1
102
RTVSPropertyOp32
 70
     1
  0
XRECORD
  5
32D
102
{ACAD_REACTORS
330
32C
102
}
330
32C
100
AcDbXrecord
280
     1
102
RTVSPropertyOp0
 70
     1
102
RTVSPropertyOp1
 70
     1
102
RTVSPropertyOp2
 70
     1
102
RTVSPropertyOp3
 70
     1
102
RTVSPropertyOp4
 70
     1
102
RTVSPropertyOp5
 70
     1
102
RTVSPropertyOp6
 70
     1
102
RTVSPropertyOp7
 70
     1
102
RTVSPropertyOp8
 70
     1
102
RTVSPropertyOp9
 70
     1
102
RTVSPropertyOp10
 70
     1
102
RTVSPropertyOp11
 70
     1
102
RTVSPropertyOp12
 70
     1
102
RTVSPropertyOp13
 70
     1
102
RTVSPropertyOp14
 70
     1
102
RTVSPropertyOp15
 70
     1
102
RTVSPropertyOp16
 70
     1
102
RTVSPropertyOp17
 70
     1
102
RTVSPropertyOp18
 70
     1
102
RTVSPropertyOp19
 70
     1
102
RTVSPropertyOp20
 70
     1
102
RTVSPropertyOp21
 70
     1
102
RTVSPropertyOp22
 70
     1
102
RTVSPropertyOp23
 70
     1
102
RTVSPropertyOp24
 70
     1
102
RTVSPropertyOp25
 70
     1
102
RTVSPropertyOp26
 70
     1
102
RTVSPropertyOp27
 70
     1
102
RTVSPropertyOp28
 70
     1
102
RTVSPropertyOp29
 70
     1
102
RTVSPropertyOp30
 70
     1
102
RTVSPropertyOp31
 70
     1
102
RTVSPropertyOp32
 70
     1
  0
XRECORD
  5
335
102
{ACAD_REACTORS
330
334
102
}
330
334
100
AcDbXrecord
280
     1
102
RTVSPropertyOp0
 70
     1
102
RTVSPropertyOp1
 70
     1
102
RTVSPropertyOp2
 70
     1
102
RTVSPropertyOp3
 70
     1
102
RTVSPropertyOp4
 70
     1
102
RTVSPropertyOp5
 70
     1
102
RTVSPropertyOp6
 70
     1
102
RTVSPropertyOp7
 70
     1
102
RTVSPropertyOp8
 70
     1
102
RTVSPropertyOp9
 70
     1
102
RTVSPropertyOp10
 70
     1
102
RTVSPropertyOp11
 70
     1
102
RTVSPropertyOp12
 70
     1
102
RTVSPropertyOp13
 70
     1
102
RTVSPropertyOp14
 70
     1
102
RTVSPropertyOp15
 70
     1
102
RTVSPropertyOp16
 70
     1
102
RTVSPropertyOp17
 70
     1
102
RTVSPropertyOp18
 70
     1
102
RTVSPropertyOp19
 70
     1
102
RTVSPropertyOp20
 70
     1
102
RTVSPropertyOp21
 70
     1
102
RTVSPropertyOp22
 70
     1
102
RTVSPropertyOp23
 70
     1
102
RTVSPropertyOp24
 70
     1
102
RTVSPropertyOp25
 70
     1
102
RTVSPropertyOp26
 70
     1
102
RTVSPropertyOp27
 70
     1
102
RTVSPropertyOp28
 70
     1
102
RTVSPropertyOp29
 70
     1
102
RTVSPropertyOp30
 70
     1
102
RTVSPropertyOp31
 70
     1
102
RTVSPropertyOp32
 70
     1
  0
XRECORD
  5
329
102
{ACAD_REACTORS
330
328
102
}
330
328
100
AcDbXrecord
280
     1
102
RTVSPropertyOp0
 70
     1
102
RTVSPropertyOp1
 70
     1
102
RTVSPropertyOp2
 70
     1
102
RTVSPropertyOp3
 70
     1
102
RTVSPropertyOp4
 70
     1
102
RTVSPropertyOp5
 70
     1
102
RTVSPropertyOp6
 70
     1
102
RTVSPropertyOp7
 70
     1
102
RTVSPropertyOp8
 70
     1
102
RTVSPropertyOp9
 70
     1
102
RTVSPropertyOp10
 70
     1
102
RTVSPropertyOp11
 70
     1
102
RTVSPropertyOp12
 70
     1
102
RTVSPropertyOp13
 70
     1
102
RTVSPropertyOp14
 70
     1
102
RTVSPropertyOp15
 70
     1
102
RTVSPropertyOp16
 70
     1
102
RTVSPropertyOp17
 70
     1
102
RTVSPropertyOp18
 70
     1
102
RTVSPropertyOp19
 70
     1
102
RTVSPropertyOp20
 70
     1
102
RTVSPropertyOp21
 70
     1
102
RTVSPropertyOp22
 70
     1
102
RTVSPropertyOp23
 70
     1
102
RTVSPropertyOp24
 70
     1
102
RTVSPropertyOp25
 70
     1
102
RTVSPropertyOp26
 70
     1
102
RTVSPropertyOp27
 70
     1
102
RTVSPropertyOp28
 70
     1
102
RTVSPropertyOp29
 70
     1
102
RTVSPropertyOp30
 70
     1
102
RTVSPropertyOp31
 70
     1
102
RTVSPropertyOp32
 70
     1
  0
XRECORD
  5
32B
102
{ACAD_REACTORS
330
32A
102
}
330
32A
100
AcDbXrecord
280
     1
102
RTVSPropertyOp0
 70
     1
102
RTVSPropertyOp1
 70
     1
102
RTVSPropertyOp2
 70
     1
102
RTVSPropertyOp3
 70
     1
102
RTVSPropertyOp4
 70
     1
102
RTVSPropertyOp5
 70
     1
102
RTVSPropertyOp6
 70
     1
102
RTVSPropertyOp7
 70
     1
102
RTVSPropertyOp8
 70
     1
102
RTVSPropertyOp9
 70
     1
102
RTVSPropertyOp10
 70
     1
102
RTVSPropertyOp11
 70
     1
102
RTVSPropertyOp12
 70
     1
102
RTVSPropertyOp13
 70
     1
102
RTVSPropertyOp14
 70
     1
102
RTVSPropertyOp15
 70
     1
102
RTVSPropertyOp16
 70
     1
102
RTVSPropertyOp17
 70
     1
102
RTVSPropertyOp18
 70
     1
102
RTVSPropertyOp19
 70
     1
102
RTVSPropertyOp20
 70
     1
102
RTVSPropertyOp21
 70
     1
102
RTVSPropertyOp22
 70
     1
102
RTVSPropertyOp23
 70
     1
102
RTVSPropertyOp24
 70
     1
102
RTVSPropertyOp25
 70
     1
102
RTVSPropertyOp26
 70
     1
102
RTVSPropertyOp27
 70
     1
102
RTVSPropertyOp28
 70
     1
102
RTVSPropertyOp29
 70
     1
102
RTVSPropertyOp30
 70
     1
102
RTVSPropertyOp31
 70
     1
102
RTVSPropertyOp32
 70
     1
  0
XRECORD
  5
333
102
{ACAD_REACTORS
330
332
102
}
330
332
100
AcDbXrecord
280
     1
102
RTVSPropertyOp0
 70
     1
102
RTVSPropertyOp1
 70
     1
102
RTVSPropertyOp2
 70
     1
102
RTVSPropertyOp3
 70
     1
102
RTVSPropertyOp4
 70
     1
102
RTVSPropertyOp5
 70
     1
102
RTVSPropertyOp6
 70
     1
102
RTVSPropertyOp7
 70
     1
102
RTVSPropertyOp8
 70
     1
102
RTVSPropertyOp9
 70
     1
102
RTVSPropertyOp10
 70
     1
102
RTVSPropertyOp11
 70
     1
102
RTVSPropertyOp12
 70
     1
102
RTVSPropertyOp13
 70
     1
102
RTVSPropertyOp14
 70
     1
102
RTVSPropertyOp15
 70
     1
102
RTVSPropertyOp16
 70
     1
102
RTVSPropertyOp17
 70
     1
102
RTVSPropertyOp18
 70
     1
102
RTVSPropertyOp19
 70
     1
102
RTVSPropertyOp20
 70
     1
102
RTVSPropertyOp21
 70
     1
102
RTVSPropertyOp22
 70
     1
102
RTVSPropertyOp23
 70
     1
102
RTVSPropertyOp24
 70
     1
102
RTVSPropertyOp25
 70
     1
102
RTVSPropertyOp26
 70
     1
102
RTVSPropertyOp27
 70
     1
102
RTVSPropertyOp28
 70
     1
102
RTVSPropertyOp29
 70
     1
102
RTVSPropertyOp30
 70
     1
102
RTVSPropertyOp31
 70
     1
102
RTVSPropertyOp32
 70
     1
  0
XRECORD
  5
317
102
{ACAD_REACTORS
330
316
102
}
330
316
100
AcDbXrecord
280
     1
102
RTVSPropertyOp0
 70
     1
102
RTVSPropertyOp1
 70
     1
102
RTVSPropertyOp2
 70
     1
102
RTVSPropertyOp3
 70
     1
102
RTVSPropertyOp4
 70
     1
102
RTVSPropertyOp5
 70
     1
102
RTVSPropertyOp6
 70
     1
102
RTVSPropertyOp7
 70
     1
102
RTVSPropertyOp8
 70
     1
102
RTVSPropertyOp9
 70
     1
102
RTVSPropertyOp10
 70
     1
102
RTVSPropertyOp11
 70
     1
102
RTVSPropertyOp12
 70
     1
102
RTVSPropertyOp13
 70
     1
102
RTVSPropertyOp14
 70
     1
102
RTVSPropertyOp15
 70
     1
102
RTVSPropertyOp16
 70
     1
102
RTVSPropertyOp17
 70
     1
102
RTVSPropertyOp18
 70
     1
102
RTVSPropertyOp19
 70
     1
102
RTVSPropertyOp20
 70
     1
102
RTVSPropertyOp21
 70
     1
102
RTVSPropertyOp22
 70
     1
102
RTVSPropertyOp23
 70
     1
102
RTVSPropertyOp24
 70
     1
102
RTVSPropertyOp25
 70
     1
102
RTVSPropertyOp26
 70
     1
102
RTVSPropertyOp27
 70
     1
102
RTVSPropertyOp28
 70
     1
102
RTVSPropertyOp29
 70
     1
102
RTVSPropertyOp30
 70
     1
102
RTVSPropertyOp31
 70
     1
102
RTVSPropertyOp32
 70
     1
  0
XRECORD
  5
319
102
{ACAD_REACTORS
330
318
102
}
330
318
100
AcDbXrecord
280
     1
102
RTVSPropertyOp0
 70
     1
102
RTVSPropertyOp1
 70
     1
102
RTVSPropertyOp2
 70
     1
102
RTVSPropertyOp3
 70
     1
102
RTVSPropertyOp4
 70
     1
102
RTVSPropertyOp5
 70
     1
102
RTVSPropertyOp6
 70
     1
102
RTVSPropertyOp7
 70
     1
102
RTVSPropertyOp8
 70
     1
102
RTVSPropertyOp9
 70
     1
102
RTVSPropertyOp10
 70
     1
102
RTVSPropertyOp11
 70
     1
102
RTVSPropertyOp12
 70
     1
102
RTVSPropertyOp13
 70
     1
102
RTVSPropertyOp14
 70
     1
102
RTVSPropertyOp15
 70
     1
102
RTVSPropertyOp16
 70
     1
102
RTVSPropertyOp17
 70
     1
102
RTVSPropertyOp18
 70
     1
102
RTVSPropertyOp19
 70
     1
102
RTVSPropertyOp20
 70
     1
102
RTVSPropertyOp21
 70
     1
102
RTVSPropertyOp22
 70
     1
102
RTVSPropertyOp23
 70
     1
102
RTVSPropertyOp24
 70
     1
102
RTVSPropertyOp25
 70
     1
102
RTVSPropertyOp26
 70
     1
102
RTVSPropertyOp27
 70
     1
102
RTVSPropertyOp28
 70
     1
102
RTVSPropertyOp29
 70
     1
102
RTVSPropertyOp30
 70
     1
102
RTVSPropertyOp31
 70
     1
102
RTVSPropertyOp32
 70
     1
  0
XRECORD
  5
31B
102
{ACAD_REACTORS
330
31A
102
}
330
31A
100
AcDbXrecord
280
     1
102
RTVSPropertyOp0
 70
     1
102
RTVSPropertyOp1
 70
     1
102
RTVSPropertyOp2
 70
     1
102
RTVSPropertyOp3
 70
     1
102
RTVSPropertyOp4
 70
     1
102
RTVSPropertyOp5
 70
     1
102
RTVSPropertyOp6
 70
     1
102
RTVSPropertyOp7
 70
     1
102
RTVSPropertyOp8
 70
     1
102
RTVSPropertyOp9
 70
     1
102
RTVSPropertyOp10
 70
     1
102
RTVSPropertyOp11
 70
     1
102
RTVSPropertyOp12
 70
     1
102
RTVSPropertyOp13
 70
     1
102
RTVSPropertyOp14
 70
     1
102
RTVSPropertyOp15
 70
     1
102
RTVSPropertyOp16
 70
     1
102
RTVSPropertyOp17
 70
     1
102
RTVSPropertyOp18
 70
     1
102
RTVSPropertyOp19
 70
     1
102
RTVSPropertyOp20
 70
     1
102
RTVSPropertyOp21
 70
     1
102
RTVSPropertyOp22
 70
     1
102
RTVSPropertyOp23
 70
     1
102
RTVSPropertyOp24
 70
     1
102
RTVSPropertyOp25
 70
     1
102
RTVSPropertyOp26
 70
     1
102
RTVSPropertyOp27
 70
     1
102
RTVSPropertyOp28
 70
     1
102
RTVSPropertyOp29
 70
     1
102
RTVSPropertyOp30
 70
     1
102
RTVSPropertyOp31
 70
     1
102
RTVSPropertyOp32
 70
     1
  0
XRECORD
  5
31D
102
{ACAD_REACTORS
330
31C
102
}
330
31C
100
AcDbXrecord
280
     1
102
RTVSPropertyOp0
 70
     1
102
RTVSPropertyOp1
 70
     1
102
RTVSPropertyOp2
 70
     1
102
RTVSPropertyOp3
 70
     1
102
RTVSPropertyOp4
 70
     1
102
RTVSPropertyOp5
 70
     1
102
RTVSPropertyOp6
 70
     1
102
RTVSPropertyOp7
 70
     1
102
RTVSPropertyOp8
 70
     1
102
RTVSPropertyOp9
 70
     1
102
RTVSPropertyOp10
 70
     1
102
RTVSPropertyOp11
 70
     1
102
RTVSPropertyOp12
 70
     1
102
RTVSPropertyOp13
 70
     1
102
RTVSPropertyOp14
 70
     1
102
RTVSPropertyOp15
 70
     1
102
RTVSPropertyOp16
 70
     1
102
RTVSPropertyOp17
 70
     1
102
RTVSPropertyOp18
 70
     1
102
RTVSPropertyOp19
 70
     1
102
RTVSPropertyOp20
 70
     1
102
RTVSPropertyOp21
 70
     1
102
RTVSPropertyOp22
 70
     1
102
RTVSPropertyOp23
 70
     1
102
RTVSPropertyOp24
 70
     1
102
RTVSPropertyOp25
 70
     1
102
RTVSPropertyOp26
 70
     1
102
RTVSPropertyOp27
 70
     1
102
RTVSPropertyOp28
 70
     1
102
RTVSPropertyOp29
 70
     1
102
RTVSPropertyOp30
 70
     1
102
RTVSPropertyOp31
 70
     1
102
RTVSPropertyOp32
 70
     1
  0
XRECORD
  5
331
102
{ACAD_REACTORS
330
330
102
}
330
330
100
AcDbXrecord
280
     1
102
RTVSPropertyOp0
 70
     1
102
RTVSPropertyOp1
 70
     1
102
RTVSPropertyOp2
 70
     1
102
RTVSPropertyOp3
 70
     1
102
RTVSPropertyOp4
 70
     1
102
RTVSPropertyOp5
 70
     1
102
RTVSPropertyOp6
 70
     1
102
RTVSPropertyOp7
 70
     1
102
RTVSPropertyOp8
 70
     1
102
RTVSPropertyOp9
 70
     1
102
RTVSPropertyOp10
 70
     1
102
RTVSPropertyOp11
 70
     1
102
RTVSPropertyOp12
 70
     1
102
RTVSPropertyOp13
 70
     1
102
RTVSPropertyOp14
 70
     1
102
RTVSPropertyOp15
 70
     1
102
RTVSPropertyOp16
 70
     1
102
RTVSPropertyOp17
 70
     1
102
RTVSPropertyOp18
 70
     1
102
RTVSPropertyOp19
 70
     1
102
RTVSPropertyOp20
 70
     1
102
RTVSPropertyOp21
 70
     1
102
RTVSPropertyOp22
 70
     1
102
RTVSPropertyOp23
 70
     1
102
RTVSPropertyOp24
 70
     1
102
RTVSPropertyOp25
 70
     1
102
RTVSPropertyOp26
 70
     1
102
RTVSPropertyOp27
 70
     1
102
RTVSPropertyOp28
 70
     1
102
RTVSPropertyOp29
 70
     1
102
RTVSPropertyOp30
 70
     1
102
RTVSPropertyOp31
 70
     1
102
RTVSPropertyOp32
 70
     1
  0
XRECORD
  5
327
102
{ACAD_REACTORS
330
326
102
}
330
326
100
AcDbXrecord
280
     1
102
RTVSPropertyOp0
 70
     1
102
RTVSPropertyOp1
 70
     1
102
RTVSPropertyOp2
 70
     1
102
RTVSPropertyOp3
 70
     1
102
RTVSPropertyOp4
 70
     1
102
RTVSPropertyOp5
 70
     1
102
RTVSPropertyOp6
 70
     1
102
RTVSPropertyOp7
 70
     1
102
RTVSPropertyOp8
 70
     1
102
RTVSPropertyOp9
 70
     1
102
RTVSPropertyOp10
 70
     1
102
RTVSPropertyOp11
 70
     1
102
RTVSPropertyOp12
 70
     1
102
RTVSPropertyOp13
 70
     1
102
RTVSPropertyOp14
 70
     1
102
RTVSPropertyOp15
 70
     1
102
RTVSPropertyOp16
 70
     1
102
RTVSPropertyOp17
 70
     1
102
RTVSPropertyOp18
 70
     1
102
RTVSPropertyOp19
 70
     1
102
RTVSPropertyOp20
 70
     1
102
RTVSPropertyOp21
 70
     1
102
RTVSPropertyOp22
 70
     1
102
RTVSPropertyOp23
 70
     1
102
RTVSPropertyOp24
 70
     1
102
RTVSPropertyOp25
 70
     1
102
RTVSPropertyOp26
 70
     1
102
RTVSPropertyOp27
 70
     1
102
RTVSPropertyOp28
 70
     1
102
RTVSPropertyOp29
 70
     1
102
RTVSPropertyOp30
 70
     1
102
RTVSPropertyOp31
 70
     1
102
RTVSPropertyOp32
 70
     1
  0
XRECORD
  5
32F
102
{ACAD_REACTORS
330
32E
102
}
330
32E
100
AcDbXrecord
280
     1
102
RTVSPropertyOp0
 70
     1
102
RTVSPropertyOp1
 70
     1
102
RTVSPropertyOp2
 70
     1
102
RTVSPropertyOp3
 70
     1
102
RTVSPropertyOp4
 70
     1
102
RTVSPropertyOp5
 70
     1
102
RTVSPropertyOp6
 70
     1
102
RTVSPropertyOp7
 70
     1
102
RTVSPropertyOp8
 70
     1
102
RTVSPropertyOp9
 70
     1
102
RTVSPropertyOp10
 70
     1
102
RTVSPropertyOp11
 70
     1
102
RTVSPropertyOp12
 70
     1
102
RTVSPropertyOp13
 70
     1
102
RTVSPropertyOp14
 70
     1
102
RTVSPropertyOp15
 70
     1
102
RTVSPropertyOp16
 70
     1
102
RTVSPropertyOp17
 70
     1
102
RTVSPropertyOp18
 70
     1
102
RTVSPropertyOp19
 70
     1
102
RTVSPropertyOp20
 70
     1
102
RTVSPropertyOp21
 70
     1
102
RTVSPropertyOp22
 70
     1
102
RTVSPropertyOp23
 70
     1
102
RTVSPropertyOp24
 70
     1
102
RTVSPropertyOp25
 70
     1
102
RTVSPropertyOp26
 70
     1
102
RTVSPropertyOp27
 70
     1
102
RTVSPropertyOp28
 70
     1
102
RTVSPropertyOp29
 70
     1
102
RTVSPropertyOp30
 70
     1
102
RTVSPropertyOp31
 70
     1
102
RTVSPropertyOp32
 70
     1
  0
ENDSEC
  0
EOF
