  0
SECTION
  2
HEADER
  9
$ACADVER
  1
AC1024
  9
$ACADMAINTVER
 70
     6
  9
$DWGCODEPAGE
  3
ANSI_1252
  9
$INSBASE
 10
0.0
 20
0.0
 30
0.0
  9
$EXTMIN
 10
77.618430900268
 20
83.8814577584755
 30
0.0
  9
$EXTMAX
 10
206.66043345592
 20
335.7780200695
 30
0.0
  9
$LIMMIN
 10
0.0
 20
0.0
  9
$LIMMAX
 10
12.0
 20
9.0
  9
$ORTHOMODE
 70
     0
  9
$REGENMODE
 70
     1
  9
$FILLMODE
 70
     1
  9
$QTEXTMODE
 70
     0
  9
$MIRRTEXT
 70
     1
  9
$LTSCALE
 40
1.0
  9
$ATTMODE
 70
     1
  9
$TEXTSIZE
 40
0.2
  9
$TRACEWID
 40
0.05
  9
$TEXTSTYLE
  7
Standard
  9
$CLAYER
  8
0
  9
$CELTYPE
  6
ByLayer
  9
$CECOLOR
 62
   256
  9
$CELTSCALE
 40
1.0
  9
$DISPSILH
 70
     0
  9
$DIMSCALE
 40
1.0
  9
$DIMASZ
 40
0.18
  9
$DIMEXO
 40
0.0625
  9
$DIMDLI
 40
0.38
  9
$DIMRND
 40
0.0
  9
$DIMDLE
 40
0.0
  9
$DIMEXE
 40
0.18
  9
$DIMTP
 40
0.0
  9
$DIMTM
 40
0.0
  9
$DIMTXT
 40
0.18
  9
$DIMCEN
 40
0.09
  9
$DIMTSZ
 40
0.0
  9
$DIMTOL
 70
     0
  9
$DIMLIM
 70
     0
  9
$DIMTIH
 70
     1
  9
$DIMTOH
 70
     1
  9
$DIMSE1
 70
     0
  9
$DIMSE2
 70
     0
  9
$DIMTAD
 70
     0
  9
$DIMZIN
 70
     0
  9
$DIMBLK
  1

  9
$DIMASO
 70
     1
  9
$DIMSHO
 70
     1
  9
$DIMPOST
  1

  9
$DIMAPOST
  1

  9
$DIMALT
 70
     0
  9
$DIMALTD
 70
     2
  9
$DIMALTF
 40
25.4
  9
$DIMLFAC
 40
1.0
  9
$DIMTOFL
 70
     0
  9
$DIMTVP
 40
0.0
  9
$DIMTIX
 70
     0
  9
$DIMSOXD
 70
     0
  9
$DIMSAH
 70
     0
  9
$DIMBLK1
  1

  9
$DIMBLK2
  1

  9
$DIMSTYLE
  2
Standard
  9
$DIMCLRD
 70
     0
  9
$DIMCLRE
 70
     0
  9
$DIMCLRT
 70
     0
  9
$DIMTFAC
 40
1.0
  9
$DIMGAP
 40
0.09
  9
$DIMJUST
 70
     0
  9
$DIMSD1
 70
     0
  9
$DIMSD2
 70
     0
  9
$DIMTOLJ
 70
     1
  9
$DIMTZIN
 70
     0
  9
$DIMALTZ
 70
     0
  9
$DIMALTTZ
 70
     0
  9
$DIMUPT
 70
     0
  9
$DIMDEC
 70
     4
  9
$DIMTDEC
 70
     4
  9
$DIMALTU
 70
     2
  9
$DIMALTTD
 70
     2
  9
$DIMTXSTY
  7
Standard
  9
$DIMAUNIT
 70
     0
  9
$DIMADEC
 70
     0
  9
$DIMALTRND
 40
0.0
  9
$DIMAZIN
 70
     0
  9
$DIMDSEP
 70
    46
  9
$DIMATFIT
 70
     3
  9
$DIMFRAC
 70
     0
  9
$DIMLDRBLK
  1

  9
$DIMLUNIT
 70
     2
  9
$DIMLWD
 70
    -2
  9
$DIMLWE
 70
    -2
  9
$DIMTMOVE
 70
     0
  9
$DIMFXL
 40
1.0
  9
$DIMFXLON
 70
     0
  9
$DIMJOGANG
 40
0.78539816339745
  9
$DIMTFILL
 70
     0
  9
$DIMTFILLCLR
 70
     0
  9
$DIMARCSYM
 70
     0
  9
$DIMLTYPE
  6

  9
$DIMLTEX1
  6

  9
$DIMLTEX2
  6

  9
$DIMTXTDIRECTION
 70
     0
  9
$LUNITS
 70
     2
  9
$LUPREC
 70
     4
  9
$SKETCHINC
 40
0.1
  9
$FILLETRAD
 40
0.5
  9
$AUNITS
 70
     0
  9
$AUPREC
 70
     0
  9
$MENU
  1
.
  9
$ELEVATION
 40
0.0
  9
$PELEVATION
 40
0.0
  9
$THICKNESS
 40
0.0
  9
$LIMCHECK
 70
     0
  9
$CHAMFERA
 40
0.5
  9
$CHAMFERB
 40
0.5
  9
$CHAMFERC
 40
1.0
  9
$CHAMFERD
 40
0.0
  9
$SKPOLY
 70
     0
  9
$TDCREATE
 40
2457302.414452708
  9
$TDUCREATE
 40
2457302.331119375
  9
$TDUPDATE
 40
2457302.41445412
  9
$TDUUPDATE
 40
2457302.331120787
  9
$TDINDWG
 40
0.0000000116
  9
$TDUSRTIMER
 40
0.0000000116
  9
$USRTIMER
 70
     1
  9
$ANGBASE
 50
0.0
  9
$ANGDIR
 70
     0
  9
$PDMODE
 70
     0
  9
$PDSIZE
 40
0.0
  9
$PLINEWID
 40
0.0
  9
$SPLFRAME
 70
     0
  9
$SPLINETYPE
 70
     6
  9
$SPLINESEGS
 70
     8
  9
$HANDSEED
  5
25F
  9
$SURFTAB1
 70
     6
  9
$SURFTAB2
 70
     6
  9
$SURFTYPE
 70
     6
  9
$SURFU
 70
     6
  9
$SURFV
 70
     6
  9
$UCSBASE
  2

  9
$UCSNAME
  2

  9
$UCSORG
 10
0.0
 20
0.0
 30
0.0
  9
$UCSXDIR
 10
1.0
 20
0.0
 30
0.0
  9
$UCSYDIR
 10
0.0
 20
1.0
 30
0.0
  9
$UCSORTHOREF
  2

  9
$UCSORTHOVIEW
 70
     0
  9
$UCSORGTOP
 10
0.0
 20
0.0
 30
0.0
  9
$UCSORGBOTTOM
 10
0.0
 20
0.0
 30
0.0
  9
$UCSORGLEFT
 10
0.0
 20
0.0
 30
0.0
  9
$UCSORGRIGHT
 10
0.0
 20
0.0
 30
0.0
  9
$UCSORGFRONT
 10
0.0
 20
0.0
 30
0.0
  9
$UCSORGBACK
 10
0.0
 20
0.0
 30
0.0
  9
$PUCSBASE
  2

  9
$PUCSNAME
  2

  9
$PUCSORG
 10
0.0
 20
0.0
 30
0.0
  9
$PUCSXDIR
 10
1.0
 20
0.0
 30
0.0
  9
$PUCSYDIR
 10
0.0
 20
1.0
 30
0.0
  9
$PUCSORTHOREF
  2

  9
$PUCSORTHOVIEW
 70
     0
  9
$PUCSORGTOP
 10
0.0
 20
0.0
 30
0.0
  9
$PUCSORGBOTTOM
 10
0.0
 20
0.0
 30
0.0
  9
$PUCSORGLEFT
 10
0.0
 20
0.0
 30
0.0
  9
$PUCSORGRIGHT
 10
0.0
 20
0.0
 30
0.0
  9
$PUCSORGFRONT
 10
0.0
 20
0.0
 30
0.0
  9
$PUCSORGBACK
 10
0.0
 20
0.0
 30
0.0
  9
$USERI1
 70
     0
  9
$USERI2
 70
     0
  9
$USERI3
 70
     0
  9
$USERI4
 70
     0
  9
$USERI5
 70
     0
  9
$USERR1
 40
18.1
  9
$USERR2
 40
0.0
  9
$USERR3
 40
0.0
  9
$USERR4
 40
0.0
  9
$USERR5
 40
0.0
  9
$WORLDVIEW
 70
     1
  9
$SHADEDGE
 70
     3
  9
$SHADEDIF
 70
    70
  9
$TILEMODE
 70
     1
  9
$MAXACTVP
 70
    64
  9
$PINSBASE
 10
0.0
 20
0.0
 30
0.0
  9
$PLIMCHECK
 70
     0
  9
$PEXTMIN
 10
1.00000000000000E+20
 20
1.00000000000000E+20
 30
1.00000000000000E+20
  9
$PEXTMAX
 10
-1.00000000000000E+20
 20
-1.00000000000000E+20
 30
-1.00000000000000E+20
  9
$PLIMMIN
 10
0.0
 20
0.0
  9
$PLIMMAX
 10
12.0
 20
9.0
  9
$UNITMODE
 70
     0
  9
$VISRETAIN
 70
     1
  9
$PLINEGEN
 70
     0
  9
$PSLTSCALE
 70
     1
  9
$TREEDEPTH
 70
  3020
  9
$CMLSTYLE
  2
Standard
  9
$CMLJUST
 70
     0
  9
$CMLSCALE
 40
1.0
  9
$PROXYGRAPHICS
 70
     1
  9
$MEASUREMENT
 70
     1
  9
$CELWEIGHT
370
    -1
  9
$ENDCAPS
280
     0
  9
$JOINSTYLE
280
     0
  9
$LWDISPLAY
290
     0
  9
$INSUNITS
 70
     4
  9
$HYPERLINKBASE
  1

  9
$STYLESHEET
  1

  9
$XEDIT
290
     1
  9
$CEPSNTYPE
380
     0
  9
$PSTYLEMODE
290
     1
  9
$FINGERPRINTGUID
  2
{832116A9-15D4-4320-AAE2-2587619A7AE5}
  9
$VERSIONGUID
  2
{FAEB1C32-E019-11D5-929B-00C0DF256EC4}
  9
$EXTNAMES
290
     1
  9
$PSVPSCALE
 40
0.0
  9
$OLESTARTUP
290
     0
  9
$SORTENTS
280
   127
  9
$INDEXCTL
280
     0
  9
$HIDETEXT
280
     1
  9
$XCLIPFRAME
280
     2
  9
$HALOGAP
280
     0
  9
$OBSCOLOR
 70
   257
  9
$OBSLTYPE
280
     0
  9
$INTERSECTIONDISPLAY
280
     0
  9
$INTERSECTIONCOLOR
 70
   257
  9
$DIMASSOC
280
     2
  9
$PROJECTNAME
  1

  9
$CAMERADISPLAY
290
     0
  9
$LENSLENGTH
 40
50.0
  9
$CAMERAHEIGHT
 40
0.0
  9
$STEPSPERSEC
 40
2.0
  9
$STEPSIZE
 40
6.0
  9
$3DDWFPREC
 40
2.0
  9
$PSOLWIDTH
 40
0.25
  9
$PSOLHEIGHT
 40
4.0
  9
$LOFTANG1
 40
1.5707963267949
  9
$LOFTANG2
 40
1.5707963267949
  9
$LOFTMAG1
 40
0.0
  9
$LOFTMAG2
 40
0.0
  9
$LOFTPARAM
 70
     7
  9
$LOFTNORMALS
280
     1
  9
$LATITUDE
 40
37.795
  9
$LONGITUDE
 40
-122.394
  9
$NORTHDIRECTION
 40
0.0
  9
$TIMEZONE
 70
 -8000
  9
$LIGHTGLYPHDISPLAY
280
     1
  9
$TILEMODELIGHTSYNCH
280
     1
  9
$SOLIDHIST
280
     1
  9
$SHOWHIST
280
     1
  9
$DWFFRAME
280
     2
  9
$DGNFRAME
280
     2
  9
$REALWORLDSCALE
290
     1
  9
$INTERFERECOLOR
 62
   256
  9
$CSHADOW
280
     0
  9
$SHADOWPLANELOCATION
 40
0.0
  0
ENDSEC
  0
SECTION
  2
CLASSES
  0
CLASS
  1
ACDBDICTIONARYWDFLT
  2
AcDbDictionaryWithDefault
  3
ObjectDBX Classes
 90
        0
 91
        4
280
     0
281
     0
  0
CLASS
  1
VISUALSTYLE
  2
AcDbVisualStyle
  3
ObjectDBX Classes
 90
     4095
 91
        4
280
     0
281
     0
  0
CLASS
  1
MATERIAL
  2
AcDbMaterial
  3
ObjectDBX Classes
 90
     1153
 91
        4
280
     0
281
     0
  0
ENDSEC
  0
SECTION
  2
TABLES
  0
TABLE
  2
VPORT
  5
8
330
0
100
AcDbSymbolTable
 70
     1
  0
VPORT
  5
29
330
8
100
AcDbSymbolTableRecord
100
AcDbViewportTableRecord
  2
*Active
 70
     0
 10
0.0
 20
0.0
 11
1.0
 21
1.0
 12
142.139432178094
 22
209.8297389139877
 13
0.0
 23
0.0
 14
0.5
 24
0.5
 15
0.5
 25
0.5
 16
0.0
 26
0.0
 36
1.0
 17
0.0
 27
0.0
 37
0.0
 40
277.0862185421269
 41
1.60267857142857
 42
50.0
 43
0.0
 44
0.0
 50
0.0
 51
0.0
 71
     0
 72
   100
 73
     1
 74
     3
 75
     0
 76
     0
 77
     0
 78
     0
281
     0
 65
     1
110
0.0
120
0.0
130
0.0
111
1.0
121
0.0
131
0.0
112
0.0
122
1.0
132
0.0
 79
     0
146
0.0
 60
     3
 61
     5
292
     1
282
     1
141
0.0
142
0.0
 63
   250
  0
ENDTAB
  0
TABLE
  2
LTYPE
  5
5
330
0
100
AcDbSymbolTable
 70
     9
  0
LTYPE
  5
14
330
5
100
AcDbSymbolTableRecord
100
AcDbLinetypeTableRecord
  2
ByBlock
 70
     0
  3

 72
    65
 73
     0
 40
0.0
  0
LTYPE
  5
15
330
5
100
AcDbSymbolTableRecord
100
AcDbLinetypeTableRecord
  2
ByLayer
 70
     0
  3

 72
    65
 73
     0
 40
0.0
  0
LTYPE
  5
16
330
5
100
AcDbSymbolTableRecord
100
AcDbLinetypeTableRecord
  2
Continuous
 70
     0
  3
Solid line
 72
    65
 73
     0
 40
0.0
  0
LTYPE
  5
3F
330
5
100
AcDbSymbolTableRecord
100
AcDbLinetypeTableRecord
  2
DASHED
 70
     0
  3
Dashed
 72
    65
 73
     2
 40
15.0
 49
7.0
 74
     0
 49
-8.0
 74
     0
  0
LTYPE
  5
40
330
5
100
AcDbSymbolTableRecord
100
AcDbLinetypeTableRecord
  2
DOTTED
 70
     0
  3
Dotted
 72
    65
 73
     2
 40
1.0
 49
0.0
 74
     0
 49
-1.0
 74
     0
  0
LTYPE
  5
41
330
5
100
AcDbSymbolTableRecord
100
AcDbLinetypeTableRecord
  2
DOT_CENTER
 70
     0
  3
Dot_Center
 72
    65
 73
     4
 40
14.0
 49
12.0
 74
     0
 49
-1.0
 74
     0
 49
0.0
 74
     0
 49
-1.0
 74
     0
  0
LTYPE
  5
42
330
5
100
AcDbSymbolTableRecord
100
AcDbLinetypeTableRecord
  2
LONG_DASHED
 70
     0
  3
Long_Dashed
 72
    65
 73
     2
 40
15.0
 49
10.0
 74
     0
 49
-5.0
 74
     0
  0
LTYPE
  5
43
330
5
100
AcDbSymbolTableRecord
100
AcDbLinetypeTableRecord
  2
DASH_CENTER
 70
     0
  3
Dash_Center
 72
    65
 73
     4
 40
14.0
 49
11.0
 74
     0
 49
-1.0
 74
     0
 49
1.0
 74
     0
 49
-1.0
 74
     0
  0
LTYPE
  5
44
330
5
100
AcDbSymbolTableRecord
100
AcDbLinetypeTableRecord
  2
PHANTOM
 70
     0
  3
Phantom
 72
    65
 73
     6
 40
13.0
 49
10.0
 74
     0
 49
-1.0
 74
     0
 49
0.0
 74
     0
 49
-1.0
 74
     0
 49
0.0
 74
     0
 49
-1.0
 74
     0
  0
LTYPE
  5
45
330
5
100
AcDbSymbolTableRecord
100
AcDbLinetypeTableRecord
  2
CENTER_DASH_DASH
 70
     0
  3
Center_Dash_Dash
 72
    65
 73
     6
 40
14.0
 49
9.0
 74
     0
 49
-1.0
 74
     0
 49
1.0
 74
     0
 49
-1.0
 74
     0
 49
1.0
 74
     0
 49
-1.0
 74
     0
  0
LTYPE
  5
46
330
5
100
AcDbSymbolTableRecord
100
AcDbLinetypeTableRecord
  2
CENTER_1
 70
     0
  3
CENTER_1
 72
    65
 73
     4
 40
22.0
 49
13.0
 74
     0
 49
-3.0
 74
     0
 49
3.0
 74
     0
 49
-3.0
 74
     0
  0
ENDTAB
  0
TABLE
  2
LAYER
  5
2
330
0
100
AcDbSymbolTable
 70
     6
  0
LAYER
  5
10
330
2
100
AcDbSymbolTableRecord
100
AcDbLayerTableRecord
  2
0
 70
     0
 62
     7
  6
Continuous
370
    -3
390
F
347
3E
  0
LAYER
  5
47
330
2
100
AcDbSymbolTableRecord
100
AcDbLayerTableRecord
  2
1
 70
     0
 62
     7
  6
Continuous
370
    -3
390
F
347
3E
  0
LAYER
  5
48
330
2
100
AcDbSymbolTableRecord
100
AcDbLayerTableRecord
  2
A_ACHSEN
 70
     0
 62
     7
  6
Continuous
370
    -3
390
F
347
3E
  0
LAYER
  5
49
330
2
100
AcDbSymbolTableRecord
100
AcDbLayerTableRecord
  2
A_NOTIZEN_SYMB
 70
     0
 62
     7
  6
Continuous
370
    -3
390
F
347
3E
  0
LAYER
  5
4A
330
2
100
AcDbSymbolTableRecord
100
AcDbLayerTableRecord
  2
A_RUNDUNGEN
 70
     0
 62
     7
  6
Continuous
370
    -3
390
F
347
3E
  0
LAYER
  5
4B
330
2
100
AcDbSymbolTableRecord
100
AcDbLayerTableRecord
  2
DEFAULT_1
 70
     0
 62
     7
  6
Continuous
370
    -3
390
F
347
3E
  0
ENDTAB
  0
TABLE
  2
STYLE
  5
3
330
0
100
AcDbSymbolTable
 70
     2
  0
STYLE
  5
11
330
3
100
AcDbSymbolTableRecord
100
AcDbTextStyleTableRecord
  2
Standard
 70
     0
 40
0.0
 41
1.0
 50
0.0
 71
     0
 42
0.2
  3
txt
  4

  0
STYLE
  5
223
330
3
100
AcDbSymbolTableRecord
100
AcDbTextStyleTableRecord
  2
CONVERTER_11
 70
     0
 40
0.0
 41
0.9
 50
0.0
 71
     0
 42
0.2
  3
txt.shx
  4

  0
ENDTAB
  0
TABLE
  2
VIEW
  5
6
330
0
100
AcDbSymbolTable
 70
     0
  0
ENDTAB
  0
TABLE
  2
UCS
  5
7
330
0
100
AcDbSymbolTable
 70
     0
  0
ENDTAB
  0
TABLE
  2
APPID
  5
9
330
0
100
AcDbSymbolTable
 70
     1
  0
APPID
  5
12
330
9
100
AcDbSymbolTableRecord
100
AcDbRegAppTableRecord
  2
ACAD
 70
     0
  0
ENDTAB
  0
TABLE
  2
DIMSTYLE
  5
A
330
0
100
AcDbSymbolTable
 70
     6
100
AcDbDimStyleTable
  0
DIMSTYLE
105
27
330
A
100
AcDbSymbolTableRecord
100
AcDbDimStyleTableRecord
  2
Standard
 70
     0
178
     0
340
11
  0
DIMSTYLE
105
22E
102
{ACAD_REACTORS
330
22F
102
}
330
A
100
AcDbSymbolTableRecord
100
AcDbDimStyleTableRecord
  2
ME10_DIM_10
 70
     0
 41
3.5
 42
0.0
 44
2.0
 73
     0
 74
     0
 77
     1
 78
     1
140
3.5
147
2.0
172
     1
173
     1
174
     1
175
     1
176
     2
177
     2
271
     1
178
     2
271
     1
340
223
  0
DIMSTYLE
105
239
102
{ACAD_REACTORS
330
23A
102
}
330
A
100
AcDbSymbolTableRecord
100
AcDbDimStyleTableRecord
  2
ME10_DIM_11
 70
     0
 41
3.5
 42
0.0
 44
2.0
 73
     0
 74
     0
 77
     1
 78
     8
140
3.5
147
2.0
172
     1
173
     1
174
     1
175
     1
176
     2
177
     2
271
     3
178
     2
271
     3
340
223
  0
DIMSTYLE
105
245
102
{ACAD_REACTORS
330
246
102
}
330
A
100
AcDbSymbolTableRecord
100
AcDbDimStyleTableRecord
  2
ME10_DIM_12
 70
     0
 41
3.5
 42
0.0
 44
2.0
 73
     0
 74
     0
 77
     1
 78
     8
140
3.5
147
2.0
172
     1
173
     1
174
     1
175
     1
176
     2
177
     2
271
     3
178
     2
271
     3
340
223
  0
DIMSTYLE
105
250
102
{ACAD_REACTORS
330
251
102
}
330
A
100
AcDbSymbolTableRecord
100
AcDbDimStyleTableRecord
  2
ME10_DIM_13
 70
     0
 41
3.5
 42
0.0
 44
2.0
 73
     0
 74
     0
 77
     1
 78
     8
140
3.5
147
2.0
172
     1
173
     1
174
     1
175
     1
176
     2
177
     2
271
     3
178
     2
271
     3
340
223
  0
DIMSTYLE
105
25B
102
{ACAD_REACTORS
330
25C
102
}
330
A
100
AcDbSymbolTableRecord
100
AcDbDimStyleTableRecord
  2
ME10_DIM_14
 70
     0
 41
3.5
 42
0.0
 44
2.0
 73
     0
 74
     0
 77
     1
 78
     1
140
3.5
147
2.0
172
     1
173
     1
174
     1
175
     1
176
     2
177
     2
271
     1
178
     2
271
     1
340
223
  0
ENDTAB
  0
TABLE
  2
BLOCK_RECORD
  5
1
330
0
100
AcDbSymbolTable
 70
     6
  0
BLOCK_RECORD
  5
1F
330
1
100
AcDbSymbolTableRecord
100
AcDbBlockTableRecord
  2
*Model_Space
340
22
 70
     0
280
     1
281
     0
  0
BLOCK_RECORD
  5
1B
330
1
100
AcDbSymbolTableRecord
100
AcDbBlockTableRecord
  2
*Paper_Space
340
1E
 70
     0
280
     1
281
     0
  0
BLOCK_RECORD
  5
23
330
1
100
AcDbSymbolTableRecord
100
AcDbBlockTableRecord
  2
*Paper_Space0
340
26
 70
     0
280
     1
281
     0
  0
BLOCK_RECORD
  5
225
330
1
100
AcDbSymbolTableRecord
100
AcDbBlockTableRecord
  2
*D1
340
0
 70
     0
280
     1
281
     0
  0
BLOCK_RECORD
  5
230
330
1
100
AcDbSymbolTableRecord
100
AcDbBlockTableRecord
  2
*D2
340
0
 70
     0
280
     1
281
     0
  0
BLOCK_RECORD
  5
23B
330
1
100
AcDbSymbolTableRecord
100
AcDbBlockTableRecord
  2
*D3
340
0
 70
     0
280
     1
281
     0
  0
BLOCK_RECORD
  5
247
330
1
100
AcDbSymbolTableRecord
100
AcDbBlockTableRecord
  2
*D4
340
0
 70
     0
280
     1
281
     0
  0
BLOCK_RECORD
  5
252
330
1
100
AcDbSymbolTableRecord
100
AcDbBlockTableRecord
  2
*D5
340
0
 70
     0
280
     1
281
     0
  0
ENDTAB
  0
ENDSEC
  0
SECTION
  2
BLOCKS
  0
BLOCK
  5
20
330
1F
100
AcDbEntity
  8
0
100
AcDbBlockBegin
  2
*Model_Space
 70
     0
 10
0.0
 20
0.0
 30
0.0
  3
*Model_Space
  1

  0
ENDBLK
  5
21
330
1F
100
AcDbEntity
  8
0
100
AcDbBlockEnd
  0
BLOCK
  5
1C
330
1B
100
AcDbEntity
 67
     1
  8
0
100
AcDbBlockBegin
  2
*Paper_Space
 70
     0
 10
0.0
 20
0.0
 30
0.0
  3
*Paper_Space
  1

  0
ENDBLK
  5
1D
330
1B
100
AcDbEntity
 67
     1
  8
0
100
AcDbBlockEnd
  0
BLOCK
  5
24
330
23
100
AcDbEntity
  8
0
100
AcDbBlockBegin
  2
*Paper_Space0
 70
     0
 10
0.0
 20
0.0
 30
0.0
  3
*Paper_Space0
  1

  0
ENDBLK
  5
25
330
23
100
AcDbEntity
  8
0
100
AcDbBlockEnd
  0
BLOCK
  5
22C
330
225
100
AcDbEntity
  8
0
100
AcDbBlockBegin
  2
*D1
 70
     1
 10
0.0
 20
0.0
 30
0.0
  3
*D1
  1

  0
LINE
  5
226
330
225
100
AcDbEntity
  8
1
  6
Continuous
 62
     2
100
AcDbLine
 10
204.66043345592
 20
95.678019178275
 30
0.0
 11
204.66043345592
 21
335.7780200695
 31
0.0
  0
LINE
  5
227
330
225
100
AcDbEntity
  8
1
  6
Continuous
 62
     2
100
AcDbLine
 10
169.800704189
 20
335.7780200695
 30
0.0
 11
206.66043345592
 21
335.7780200695
 31
0.0
  0
LINE
  5
228
330
225
100
AcDbEntity
  8
1
  6
Continuous
 62
     2
100
AcDbLine
 10
169.800704189
 20
95.678019178275
 30
0.0
 11
206.66043345592
 21
95.678019178275
 31
0.0
  0
SOLID
  5
229
330
225
100
AcDbEntity
  8
1
 62
     2
100
AcDbTrace
 10
204.1996497143641
 20
99.178019178275
 30
0.0
 11
205.1212171974759
 21
99.178019178275
 31
0.0
 12
204.66043345592
 22
95.678019178275
 32
0.0
 13
204.66043345592
 23
95.678019178275
 33
0.0
  0
SOLID
  5
22A
330
225
100
AcDbEntity
  8
1
 62
     2
100
AcDbTrace
 10
205.1212171974759
 20
332.2780200695
 30
0.0
 11
204.1996497143641
 21
332.2780200695
 31
0.0
 12
204.66043345592
 22
335.7780200695
 32
0.0
 13
204.66043345592
 23
335.7780200695
 33
0.0
  0
MTEXT
  5
22B
330
225
100
AcDbEntity
  8
1
 62
     2
100
AcDbMText
 10
202.66043345592
 20
208.547880159078
 30
0.0
 40
3.5
 41
0.0
 46
0.0
 71
     7
 72
     1
  1
240
  7
CONVERTER_11
 11
0.0
 21
1.0
 31
0.0
 73
     1
 44
0.60024009603842
  0
ENDBLK
  5
22D
330
225
100
AcDbEntity
  8
0
100
AcDbBlockEnd
  0
BLOCK
  5
237
330
230
100
AcDbEntity
  8
0
100
AcDbBlockBegin
  2
*D2
 70
     1
 10
0.0
 20
0.0
 30
0.0
  3
*D2
  1

  0
LINE
  5
231
330
230
100
AcDbEntity
  8
1
  6
Continuous
 62
     2
100
AcDbLine
 10
124.513579185
 20
142.224376107599
 30
0.0
 11
149.513579185
 21
142.224376107599
 31
0.0
  0
LINE
  5
232
330
230
100
AcDbEntity
  8
1
  6
Continuous
 62
     2
100
AcDbLine
 10
149.513579185
 20
162.2780200695
 30
0.0
 11
149.513579185
 21
140.224376107599
 31
0.0
  0
LINE
  5
233
330
230
100
AcDbEntity
  8
1
  6
Continuous
 62
     2
100
AcDbLine
 10
124.513579185
 20
153.1780200695
 30
0.0
 11
124.513579185
 21
140.224376107599
 31
0.0
  0
SOLID
  5
234
330
230
100
AcDbEntity
  8
1
 62
     2
100
AcDbTrace
 10
128.013579185
 20
142.6851598491549
 30
0.0
 11
128.013579185
 21
141.7635923660431
 31
0.0
 12
124.513579185
 22
142.224376107599
 32
0.0
 13
124.513579185
 23
142.224376107599
 33
0.0
  0
SOLID
  5
235
330
230
100
AcDbEntity
  8
1
 62
     2
100
AcDbTrace
 10
146.013579185
 20
141.7635923660431
 30
0.0
 11
146.013579185
 21
142.6851598491549
 31
0.0
 12
149.513579185
 22
142.224376107599
 32
0.0
 13
149.513579185
 23
142.224376107599
 33
0.0
  0
MTEXT
  5
236
330
230
100
AcDbEntity
  8
1
 62
     2
100
AcDbMText
 10
132.8839127203841
 20
144.224376107599
 30
0.0
 40
3.5
 41
0.0
 46
0.0
 71
     7
 72
     1
  1
25
  7
CONVERTER_11
 11
0.9999999999970619
 21
2.424068405545306E-6
 31
0.0
 73
     1
 44
0.60024009603842
  0
ENDBLK
  5
238
330
230
100
AcDbEntity
  8
0
100
AcDbBlockEnd
  0
BLOCK
  5
243
330
23B
100
AcDbEntity
  8
0
100
AcDbBlockBegin
  2
*D3
 70
     1
 10
0.0
 20
0.0
 30
0.0
  3
*D3
  1

  0
LINE
  5
23C
330
23B
100
AcDbEntity
  8
1
  6
Continuous
 62
     2
100
AcDbLine
 10
153.80070418905
 20
85.8814577584755
 30
0.0
 11
185.8007024066
 21
85.8814577584755
 31
0.0
  0
LINE
  5
23D
330
23B
100
AcDbEntity
  8
1
  6
Continuous
 62
     2
100
AcDbLine
 10
185.8007024066
 20
111.6780200695
 30
0.0
 11
185.8007024066
 21
97.3547019461283
 31
0.0
  0
LINE
  5
23E
330
23B
100
AcDbEntity
  8
1
  6
Continuous
 62
     2
100
AcDbLine
 10
185.8007024066
 20
93.4460692438162
 30
0.0
 11
185.8007024066
 21
83.8814577584755
 31
0.0
  0
LINE
  5
23F
330
23B
100
AcDbEntity
  8
1
  6
Continuous
 62
     2
100
AcDbLine
 10
153.80070418905
 20
111.6780200695
 30
0.0
 11
153.80070418905
 21
83.8814577584755
 31
0.0
  0
SOLID
  5
240
330
23B
100
AcDbEntity
  8
1
 62
     2
100
AcDbTrace
 10
157.30070418905
 20
86.34224150003139
 30
0.0
 11
157.30070418905
 21
85.42067401691962
 31
0.0
 12
153.80070418905
 22
85.8814577584755
 32
0.0
 13
153.80070418905
 23
85.8814577584755
 33
0.0
  0
SOLID
  5
241
330
23B
100
AcDbEntity
  8
1
 62
     2
100
AcDbTrace
 10
182.3007024066
 20
85.42067401691962
 30
0.0
 11
182.3007024066
 21
86.34224150003139
 31
0.0
 12
185.8007024066
 22
85.8814577584755
 32
0.0
 13
185.8007024066
 23
85.8814577584755
 33
0.0
  0
MTEXT
  5
242
330
23B
100
AcDbEntity
  8
1
 62
     2
100
AcDbMText
 10
166.2119282517729
 20
87.8814577584755
 30
0.0
 40
3.5
 41
0.0
 46
0.0
 71
     7
 72
     1
  1
32
  7
CONVERTER_11
 11
0.9999999999970619
 21
2.424068405545306E-6
 31
0.0
 73
     1
 44
0.60024009603842
  0
ENDBLK
  5
244
330
23B
100
AcDbEntity
  8
0
100
AcDbBlockEnd
  0
BLOCK
  5
24E
330
247
100
AcDbEntity
  8
0
100
AcDbBlockBegin
  2
*D4
 70
     1
 10
0.0
 20
0.0
 30
0.0
  3
*D4
  1

  0
LINE
  5
248
330
247
100
AcDbEntity
  8
1
  6
Continuous
 62
     2
100
AcDbLine
 10
88.11099547804997
 20
85.8814577584755
 30
0.0
 11
120.1109972605
 21
85.8814577584755
 31
0.0
  0
LINE
  5
249
330
247
100
AcDbEntity
  8
1
  6
Continuous
 62
     2
100
AcDbLine
 10
120.1109972605
 20
111.8780200695
 30
0.0
 11
120.1109972605
 21
83.8814577584755
 31
0.0
  0
LINE
  5
24A
330
247
100
AcDbEntity
  8
1
  6
Continuous
 62
     2
100
AcDbLine
 10
88.11099547804997
 20
111.8780200695
 30
0.0
 11
88.11099547804997
 21
83.8814577584755
 31
0.0
  0
SOLID
  5
24B
330
247
100
AcDbEntity
  8
1
 62
     2
100
AcDbTrace
 10
91.61099547804997
 20
86.34224150003139
 30
0.0
 11
91.61099547804997
 21
85.42067401691962
 31
0.0
 12
88.11099547804997
 22
85.8814577584755
 32
0.0
 13
88.11099547804997
 23
85.8814577584755
 33
0.0
  0
SOLID
  5
24C
330
247
100
AcDbEntity
  8
1
 62
     2
100
AcDbTrace
 10
116.6109972605
 20
85.42067401691962
 30
0.0
 11
116.6109972605
 21
86.34224150003139
 31
0.0
 12
120.1109972605
 22
85.8814577584755
 32
0.0
 13
120.1109972605
 23
85.8814577584755
 33
0.0
  0
MTEXT
  5
24D
330
247
100
AcDbEntity
  8
1
 62
     2
100
AcDbMText
 10
100.645279689525
 20
87.8814577584755
 30
0.0
 40
3.5
 41
0.0
 46
0.0
 71
     7
 72
     1
  1
32
  7
CONVERTER_11
 11
0.9999999999970619
 21
2.424068405545306E-6
 31
0.0
 73
     1
 44
0.60024009603842
  0
ENDBLK
  5
24F
330
247
100
AcDbEntity
  8
0
100
AcDbBlockEnd
  0
BLOCK
  5
259
330
252
100
AcDbEntity
  8
0
100
AcDbBlockBegin
  2
*D5
 70
     1
 10
0.0
 20
0.0
 30
0.0
  3
*D5
  1

  0
LINE
  5
253
330
252
100
AcDbEntity
  8
1
  6
Continuous
 62
     2
100
AcDbLine
 10
120.1109972605
 20
85.8814577584755
 30
0.0
 11
153.80070418905
 21
85.8814577584755
 31
0.0
  0
LINE
  5
254
330
252
100
AcDbEntity
  8
1
  6
Continuous
 62
     2
100
AcDbLine
 10
120.1109972605
 20
111.8780200695
 30
0.0
 11
120.1109972605
 21
83.8814577584755
 31
0.0
  0
LINE
  5
255
330
252
100
AcDbEntity
  8
1
  6
Continuous
 62
     2
100
AcDbLine
 10
153.80070418905
 20
111.6780200695
 30
0.0
 11
153.80070418905
 21
83.8814577584755
 31
0.0
  0
SOLID
  5
256
330
252
100
AcDbEntity
  8
1
 62
     2
100
AcDbTrace
 10
123.6109972605
 20
86.34224150003139
 30
0.0
 11
123.6109972605
 21
85.42067401691962
 31
0.0
 12
120.1109972605
 22
85.8814577584755
 32
0.0
 13
120.1109972605
 23
85.8814577584755
 33
0.0
  0
SOLID
  5
257
330
252
100
AcDbEntity
  8
1
 62
     2
100
AcDbTrace
 10
150.30070418905
 20
85.42067401691962
 30
0.0
 11
150.30070418905
 21
86.34224150003139
 31
0.0
 12
153.80070418905
 22
85.8814577584755
 32
0.0
 13
153.80070418905
 23
85.8814577584755
 33
0.0
  0
MTEXT
  5
258
330
252
100
AcDbEntity
  8
1
 62
     2
100
AcDbMText
 10
134.661128346962
 20
87.8814577584755
 30
0.0
 40
3.5
 41
0.0
 46
0.0
 71
     7
 72
     1
  1
34
  7
CONVERTER_11
 11
0.9999999999970619
 21
2.424068405545306E-6
 31
0.0
 73
     1
 44
0.60024009603842
  0
ENDBLK
  5
25A
330
252
100
AcDbEntity
  8
0
100
AcDbBlockEnd
  0
ENDSEC
  0
SECTION
  2
ENTITIES
  0
LINE
  5
4C
330
1F
100
AcDbEntity
  8
1
  6
Continuous
 62
     7
100
AcDbLine
 10
103.6109972605
 20
117.2280200695
 30
0.0
 11
104.6109972605
 21
117.2280200695
 31
0.0
  0
LINE
  5
4D
330
1F
100
AcDbEntity
  8
1
  6
Continuous
 62
     7
100
AcDbLine
 10
104.6109972605
 20
117.2280200695
 30
0.0
 11
104.6109972605
 21
115.9780200695
 31
0.0
  0
LINE
  5
4E
330
1F
100
AcDbEntity
  8
1
  6
Continuous
 62
     7
100
AcDbLine
 10
105.1109972605
 20
115.4780200695
 30
0.0
 11
106.3609972605
 21
115.4780200695
 31
0.0
  0
LINE
  5
4F
330
1F
100
AcDbEntity
  8
1
  6
Continuous
 62
     7
100
AcDbLine
 10
106.3609972605
 20
115.4780200695
 30
0.0
 11
106.3609972605
 21
114.4780200695
 31
0.0
  0
LINE
  5
50
330
1F
100
AcDbEntity
  8
1
  6
Continuous
 62
     7
100
AcDbLine
 10
106.3609972605
 20
114.4780200695
 30
0.0
 11
105.1109972605
 21
114.4780200695
 31
0.0
  0
LINE
  5
51
330
1F
100
AcDbEntity
  8
1
  6
Continuous
 62
     7
100
AcDbLine
 10
104.6109972605
 20
113.9780200695
 30
0.0
 11
104.6109972605
 21
112.7280200695
 31
0.0
  0
LINE
  5
52
330
1F
100
AcDbEntity
  8
1
  6
Continuous
 62
     7
100
AcDbLine
 10
104.6109972605
 20
112.7280200695
 30
0.0
 11
103.6109972605
 21
112.7280200695
 31
0.0
  0
LINE
  5
53
330
1F
100
AcDbEntity
  8
1
  6
Continuous
 62
     7
100
AcDbLine
 10
103.6109972605
 20
112.7280200695
 30
0.0
 11
103.6109972605
 21
113.9780200695
 31
0.0
  0
LINE
  5
54
330
1F
100
AcDbEntity
  8
1
  6
Continuous
 62
     7
100
AcDbLine
 10
103.1109972605
 20
114.4780200695
 30
0.0
 11
101.8609972605
 21
114.4780200695
 31
0.0
  0
LINE
  5
55
330
1F
100
AcDbEntity
  8
1
  6
Continuous
 62
     7
100
AcDbLine
 10
101.8609972605
 20
114.4780200695
 30
0.0
 11
101.8609972605
 21
115.4780200695
 31
0.0
  0
LINE
  5
56
330
1F
100
AcDbEntity
  8
1
  6
Continuous
 62
     7
100
AcDbLine
 10
101.8609972605
 20
115.4780200695
 30
0.0
 11
103.1109972605
 21
115.4780200695
 31
0.0
  0
LINE
  5
57
330
1F
100
AcDbEntity
  8
1
  6
Continuous
 62
     7
100
AcDbLine
 10
103.6109972605
 20
115.9780200695
 30
0.0
 11
103.6109972605
 21
117.2280200695
 31
0.0
  0
LINE
  5
58
330
1F
100
AcDbEntity
  8
1
  6
Continuous
 62
     7
100
AcDbLine
 10
103.6109972605
 20
115.9780200695
 30
0.0
 11
103.3609972605
 21
115.7280200695
 31
0.0
  0
LINE
  5
59
330
1F
100
AcDbEntity
  8
1
  6
Continuous
 62
     7
100
AcDbLine
 10
104.6109972605
 20
115.9780200695
 30
0.0
 11
104.8609972605
 21
115.7280200695
 31
0.0
  0
LINE
  5
5A
330
1F
100
AcDbEntity
  8
1
  6
Continuous
 62
     7
100
AcDbLine
 10
105.1109972605
 20
114.4780200695
 30
0.0
 11
104.8609972605
 21
114.2280200695
 31
0.0
  0
LINE
  5
5B
330
1F
100
AcDbEntity
  8
1
  6
Continuous
 62
     7
100
AcDbLine
 10
103.6109972605
 20
113.9780200695
 30
0.0
 11
103.3609972605
 21
114.2280200695
 31
0.0
  0
LINE
  5
5C
330
1F
100
AcDbEntity
  8
1
  6
Continuous
 62
     2
100
AcDbLine
 10
104.8609972605
 20
115.7280200695
 30
0.0
 11
105.7019875181697
 21
116.5690103271696
 31
0.0
  0
LINE
  5
5D
330
1F
100
AcDbEntity
  8
1
  6
Continuous
 62
     7
100
AcDbLine
 10
104.8609972605
 20
115.7280200695
 30
0.0
 11
105.1109972605
 21
115.4780200695
 31
0.0
  0
LINE
  5
5E
330
1F
100
AcDbEntity
  8
1
  6
Continuous
 62
     2
100
AcDbLine
 10
103.3609972605
 20
115.7280200695
 30
0.0
 11
102.5200070028303
 21
116.5690103271696
 31
0.0
  0
LINE
  5
5F
330
1F
100
AcDbEntity
  8
1
  6
Continuous
 62
     7
100
AcDbLine
 10
103.3609972605
 20
115.7280200695
 30
0.0
 11
103.1109972605
 21
115.4780200695
 31
0.0
  0
LINE
  5
60
330
1F
100
AcDbEntity
  8
1
  6
Continuous
 62
     2
100
AcDbLine
 10
103.3609972605
 20
114.2280200695
 30
0.0
 11
102.5200070028303
 21
113.3870298118303
 31
0.0
  0
LINE
  5
61
330
1F
100
AcDbEntity
  8
1
  6
Continuous
 62
     7
100
AcDbLine
 10
103.3609972605
 20
114.2280200695
 30
0.0
 11
103.1109972605
 21
114.4780200695
 31
0.0
  0
LINE
  5
62
330
1F
100
AcDbEntity
  8
1
  6
Continuous
 62
     2
100
AcDbLine
 10
104.8609972605
 20
114.2280200695
 30
0.0
 11
105.7019875181697
 21
113.3870298118303
 31
0.0
  0
LINE
  5
63
330
1F
100
AcDbEntity
  8
1
  6
Continuous
 62
     7
100
AcDbLine
 10
104.8609972605
 20
114.2280200695
 30
0.0
 11
104.6109972605
 21
113.9780200695
 31
0.0
  0
LINE
  5
64
330
1F
100
AcDbEntity
  8
1
  6
Continuous
 62
     7
100
AcDbLine
 10
169.3054392015
 20
117.0280200695
 30
0.0
 11
170.3054392015
 21
117.0280200695
 31
0.0
  0
LINE
  5
65
330
1F
100
AcDbEntity
  8
1
  6
Continuous
 62
     7
100
AcDbLine
 10
170.3054392015
 20
117.0280200695
 30
0.0
 11
170.3054392015
 21
115.7780200695
 31
0.0
  0
LINE
  5
66
330
1F
100
AcDbEntity
  8
1
  6
Continuous
 62
     7
100
AcDbLine
 10
170.8054392015
 20
115.2780200695
 30
0.0
 11
172.0554392015
 21
115.2780200695
 31
0.0
  0
LINE
  5
67
330
1F
100
AcDbEntity
  8
1
  6
Continuous
 62
     7
100
AcDbLine
 10
172.0554392015
 20
115.2780200695
 30
0.0
 11
172.0554392015
 21
114.2780200695
 31
0.0
  0
LINE
  5
68
330
1F
100
AcDbEntity
  8
1
  6
Continuous
 62
     7
100
AcDbLine
 10
172.0554392015
 20
114.2780200695
 30
0.0
 11
170.8054392015
 21
114.2780200695
 31
0.0
  0
LINE
  5
69
330
1F
100
AcDbEntity
  8
1
  6
Continuous
 62
     7
100
AcDbLine
 10
170.3054392015
 20
113.7780200695
 30
0.0
 11
170.3054392015
 21
112.5280200695
 31
0.0
  0
LINE
  5
6A
330
1F
100
AcDbEntity
  8
1
  6
Continuous
 62
     7
100
AcDbLine
 10
170.3054392015
 20
112.5280200695
 30
0.0
 11
169.3054392015
 21
112.5280200695
 31
0.0
  0
LINE
  5
6B
330
1F
100
AcDbEntity
  8
1
  6
Continuous
 62
     7
100
AcDbLine
 10
169.3054392015
 20
112.5280200695
 30
0.0
 11
169.3054392015
 21
113.7780200695
 31
0.0
  0
LINE
  5
6C
330
1F
100
AcDbEntity
  8
1
  6
Continuous
 62
     7
100
AcDbLine
 10
168.8054392015
 20
114.2780200695
 30
0.0
 11
167.5554392015
 21
114.2780200695
 31
0.0
  0
LINE
  5
6D
330
1F
100
AcDbEntity
  8
1
  6
Continuous
 62
     7
100
AcDbLine
 10
167.5554392015
 20
114.2780200695
 30
0.0
 11
167.5554392015
 21
115.2780200695
 31
0.0
  0
LINE
  5
6E
330
1F
100
AcDbEntity
  8
1
  6
Continuous
 62
     7
100
AcDbLine
 10
167.5554392015
 20
115.2780200695
 30
0.0
 11
168.8054392015
 21
115.2780200695
 31
0.0
  0
LINE
  5
6F
330
1F
100
AcDbEntity
  8
1
  6
Continuous
 62
     7
100
AcDbLine
 10
169.3054392015
 20
115.7780200695
 30
0.0
 11
169.3054392015
 21
117.0280200695
 31
0.0
  0
LINE
  5
70
330
1F
100
AcDbEntity
  8
1
  6
Continuous
 62
     7
100
AcDbLine
 10
169.3054392015
 20
115.7780200695
 30
0.0
 11
169.0554392015
 21
115.5280200695
 31
0.0
  0
LINE
  5
71
330
1F
100
AcDbEntity
  8
1
  6
Continuous
 62
     7
100
AcDbLine
 10
170.3054392015
 20
115.7780200695
 30
0.0
 11
170.5554392015
 21
115.5280200695
 31
0.0
  0
LINE
  5
72
330
1F
100
AcDbEntity
  8
1
  6
Continuous
 62
     7
100
AcDbLine
 10
170.8054392015
 20
114.2780200695
 30
0.0
 11
170.5554392015
 21
114.0280200695
 31
0.0
  0
LINE
  5
73
330
1F
100
AcDbEntity
  8
1
  6
Continuous
 62
     7
100
AcDbLine
 10
169.3054392015
 20
113.7780200695
 30
0.0
 11
169.0554392015
 21
114.0280200695
 31
0.0
  0
LINE
  5
74
330
1F
100
AcDbEntity
  8
1
  6
Continuous
 62
     2
100
AcDbLine
 10
170.5554392015
 20
115.5280200695
 30
0.0
 11
171.3964294591697
 21
116.3690103271696
 31
0.0
  0
LINE
  5
75
330
1F
100
AcDbEntity
  8
1
  6
Continuous
 62
     7
100
AcDbLine
 10
170.5554392015
 20
115.5280200695
 30
0.0
 11
170.8054392015
 21
115.2780200695
 31
0.0
  0
LINE
  5
76
330
1F
100
AcDbEntity
  8
1
  6
Continuous
 62
     2
100
AcDbLine
 10
169.0554392015
 20
115.5280200695
 30
0.0
 11
168.2144489438303
 21
116.3690103271696
 31
0.0
  0
LINE
  5
77
330
1F
100
AcDbEntity
  8
1
  6
Continuous
 62
     7
100
AcDbLine
 10
169.0554392015
 20
115.5280200695
 30
0.0
 11
168.8054392015
 21
115.2780200695
 31
0.0
  0
LINE
  5
78
330
1F
100
AcDbEntity
  8
1
  6
Continuous
 62
     2
100
AcDbLine
 10
169.0554392015
 20
114.0280200695
 30
0.0
 11
168.2144489438303
 21
113.1870298118302
 31
0.0
  0
LINE
  5
79
330
1F
100
AcDbEntity
  8
1
  6
Continuous
 62
     7
100
AcDbLine
 10
169.0554392015
 20
114.0280200695
 30
0.0
 11
168.8054392015
 21
114.2780200695
 31
0.0
  0
LINE
  5
7A
330
1F
100
AcDbEntity
  8
1
  6
Continuous
 62
     2
100
AcDbLine
 10
170.5554392015
 20
114.0280200695
 30
0.0
 11
171.3964294591697
 21
113.1870298118302
 31
0.0
  0
LINE
  5
7B
330
1F
100
AcDbEntity
  8
1
  6
Continuous
 62
     7
100
AcDbLine
 10
170.5554392015
 20
114.0280200695
 30
0.0
 11
170.3054392015
 21
113.7780200695
 31
0.0
  0
LINE
  5
7C
330
1F
100
AcDbEntity
  8
1
  6
Continuous
 62
     7
100
AcDbLine
 10
169.3054392015
 20
319.0280200694999
 30
0.0
 11
170.3054392015
 21
319.0280200694999
 31
0.0
  0
LINE
  5
7D
330
1F
100
AcDbEntity
  8
1
  6
Continuous
 62
     7
100
AcDbLine
 10
170.3054392015
 20
319.0280200694999
 30
0.0
 11
170.3054392015
 21
317.7780200694999
 31
0.0
  0
LINE
  5
7E
330
1F
100
AcDbEntity
  8
1
  6
Continuous
 62
     7
100
AcDbLine
 10
170.8054392015
 20
317.2780200694999
 30
0.0
 11
172.0554392015
 21
317.2780200694999
 31
0.0
  0
LINE
  5
7F
330
1F
100
AcDbEntity
  8
1
  6
Continuous
 62
     7
100
AcDbLine
 10
172.0554392015
 20
317.2780200694999
 30
0.0
 11
172.0554392015
 21
316.2780200694999
 31
0.0
  0
LINE
  5
80
330
1F
100
AcDbEntity
  8
1
  6
Continuous
 62
     7
100
AcDbLine
 10
172.0554392015
 20
316.2780200694999
 30
0.0
 11
170.8054392015
 21
316.2780200694999
 31
0.0
  0
LINE
  5
81
330
1F
100
AcDbEntity
  8
1
  6
Continuous
 62
     7
100
AcDbLine
 10
170.3054392015
 20
315.7780200694999
 30
0.0
 11
170.3054392015
 21
314.5280200694999
 31
0.0
  0
LINE
  5
82
330
1F
100
AcDbEntity
  8
1
  6
Continuous
 62
     7
100
AcDbLine
 10
170.3054392015
 20
314.5280200694999
 30
0.0
 11
169.3054392015
 21
314.5280200694999
 31
0.0
  0
LINE
  5
83
330
1F
100
AcDbEntity
  8
1
  6
Continuous
 62
     7
100
AcDbLine
 10
169.3054392015
 20
314.5280200694999
 30
0.0
 11
169.3054392015
 21
315.7780200694999
 31
0.0
  0
LINE
  5
84
330
1F
100
AcDbEntity
  8
1
  6
Continuous
 62
     7
100
AcDbLine
 10
168.8054392015
 20
316.2780200694999
 30
0.0
 11
167.5554392015
 21
316.2780200694999
 31
0.0
  0
LINE
  5
85
330
1F
100
AcDbEntity
  8
1
  6
Continuous
 62
     7
100
AcDbLine
 10
167.5554392015
 20
316.2780200694999
 30
0.0
 11
167.5554392015
 21
317.2780200694999
 31
0.0
  0
LINE
  5
86
330
1F
100
AcDbEntity
  8
1
  6
Continuous
 62
     7
100
AcDbLine
 10
167.5554392015
 20
317.2780200694999
 30
0.0
 11
168.8054392015
 21
317.2780200694999
 31
0.0
  0
LINE
  5
87
330
1F
100
AcDbEntity
  8
1
  6
Continuous
 62
     7
100
AcDbLine
 10
169.3054392015
 20
317.7780200694999
 30
0.0
 11
169.3054392015
 21
319.0280200694999
 31
0.0
  0
LINE
  5
88
330
1F
100
AcDbEntity
  8
1
  6
Continuous
 62
     7
100
AcDbLine
 10
169.3054392015
 20
317.7780200694999
 30
0.0
 11
169.0554392015
 21
317.5280200694999
 31
0.0
  0
LINE
  5
89
330
1F
100
AcDbEntity
  8
1
  6
Continuous
 62
     7
100
AcDbLine
 10
170.3054392015
 20
317.7780200694999
 30
0.0
 11
170.5554392015
 21
317.5280200694999
 31
0.0
  0
LINE
  5
8A
330
1F
100
AcDbEntity
  8
1
  6
Continuous
 62
     7
100
AcDbLine
 10
170.8054392015
 20
316.2780200694999
 30
0.0
 11
170.5554392015
 21
316.0280200694999
 31
0.0
  0
LINE
  5
8B
330
1F
100
AcDbEntity
  8
1
  6
Continuous
 62
     7
100
AcDbLine
 10
169.3054392015
 20
315.7780200694999
 30
0.0
 11
169.0554392015
 21
316.0280200694999
 31
0.0
  0
LINE
  5
8C
330
1F
100
AcDbEntity
  8
1
  6
Continuous
 62
     2
100
AcDbLine
 10
170.5554392015
 20
317.5280200694999
 30
0.0
 11
171.3964294591697
 21
318.3690103271696
 31
0.0
  0
LINE
  5
8D
330
1F
100
AcDbEntity
  8
1
  6
Continuous
 62
     7
100
AcDbLine
 10
170.5554392015
 20
317.5280200694999
 30
0.0
 11
170.8054392015
 21
317.2780200694999
 31
0.0
  0
LINE
  5
8E
330
1F
100
AcDbEntity
  8
1
  6
Continuous
 62
     2
100
AcDbLine
 10
169.0554392015
 20
317.5280200694999
 30
0.0
 11
168.2144489438303
 21
318.3690103271696
 31
0.0
  0
LINE
  5
8F
330
1F
100
AcDbEntity
  8
1
  6
Continuous
 62
     7
100
AcDbLine
 10
169.0554392015
 20
317.5280200694999
 30
0.0
 11
168.8054392015
 21
317.2780200694999
 31
0.0
  0
LINE
  5
90
330
1F
100
AcDbEntity
  8
1
  6
Continuous
 62
     2
100
AcDbLine
 10
169.0554392015
 20
316.0280200694999
 30
0.0
 11
168.2144489438303
 21
315.1870298118302
 31
0.0
  0
LINE
  5
91
330
1F
100
AcDbEntity
  8
1
  6
Continuous
 62
     7
100
AcDbLine
 10
169.0554392015
 20
316.0280200694999
 30
0.0
 11
168.8054392015
 21
316.2780200694999
 31
0.0
  0
LINE
  5
92
330
1F
100
AcDbEntity
  8
1
  6
Continuous
 62
     2
100
AcDbLine
 10
170.5554392015
 20
316.0280200694999
 30
0.0
 11
171.3964294591697
 21
315.1870298118302
 31
0.0
  0
LINE
  5
93
330
1F
100
AcDbEntity
  8
1
  6
Continuous
 62
     7
100
AcDbLine
 10
170.5554392015
 20
316.0280200694999
 30
0.0
 11
170.3054392015
 21
315.7780200694999
 31
0.0
  0
LINE
  5
94
330
1F
100
AcDbEntity
  8
1
  6
Continuous
 62
     7
100
AcDbLine
 10
103.6109972605
 20
318.8280200694999
 30
0.0
 11
104.6109972605
 21
318.8280200694999
 31
0.0
  0
LINE
  5
95
330
1F
100
AcDbEntity
  8
1
  6
Continuous
 62
     7
100
AcDbLine
 10
104.6109972605
 20
318.8280200694999
 30
0.0
 11
104.6109972605
 21
317.5780200694999
 31
0.0
  0
LINE
  5
96
330
1F
100
AcDbEntity
  8
1
  6
Continuous
 62
     7
100
AcDbLine
 10
105.1109972605
 20
317.0780200694999
 30
0.0
 11
106.3609972605
 21
317.0780200694999
 31
0.0
  0
LINE
  5
97
330
1F
100
AcDbEntity
  8
1
  6
Continuous
 62
     7
100
AcDbLine
 10
106.3609972605
 20
317.0780200694999
 30
0.0
 11
106.3609972605
 21
316.0780200694999
 31
0.0
  0
LINE
  5
98
330
1F
100
AcDbEntity
  8
1
  6
Continuous
 62
     7
100
AcDbLine
 10
106.3609972605
 20
316.0780200694999
 30
0.0
 11
105.1109972605
 21
316.0780200694999
 31
0.0
  0
LINE
  5
99
330
1F
100
AcDbEntity
  8
1
  6
Continuous
 62
     7
100
AcDbLine
 10
104.6109972605
 20
315.5780200694999
 30
0.0
 11
104.6109972605
 21
314.3280200694999
 31
0.0
  0
LINE
  5
9A
330
1F
100
AcDbEntity
  8
1
  6
Continuous
 62
     7
100
AcDbLine
 10
104.6109972605
 20
314.3280200694999
 30
0.0
 11
103.6109972605
 21
314.3280200694999
 31
0.0
  0
LINE
  5
9B
330
1F
100
AcDbEntity
  8
1
  6
Continuous
 62
     7
100
AcDbLine
 10
103.6109972605
 20
314.3280200694999
 30
0.0
 11
103.6109972605
 21
315.5780200694999
 31
0.0
  0
LINE
  5
9C
330
1F
100
AcDbEntity
  8
1
  6
Continuous
 62
     7
100
AcDbLine
 10
103.1109972605
 20
316.0780200694999
 30
0.0
 11
101.8609972605
 21
316.0780200694999
 31
0.0
  0
LINE
  5
9D
330
1F
100
AcDbEntity
  8
1
  6
Continuous
 62
     7
100
AcDbLine
 10
101.8609972605
 20
316.0780200694999
 30
0.0
 11
101.8609972605
 21
317.0780200694999
 31
0.0
  0
LINE
  5
9E
330
1F
100
AcDbEntity
  8
1
  6
Continuous
 62
     7
100
AcDbLine
 10
101.8609972605
 20
317.0780200694999
 30
0.0
 11
103.1109972605
 21
317.0780200694999
 31
0.0
  0
LINE
  5
9F
330
1F
100
AcDbEntity
  8
1
  6
Continuous
 62
     7
100
AcDbLine
 10
103.6109972605
 20
317.5780200694999
 30
0.0
 11
103.6109972605
 21
318.8280200694999
 31
0.0
  0
LINE
  5
A0
330
1F
100
AcDbEntity
  8
1
  6
Continuous
 62
     7
100
AcDbLine
 10
103.6109972605
 20
317.5780200694999
 30
0.0
 11
103.3609972605
 21
317.3280200694999
 31
0.0
  0
LINE
  5
A1
330
1F
100
AcDbEntity
  8
1
  6
Continuous
 62
     7
100
AcDbLine
 10
104.6109972605
 20
317.5780200694999
 30
0.0
 11
104.8609972605
 21
317.3280200694999
 31
0.0
  0
LINE
  5
A2
330
1F
100
AcDbEntity
  8
1
  6
Continuous
 62
     7
100
AcDbLine
 10
105.1109972605
 20
316.0780200694999
 30
0.0
 11
104.8609972605
 21
315.8280200694999
 31
0.0
  0
LINE
  5
A3
330
1F
100
AcDbEntity
  8
1
  6
Continuous
 62
     7
100
AcDbLine
 10
103.6109972605
 20
315.5780200694999
 30
0.0
 11
103.3609972605
 21
315.8280200694999
 31
0.0
  0
LINE
  5
A4
330
1F
100
AcDbEntity
  8
1
  6
Continuous
 62
     2
100
AcDbLine
 10
104.8609972605
 20
317.3280200694999
 30
0.0
 11
105.7019875181697
 21
318.1690103271696
 31
0.0
  0
LINE
  5
A5
330
1F
100
AcDbEntity
  8
1
  6
Continuous
 62
     7
100
AcDbLine
 10
104.8609972605
 20
317.3280200694999
 30
0.0
 11
105.1109972605
 21
317.0780200694999
 31
0.0
  0
LINE
  5
A6
330
1F
100
AcDbEntity
  8
1
  6
Continuous
 62
     2
100
AcDbLine
 10
103.3609972605
 20
317.3280200694999
 30
0.0
 11
102.5200070028303
 21
318.1690103271696
 31
0.0
  0
LINE
  5
A7
330
1F
100
AcDbEntity
  8
1
  6
Continuous
 62
     7
100
AcDbLine
 10
103.3609972605
 20
317.3280200694999
 30
0.0
 11
103.1109972605
 21
317.0780200694999
 31
0.0
  0
LINE
  5
A8
330
1F
100
AcDbEntity
  8
1
  6
Continuous
 62
     2
100
AcDbLine
 10
103.3609972605
 20
315.8280200694999
 30
0.0
 11
102.5200070028303
 21
314.9870298118302
 31
0.0
  0
LINE
  5
A9
330
1F
100
AcDbEntity
  8
1
  6
Continuous
 62
     7
100
AcDbLine
 10
103.3609972605
 20
315.8280200694999
 30
0.0
 11
103.1109972605
 21
316.0780200694999
 31
0.0
  0
LINE
  5
AA
330
1F
100
AcDbEntity
  8
1
  6
Continuous
 62
     2
100
AcDbLine
 10
104.8609972605
 20
315.8280200694999
 30
0.0
 11
105.7019875181697
 21
314.9870298118302
 31
0.0
  0
LINE
  5
AB
330
1F
100
AcDbEntity
  8
1
  6
Continuous
 62
     7
100
AcDbLine
 10
104.8609972605
 20
315.8280200694999
 30
0.0
 11
104.6109972605
 21
315.5780200694999
 31
0.0
  0
LINE
  5
AC
330
1F
100
AcDbEntity
  8
1
  6
DOT_CENTER
 62
     7
100
AcDbLine
 10
77.618430900268
 20
215.7780200695
 30
0.0
 11
107.8060458189937
 21
215.7780200695
 31
0.0
  0
LINE
  5
AD
330
1F
100
AcDbEntity
  8
1
  6
DOT_CENTER
 62
     7
100
AcDbLine
 10
107.8060458189937
 20
215.7780200695
 30
0.0
 11
137.013579185
 21
215.7780200695
 31
0.0
  0
LINE
  5
AE
330
1F
100
AcDbEntity
  8
1
  6
DOT_CENTER
 62
     7
100
AcDbLine
 10
166.2100220536247
 20
215.7780200695
 30
0.0
 11
193.6131608892
 21
215.7780200695
 31
0.0
  0
LINE
  5
AF
330
1F
100
AcDbEntity
  8
1
  6
DOT_CENTER
 62
     7
100
AcDbLine
 10
137.013579185
 20
215.7780200695
 30
0.0
 11
166.2100220536247
 21
215.7780200695
 31
0.0
  0
LINE
  5
B0
330
1F
100
AcDbEntity
  8
0
  6
Continuous
 62
     7
100
AcDbLine
 10
169.466474799
 20
163.7780200695
 30
0.0
 11
169.466474799
 21
163.2780200695
 31
0.0
  0
LINE
  5
B1
330
1F
100
AcDbEntity
  8
0
  6
Continuous
 62
     7
100
AcDbLine
 10
104.3019578809
 20
163.7780200695
 30
0.0
 11
104.3019578809
 21
267.7780200695
 31
0.0
  0
LINE
  5
B2
330
1F
100
AcDbEntity
  8
A_RUNDUNGEN
  6
Continuous
 62
     7
100
AcDbLine
 10
157.6099480694
 20
182.7780200695
 30
0.0
 11
157.6099480694
 21
184.3780200695
 31
0.0
  0
LINE
  5
B3
330
1F
100
AcDbEntity
  8
A_RUNDUNGEN
  6
Continuous
 62
     7
100
AcDbLine
 10
114.0110758357
 20
185.3780200695
 30
0.0
 11
114.0110758357
 21
246.1780200695
 31
0.0
  0
LINE
  5
B4
330
1F
100
AcDbEntity
  8
0
  6
Continuous
 62
     7
100
AcDbLine
 10
169.466474799
 20
267.7780200695
 30
0.0
 11
169.466474799
 21
163.7780200695
 31
0.0
  0
LINE
  5
B5
330
1F
100
AcDbEntity
  8
0
  6
Continuous
 62
     7
100
AcDbLine
 10
104.3019578809
 20
267.7780200695
 30
0.0
 11
104.3019578809
 21
268.2780200695
 31
0.0
  0
LINE
  5
B6
330
1F
100
AcDbEntity
  8
A_RUNDUNGEN
  6
Continuous
 62
     7
100
AcDbLine
 10
114.0110758357
 20
246.1780200695
 30
0.0
 11
114.0110758357
 21
247.7780200695
 31
0.0
  0
LINE
  5
B7
330
1F
100
AcDbEntity
  8
A_RUNDUNGEN
  6
Continuous
 62
     7
100
AcDbLine
 10
157.6099480694
 20
248.7780200695
 30
0.0
 11
157.6099480694
 21
267.2780200695
 31
0.0
  0
LINE
  5
C4
330
1F
100
AcDbEntity
  8
A_ACHSEN
  6
DOT_CENTER
 62
     2
100
AcDbLine
 10
174.0618374599
 20
320.7780200695
 30
0.0
 11
175.8202534818
 21
320.7780200695
 31
0.0
  0
LINE
  5
C5
330
1F
100
AcDbEntity
  8
A_ACHSEN
  6
DOT_CENTER
 62
     2
100
AcDbLine
 10
156.3953554996
 20
320.7780200695
 30
0.0
 11
157.8202554996
 21
320.7780200695
 31
0.0
  0
LINE
  5
C6
330
1F
100
AcDbEntity
  8
A_ACHSEN
  6
DOT_CENTER
 62
     2
100
AcDbLine
 10
162.3053554996
 20
320.7780200695
 30
0.0
 11
157.8202554996
 21
320.7780200695
 31
0.0
  0
LINE
  5
C7
330
1F
100
AcDbEntity
  8
A_ACHSEN
  6
DOT_CENTER
 62
     2
100
AcDbLine
 10
165.2453554996
 20
320.7780200695
 30
0.0
 11
162.3053554996
 21
320.7780200695
 31
0.0
  0
LINE
  5
C8
330
1F
100
AcDbEntity
  8
A_ACHSEN
  6
DOT_CENTER
 62
     2
100
AcDbLine
 10
180.3053534818
 20
320.7780200695
 30
0.0
 11
175.8202534818
 21
320.7780200695
 31
0.0
  0
LINE
  5
C9
330
1F
100
AcDbEntity
  8
A_ACHSEN
  6
DOT_CENTER
 62
     2
100
AcDbLine
 10
183.2197635858
 20
320.7780200695
 30
0.0
 11
180.3053534818
 21
320.7780200695
 31
0.0
  0
LINE
  5
CA
330
1F
100
AcDbEntity
  8
A_ACHSEN
  6
DOT_CENTER
 62
     2
100
AcDbLine
 10
105.6859972605
 20
320.5780200695
 30
0.0
 11
110.1108972605
 21
320.5780200695
 31
0.0
  0
LINE
  5
CB
330
1F
100
AcDbEntity
  8
A_ACHSEN
  6
DOT_CENTER
 62
     2
100
AcDbLine
 10
87.6859972605
 20
320.5780200695
 30
0.0
 11
92.1108972605
 21
320.5780200695
 31
0.0
  0
LINE
  5
CC
330
1F
100
AcDbEntity
  8
A_ACHSEN
  6
DOT_CENTER
 62
     2
100
AcDbLine
 10
96.5959972605
 20
320.5780200695
 30
0.0
 11
92.1108972605
 21
320.5780200695
 31
0.0
  0
LINE
  5
CD
330
1F
100
AcDbEntity
  8
A_ACHSEN
  6
DOT_CENTER
 62
     2
100
AcDbLine
 10
102.5359972605
 20
320.5780200695
 30
0.0
 11
96.5959972605
 21
320.5780200695
 31
0.0
  0
LINE
  5
CE
330
1F
100
AcDbEntity
  8
A_ACHSEN
  6
DOT_CENTER
 62
     2
100
AcDbLine
 10
114.5959972605
 20
320.5780200695
 30
0.0
 11
110.1108972605
 21
320.5780200695
 31
0.0
  0
LINE
  5
CF
330
1F
100
AcDbEntity
  8
A_ACHSEN
  6
DOT_CENTER
 62
     2
100
AcDbLine
 10
120.5359972605
 20
320.5780200695
 30
0.0
 11
114.5959972605
 21
320.5780200695
 31
0.0
  0
LINE
  5
D0
330
1F
100
AcDbEntity
  8
A_ACHSEN
  6
DOT_CENTER
 62
     2
100
AcDbLine
 10
162.3804392015
 20
316.7780200695
 30
0.0
 11
169.8054392015
 21
316.7780200695
 31
0.0
  0
LINE
  5
D1
330
1F
100
AcDbEntity
  8
A_ACHSEN
  6
DOT_CENTER
 62
     2
100
AcDbLine
 10
177.2304392015
 20
316.7780200695
 30
0.0
 11
169.8054392015
 21
316.7780200695
 31
0.0
  0
LINE
  5
D2
330
1F
100
AcDbEntity
  8
A_ACHSEN
  6
DOT_CENTER
 62
     2
100
AcDbLine
 10
96.6859972605
 20
316.5780200695
 30
0.0
 11
101.1108972605
 21
316.5780200695
 31
0.0
  0
LINE
  5
D3
330
1F
100
AcDbEntity
  8
A_ACHSEN
  6
DOT_CENTER
 62
     2
100
AcDbLine
 10
111.5359972605
 20
316.5780200695
 30
0.0
 11
101.1108972605
 21
316.5780200695
 31
0.0
  0
LINE
  5
D4
330
1F
100
AcDbEntity
  8
A_ACHSEN
  6
DOT_CENTER
 62
     2
100
AcDbLine
 10
175.3488973479
 20
303.7780200695
 30
0.0
 11
182.9340714004
 21
303.7780200695
 31
0.0
  0
LINE
  5
D5
330
1F
100
AcDbEntity
  8
A_ACHSEN
  6
DOT_CENTER
 62
     2
100
AcDbLine
 10
161.1912385802
 20
303.7780200695
 30
0.0
 11
164.2108790866
 21
303.7780200695
 31
0.0
  0
LINE
  5
D6
330
1F
100
AcDbEntity
  8
A_ACHSEN
  6
DOT_CENTER
 62
     2
100
AcDbLine
 10
157.3146445659
 20
303.7780200695
 30
0.0
 11
161.1912385802
 21
303.7780200695
 31
0.0
  0
LINE
  5
D7
330
1F
100
AcDbEntity
  8
A_ACHSEN
  6
DOT_CENTER
 62
     2
100
AcDbLine
 10
155.6964829047
 20
303.7780200695
 30
0.0
 11
157.3146445659
 21
303.7780200695
 31
0.0
  0
LINE
  5
D8
330
1F
100
AcDbEntity
  8
A_ACHSEN
  6
DOT_CENTER
 62
     2
100
AcDbLine
 10
175.2003904377
 20
297.7780200695
 30
0.0
 11
176.314642436
 21
297.7780200695
 31
0.0
  0
LINE
  5
D9
330
1F
100
AcDbEntity
  8
A_ACHSEN
  6
DOT_CENTER
 62
     2
100
AcDbLine
 10
161.7852662208
 20
297.7780200695
 30
0.0
 11
164.4583906035
 21
297.7780200695
 31
0.0
  0
LINE
  5
DA
330
1F
100
AcDbEntity
  8
A_ACHSEN
  6
DOT_CENTER
 62
     2
100
AcDbLine
 10
160.3147445653
 20
297.7780200695
 30
0.0
 11
161.7852662208
 21
297.7780200695
 31
0.0
  0
LINE
  5
DB
330
1F
100
AcDbEntity
  8
A_ACHSEN
  6
DOT_CENTER
 62
     2
100
AcDbLine
 10
155.5479759945
 20
297.7780200695
 30
0.0
 11
160.3147445653
 21
297.7780200695
 31
0.0
  0
LINE
  5
DC
330
1F
100
AcDbEntity
  8
A_ACHSEN
  6
DOT_CENTER
 62
     2
100
AcDbLine
 10
180.799742436
 20
297.7780200695
 30
0.0
 11
176.314642436
 21
297.7780200695
 31
0.0
  0
LINE
  5
DD
330
1F
100
AcDbEntity
  8
A_ACHSEN
  6
DOT_CENTER
 62
     2
100
AcDbLine
 10
183.5662797095
 20
297.7780200695
 30
0.0
 11
180.799742436
 21
297.7780200695
 31
0.0
  0
LINE
  5
DE
330
1F
100
AcDbEntity
  8
A_RUNDUNGEN
  6
Continuous
 62
     7
100
AcDbLine
 10
154.4007059154
 20
278.9780200695
 30
0.0
 11
185.2007024627
 21
278.9780200695
 31
0.0
  0
LINE
  5
DF
330
1F
100
AcDbEntity
  8
A_RUNDUNGEN
  6
Continuous
 62
     7
100
AcDbLine
 10
88.7109972605
 20
278.7780200695
 30
0.0
 11
119.5109972605
 21
278.7780200695
 31
0.0
  0
LINE
  5
E0
330
1F
100
AcDbEntity
  8
0
  6
Continuous
 62
     7
100
AcDbLine
 10
154.374052921
 20
278.7780200695
 30
0.0
 11
150.3516533719
 21
278.7780200695
 31
0.0
  0
LINE
  5
E1
330
1F
100
AcDbEntity
  8
0
  6
Continuous
 62
     7
100
AcDbLine
 10
88.4609972605
 20
278.6780200695
 30
0.0
 11
124.3109972605
 21
278.6780200695
 31
0.0
  0
LINE
  5
E2
330
1F
100
AcDbEntity
  8
0
  6
Continuous
 62
     7
100
AcDbLine
 10
150.3508484198
 20
275.7780200695
 30
0.0
 11
183.5732446955
 21
275.7780200695
 31
0.0
  0
LINE
  5
E3
330
1F
100
AcDbEntity
  8
0
  6
Continuous
 62
     7
100
AcDbLine
 10
150.3508484198
 20
269.3780200695
 30
0.0
 11
183.5732446955
 21
269.3780200695
 31
0.0
  0
LINE
  5
E4
330
1F
100
AcDbEntity
  8
A_RUNDUNGEN
  6
Continuous
 62
     7
100
AcDbLine
 10
180.2763228235
 20
269.2780200695
 30
0.0
 11
183.2763224872
 21
269.2780200695
 31
0.0
  0
LINE
  5
E5
330
1F
100
AcDbEntity
  8
0
  6
Continuous
 62
     7
100
AcDbLine
 10
149.7259622838
 20
269.2780200695
 30
0.0
 11
160.7259313775
 21
269.2780200695
 31
0.0
  0
LINE
  5
E6
330
1F
100
AcDbEntity
  8
A_ACHSEN
  6
Continuous
 62
     7
100
AcDbLine
 10
160.7259468307
 20
269.1780200695
 30
0.0
 11
170.2164653613
 21
269.1780200695
 31
0.0
  0
LINE
  5
E7
330
1F
100
AcDbEntity
  8
0
  6
Continuous
 62
     7
100
AcDbLine
 10
88.4609972605
 20
269.0780200695
 30
0.0
 11
112.6765032597
 21
269.0780200695
 31
0.0
  0
LINE
  5
E8
330
1F
100
AcDbEntity
  8
A_ACHSEN
  6
Continuous
 62
     7
100
AcDbLine
 10
160.7259313775
 20
268.2780200695
 30
0.0
 11
170.2164653613
 21
268.2780200695
 31
0.0
  0
LINE
  5
E9
330
1F
100
AcDbEntity
  8
0
  6
Continuous
 62
     7
100
AcDbLine
 10
149.7259622838
 20
268.2780200695
 30
0.0
 11
160.7259313775
 21
268.2780200695
 31
0.0
  0
LINE
  5
EA
330
1F
100
AcDbEntity
  8
A_RUNDUNGEN
  6
Continuous
 62
     7
100
AcDbLine
 10
132.0136519095
 20
268.2780200695
 30
0.0
 11
142.0134663527
 21
268.2780200695
 31
0.0
  0
LINE
  5
EB
330
1F
100
AcDbEntity
  8
A_ACHSEN
  6
Continuous
 62
     7
100
AcDbLine
 10
103.5519820077
 20
268.2780200695
 30
0.0
 11
113.0519337542
 21
268.2780200695
 31
0.0
  0
LINE
  5
EC
330
1F
100
AcDbEntity
  8
0
  6
Continuous
 62
     7
100
AcDbLine
 10
169.466474799
 20
268.1780200695
 30
0.0
 11
176.7910964547
 21
268.1780200695
 31
0.0
  0
LINE
  5
ED
330
1F
100
AcDbEntity
  8
A_RUNDUNGEN
  6
Continuous
 62
     7
100
AcDbLine
 10
99.0609972605
 20
268.1780200695
 30
0.0
 11
96.4609972605
 21
268.1780200695
 31
0.0
  0
LINE
  5
EE
330
1F
100
AcDbEntity
  8
A_RUNDUNGEN
  6
Continuous
 62
     7
100
AcDbLine
 10
131.666834728
 20
267.7780200695
 30
0.0
 11
104.3019578809
 21
267.7780200695
 31
0.0
  0
LINE
  5
EF
330
1F
100
AcDbEntity
  8
A_RUNDUNGEN
  6
Continuous
 62
     7
100
AcDbLine
 10
157.9959664839
 20
267.7780200695
 30
0.0
 11
131.666834728
 21
267.7780200695
 31
0.0
  0
LINE
  5
F0
330
1F
100
AcDbEntity
  8
A_RUNDUNGEN
  6
Continuous
 62
     7
100
AcDbLine
 10
169.466474799
 20
267.7780200695
 30
0.0
 11
158.1102881451
 21
267.7780200695
 31
0.0
  0
LINE
  5
F1
330
1F
100
AcDbEntity
  8
A_ACHSEN
  6
Continuous
 62
     7
100
AcDbLine
 10
92.6609972605
 20
251.4780200695
 30
0.0
 11
93.1609972605
 21
251.4780200695
 31
0.0
  0
LINE
  5
F2
330
1F
100
AcDbEntity
  8
0
  6
Continuous
 62
     7
100
AcDbLine
 10
91.6609972605
 20
251.4780200695
 30
0.0
 11
92.6609972605
 21
251.4780200695
 31
0.0
  0
LINE
  5
F3
330
1F
100
AcDbEntity
  8
0
  6
Continuous
 62
     7
100
AcDbLine
 10
180.2873080524
 20
251.2780200695
 30
0.0
 11
178.7910962305
 21
251.2780200695
 31
0.0
  0
LINE
  5
F4
330
1F
100
AcDbEntity
  8
A_RUNDUNGEN
  6
Continuous
 62
     7
100
AcDbLine
 10
142.513579185
 20
248.7780200695
 30
0.0
 11
157.6099480694
 21
248.7780200695
 31
0.0
  0
LINE
  5
F5
330
1F
100
AcDbEntity
  8
A_RUNDUNGEN
  6
Continuous
 62
     7
100
AcDbLine
 10
131.513579185
 20
248.7780200695
 30
0.0
 11
115.0110758357
 21
248.7780200695
 31
0.0
  0
LINE
  5
F6
330
1F
100
AcDbEntity
  8
A_RUNDUNGEN
  6
Continuous
 62
     7
100
AcDbLine
 10
142.0134663527
 20
248.2780200695
 30
0.0
 11
132.0136514256
 21
248.2780200695
 31
0.0
  0
LINE
  5
F7
330
1F
100
AcDbEntity
  8
A_ACHSEN
  6
Continuous
 62
     7
100
AcDbLine
 10
131.9136206072
 20
248.1780200695
 30
0.0
 11
142.1135377628
 21
248.1780200695
 31
0.0
  0
LINE
  5
F8
330
1F
100
AcDbEntity
  8
0
  6
Continuous
 62
     7
100
AcDbLine
 10
124.1109972605
 20
247.6780200695
 30
0.0
 11
114.0110758357
 21
247.6780200695
 31
0.0
  0
LINE
  5
F9
330
1F
100
AcDbEntity
  8
A_ACHSEN
  6
Continuous
 62
     7
100
AcDbLine
 10
131.9136206072
 20
246.6780200695
 30
0.0
 11
142.1135377628
 21
246.6780200695
 31
0.0
  0
LINE
  5
FA
330
1F
100
AcDbEntity
  8
0
  6
Continuous
 62
     7
100
AcDbLine
 10
124.1109827613
 20
246.6780200695
 30
0.0
 11
114.0110758357
 21
246.6780200695
 31
0.0
  0
LINE
  5
FB
330
1F
100
AcDbEntity
  8
A_RUNDUNGEN
  6
Continuous
 62
     7
100
AcDbLine
 10
142.503277491223
 20
246.1780200695
 30
0.0
 11
156.6099480694
 21
246.1780200695
 31
0.0
  0
LINE
  5
FC
330
1F
100
AcDbEntity
  8
A_RUNDUNGEN
  6
Continuous
 62
     7
100
AcDbLine
 10
131.513579185
 20
246.1780200695
 30
0.0
 11
114.0110758357
 21
246.1780200695
 31
0.0
  0
LINE
  5
FD
330
1F
100
AcDbEntity
  8
A_ACHSEN
  6
Continuous
 62
     7
100
AcDbLine
 10
92.6609972605
 20
230.9780200695
 30
0.0
 11
93.1609972605
 21
230.9780200695
 31
0.0
  0
LINE
  5
FE
330
1F
100
AcDbEntity
  8
0
  6
Continuous
 62
     7
100
AcDbLine
 10
91.6609972605
 20
230.9780200695
 30
0.0
 11
92.6609972605
 21
230.9780200695
 31
0.0
  0
LINE
  5
FF
330
1F
100
AcDbEntity
  8
0
  6
Continuous
 62
     7
100
AcDbLine
 10
180.2873080524
 20
230.7780200695
 30
0.0
 11
178.7910962305
 21
230.7780200695
 31
0.0
  0
LINE
  5
100
330
1F
100
AcDbEntity
  8
A_RUNDUNGEN
  6
Continuous
 62
     7
100
AcDbLine
 10
185.7007024066
 20
279.4780200695
 30
0.0
 11
185.7007024066
 21
319.8780200695
 31
0.0
  0
LINE
  5
101
330
1F
100
AcDbEntity
  8
A_RUNDUNGEN
  6
Continuous
 62
     7
100
AcDbLine
 10
185.8007024066
 20
111.6780200695
 30
0.0
 11
185.8007024066
 21
152.0780200695
 31
0.0
  0
LINE
  5
102
330
1F
100
AcDbEntity
  8
A_RUNDUNGEN
  6
Continuous
 62
     7
100
AcDbLine
 10
180.2868345512
 20
162.2780200695
 30
0.0
 11
180.2873080524
 21
163.2780200695
 31
0.0
  0
LINE
  5
103
330
1F
100
AcDbEntity
  8
A_RUNDUNGEN
  6
Continuous
 62
     7
100
AcDbLine
 10
180.2761815302
 20
162.1780200695
 30
0.0
 11
180.2763228235
 21
162.2780200695
 31
0.0
  0
LINE
  5
104
330
1F
100
AcDbEntity
  8
0
  6
Continuous
 62
     7
100
AcDbLine
 10
183.8737655132
 20
275.4780200695
 30
0.0
 11
183.874049614
 21
278.9780200695
 31
0.0
  0
LINE
  5
105
330
1F
100
AcDbEntity
  8
A_RUNDUNGEN
  6
Continuous
 62
     7
100
AcDbLine
 10
183.8758016246
 20
155.4780200695
 30
0.0
 11
183.8758016246
 21
156.0780200695
 31
0.0
  0
LINE
  5
106
330
1F
100
AcDbEntity
  8
A_RUNDUNGEN
  6
Continuous
 62
     7
100
AcDbLine
 10
183.8737655132
 20
156.0780200695
 30
0.0
 11
183.874049614
 21
152.5780200695
 31
0.0
  0
LINE
  5
107
330
1F
100
AcDbEntity
  8
A_RUNDUNGEN
  6
Continuous
 62
     7
100
AcDbLine
 10
183.8732446619
 20
156.0780200695
 30
0.0
 11
183.8732446619
 21
161.8780200695
 31
0.0
  0
LINE
  5
108
330
1F
100
AcDbEntity
  8
0
  6
Continuous
 62
     7
100
AcDbLine
 10
183.8732446619
 20
275.4780200695
 30
0.0
 11
183.8732446619
 21
269.6780200695
 31
0.0
  0
LINE
  5
109
330
1F
100
AcDbEntity
  8
A_RUNDUNGEN
  6
Continuous
 62
     7
100
AcDbLine
 10
183.7900539673
 20
162.0828906647
 30
0.0
 11
183.7900539673
 21
269.4731494743
 31
0.0
  0
LINE
  5
10A
330
1F
100
AcDbEntity
  8
A_RUNDUNGEN
  6
Continuous
 62
     7
100
AcDbLine
 10
183.7760856806
 20
269.4593393338
 30
0.0
 11
183.7760856806
 21
162.0967008052
 31
0.0
  0
LINE
  5
10B
330
1F
100
AcDbEntity
  8
A_RUNDUNGEN
  6
Continuous
 62
     7
100
AcDbLine
 10
183.2760857366
 20
269.3780200695
 30
0.0
 11
183.2760857366
 21
162.1780200695
 31
0.0
  0
LINE
  5
10C
330
1F
100
AcDbEntity
  8
A_RUNDUNGEN
  6
Continuous
 62
     7
100
AcDbLine
 10
180.2868345512
 20
269.2780200695
 30
0.0
 11
180.2873080524
 21
163.2780200695
 31
0.0
  0
LINE
  5
10D
330
1F
100
AcDbEntity
  8
A_ACHSEN
  6
DOT_CENTER
 62
     2
100
AcDbLine
 10
179.314742436
 20
294.1783068297
 30
0.0
 11
179.314742436
 21
308.1874586872
 31
0.0
  0
LINE
  5
10E
330
1F
100
AcDbEntity
  8
A_ACHSEN
  6
DOT_CENTER
 62
     2
100
AcDbLine
 10
179.314742436
 20
124.7779200695
 30
0.0
 11
179.314742436
 21
138.0755969515
 31
0.0
  0
LINE
  5
10F
330
1F
100
AcDbEntity
  8
A_ACHSEN
  6
CENTER_1
 62
     2
100
AcDbLine
 10
179.314742436
 20
124.1530741249
 30
0.0
 11
179.314742436
 21
124.7779200695
 31
0.0
  0
LINE
  5
110
330
1F
100
AcDbEntity
  8
A_ACHSEN
  6
Continuous
 62
     2
100
AcDbLine
 10
179.314742436
 20
126.3530200695
 30
0.0
 11
179.314742436
 21
126.2930200695
 31
0.0
  0
LINE
  5
111
330
1F
100
AcDbEntity
  8
A_ACHSEN
  6
DOT_CENTER
 62
     2
100
AcDbLine
 10
178.8203534818
 20
316.2563341387
 30
0.0
 11
178.8203534818
 21
319.2930200695
 31
0.0
  0
LINE
  5
112
330
1F
100
AcDbEntity
  8
A_ACHSEN
  6
DOT_CENTER
 62
     2
100
AcDbLine
 10
178.8203534818
 20
105.7753439938
 30
0.0
 11
178.8203534818
 21
115.8304993685
 31
0.0
  0
LINE
  5
113
330
1F
100
AcDbEntity
  8
A_ACHSEN
  6
DOT_CENTER
 62
     2
100
AcDbLine
 10
178.8203534818
 20
322.2630200695
 30
0.0
 11
178.8203534818
 21
319.2930200695
 31
0.0
  0
LINE
  5
114
330
1F
100
AcDbEntity
  8
A_ACHSEN
  6
DOT_CENTER
 62
     2
100
AcDbLine
 10
178.8203534818
 20
325.3152556578
 30
0.0
 11
178.8203534818
 21
322.2630200695
 31
0.0
  0
LINE
  5
115
330
1F
100
AcDbEntity
  8
0
  6
Continuous
 62
     7
100
AcDbLine
 10
178.7910962305
 20
180.2780200695
 30
0.0
 11
178.7910962305
 21
200.7780200695
 31
0.0
  0
LINE
  5
116
330
1F
100
AcDbEntity
  8
0
  6
Continuous
 62
     7
100
AcDbLine
 10
178.7910962305
 20
251.2780200695
 30
0.0
 11
178.7910962305
 21
230.7780200695
 31
0.0
  0
LINE
  5
117
330
1F
100
AcDbEntity
  8
0
  6
Continuous
 62
     7
100
AcDbLine
 10
177.2910963987
 20
268.6780200695
 30
0.0
 11
177.2910963987
 21
269.3780200695
 31
0.0
  0
LINE
  5
118
330
1F
100
AcDbEntity
  8
0
  6
Continuous
 62
     7
100
AcDbLine
 10
177.2910963987
 20
162.1780200695
 30
0.0
 11
177.2910963987
 21
162.8780200695
 31
0.0
  0
LINE
  5
119
330
1F
100
AcDbEntity
  8
A_RUNDUNGEN
  6
Continuous
 62
     7
100
AcDbLine
 10
180.2763228235
 20
269.2780200695
 30
0.0
 11
180.276183665
 21
269.3735115723
 31
0.0
  0
LINE
  5
11A
330
1F
100
AcDbEntity
  8
A_ACHSEN
  6
Continuous
 62
     7
100
AcDbLine
 10
170.216474799
 20
162.3780200695
 30
0.0
 11
170.216474799
 21
163.2780200695
 31
0.0
  0
LINE
  5
11B
330
1F
100
AcDbEntity
  8
A_ACHSEN
  6
Continuous
 62
     7
100
AcDbLine
 10
170.216474799
 20
269.1780200695
 30
0.0
 11
170.216474799
 21
268.2780200695
 31
0.0
  0
LINE
  5
11C
330
1F
100
AcDbEntity
  8
A_ACHSEN
  6
DOT_CENTER
 62
     2
100
AcDbLine
 10
169.8054392015
 20
309.3530200695
 30
0.0
 11
169.8054392015
 21
316.7780200695
 31
0.0
  0
LINE
  5
11D
330
1F
100
AcDbEntity
  8
A_ACHSEN
  6
DOT_CENTER
 62
     2
100
AcDbLine
 10
169.8054392015
 20
107.3530200695
 30
0.0
 11
169.8054392015
 21
111.7779200695
 31
0.0
  0
LINE
  5
11E
330
1F
100
AcDbEntity
  8
A_ACHSEN
  6
DOT_CENTER
 62
     2
100
AcDbLine
 10
169.8054392015
 20
122.2030200695
 30
0.0
 11
169.8054392015
 21
111.7779200695
 31
0.0
  0
LINE
  5
11F
330
1F
100
AcDbEntity
  8
A_ACHSEN
  6
DOT_CENTER
 62
     2
100
AcDbLine
 10
169.8054392015
 20
324.2030200695
 30
0.0
 11
169.8054392015
 21
316.7780200695
 31
0.0
  0
LINE
  5
120
330
1F
100
AcDbEntity
  8
0
  6
Continuous
 62
     7
100
AcDbLine
 10
169.466474799
 20
268.2780200695
 30
0.0
 11
169.466474799
 21
267.7780200695
 31
0.0
  0
LINE
  5
121
330
1F
100
AcDbEntity
  8
A_ACHSEN
  6
Continuous
 62
     7
100
AcDbLine
 10
168.466474799
 20
162.1780200695
 30
0.0
 11
168.466474799
 21
162.3780200695
 31
0.0
  0
LINE
  5
122
330
1F
100
AcDbEntity
  8
A_ACHSEN
  6
Continuous
 62
     7
100
AcDbLine
 10
168.466474799
 20
269.3780200695
 30
0.0
 11
168.466474799
 21
269.1780200695
 31
0.0
  0
LINE
  5
123
330
1F
100
AcDbEntity
  8
A_ACHSEN
  6
Continuous
 62
     7
100
AcDbLine
 10
162.466474799
 20
162.1780200695
 30
0.0
 11
162.466474799
 21
162.3780200695
 31
0.0
  0
LINE
  5
124
330
1F
100
AcDbEntity
  8
A_ACHSEN
  6
Continuous
 62
     7
100
AcDbLine
 10
162.466474799
 20
269.3780200695
 30
0.0
 11
162.466474799
 21
269.1780200695
 31
0.0
  0
LINE
  5
125
330
1F
100
AcDbEntity
  8
A_ACHSEN
  6
DOT_CENTER
 62
     2
100
AcDbLine
 10
162.2831471752
 20
160.1855410512
 30
0.0
 11
162.2831471752
 21
273.049868611
 31
0.0
  0
LINE
  5
126
330
1F
100
AcDbEntity
  8
0
  6
Continuous
 62
     7
100
AcDbLine
 10
161.466474799
 20
163.7780200695
 30
0.0
 11
161.466474799
 21
163.2780200695
 31
0.0
  0
LINE
  5
127
330
1F
100
AcDbEntity
  8
0
  6
Continuous
 62
     7
100
AcDbLine
 10
161.466474799
 20
268.2780200695
 30
0.0
 11
161.466474799
 21
267.7780200695
 31
0.0
  0
LINE
  5
128
330
1F
100
AcDbEntity
  8
A_ACHSEN
  6
DOT_CENTER
 62
     2
100
AcDbLine
 10
160.8203554996
 20
316.2563341387
 30
0.0
 11
160.8203554996
 21
319.2930200695
 31
0.0
  0
LINE
  5
129
330
1F
100
AcDbEntity
  8
A_ACHSEN
  6
DOT_CENTER
 62
     2
100
AcDbLine
 10
160.8203554996
 20
106.162080739
 30
0.0
 11
160.8203554996
 21
115.9078467176
 31
0.0
  0
LINE
  5
12A
330
1F
100
AcDbEntity
  8
A_ACHSEN
  6
DOT_CENTER
 62
     2
100
AcDbLine
 10
160.8203554996
 20
323.7781200695
 30
0.0
 11
160.8203554996
 21
319.2930200695
 31
0.0
  0
LINE
  5
12B
330
1F
100
AcDbEntity
  8
A_ACHSEN
  6
DOT_CENTER
 62
     2
100
AcDbLine
 10
160.8203554996
 20
325.3152556578
 30
0.0
 11
160.8203554996
 21
323.7781200695
 31
0.0
  0
LINE
  5
12C
330
1F
100
AcDbEntity
  8
0
  6
Continuous
 62
     7
100
AcDbLine
 10
160.7259468307
 20
162.2780200695
 30
0.0
 11
160.7259468307
 21
163.2780200695
 31
0.0
  0
LINE
  5
12D
330
1F
100
AcDbEntity
  8
0
  6
Continuous
 62
     7
100
AcDbLine
 10
160.7259468307
 20
269.2780200695
 30
0.0
 11
160.7259468307
 21
268.2780200695
 31
0.0
  0
LINE
  5
12E
330
1F
100
AcDbEntity
  8
0
  6
Continuous
 62
     7
100
AcDbLine
 10
160.4759468307
 20
267.7780200695
 30
0.0
 11
160.4759468307
 21
268.2780200695
 31
0.0
  0
LINE
  5
12F
330
1F
100
AcDbEntity
  8
0
  6
Continuous
 62
     7
100
AcDbLine
 10
160.4759468307
 20
163.2780200695
 30
0.0
 11
160.4759468307
 21
163.7780200695
 31
0.0
  0
LINE
  5
130
330
1F
100
AcDbEntity
  8
A_ACHSEN
  6
DOT_CENTER
 62
     2
100
AcDbLine
 10
160.3147445659
 20
294.7779200695
 30
0.0
 11
160.3147445659
 21
308.1874586872
 31
0.0
  0
LINE
  5
131
330
1F
100
AcDbEntity
  8
A_ACHSEN
  6
DOT_CENTER
 62
     2
100
AcDbLine
 10
160.3147445659
 20
293.5842791891
 30
0.0
 11
160.3147445659
 21
294.7779200695
 31
0.0
  0
LINE
  5
132
330
1F
100
AcDbEntity
  8
A_ACHSEN
  6
DOT_CENTER
 62
     2
100
AcDbLine
 10
160.3147445659
 20
124.7779200695
 30
0.0
 11
160.3147445659
 21
138.6717833196
 31
0.0
  0
LINE
  5
133
330
1F
100
AcDbEntity
  8
A_ACHSEN
  6
DOT_CENTER
 62
     2
100
AcDbLine
 10
160.3147445659
 20
123.2867838157
 30
0.0
 11
160.3147445659
 21
124.7779200695
 31
0.0
  0
LINE
  5
134
330
1F
100
AcDbEntity
  8
A_ACHSEN
  6
Continuous
 62
     2
100
AcDbLine
 10
160.3147445659
 20
126.3530200695
 30
0.0
 11
160.3147445659
 21
126.2930200695
 31
0.0
  0
LINE
  5
135
330
1F
100
AcDbEntity
  8
A_ACHSEN
  6
Continuous
 62
     2
100
AcDbLine
 10
160.3147445659
 20
296.3530200695
 30
0.0
 11
160.3147445659
 21
296.2930200695
 31
0.0
  0
LINE
  5
136
330
1F
100
AcDbEntity
  8
A_ACHSEN
  6
Continuous
 62
     7
100
AcDbLine
 10
92.6609972605
 20
200.9780200695
 30
0.0
 11
93.1609972605
 21
200.9780200695
 31
0.0
  0
LINE
  5
137
330
1F
100
AcDbEntity
  8
0
  6
Continuous
 62
     7
100
AcDbLine
 10
91.6609972605
 20
200.9780200695
 30
0.0
 11
92.6609972605
 21
200.9780200695
 31
0.0
  0
LINE
  5
138
330
1F
100
AcDbEntity
  8
0
  6
Continuous
 62
     7
100
AcDbLine
 10
180.2873080524
 20
200.7780200695
 30
0.0
 11
178.7910962305
 21
200.7780200695
 31
0.0
  0
LINE
  5
139
330
1F
100
AcDbEntity
  8
A_RUNDUNGEN
  6
Continuous
 62
     7
100
AcDbLine
 10
149.8609349231
 20
183.7688428913
 30
0.0
 11
149.8609770343
 21
183.7780200695
 31
0.0
  0
LINE
  5
13A
330
1F
100
AcDbEntity
  8
0
  6
Continuous
 62
     7
100
AcDbLine
 10
150.0516533719
 20
278.4780200695
 30
0.0
 11
150.0513773453
 21
275.4806898128
 31
0.0
  0
LINE
  5
13B
330
1F
100
AcDbEntity
  8
A_RUNDUNGEN
  6
Continuous
 62
     7
100
AcDbLine
 10
157.6099480694
 20
247.1780200695
 30
0.0
 11
157.6099480694
 21
248.7780200695
 31
0.0
  0
LINE
  5
13C
330
1F
100
AcDbEntity
  8
A_RUNDUNGEN
  6
Continuous
 62
     7
100
AcDbLine
 10
157.6099480694
 20
164.2780200695
 30
0.0
 11
157.6099480694
 21
182.7780200695
 31
0.0
  0
LINE
  5
13D
330
1F
100
AcDbEntity
  8
A_RUNDUNGEN
  6
Continuous
 62
     7
100
AcDbLine
 10
154.8910989098
 20
269.2780200695
 30
0.0
 11
154.8910989098
 21
269.3780200695
 31
0.0
  0
LINE
  5
13E
330
1F
100
AcDbEntity
  8
A_RUNDUNGEN
  6
Continuous
 62
     7
100
AcDbLine
 10
154.8910989098
 20
162.1780200695
 30
0.0
 11
154.8910989098
 21
162.2780200695
 31
0.0
  0
LINE
  5
13F
330
1F
100
AcDbEntity
  8
A_RUNDUNGEN
  6
Continuous
 62
     7
100
AcDbLine
 10
153.80070418905
 20
152.0780200695
 30
0.0
 11
153.80070418905
 21
111.6780200695
 31
0.0
  0
LINE
  5
140
330
1F
100
AcDbEntity
  8
A_RUNDUNGEN
  6
Continuous
 62
     7
100
AcDbLine
 10
153.9007059715
 20
319.8780200695
 30
0.0
 11
153.9007059715
 21
279.4780200695
 31
0.0
  0
LINE
  5
141
330
1F
100
AcDbEntity
  8
A_RUNDUNGEN
  6
Continuous
 62
     7
100
AcDbLine
 10
149.8390096996
 20
156.0753503263
 30
0.0
 11
149.8392857262
 21
153.0780200695
 31
0.0
  0
LINE
  5
142
330
1F
100
AcDbEntity
  8
A_RUNDUNGEN
  6
Continuous
 62
     7
100
AcDbLine
 10
149.8384807741
 20
161.8780200695
 30
0.0
 11
149.8384807741
 21
156.0780200695
 31
0.0
  0
LINE
  5
143
330
1F
100
AcDbEntity
  8
0
  6
Continuous
 62
     7
100
AcDbLine
 10
150.0508484198
 20
275.4780200695
 30
0.0
 11
150.0508484198
 21
269.6780200695
 31
0.0
  0
LINE
  5
144
330
1F
100
AcDbEntity
  8
0
  6
Continuous
 62
     7
100
AcDbLine
 10
149.9759468307
 20
267.7780200695
 30
0.0
 11
149.9759468307
 21
268.2780200695
 31
0.0
  0
LINE
  5
145
330
1F
100
AcDbEntity
  8
0
  6
Continuous
 62
     7
100
AcDbLine
 10
149.9759468307
 20
163.2780200695
 30
0.0
 11
149.9759468307
 21
163.7780200695
 31
0.0
  0
LINE
  5
146
330
1F
100
AcDbEntity
  8
A_RUNDUNGEN
  6
Continuous
 62
     7
100
AcDbLine
 10
149.8609770343
 20
185.3780200695
 30
0.0
 11
149.8609770343
 21
183.7780200695
 31
0.0
  0
LINE
  5
147
330
1F
100
AcDbEntity
  8
A_RUNDUNGEN
  6
Continuous
 62
     7
100
AcDbLine
 10
149.8609770343
 20
247.7780200695
 30
0.0
 11
149.8609770343
 21
246.1780200695
 31
0.0
  0
LINE
  5
148
330
1F
100
AcDbEntity
  8
0
  6
Continuous
 62
     7
100
AcDbLine
 10
149.513579185
 20
162.2780200695
 30
0.0
 11
149.513579185
 21
163.2780200695
 31
0.0
  0
LINE
  5
149
330
1F
100
AcDbEntity
  8
0
  6
Continuous
 62
     7
100
AcDbLine
 10
149.7259468307
 20
269.2780200695
 30
0.0
 11
149.7259468307
 21
268.2780200695
 31
0.0
  0
LINE
  5
14A
330
1F
100
AcDbEntity
  8
A_RUNDUNGEN
  6
Continuous
 62
     7
100
AcDbLine
 10
149.8609770343
 20
247.7780200695
 30
0.0
 11
149.8609349317
 21
247.7871963135
 31
0.0
  0
LINE
  5
14B
330
1F
100
AcDbEntity
  8
A_RUNDUNGEN
  6
Continuous
 62
     7
100
AcDbLine
 10
142.513579185
 20
185.3780200695
 30
0.0
 11
156.6099480694
 21
185.3780200695
 31
0.0
  0
LINE
  5
14C
330
1F
100
AcDbEntity
  8
A_RUNDUNGEN
  6
Continuous
 62
     7
100
AcDbLine
 10
114.0110758357
 20
185.3780200695
 30
0.0
 11
131.513579185
 21
185.3780200695
 31
0.0
  0
LINE
  5
14D
330
1F
100
AcDbEntity
  8
A_ACHSEN
  6
Continuous
 62
     7
100
AcDbLine
 10
131.9136206072
 20
184.8780200695
 30
0.0
 11
142.1135377628
 21
184.8780200695
 31
0.0
  0
LINE
  5
14E
330
1F
100
AcDbEntity
  8
0
  6
Continuous
 62
     7
100
AcDbLine
 10
114.0110758357
 20
184.8780200695
 30
0.0
 11
124.1109827613
 21
184.8780200695
 31
0.0
  0
LINE
  5
14F
330
1F
100
AcDbEntity
  8
0
  6
Continuous
 62
     7
100
AcDbLine
 10
114.0110758357
 20
183.8780200695
 30
0.0
 11
118.4253810393
 21
183.8780200695
 31
0.0
  0
LINE
  5
150
330
1F
100
AcDbEntity
  8
A_RUNDUNGEN
  6
Continuous
 62
     7
100
AcDbLine
 10
124.1109972605
 20
183.8780200695
 30
0.0
 11
118.4253810393
 21
183.8780200695
 31
0.0
  0
LINE
  5
151
330
1F
100
AcDbEntity
  8
A_ACHSEN
  6
Continuous
 62
     7
100
AcDbLine
 10
131.9136206072
 20
183.3780200695
 30
0.0
 11
142.1135377628
 21
183.3780200695
 31
0.0
  0
LINE
  5
152
330
1F
100
AcDbEntity
  8
A_RUNDUNGEN
  6
Continuous
 62
     7
100
AcDbLine
 10
132.0136377902
 20
183.2780200695
 30
0.0
 11
142.0135137553
 21
183.2780200695
 31
0.0
  0
LINE
  5
153
330
1F
100
AcDbEntity
  8
A_RUNDUNGEN
  6
Continuous
 62
     7
100
AcDbLine
 10
142.513579185
 20
182.7780200695
 30
0.0
 11
157.6099480694
 21
182.7780200695
 31
0.0
  0
LINE
  5
154
330
1F
100
AcDbEntity
  8
A_RUNDUNGEN
  6
Continuous
 62
     7
100
AcDbLine
 10
131.666834728
 20
182.7780200695
 30
0.0
 11
114.9515990926
 21
182.7780200695
 31
0.0
  0
LINE
  5
155
330
1F
100
AcDbEntity
  8
A_ACHSEN
  6
Continuous
 62
     7
100
AcDbLine
 10
142.113579185
 20
246.6780200695
 30
0.0
 11
142.113579185
 21
248.1780200695
 31
0.0
  0
LINE
  5
156
330
1F
100
AcDbEntity
  8
A_ACHSEN
  6
Continuous
 62
     7
100
AcDbLine
 10
142.113579185
 20
184.8780200695
 30
0.0
 11
142.113579185
 21
183.3780200695
 31
0.0
  0
LINE
  5
157
330
1F
100
AcDbEntity
  8
DEFAULT_1
  6
DOT_CENTER
 62
     2
100
AcDbLine
 10
137.013579185
 20
160.6280200695
 30
0.0
 11
137.013579185
 21
270.9280200695
 31
0.0
  0
LINE
  5
158
330
1F
100
AcDbEntity
  8
A_ACHSEN
  6
Continuous
 62
     7
100
AcDbLine
 10
92.6609972605
 20
180.4780200695
 30
0.0
 11
93.1609972605
 21
180.4780200695
 31
0.0
  0
LINE
  5
159
330
1F
100
AcDbEntity
  8
0
  6
Continuous
 62
     7
100
AcDbLine
 10
91.6609972605
 20
180.4780200695
 30
0.0
 11
92.6609972605
 21
180.4780200695
 31
0.0
  0
LINE
  5
15A
330
1F
100
AcDbEntity
  8
0
  6
Continuous
 62
     7
100
AcDbLine
 10
180.2873080524
 20
180.2780200695
 30
0.0
 11
178.7910962305
 21
180.2780200695
 31
0.0
  0
LINE
  5
15B
330
1F
100
AcDbEntity
  8
A_ACHSEN
  6
Continuous
 62
     7
100
AcDbLine
 10
131.913579185
 20
246.6780200695
 30
0.0
 11
131.913579185
 21
248.1780200695
 31
0.0
  0
LINE
  5
15C
330
1F
100
AcDbEntity
  8
A_ACHSEN
  6
Continuous
 62
     7
100
AcDbLine
 10
131.913579185
 20
184.8780200695
 30
0.0
 11
131.913579185
 21
183.3780200695
 31
0.0
  0
LINE
  5
15D
330
1F
100
AcDbEntity
  8
A_RUNDUNGEN
  6
Continuous
 62
     7
100
AcDbLine
 10
124.513579185
 20
163.7780200695
 30
0.0
 11
124.513579185
 21
153.1780200695
 31
0.0
  0
LINE
  5
15E
330
1F
100
AcDbEntity
  8
A_RUNDUNGEN
  6
Continuous
 62
     7
100
AcDbLine
 10
124.6109972605
 20
183.3780200695
 30
0.0
 11
124.6109972605
 21
182.7780200695
 31
0.0
  0
LINE
  5
15F
330
1F
100
AcDbEntity
  8
0
  6
Continuous
 62
     7
100
AcDbLine
 10
124.6109972605
 20
248.7780200695
 30
0.0
 11
124.6109972605
 21
248.1780200695
 31
0.0
  0
LINE
  5
160
330
1F
100
AcDbEntity
  8
0
  6
Continuous
 62
     7
100
AcDbLine
 10
124.6109972605
 20
278.3780200695
 30
0.0
 11
124.6109972605
 21
267.7780200695
 31
0.0
  0
LINE
  5
161
330
1F
100
AcDbEntity
  8
0
  6
Continuous
 62
     7
100
AcDbLine
 10
124.1109972605
 20
183.8780200695
 30
0.0
 11
124.1109972605
 21
184.8780200695
 31
0.0
  0
LINE
  5
162
330
1F
100
AcDbEntity
  8
0
  6
Continuous
 62
     7
100
AcDbLine
 10
124.1109972605
 20
247.6780200695
 30
0.0
 11
124.1109972605
 21
246.6780200695
 31
0.0
  0
LINE
  5
163
330
1F
100
AcDbEntity
  8
0
  6
Continuous
 62
     7
100
AcDbLine
 10
123.8609972605
 20
185.3780200695
 30
0.0
 11
123.8609972605
 21
184.8780200695
 31
0.0
  0
LINE
  5
164
330
1F
100
AcDbEntity
  8
0
  6
Continuous
 62
     7
100
AcDbLine
 10
123.8609972605
 20
246.6780200695
 30
0.0
 11
123.8609972605
 21
246.1780200695
 31
0.0
  0
LINE
  5
165
330
1F
100
AcDbEntity
  8
A_RUNDUNGEN
  6
Continuous
 62
     7
100
AcDbLine
 10
158.1102881449
 20
163.7780200695
 30
0.0
 11
169.466474799
 21
163.7780200695
 31
0.0
  0
LINE
  5
166
330
1F
100
AcDbEntity
  8
A_RUNDUNGEN
  6
Continuous
 62
     7
100
AcDbLine
 10
131.513579185
 20
163.7780200695
 30
0.0
 11
157.9959664839
 21
163.7780200695
 31
0.0
  0
LINE
  5
167
330
1F
100
AcDbEntity
  8
A_RUNDUNGEN
  6
Continuous
 62
     7
100
AcDbLine
 10
104.3019578809
 20
163.7780200695
 30
0.0
 11
131.513579185
 21
163.7780200695
 31
0.0
  0
LINE
  5
168
330
1F
100
AcDbEntity
  8
A_RUNDUNGEN
  6
Continuous
 62
     7
100
AcDbLine
 10
96.4609972605
 20
163.7780200695
 30
0.0
 11
99.0609972605
 21
163.7780200695
 31
0.0
  0
LINE
  5
169
330
1F
100
AcDbEntity
  8
0
  6
Continuous
 62
     7
100
AcDbLine
 10
176.7910964547
 20
163.3780200695
 30
0.0
 11
169.466474799
 21
163.3780200695
 31
0.0
  0
LINE
  5
16A
330
1F
100
AcDbEntity
  8
A_ACHSEN
  6
Continuous
 62
     7
100
AcDbLine
 10
160.7259313775
 20
163.2780200695
 30
0.0
 11
170.2164653613
 21
163.2780200695
 31
0.0
  0
LINE
  5
16B
330
1F
100
AcDbEntity
  8
0
  6
Continuous
 62
     7
100
AcDbLine
 10
149.5135946381
 20
163.2780200695
 30
0.0
 11
160.7259313775
 21
163.2780200695
 31
0.0
  0
LINE
  5
16C
330
1F
100
AcDbEntity
  8
A_ACHSEN
  6
Continuous
 62
     7
100
AcDbLine
 10
103.5519820077
 20
163.2780200695
 30
0.0
 11
113.0519337542
 21
163.2780200695
 31
0.0
  0
LINE
  5
16D
330
1F
100
AcDbEntity
  8
A_RUNDUNGEN
  6
Continuous
 62
     7
100
AcDbLine
 10
142.0135137553
 20
163.2780200695
 30
0.0
 11
132.0136373837
 21
163.2780200695
 31
0.0
  0
LINE
  5
16E
330
1F
100
AcDbEntity
  8
A_RUNDUNGEN
  6
Continuous
 62
     7
100
AcDbLine
 10
88.4609972605
 20
162.4780200695
 30
0.0
 11
112.6765032597
 21
162.4780200695
 31
0.0
  0
LINE
  5
16F
330
1F
100
AcDbEntity
  8
A_ACHSEN
  6
Continuous
 62
     7
100
AcDbLine
 10
160.7259468307
 20
162.3780200695
 30
0.0
 11
170.2164653613
 21
162.3780200695
 31
0.0
  0
LINE
  5
170
330
1F
100
AcDbEntity
  8
A_RUNDUNGEN
  6
Continuous
 62
     7
100
AcDbLine
 10
180.2763228235
 20
162.2780200695
 30
0.0
 11
183.2763224872
 21
162.2780200695
 31
0.0
  0
LINE
  5
171
330
1F
100
AcDbEntity
  8
0
  6
Continuous
 62
     7
100
AcDbLine
 10
149.5135946381
 20
162.2780200695
 30
0.0
 11
160.7259313775
 21
162.2780200695
 31
0.0
  0
LINE
  5
172
330
1F
100
AcDbEntity
  8
A_RUNDUNGEN
  6
Continuous
 62
     7
100
AcDbLine
 10
150.1384807741
 20
162.1780200695
 30
0.0
 11
183.5732446955
 21
162.1780200695
 31
0.0
  0
LINE
  5
173
330
1F
100
AcDbEntity
  8
A_RUNDUNGEN
  6
Continuous
 62
     7
100
AcDbLine
 10
120.0109972605
 20
279.2780200695
 30
0.0
 11
120.0109972605
 21
319.6780200695
 31
0.0
  0
LINE
  5
174
330
1F
100
AcDbEntity
  8
A_RUNDUNGEN
  6
Continuous
 62
     7
100
AcDbLine
 10
120.1109972605
 20
111.8780200695
 30
0.0
 11
120.1109972605
 21
152.2780200695
 31
0.0
  0
LINE
  5
175
330
1F
100
AcDbEntity
  8
A_RUNDUNGEN
  6
Continuous
 62
     7
100
AcDbLine
 10
114.0110758357
 20
183.7780200695
 30
0.0
 11
114.0110758357
 21
185.3780200695
 31
0.0
  0
LINE
  5
176
330
1F
100
AcDbEntity
  8
A_RUNDUNGEN
  6
Continuous
 62
     7
100
AcDbLine
 10
113.6765032597
 20
163.7780200695
 30
0.0
 11
113.6765032597
 21
163.4780200695
 31
0.0
  0
LINE
  5
177
330
1F
100
AcDbEntity
  8
0
  6
Continuous
 62
     7
100
AcDbLine
 10
113.6765032597
 20
268.0780200695
 30
0.0
 11
113.6765032597
 21
267.7780200695
 31
0.0
  0
LINE
  5
178
330
1F
100
AcDbEntity
  8
A_ACHSEN
  6
DOT_CENTER
 62
     2
100
AcDbLine
 10
113.1109972605
 20
313.1530200695
 30
0.0
 11
113.1109972605
 21
319.0930200695
 31
0.0
  0
LINE
  5
179
330
1F
100
AcDbEntity
  8
A_ACHSEN
  6
DOT_CENTER
 62
     2
100
AcDbLine
 10
113.1109972605
 20
103.5530200695
 30
0.0
 11
113.1109972605
 21
109.4930200695
 31
0.0
  0
LINE
  5
17A
330
1F
100
AcDbEntity
  8
A_ACHSEN
  6
DOT_CENTER
 62
     2
100
AcDbLine
 10
113.1109972605
 20
113.9781200695
 30
0.0
 11
113.1109972605
 21
109.4930200695
 31
0.0
  0
LINE
  5
17B
330
1F
100
AcDbEntity
  8
A_ACHSEN
  6
DOT_CENTER
 62
     2
100
AcDbLine
 10
113.1109972605
 20
118.4030200695
 30
0.0
 11
113.1109972605
 21
113.9781200695
 31
0.0
  0
LINE
  5
17C
330
1F
100
AcDbEntity
  8
A_ACHSEN
  6
DOT_CENTER
 62
     2
100
AcDbLine
 10
113.1109972605
 20
323.5781200695
 30
0.0
 11
113.1109972605
 21
319.0930200695
 31
0.0
  0
LINE
  5
17D
330
1F
100
AcDbEntity
  8
A_ACHSEN
  6
DOT_CENTER
 62
     2
100
AcDbLine
 10
113.1109972605
 20
328.0030200695
 30
0.0
 11
113.1109972605
 21
323.5781200695
 31
0.0
  0
LINE
  5
17E
330
1F
100
AcDbEntity
  8
A_ACHSEN
  6
Continuous
 62
     7
100
AcDbLine
 10
113.0519578809
 20
162.5608152149
 30
0.0
 11
113.0519578809
 21
163.2780200695
 31
0.0
  0
LINE
  5
17F
330
1F
100
AcDbEntity
  8
A_ACHSEN
  6
Continuous
 62
     7
100
AcDbLine
 10
113.0519578809
 20
268.9952249241
 30
0.0
 11
113.0519578809
 21
268.2780200695
 31
0.0
  0
LINE
  5
180
330
1F
100
AcDbEntity
  8
0
  6
Continuous
 62
     7
100
AcDbLine
 10
112.3019578809
 20
267.7780200695
 30
0.0
 11
112.3019578809
 21
268.2780200695
 31
0.0
  0
LINE
  5
181
330
1F
100
AcDbEntity
  8
0
  6
Continuous
 62
     7
100
AcDbLine
 10
112.3019578809
 20
163.2780200695
 30
0.0
 11
112.3019578809
 21
163.7780200695
 31
0.0
  0
LINE
  5
182
330
1F
100
AcDbEntity
  8
A_RUNDUNGEN
  6
Continuous
 62
     7
100
AcDbLine
 10
114.3329315955
 20
183.0430910715
 30
0.0
 11
114.3358950424
 21
183.0403633039
 31
0.0
  0
LINE
  5
183
330
1F
100
AcDbEntity
  8
A_RUNDUNGEN
  6
Continuous
 62
     7
100
AcDbLine
 10
114.3361764124
 20
183.0401873262
 30
0.0
 11
114.3359351802
 21
183.040407167
 31
0.0
  0
LINE
  5
184
330
1F
100
AcDbEntity
  8
A_RUNDUNGEN
  6
Continuous
 62
     7
100
AcDbLine
 10
150.1384807741
 20
155.7780200695
 30
0.0
 11
183.5732446955
 21
155.7780200695
 31
0.0
  0
LINE
  5
185
330
1F
100
AcDbEntity
  8
A_RUNDUNGEN
  6
Continuous
 62
     7
100
AcDbLine
 10
88.4609972605
 20
152.8780200695
 30
0.0
 11
124.3109972605
 21
152.8780200695
 31
0.0
  0
LINE
  5
186
330
1F
100
AcDbEntity
  8
A_RUNDUNGEN
  6
Continuous
 62
     7
100
AcDbLine
 10
119.6109972605
 20
152.7780200695
 30
0.0
 11
88.7109972605
 21
152.7780200695
 31
0.0
  0
LINE
  5
187
330
1F
100
AcDbEntity
  8
A_RUNDUNGEN
  6
Continuous
 62
     7
100
AcDbLine
 10
154.374052921
 20
152.7780200695
 30
0.0
 11
150.1392857262
 21
152.7780200695
 31
0.0
  0
LINE
  5
188
330
1F
100
AcDbEntity
  8
A_RUNDUNGEN
  6
Continuous
 62
     7
100
AcDbLine
 10
185.3007024627
 20
152.5780200695
 30
0.0
 11
154.30070413295
 21
152.5780200695
 31
0.0
  0
LINE
  5
189
330
1F
100
AcDbEntity
  8
A_RUNDUNGEN
  6
Continuous
 62
     7
100
AcDbLine
 10
114.3358950424
 20
248.5156768351
 30
0.0
 11
114.3330342677
 21
248.5130438542
 31
0.0
  0
LINE
  5
18A
330
1F
100
AcDbEntity
  8
A_ACHSEN
  6
DOT_CENTER
 62
     2
100
AcDbLine
 10
108.3019578809
 20
274.3780200695
 30
0.0
 11
108.3019578809
 21
157.9966997974
 31
0.0
  0
LINE
  5
18B
330
1F
100
AcDbEntity
  8
0
  6
Continuous
 62
     7
100
AcDbLine
 10
104.3019578809
 20
163.2780200695
 30
0.0
 11
104.3019578809
 21
163.7780200695
 31
0.0
  0
LINE
  5
18C
330
1F
100
AcDbEntity
  8
A_ACHSEN
  6
DOT_CENTER
 62
     2
100
AcDbLine
 10
104.1109972605
 20
309.1530200695
 30
0.0
 11
104.1109972605
 21
315.0930200695
 31
0.0
  0
LINE
  5
18D
330
1F
100
AcDbEntity
  8
A_ACHSEN
  6
DOT_CENTER
 62
     2
100
AcDbLine
 10
104.1109972605
 20
107.5530200695
 30
0.0
 11
104.1109972605
 21
113.4930200695
 31
0.0
  0
LINE
  5
18E
330
1F
100
AcDbEntity
  8
A_ACHSEN
  6
DOT_CENTER
 62
     2
100
AcDbLine
 10
104.1109972605
 20
122.4030200695
 30
0.0
 11
104.1109972605
 21
113.4930200695
 31
0.0
  0
LINE
  5
18F
330
1F
100
AcDbEntity
  8
A_ACHSEN
  6
DOT_CENTER
 62
     2
100
AcDbLine
 10
104.1109972605
 20
324.0030200695
 30
0.0
 11
104.1109972605
 21
315.0930200695
 31
0.0
  0
LINE
  5
190
330
1F
100
AcDbEntity
  8
A_ACHSEN
  6
Continuous
 62
     7
100
AcDbLine
 10
103.5519578809
 20
162.4780200695
 30
0.0
 11
103.5519578809
 21
163.2780200695
 31
0.0
  0
LINE
  5
191
330
1F
100
AcDbEntity
  8
A_ACHSEN
  6
Continuous
 62
     7
100
AcDbLine
 10
103.5519578809
 20
269.0780200695
 30
0.0
 11
103.5519578809
 21
268.2780200695
 31
0.0
  0
LINE
  5
192
330
1F
100
AcDbEntity
  8
A_RUNDUNGEN
  6
Continuous
 62
     7
100
AcDbLine
 10
99.5609972605
 20
164.2780200695
 30
0.0
 11
99.5609972605
 21
267.6780200695
 31
0.0
  0
LINE
  5
193
330
1F
100
AcDbEntity
  8
A_ACHSEN
  6
DOT_CENTER
 62
     2
100
AcDbLine
 10
175.1600247899
 20
133.7780200695
 30
0.0
 11
177.829742436
 21
133.7780200695
 31
0.0
  0
LINE
  5
194
330
1F
100
AcDbEntity
  8
A_ACHSEN
  6
DOT_CENTER
 62
     2
100
AcDbLine
 10
155.4209813158
 20
133.7780200695
 30
0.0
 11
165.208507816
 21
133.7780200695
 31
0.0
  0
LINE
  5
195
330
1F
100
AcDbEntity
  8
A_ACHSEN
  6
DOT_CENTER
 62
     2
100
AcDbLine
 10
182.314842436
 20
133.7780200695
 30
0.0
 11
177.829742436
 21
133.7780200695
 31
0.0
  0
LINE
  5
196
330
1F
100
AcDbEntity
  8
A_ACHSEN
  6
DOT_CENTER
 62
     2
100
AcDbLine
 10
183.7610500028
 20
133.7780200695
 30
0.0
 11
182.314842436
 21
133.7780200695
 31
0.0
  0
LINE
  5
197
330
1F
100
AcDbEntity
  8
0
  6
Continuous
 62
     7
100
AcDbLine
 10
95.9609972605
 20
268.6780200695
 30
0.0
 11
95.9609972605
 21
269.0780200695
 31
0.0
  0
LINE
  5
198
330
1F
100
AcDbEntity
  8
0
  6
Continuous
 62
     7
100
AcDbLine
 10
95.9609972605
 20
162.4780200695
 30
0.0
 11
95.9609972605
 21
163.2780200695
 31
0.0
  0
LINE
  5
199
330
1F
100
AcDbEntity
  8
A_ACHSEN
  6
DOT_CENTER
 62
     2
100
AcDbLine
 10
95.1109972605
 20
313.1530200695
 30
0.0
 11
95.1109972605
 21
319.0930200695
 31
0.0
  0
LINE
  5
19A
330
1F
100
AcDbEntity
  8
A_ACHSEN
  6
DOT_CENTER
 62
     2
100
AcDbLine
 10
95.1109972605
 20
103.5530200695
 30
0.0
 11
95.1109972605
 21
109.4930200695
 31
0.0
  0
LINE
  5
19B
330
1F
100
AcDbEntity
  8
A_ACHSEN
  6
DOT_CENTER
 62
     2
100
AcDbLine
 10
95.1109972605
 20
113.9781200695
 30
0.0
 11
95.1109972605
 21
109.4930200695
 31
0.0
  0
LINE
  5
19C
330
1F
100
AcDbEntity
  8
A_ACHSEN
  6
DOT_CENTER
 62
     2
100
AcDbLine
 10
95.1109972605
 20
118.4030200695
 30
0.0
 11
95.1109972605
 21
113.9781200695
 31
0.0
  0
LINE
  5
19D
330
1F
100
AcDbEntity
  8
A_ACHSEN
  6
DOT_CENTER
 62
     2
100
AcDbLine
 10
95.1109972605
 20
323.5781200695
 30
0.0
 11
95.1109972605
 21
319.0930200695
 31
0.0
  0
LINE
  5
19E
330
1F
100
AcDbEntity
  8
A_ACHSEN
  6
DOT_CENTER
 62
     2
100
AcDbLine
 10
95.1109972605
 20
328.0030200695
 30
0.0
 11
95.1109972605
 21
323.5781200695
 31
0.0
  0
LINE
  5
19F
330
1F
100
AcDbEntity
  8
A_ACHSEN
  6
Continuous
 62
     7
100
AcDbLine
 10
93.1609972605
 20
200.9780200695
 30
0.0
 11
93.1609972605
 21
180.4780200695
 31
0.0
  0
LINE
  5
1A0
330
1F
100
AcDbEntity
  8
A_ACHSEN
  6
Continuous
 62
     7
100
AcDbLine
 10
93.1609972605
 20
251.4780200695
 30
0.0
 11
93.1609972605
 21
230.9780200695
 31
0.0
  0
LINE
  5
1A1
330
1F
100
AcDbEntity
  8
A_RUNDUNGEN
  6
Continuous
 62
     7
100
AcDbLine
 10
91.6609972605
 20
162.4780200695
 30
0.0
 11
91.6609972605
 21
269.0780200695
 31
0.0
  0
LINE
  5
1A2
330
1F
100
AcDbEntity
  8
A_RUNDUNGEN
  6
Continuous
 62
     7
100
AcDbLine
 10
91.6609972605
 20
152.8780200695
 30
0.0
 11
91.6609972605
 21
152.7780200695
 31
0.0
  0
LINE
  5
1A3
330
1F
100
AcDbEntity
  8
A_RUNDUNGEN
  6
Continuous
 62
     7
100
AcDbLine
 10
91.6609972605
 20
278.7780200695
 30
0.0
 11
91.6609972605
 21
278.6780200695
 31
0.0
  0
LINE
  5
1A4
330
1F
100
AcDbEntity
  8
A_RUNDUNGEN
  6
Continuous
 62
     7
100
AcDbLine
 10
88.6609972605
 20
162.4780200695
 30
0.0
 11
88.6609972605
 21
269.0780200695
 31
0.0
  0
LINE
  5
1A5
330
1F
100
AcDbEntity
  8
A_RUNDUNGEN
  6
Continuous
 62
     7
100
AcDbLine
 10
88.6609972605
 20
152.8780200695
 30
0.0
 11
88.6609972605
 21
152.7780200695
 31
0.0
  0
LINE
  5
1A6
330
1F
100
AcDbEntity
  8
A_RUNDUNGEN
  6
Continuous
 62
     7
100
AcDbLine
 10
88.6609972605
 20
278.7780200695
 30
0.0
 11
88.6609972605
 21
278.6780200695
 31
0.0
  0
LINE
  5
1A7
330
1F
100
AcDbEntity
  8
A_RUNDUNGEN
  6
Continuous
 62
     7
100
AcDbLine
 10
88.11099547805
 20
152.2780200695
 30
0.0
 11
88.11099547805
 21
111.8780200695
 31
0.0
  0
LINE
  5
1A8
330
1F
100
AcDbEntity
  8
A_RUNDUNGEN
  6
Continuous
 62
     7
100
AcDbLine
 10
88.2109972605
 20
319.6780200695
 30
0.0
 11
88.2109972605
 21
279.2780200695
 31
0.0
  0
LINE
  5
1A9
330
1F
100
AcDbEntity
  8
A_RUNDUNGEN
  6
Continuous
 62
     7
100
AcDbLine
 10
88.1609972605
 20
153.1780200695
 30
0.0
 11
88.1609972605
 21
162.1780200695
 31
0.0
  0
LINE
  5
1AA
330
1F
100
AcDbEntity
  8
0
  6
Continuous
 62
     7
100
AcDbLine
 10
88.1609972605
 20
278.3780200695
 30
0.0
 11
88.1609972605
 21
269.3780200695
 31
0.0
  0
LINE
  5
1AB
330
1F
100
AcDbEntity
  8
A_ACHSEN
  6
DOT_CENTER
 62
     2
100
AcDbLine
 10
174.8506353938
 20
127.7780200695
 30
0.0
 11
176.314642436
 21
127.7780200695
 31
0.0
  0
LINE
  5
1AC
330
1F
100
AcDbEntity
  8
A_ACHSEN
  6
DOT_CENTER
 62
     2
100
AcDbLine
 10
155.730370712
 20
127.7780200695
 30
0.0
 11
157.3146445659
 21
127.7780200695
 31
0.0
  0
LINE
  5
1AD
330
1F
100
AcDbEntity
  8
A_ACHSEN
  6
DOT_CENTER
 62
     2
100
AcDbLine
 10
161.7997445659
 20
127.7780200695
 30
0.0
 11
157.3146445659
 21
127.7780200695
 31
0.0
  0
LINE
  5
1AE
330
1F
100
AcDbEntity
  8
A_ACHSEN
  6
DOT_CENTER
 62
     2
100
AcDbLine
 10
163.9601286494
 20
127.7780200695
 30
0.0
 11
161.7997445659
 21
127.7780200695
 31
0.0
  0
LINE
  5
1AF
330
1F
100
AcDbEntity
  8
A_ACHSEN
  6
DOT_CENTER
 62
     2
100
AcDbLine
 10
180.799742436
 20
127.7780200695
 30
0.0
 11
176.314642436
 21
127.7780200695
 31
0.0
  0
LINE
  5
1B0
330
1F
100
AcDbEntity
  8
A_ACHSEN
  6
DOT_CENTER
 62
     2
100
AcDbLine
 10
183.6372942444
 20
127.7780200695
 30
0.0
 11
180.799742436
 21
127.7780200695
 31
0.0
  0
LINE
  5
1B1
330
1F
100
AcDbEntity
  8
A_ACHSEN
  6
DOT_CENTER
 62
     2
100
AcDbLine
 10
96.6859972605
 20
114.9780200695
 30
0.0
 11
101.1108972605
 21
114.9780200695
 31
0.0
  0
LINE
  5
1B2
330
1F
100
AcDbEntity
  8
A_ACHSEN
  6
DOT_CENTER
 62
     2
100
AcDbLine
 10
111.5359972605
 20
114.9780200695
 30
0.0
 11
101.1108972605
 21
114.9780200695
 31
0.0
  0
LINE
  5
1B3
330
1F
100
AcDbEntity
  8
A_ACHSEN
  6
DOT_CENTER
 62
     2
100
AcDbLine
 10
162.3804392015
 20
114.7780200695
 30
0.0
 11
168.3204392015
 21
114.7780200695
 31
0.0
  0
LINE
  5
1B4
330
1F
100
AcDbEntity
  8
A_ACHSEN
  6
DOT_CENTER
 62
     2
100
AcDbLine
 10
177.2304392015
 20
114.7780200695
 30
0.0
 11
168.3204392015
 21
114.7780200695
 31
0.0
  0
LINE
  5
1B5
330
1F
100
AcDbEntity
  8
A_ACHSEN
  6
DOT_CENTER
 62
     2
100
AcDbLine
 10
105.6859972605
 20
110.9780200695
 30
0.0
 11
110.1108972605
 21
110.9780200695
 31
0.0
  0
LINE
  5
1B6
330
1F
100
AcDbEntity
  8
A_ACHSEN
  6
DOT_CENTER
 62
     2
100
AcDbLine
 10
87.58599547805001
 20
110.9780200695
 30
0.0
 11
92.1108972605
 21
110.9780200695
 31
0.0
  0
LINE
  5
1B7
330
1F
100
AcDbEntity
  8
A_ACHSEN
  6
DOT_CENTER
 62
     2
100
AcDbLine
 10
96.5959972605
 20
110.9780200695
 30
0.0
 11
92.1108972605
 21
110.9780200695
 31
0.0
  0
LINE
  5
1B8
330
1F
100
AcDbEntity
  8
A_ACHSEN
  6
DOT_CENTER
 62
     2
100
AcDbLine
 10
102.5359972605
 20
110.9780200695
 30
0.0
 11
96.5959972605
 21
110.9780200695
 31
0.0
  0
LINE
  5
1B9
330
1F
100
AcDbEntity
  8
A_ACHSEN
  6
DOT_CENTER
 62
     2
100
AcDbLine
 10
114.5959972605
 20
110.9780200695
 30
0.0
 11
110.1108972605
 21
110.9780200695
 31
0.0
  0
LINE
  5
1BA
330
1F
100
AcDbEntity
  8
A_ACHSEN
  6
DOT_CENTER
 62
     2
100
AcDbLine
 10
120.6359972605
 20
110.9780200695
 30
0.0
 11
114.5959972605
 21
110.9780200695
 31
0.0
  0
LINE
  5
1BB
330
1F
100
AcDbEntity
  8
A_ACHSEN
  6
DOT_CENTER
 62
     2
100
AcDbLine
 10
173.8141809167
 20
110.7780200695
 30
0.0
 11
183.4052521972
 21
110.7780200695
 31
0.0
  0
LINE
  5
1BC
330
1F
100
AcDbEntity
  8
A_ACHSEN
  6
DOT_CENTER
 62
     2
100
AcDbLine
 10
156.0242906383
 20
110.7780200695
 30
0.0
 11
164.9192357775
 21
110.7780200695
 31
0.0
  0
LINE
  5
1BD
330
1F
100
AcDbEntity
  8
A_NOTIZEN_SYMB
  6
DASHED
 62
     2
100
AcDbLine
 10
181.9113565546
 20
127.7780200695
 30
0.0
 11
181.9113565546
 21
133.7780200727
 31
0.0
  0
LINE
  5
1BE
330
1F
100
AcDbEntity
  8
A_NOTIZEN_SYMB
  6
DASHED
 62
     2
100
AcDbLine
 10
181.9113565546
 20
303.7780200695
 30
0.0
 11
181.9113565546
 21
297.7780200664
 31
0.0
  0
LINE
  5
1BF
330
1F
100
AcDbEntity
  8
A_NOTIZEN_SYMB
  6
DASHED
 62
     2
100
AcDbLine
 10
176.7113572496
 20
297.7780200695
 30
0.0
 11
176.7113572496
 21
303.7780200727
 31
0.0
  0
LINE
  5
1C0
330
1F
100
AcDbEntity
  8
A_NOTIZEN_SYMB
  6
DASHED
 62
     2
100
AcDbLine
 10
176.7113572496
 20
133.7780200695
 30
0.0
 11
176.7113572496
 21
127.7780200664
 31
0.0
  0
LINE
  5
1C1
330
1F
100
AcDbEntity
  8
A_NOTIZEN_SYMB
  6
DASHED
 62
     2
100
AcDbLine
 10
162.9113586845
 20
127.7780200695
 30
0.0
 11
162.9113586845
 21
133.7780200727
 31
0.0
  0
LINE
  5
1C2
330
1F
100
AcDbEntity
  8
A_NOTIZEN_SYMB
  6
DASHED
 62
     2
100
AcDbLine
 10
162.9113586845
 20
303.7780200695
 30
0.0
 11
162.9113586845
 21
297.7780200664
 31
0.0
  0
LINE
  5
1C3
330
1F
100
AcDbEntity
  8
A_NOTIZEN_SYMB
  6
DASHED
 62
     2
100
AcDbLine
 10
157.7113593795
 20
297.7780200695
 30
0.0
 11
157.7113593795
 21
303.7780200727
 31
0.0
  0
LINE
  5
1C4
330
1F
100
AcDbEntity
  8
A_NOTIZEN_SYMB
  6
DASHED
 62
     2
100
AcDbLine
 10
157.7113593795
 20
133.7780200695
 30
0.0
 11
157.7113593795
 21
127.7780200664
 31
0.0
  0
ARC
  5
1C5
330
1F
100
AcDbEntity
  8
0
  6
Continuous
 62
     7
100
AcDbCircle
 10
169.800703297775
 20
111.6780200695
 30
0.0
 40
16.000000891225
100
AcDbArc
 50
180.0
 51
270.0000031914643
  0
ARC
  5
1C6
330
1F
100
AcDbEntity
  8
0
  6
Continuous
 62
     7
100
AcDbCircle
 10
169.800704189
 20
319.8780200695
 30
0.0
 40
15.90000000000001
100
AcDbArc
 50
0.0
 51
90.0
  0
ARC
  5
1C7
330
1F
100
AcDbEntity
  8
0
  6
Continuous
 62
     7
100
AcDbCircle
 10
169.800704189
 20
319.8780200695
 30
0.0
 40
15.89999999999998
100
AcDbArc
 50
90.0
 51
180.0
  0
ARC
  5
1C8
330
1F
100
AcDbEntity
  8
0
  6
Continuous
 62
     7
100
AcDbCircle
 10
183.5732446955
 20
275.4780200695
 30
0.0
 40
0.3000000000000114
100
AcDbArc
 50
0.0
 51
90.0
  0
ARC
  5
1C9
330
1F
100
AcDbEntity
  8
0
  6
Continuous
 62
     7
100
AcDbCircle
 10
150.3516533719
 20
278.4780200695
 30
0.0
 40
0.2999999999999545
100
AcDbArc
 50
90.0
 51
180.0
  0
ARC
  5
1CA
330
1F
100
AcDbEntity
  8
0
  6
Continuous
 62
     7
100
AcDbCircle
 10
150.3508484198
 20
275.4780200695
 30
0.0
 40
0.2999999999999545
100
AcDbArc
 50
90.0
 51
180.0
  0
ARC
  5
1CB
330
1F
100
AcDbEntity
  8
0
  6
Continuous
 62
     7
100
AcDbCircle
 10
150.3508484198
 20
269.6780200695
 30
0.0
 40
0.3000000000000114
100
AcDbArc
 50
180.0
 51
270.0
  0
ARC
  5
1CC
330
1F
100
AcDbEntity
  8
0
  6
Continuous
 62
     7
100
AcDbCircle
 10
183.5732446955
 20
269.6780200695
 30
0.0
 40
0.3000000000000114
100
AcDbArc
 50
270.0
 51
0.0
  0
ARC
  5
1CD
330
1F
100
AcDbEntity
  8
0
  6
Continuous
 62
     7
100
AcDbCircle
 10
183.5758395964
 20
269.6780200695
 30
0.0
 40
0.3000000000001737
100
AcDbArc
 50
277.3527842122879
 51
0.0
  0
ARC
  5
1CE
330
1F
100
AcDbEntity
  8
A_RUNDUNGEN
  6
Continuous
 62
     7
100
AcDbCircle
 10
142.513579185
 20
268.2780200695
 30
0.0
 40
0.5
100
AcDbArc
 50
180.0
 51
270.0
  0
ARC
  5
1CF
330
1F
100
AcDbEntity
  8
A_RUNDUNGEN
  6
Continuous
 62
     7
100
AcDbCircle
 10
142.513579185
 20
248.2780200695
 30
0.0
 40
0.5
100
AcDbArc
 50
90.0
 51
180.0
  0
ARC
  5
1D0
330
1F
100
AcDbEntity
  8
A_RUNDUNGEN
  6
Continuous
 62
     7
100
AcDbCircle
 10
158.1099480694
 20
267.2780200695
 30
0.0
 40
0.5
100
AcDbArc
 50
90.0
 51
180.0
  0
ARC
  5
1D1
330
1F
100
AcDbEntity
  8
A_RUNDUNGEN
  6
Continuous
 62
     7
100
AcDbCircle
 10
142.513579185
 20
246.6780200695
 30
0.0
 40
0.5
100
AcDbArc
 50
180.0
 51
270.0
  0
ARC
  5
1D2
330
1F
100
AcDbEntity
  8
0
  6
Continuous
 62
     7
100
AcDbCircle
 10
176.7910964547
 20
268.6780200695
 30
0.0
 40
0.5
100
AcDbArc
 50
270.0
 51
0.0
  0
ARC
  5
1D3
330
1F
100
AcDbEntity
  8
A_RUNDUNGEN
  6
Continuous
 62
     7
100
AcDbCircle
 10
154.4007059154
 20
279.4780200695
 30
0.0
 40
0.5
100
AcDbArc
 50
180.0
 51
270.0
  0
ARC
  5
1D4
330
1F
100
AcDbEntity
  8
A_RUNDUNGEN
  6
Continuous
 62
     7
100
AcDbCircle
 10
185.2007024627
 20
279.4780200695
 30
0.0
 40
0.5
100
AcDbArc
 50
270.0
 51
0.0
  0
ARC
  5
1D5
330
1F
100
AcDbEntity
  8
0
  6
Continuous
 62
     7
100
AcDbCircle
 10
154.374052921
 20
279.2780200695
 30
0.0
 40
0.5
100
AcDbArc
 50
270.0
 51
323.0061731752236
  0
ARC
  5
1D6
330
1F
100
AcDbEntity
  8
A_RUNDUNGEN
  6
Continuous
 62
     7
100
AcDbCircle
 10
156.6099480694
 20
247.1780200695
 30
0.0
 40
1.0
100
AcDbArc
 50
270.0
 51
0.0
  0
ARC
  5
1D7
330
1F
100
AcDbEntity
  8
0
  6
Continuous
 62
     7
100
AcDbCircle
 10
104.1109972605
 20
319.6780200695
 30
0.0
 40
15.90000000000001
100
AcDbArc
 50
0.0
 51
180.0
  0
ARC
  5
1D8
330
1F
100
AcDbEntity
  8
A_RUNDUNGEN
  6
Continuous
 62
     7
100
AcDbCircle
 10
104.1109972605
 20
319.5780200695
 30
0.0
 40
15.95000000000009
100
AcDbArc
 50
163.6903723266988
 51
180.0
  0
ARC
  5
1D9
330
1F
100
AcDbEntity
  8
0
  6
Continuous
 62
     7
100
AcDbCircle
 10
124.3109972605
 20
278.3780200695
 30
0.0
 40
0.2999999999999972
100
AcDbArc
 50
0.0
 51
90.0
  0
ARC
  5
1DA
330
1F
100
AcDbEntity
  8
A_RUNDUNGEN
  6
Continuous
 62
     7
100
AcDbCircle
 10
131.513579185
 20
268.2780200695
 30
0.0
 40
0.5
100
AcDbArc
 50
270.0
 51
0.0
  0
ARC
  5
1DB
330
1F
100
AcDbEntity
  8
A_RUNDUNGEN
  6
Continuous
 62
     7
100
AcDbCircle
 10
119.5109972605
 20
279.2780200695
 30
0.0
 40
0.5
100
AcDbArc
 50
270.0
 51
0.0
  0
ARC
  5
1DC
330
1F
100
AcDbEntity
  8
0
  6
Continuous
 62
     7
100
AcDbCircle
 10
112.6765032597
 20
268.0780200695
 30
0.0
 40
1.0
100
AcDbArc
 50
0.0
 51
90.0
  0
ARC
  5
1DD
330
1F
100
AcDbEntity
  8
A_RUNDUNGEN
  6
Continuous
 62
     7
100
AcDbCircle
 10
131.513579185
 20
248.2780200695
 30
0.0
 40
0.5
100
AcDbArc
 50
0.0
 51
90.0
  0
ARC
  5
1DE
330
1F
100
AcDbEntity
  8
A_RUNDUNGEN
  6
Continuous
 62
     7
100
AcDbCircle
 10
131.513579185
 20
246.6780200695
 30
0.0
 40
0.5
100
AcDbArc
 50
270.0
 51
0.0
  0
ARC
  5
1DF
330
1F
100
AcDbEntity
  8
0
  6
Continuous
 62
     7
100
AcDbCircle
 10
124.1109972605
 20
248.1780200695
 30
0.0
 40
0.5
100
AcDbArc
 50
270.0
 51
0.0
  0
ARC
  5
1E0
330
1F
100
AcDbEntity
  8
0
  6
Continuous
 62
     7
100
AcDbCircle
 10
114.1765032597
 20
248.1780200695
 30
0.0
 40
0.4999999999995918
100
AcDbArc
 50
250.547278900273
 51
270.0
  0
ARC
  5
1E1
330
1F
100
AcDbEntity
  8
A_RUNDUNGEN
  6
Continuous
 62
     7
100
AcDbCircle
 10
115.0110758357
 20
247.7780200695
 30
0.0
 40
1.0
100
AcDbArc
 50
90.0
 51
180.0
  0
ARC
  5
1E2
330
1F
100
AcDbEntity
  8
0
  6
Continuous
 62
     7
100
AcDbCircle
 10
88.4609972605
 20
269.3780200695
 30
0.0
 40
0.2999999999999972
100
AcDbArc
 50
180.0
 51
270.0
  0
ARC
  5
1E3
330
1F
100
AcDbEntity
  8
0
  6
Continuous
 62
     7
100
AcDbCircle
 10
88.4609972605
 20
278.3780200695
 30
0.0
 40
0.3000000000000114
100
AcDbArc
 50
90.0
 51
180.0
  0
ARC
  5
1E4
330
1F
100
AcDbEntity
  8
0
  6
Continuous
 62
     7
100
AcDbCircle
 10
96.4609972605
 20
268.6780200695
 30
0.0
 40
0.5
100
AcDbArc
 50
180.0
 51
270.0
  0
ARC
  5
1E5
330
1F
100
AcDbEntity
  8
A_RUNDUNGEN
  6
Continuous
 62
     7
100
AcDbCircle
 10
99.0609972605
 20
267.6780200695
 30
0.0
 40
0.5
100
AcDbArc
 50
0.0
 51
90.0
  0
ARC
  5
1E6
330
1F
100
AcDbEntity
  8
A_RUNDUNGEN
  6
Continuous
 62
     7
100
AcDbCircle
 10
88.7109972605
 20
279.2780200695
 30
0.0
 40
0.5
100
AcDbArc
 50
180.0
 51
270.0
  0
ARC
  5
1E7
330
1F
100
AcDbEntity
  8
A_RUNDUNGEN
  6
Continuous
 62
     7
100
AcDbCircle
 10
183.5732446955
 20
156.0780200695
 30
0.0
 40
0.3000000000000114
100
AcDbArc
 50
270.0
 51
0.0
  0
ARC
  5
1E8
330
1F
100
AcDbEntity
  8
A_RUNDUNGEN
  6
Continuous
 62
     7
100
AcDbCircle
 10
150.1392857262
 20
153.0780200695
 30
0.0
 40
0.3000000000000114
100
AcDbArc
 50
180.0
 51
270.0
  0
ARC
  5
1E9
330
1F
100
AcDbEntity
  8
A_RUNDUNGEN
  6
Continuous
 62
     7
100
AcDbCircle
 10
150.1384807741
 20
156.0780200695
 30
0.0
 40
0.3000000000000114
100
AcDbArc
 50
180.0
 51
270.0
  0
ARC
  5
1EA
330
1F
100
AcDbEntity
  8
A_RUNDUNGEN
  6
Continuous
 62
     7
100
AcDbCircle
 10
150.1384807741
 20
161.8780200695
 30
0.0
 40
0.3000000000000114
100
AcDbArc
 50
90.0
 51
180.0
  0
ARC
  5
1EB
330
1F
100
AcDbEntity
  8
A_RUNDUNGEN
  6
Continuous
 62
     7
100
AcDbCircle
 10
183.5732446955
 20
161.8780200695
 30
0.0
 40
0.3000000000000114
100
AcDbArc
 50
0.0
 51
90.0
  0
ARC
  5
1EC
330
1F
100
AcDbEntity
  8
A_RUNDUNGEN
  6
Continuous
 62
     7
100
AcDbCircle
 10
183.5758395964
 20
161.8780200695
 30
0.0
 40
0.3000000000000114
100
AcDbArc
 50
0.0
 51
82.64721578771142
  0
ARC
  5
1ED
330
1F
100
AcDbEntity
  8
A_RUNDUNGEN
  6
Continuous
 62
     7
100
AcDbCircle
 10
142.513579185
 20
183.2780200695
 30
0.0
 40
0.5
100
AcDbArc
 50
180.0
 51
270.0
  0
ARC
  5
1EE
330
1F
100
AcDbEntity
  8
A_RUNDUNGEN
  6
Continuous
 62
     7
100
AcDbCircle
 10
142.513579185
 20
163.2780200695
 30
0.0
 40
0.5
100
AcDbArc
 50
90.0
 51
180.0
  0
ARC
  5
1EF
330
1F
100
AcDbEntity
  8
A_RUNDUNGEN
  6
Continuous
 62
     7
100
AcDbCircle
 10
158.1099480694
 20
164.2780200695
 30
0.0
 40
0.5
100
AcDbArc
 50
180.0
 51
270.0
  0
ARC
  5
1F0
330
1F
100
AcDbEntity
  8
A_RUNDUNGEN
  6
Continuous
 62
     7
100
AcDbCircle
 10
142.513579185
 20
184.8780200695
 30
0.0
 40
0.5
100
AcDbArc
 50
90.0
 51
180.0
  0
ARC
  5
1F1
330
1F
100
AcDbEntity
  8
0
  6
Continuous
 62
     7
100
AcDbCircle
 10
176.7910964547
 20
162.8780200695
 30
0.0
 40
0.5
100
AcDbArc
 50
0.0
 51
90.0
  0
ARC
  5
1F2
330
1F
100
AcDbEntity
  8
A_RUNDUNGEN
  6
Continuous
 62
     7
100
AcDbCircle
 10
185.3007024627
 20
152.0780200695
 30
0.0
 40
0.5
100
AcDbArc
 50
0.0
 51
90.0
  0
ARC
  5
1F3
330
1F
100
AcDbEntity
  8
A_RUNDUNGEN
  6
Continuous
 62
     7
100
AcDbCircle
 10
154.30070413295
 20
152.0780200695
 30
0.0
 40
0.5
100
AcDbArc
 50
90.0
 51
180.0
  0
ARC
  5
1F4
330
1F
100
AcDbEntity
  8
A_RUNDUNGEN
  6
Continuous
 62
     7
100
AcDbCircle
 10
154.374052921
 20
152.2780200695
 30
0.0
 40
0.4999999999993532
100
AcDbArc
 50
36.99382682469049
 51
90.0
  0
ARC
  5
1F5
330
1F
100
AcDbEntity
  8
A_RUNDUNGEN
  6
Continuous
 62
     7
100
AcDbCircle
 10
156.6099480694
 20
184.3780200695
 30
0.0
 40
1.0
100
AcDbArc
 50
0.0
 51
90.0
  0
ARC
  5
1F6
330
1F
100
AcDbEntity
  8
0
  6
Continuous
 62
     7
100
AcDbCircle
 10
169.800703297775
 20
111.6780200695
 30
0.0
 40
16.00000089122502
100
AcDbArc
 50
270.0000031914643
 51
0.0
  0
ARC
  5
1F7
330
1F
100
AcDbEntity
  8
A_RUNDUNGEN
  6
Continuous
 62
     7
100
AcDbCircle
 10
88.4609972605
 20
162.1780200695
 30
0.0
 40
0.2999999999999829
100
AcDbArc
 50
90.0
 51
180.0
  0
ARC
  5
1F8
330
1F
100
AcDbEntity
  8
A_RUNDUNGEN
  6
Continuous
 62
     7
100
AcDbCircle
 10
88.4609972605
 20
153.1780200695
 30
0.0
 40
0.2999999999999972
100
AcDbArc
 50
180.0
 51
270.0
  0
ARC
  5
1F9
330
1F
100
AcDbEntity
  8
A_RUNDUNGEN
  6
Continuous
 62
     7
100
AcDbCircle
 10
124.26228822275
 20
153.12931103175
 30
0.0
 40
0.2559681973743362
100
AcDbArc
 50
280.9699024304903
 51
10.96990243049085
  0
ARC
  5
1FA
330
1F
100
AcDbEntity
  8
A_RUNDUNGEN
  6
Continuous
 62
     7
100
AcDbCircle
 10
131.513579185
 20
183.2780200695
 30
0.0
 40
0.5
100
AcDbArc
 50
270.0
 51
0.0
  0
ARC
  5
1FB
330
1F
100
AcDbEntity
  8
A_RUNDUNGEN
  6
Continuous
 62
     7
100
AcDbCircle
 10
131.513579185
 20
163.2780200695
 30
0.0
 40
0.5
100
AcDbArc
 50
0.0
 51
90.0
  0
ARC
  5
1FC
330
1F
100
AcDbEntity
  8
A_RUNDUNGEN
  6
Continuous
 62
     7
100
AcDbCircle
 10
131.513579185
 20
184.8780200695
 30
0.0
 40
0.5
100
AcDbArc
 50
0.0
 51
90.0
  0
ARC
  5
1FD
330
1F
100
AcDbEntity
  8
A_RUNDUNGEN
  6
Continuous
 62
     7
100
AcDbCircle
 10
99.0609972605
 20
164.2780200695
 30
0.0
 40
0.5
100
AcDbArc
 50
270.0
 51
0.0
  0
ARC
  5
1FE
330
1F
100
AcDbEntity
  8
0
  6
Continuous
 62
     7
100
AcDbCircle
 10
96.4609972605
 20
163.2780200695
 30
0.0
 40
0.5
100
AcDbArc
 50
90.0
 51
180.0
  0
ARC
  5
1FF
330
1F
100
AcDbEntity
  8
A_RUNDUNGEN
  6
Continuous
 62
     7
100
AcDbCircle
 10
119.6109972605
 20
152.2780200695
 30
0.0
 40
0.5
100
AcDbArc
 50
0.0
 51
90.0
  0
ARC
  5
200
330
1F
100
AcDbEntity
  8
A_RUNDUNGEN
  6
Continuous
 62
     7
100
AcDbCircle
 10
88.660996369275
 20
152.228019178275
 30
0.0
 40
0.5522690191126063
100
AcDbArc
 50
84.80548738186963
 51
174.805487381868
  0
ARC
  5
201
330
1F
100
AcDbEntity
  8
A_RUNDUNGEN
  6
Continuous
 62
     7
100
AcDbCircle
 10
124.1109972605
 20
183.3780200695
 30
0.0
 40
0.5
100
AcDbArc
 50
0.0
 51
90.0
  0
ARC
  5
202
330
1F
100
AcDbEntity
  8
A_RUNDUNGEN
  6
Continuous
 62
     7
100
AcDbCircle
 10
115.0110758357
 20
183.7780200695
 30
0.0
 40
1.0
100
AcDbArc
 50
180.0
 51
227.2969541210935
  0
ARC
  5
203
330
1F
100
AcDbEntity
  8
A_RUNDUNGEN
  6
Continuous
 62
     7
100
AcDbCircle
 10
112.6765032597
 20
163.4780200695
 30
0.0
 40
1.000000000000314
100
AcDbArc
 50
273.6576402324267
 51
0.0
  0
ARC
  5
204
330
1F
100
AcDbEntity
  8
0
  6
Continuous
 62
     7
100
AcDbCircle
 10
104.110996369275
 20
111.8780200695
 30
0.0
 40
16.000000891225
100
AcDbArc
 50
180.0
 51
0.0
  0
ARC
  5
205
330
1F
100
AcDbEntity
  8
A_RUNDUNGEN
  6
Continuous
 62
     7
100
AcDbCircle
 10
-54.6459730771
 20
246.0670508826
 30
0.0
 40
204.5142304847995
100
AcDbArc
 50
0.47934296129995
 51
0.65763277879996
  0
ARC
  5
206
330
1F
100
AcDbEntity
  8
A_RUNDUNGEN
  6
Continuous
 62
     7
100
AcDbCircle
 10
-54.7124104222
 20
185.4896484684
 30
0.0
 40
204.5806710198999
100
AcDbArc
 50
359.3423961723
 51
359.5206280876001
  0
ARC
  5
207
330
1F
100
AcDbEntity
  8
A_NOTIZEN_SYMB
  6
DASHED
 62
     2
100
AcDbCircle
 10
179.3113569021
 20
133.7780200695
 30
0.0
 40
2.600000000000023
100
AcDbArc
 50
359.9999992784916
 51
180.0000005704896
  0
ARC
  5
208
330
1F
100
AcDbEntity
  8
A_NOTIZEN_SYMB
  6
DASHED
 62
     2
100
AcDbCircle
 10
179.3113569021
 20
127.7780200695
 30
0.0
 40
2.599999999999994
100
AcDbArc
 50
179.9999992784919
 51
0.00000057048965
  0
ARC
  5
209
330
1F
100
AcDbEntity
  8
A_NOTIZEN_SYMB
  6
DASHED
 62
     2
100
AcDbCircle
 10
160.311359032
 20
127.7780200695
 30
0.0
 40
2.600000000000023
100
AcDbArc
 50
179.9999992784919
 51
0.00000057048965
  0
ARC
  5
20A
330
1F
100
AcDbEntity
  8
A_NOTIZEN_SYMB
  6
DASHED
 62
     2
100
AcDbCircle
 10
160.311359032
 20
133.7780200695
 30
0.0
 40
2.599999999999994
100
AcDbArc
 50
359.9999992784916
 51
180.0000005704896
  0
ARC
  5
20B
330
1F
100
AcDbEntity
  8
A_NOTIZEN_SYMB
  6
DASHED
 62
     2
100
AcDbCircle
 10
179.3113569021
 20
297.7780200695
 30
0.0
 40
2.599999999999994
100
AcDbArc
 50
179.9999994295097
 51
0.00000072150842
  0
ARC
  5
20C
330
1F
100
AcDbEntity
  8
A_NOTIZEN_SYMB
  6
DASHED
 62
     2
100
AcDbCircle
 10
179.3113569021
 20
303.7780200695
 30
0.0
 40
2.600000000000023
100
AcDbArc
 50
359.9999994294885
 51
180.0000007215071
  0
ARC
  5
20D
330
1F
100
AcDbEntity
  8
A_NOTIZEN_SYMB
  6
DASHED
 62
     2
100
AcDbCircle
 10
160.311359032
 20
303.7780200695
 30
0.0
 40
2.599999999999994
100
AcDbArc
 50
359.9999994294885
 51
180.0000007215071
  0
ARC
  5
20E
330
1F
100
AcDbEntity
  8
A_NOTIZEN_SYMB
  6
DASHED
 62
     2
100
AcDbCircle
 10
160.311359032
 20
297.7780200695
 30
0.0
 40
2.600000000000023
100
AcDbArc
 50
179.9999994295097
 51
0.00000072150842
  0
CIRCLE
  5
20F
330
1F
100
AcDbEntity
  8
1
  6
Continuous
 62
     7
100
AcDbCircle
 10
104.1109972605
 20
114.9780200695
 30
0.0
 40
4.0
  0
CIRCLE
  5
210
330
1F
100
AcDbEntity
  8
1
  6
Continuous
 62
     7
100
AcDbCircle
 10
169.8054392015
 20
114.7780200695
 30
0.0
 40
4.0
  0
CIRCLE
  5
211
330
1F
100
AcDbEntity
  8
1
  6
Continuous
 62
     7
100
AcDbCircle
 10
169.8054392015
 20
316.7780200695
 30
0.0
 40
3.999999999999943
  0
CIRCLE
  5
212
330
1F
100
AcDbEntity
  8
1
  6
Continuous
 62
     7
100
AcDbCircle
 10
104.1109972605
 20
316.5780200694999
 30
0.0
 40
4.0
  0
CIRCLE
  5
213
330
1F
100
AcDbEntity
  8
A_NOTIZEN_SYMB
  6
DASHED
 62
     2
100
AcDbCircle
 10
113.1109972605
 20
110.9780200695
 30
0.0
 40
2.599999999999994
  0
CIRCLE
  5
214
330
1F
100
AcDbEntity
  8
A_NOTIZEN_SYMB
  6
DASHED
 62
     2
100
AcDbCircle
 10
95.1109972605
 20
110.9780200695
 30
0.0
 40
2.599999999999994
  0
CIRCLE
  5
215
330
1F
100
AcDbEntity
  8
A_NOTIZEN_SYMB
  6
DASHED
 62
     2
100
AcDbCircle
 10
113.1109972605
 20
320.5780200695
 30
0.0
 40
2.599999999999994
  0
CIRCLE
  5
216
330
1F
100
AcDbEntity
  8
A_NOTIZEN_SYMB
  6
DASHED
 62
     2
100
AcDbCircle
 10
95.1109972605
 20
320.5780200695
 30
0.0
 40
2.599999999999994
  0
CIRCLE
  5
217
330
1F
100
AcDbEntity
  8
A_NOTIZEN_SYMB
  6
DASHED
 62
     2
100
AcDbCircle
 10
178.8028373008
 20
110.7780200695
 30
0.0
 40
2.599999999999994
  0
CIRCLE
  5
218
330
1F
100
AcDbEntity
  8
A_NOTIZEN_SYMB
  6
DASHED
 62
     2
100
AcDbCircle
 10
160.8028393186
 20
110.7780200695
 30
0.0
 40
2.599999999999994
  0
CIRCLE
  5
219
330
1F
100
AcDbEntity
  8
A_NOTIZEN_SYMB
  6
DASHED
 62
     2
100
AcDbCircle
 10
178.8028373008
 20
320.7780200695
 30
0.0
 40
2.599999999999994
  0
CIRCLE
  5
21A
330
1F
100
AcDbEntity
  8
A_NOTIZEN_SYMB
  6
DASHED
 62
     2
100
AcDbCircle
 10
160.8028393186
 20
320.7780200695
 30
0.0
 40
2.599999999999994
  0
CIRCLE
  5
21B
330
1F
100
AcDbEntity
  8
A_NOTIZEN_SYMB
  6
DASHED
 62
     2
100
AcDbCircle
 10
113.1109972605
 20
110.9780200695
 30
0.0
 40
5.513380571699997
  0
CIRCLE
  5
21C
330
1F
100
AcDbEntity
  8
A_NOTIZEN_SYMB
  6
DASHED
 62
     2
100
AcDbCircle
 10
95.1109972605
 20
110.9780200695
 30
0.0
 40
5.513380571699997
  0
CIRCLE
  5
21D
330
1F
100
AcDbEntity
  8
A_NOTIZEN_SYMB
  6
DASHED
 62
     2
100
AcDbCircle
 10
113.1109972605
 20
320.5780200695
 30
0.0
 40
5.513380571699997
  0
CIRCLE
  5
21E
330
1F
100
AcDbEntity
  8
A_NOTIZEN_SYMB
  6
DASHED
 62
     2
100
AcDbCircle
 10
95.1109972605
 20
320.5780200695
 30
0.0
 40
5.513380571699997
  0
LWPOLYLINE
  5
21F
330
1F
100
AcDbEntity
  8
A_RUNDUNGEN
  6
Continuous
 62
     7
100
AcDbPolyline
 90
        4
 70
     0
 43
0.0
 10
149.8547581936
 20
183.1474513725
 10
149.8523739906
 20
183.0225506306
 10
149.8455331646
 20
182.8590598163
 10
149.8389513489
 20
182.7780200695
  0
LWPOLYLINE
  5
220
330
1F
100
AcDbEntity
  8
A_RUNDUNGEN
  6
Continuous
 62
     7
100
AcDbPolyline
 90
        4
 70
     0
 43
0.0
 10
149.8390396147
 20
248.7780200695
 10
149.8471194619
 20
248.6686035458
 10
149.8534636774
 20
248.4902416898
 10
149.8547939945
 20
248.408546316
  0
LWPOLYLINE
  5
221
330
1F
100
AcDbEntity
  8
A_RUNDUNGEN
  6
Continuous
 62
     7
100
AcDbPolyline
 90
        4
 70
     0
 43
0.0
 10
114.9515990926
 20
182.7780275018
 10
114.8052109148
 20
182.7920430773
 10
114.5633209419
 20
182.8782463477
 10
114.3361764124
 20
183.0401873262
  0
LWPOLYLINE
  5
222
330
1F
100
AcDbEntity
  8
A_RUNDUNGEN
  6
Continuous
 62
     7
100
AcDbPolyline
 90
        4
 70
     0
 43
0.0
 10
114.3362534131
 20
248.5159503731
 10
114.5662224434
 20
248.6793256756
 10
114.8111913222
 20
248.7651296009
 10
114.9516300811
 20
248.7779995508
  0
MTEXT
  5
224
330
1F
100
AcDbEntity
  8
1
 62
     2
100
AcDbMText
 10
81.82678353610967
 20
220.1528850617013
 30
0.0
 40
2.5
 41
0.0
 46
0.0
 71
     5
 72
     1
  1
BBL
  7
CONVERTER_11
 73
     1
 44
1.32052821128451
  0
DIMENSION
  5
22F
330
1F
100
AcDbEntity
  8
1
100
AcDbDimension
280
     0
  2
*D1
 10
204.66043345592
 20
95.678019178275
 30
0.0
 11
200.91043345592
 21
212.747880159078
 31
0.0
 70
    32
  1
240
 71
     5
 42
-1.0
 73
     0
 74
     0
 75
     0
 53
90.0
  3
ME10_DIM_10
100
AcDbAlignedDimension
 13
169.800704189
 23
335.7780200695
 33
0.0
 14
169.800704189
 24
95.678019178275
 34
0.0
 50
90.0
100
AcDbRotatedDimension
  0
DIMENSION
  5
23A
330
1F
100
AcDbEntity
  8
1
100
AcDbDimension
280
     0
  2
*D2
 10
124.513579185
 20
142.224376107599
 30
0.0
 11
135.5089127203841
 21
145.974376107599
 31
0.0
 70
    32
  1
<>
 71
     5
 42
-1.0
 73
     0
 74
     0
 75
     0
 53
0.00013888888889
  3
ME10_DIM_11
100
AcDbAlignedDimension
 13
149.513579185
 23
162.2780200695
 33
0.0
 14
124.513579185
 24
153.1780200695
 34
0.0
100
AcDbRotatedDimension
  0
DIMENSION
  5
246
330
1F
100
AcDbEntity
  8
1
100
AcDbDimension
280
     0
  2
*D3
 10
153.80070418905
 20
85.8814577584755
 30
0.0
 11
168.8369282517729
 21
89.6314577584755
 31
0.0
 70
    32
  1
<>
 71
     5
 42
-1.0
 73
     0
 74
     0
 75
     0
 53
0.00013888888889
  3
ME10_DIM_12
100
AcDbAlignedDimension
 13
185.8007024066
 23
111.6780200695
 33
0.0
 14
153.80070418905
 24
111.6780200695
 34
0.0
100
AcDbRotatedDimension
  0
DIMENSION
  5
251
330
1F
100
AcDbEntity
  8
1
100
AcDbDimension
280
     0
  2
*D4
 10
88.11099547804997
 20
85.8814577584755
 30
0.0
 11
103.270279689525
 21
89.6314577584755
 31
0.0
 70
    32
  1
<>
 71
     5
 42
-1.0
 73
     0
 74
     0
 75
     0
 53
0.00013888888889
  3
ME10_DIM_13
100
AcDbAlignedDimension
 13
120.1109972605
 23
111.8780200695
 33
0.0
 14
88.11099547805
 24
111.8780200695
 34
0.0
100
AcDbRotatedDimension
  0
DIMENSION
  5
25C
330
1F
100
AcDbEntity
  8
1
100
AcDbDimension
280
     0
  2
*D5
 10
120.1109972605
 20
85.8814577584755
 30
0.0
 11
137.286128346962
 21
89.6314577584755
 31
0.0
 70
    32
  1
34
 71
     5
 42
-1.0
 73
     0
 74
     0
 75
     0
 53
0.00013888888889
  3
ME10_DIM_14
100
AcDbAlignedDimension
 13
153.80070418905
 23
111.6780200695
 33
0.0
 14
120.1109972605
 24
111.8780200695
 34
0.0
100
AcDbRotatedDimension
  0
ENDSEC
  0
SECTION
  2
OBJECTS
  0
DICTIONARY
  5
C
330
0
100
AcDbDictionary
281
     1
  3
ACAD_GROUP
350
D
  3
ACAD_LAYOUT
350
1A
  3
ACAD_MATERIAL
350
3B
  3
ACAD_MLEADERSTYLE
350
25E
  3
ACAD_MLINESTYLE
350
17
  3
ACAD_PLOTSETTINGS
350
19
  3
ACAD_PLOTSTYLENAME
350
E
  3
ACAD_TABLESTYLE
350
25D
  3
ACAD_VISUALSTYLE
350
2A
  0
DICTIONARY
  5
D
102
{ACAD_REACTORS
330
C
102
}
330
C
100
AcDbDictionary
281
     1
  0
DICTIONARY
  5
1A
102
{ACAD_REACTORS
330
C
102
}
330
C
100
AcDbDictionary
281
     1
  3
Layout1
350
1E
  3
Layout2
350
26
  3
Model
350
22
  0
DICTIONARY
  5
3B
102
{ACAD_REACTORS
330
C
102
}
330
C
100
AcDbDictionary
281
     1
  3
ByBlock
350
3D
  3
ByLayer
350
3C
  3
Global
350
3E
  0
DICTIONARY
  5
25E
102
{ACAD_REACTORS
330
C
102
}
330
C
100
AcDbDictionary
281
     1
  0
DICTIONARY
  5
17
102
{ACAD_REACTORS
330
C
102
}
330
C
100
AcDbDictionary
281
     1
  3
Standard
350
18
  0
DICTIONARY
  5
19
102
{ACAD_REACTORS
330
C
102
}
330
C
100
AcDbDictionary
281
     1
  0
ACDBDICTIONARYWDFLT
  5
E
102
{ACAD_REACTORS
330
C
102
}
330
C
100
AcDbDictionary
281
     1
  3
Normal
350
F
100
AcDbDictionaryWithDefault
340
F
  0
DICTIONARY
  5
25D
102
{ACAD_REACTORS
330
C
102
}
330
C
100
AcDbDictionary
281
     1
  0
DICTIONARY
  5
2A
102
{ACAD_REACTORS
330
C
102
}
330
C
100
AcDbDictionary
281
     1
  3
2dWireframe
350
2F
  3
3D Hidden
350
31
  3
3dWireframe
350
30
  3
Basic
350
32
  3
Brighten
350
36
  3
ColorChange
350
3A
  3
Conceptual
350
34
  3
Dim
350
35
  3
Facepattern
350
39
  3
Flat
350
2B
  3
FlatWithEdges
350
2C
  3
Gouraud
350
2D
  3
GouraudWithEdges
350
2E
  3
Linepattern
350
38
  3
Realistic
350
33
  3
Thicken
350
37
  0
LAYOUT
  5
1E
102
{ACAD_REACTORS
330
1A
102
}
330
1A
100
AcDbPlotSettings
  1

  2
none_device
  4

  6

 40
0.0
 41
0.0
 42
0.0
 43
0.0
 44
0.0
 45
0.0
 46
0.0
 47
0.0
 48
0.0
 49
0.0
140
0.0
141
0.0
142
1.0
143
1.0
 70
   688
 72
     0
 73
     0
 74
     5
  7

 75
    16
 76
     0
 77
     2
 78
   300
147
1.0
148
0.0
149
0.0
100
AcDbLayout
  1
Layout1
 70
     1
 71
     1
 10
0.0
 20
0.0
 11
12.0
 21
9.0
 12
0.0
 22
0.0
 32
0.0
 14
1.00000000000000E+20
 24
1.00000000000000E+20
 34
1.00000000000000E+20
 15
-1.00000000000000E+20
 25
-1.00000000000000E+20
 35
-1.00000000000000E+20
146
0.0
 13
0.0
 23
0.0
 33
0.0
 16
1.0
 26
0.0
 36
0.0
 17
0.0
 27
1.0
 37
0.0
 76
     0
330
1B
  0
LAYOUT
  5
26
102
{ACAD_REACTORS
330
1A
102
}
330
1A
100
AcDbPlotSettings
  1

  2
none_device
  4

  6

 40
0.0
 41
0.0
 42
0.0
 43
0.0
 44
0.0
 45
0.0
 46
0.0
 47
0.0
 48
0.0
 49
0.0
140
0.0
141
0.0
142
1.0
143
1.0
 70
   688
 72
     0
 73
     0
 74
     5
  7

 75
    16
 76
     0
 77
     2
 78
   300
147
1.0
148
0.0
149
0.0
100
AcDbLayout
  1
Layout2
 70
     1
 71
     2
 10
0.0
 20
0.0
 11
0.0
 21
0.0
 12
0.0
 22
0.0
 32
0.0
 14
0.0
 24
0.0
 34
0.0
 15
0.0
 25
0.0
 35
0.0
146
0.0
 13
0.0
 23
0.0
 33
0.0
 16
1.0
 26
0.0
 36
0.0
 17
0.0
 27
1.0
 37
0.0
 76
     0
330
23
  0
LAYOUT
  5
22
102
{ACAD_REACTORS
330
1A
102
}
330
1A
100
AcDbPlotSettings
  1

  2
none_device
  4

  6

 40
0.0
 41
0.0
 42
0.0
 43
0.0
 44
0.0
 45
0.0
 46
0.0
 47
0.0
 48
0.0
 49
0.0
140
0.0
141
0.0
142
1.0
143
1.0
 70
  1712
 72
     0
 73
     0
 74
     0
  7

 75
     0
 76
     0
 77
     2
 78
   300
147
1.0
148
0.0
149
0.0
100
AcDbLayout
  1
Model
 70
     1
 71
     0
 10
0.0
 20
0.0
 11
12.0
 21
9.0
 12
0.0
 22
0.0
 32
0.0
 14
77.618430900268
 24
83.8814577584755
 34
0.0
 15
206.66043345592
 25
335.7780200695
 35
0.0
146
0.0
 13
0.0
 23
0.0
 33
0.0
 16
1.0
 26
0.0
 36
0.0
 17
0.0
 27
1.0
 37
0.0
 76
     0
330
1F
331
29
  0
MATERIAL
  5
3D
102
{ACAD_REACTORS
330
3B
102
}
330
3B
100
AcDbMaterial
  1
ByBlock
 72
     1
 94
      127
  0
MATERIAL
  5
3C
102
{ACAD_REACTORS
330
3B
102
}
330
3B
100
AcDbMaterial
  1
ByLayer
 72
     1
 94
      127
  0
MATERIAL
  5
3E
102
{ACAD_REACTORS
330
3B
102
}
330
3B
100
AcDbMaterial
  1
Global
 72
     1
 94
      127
  0
MLINESTYLE
  5
18
102
{ACAD_REACTORS
330
17
102
}
330
17
100
AcDbMlineStyle
  2
Standard
 70
     0
  3

 62
   256
 51
90.0
 52
90.0
 71
     2
 49
0.5
 62
   256
  6
BYLAYER
 49
-0.5
 62
   256
  6
BYLAYER
  0
ACDBPLACEHOLDER
  5
F
102
{ACAD_REACTORS
330
E
102
}
330
E
  0
VISUALSTYLE
  5
2F
102
{ACAD_REACTORS
330
2A
102
}
330
2A
100
AcDbVisualStyle
  2
2dWireframe
 70
     4
177
     2
291
     0
 71
     0
176
     1
 72
     2
176
     1
 73
     0
176
     1
 90
        0
176
     1
 40
-0.6
176
     1
 41
-30.0
176
     1
 62
     5
 63
     7
421
 16777215
176
     1
 74
     1
176
     1
 91
        4
176
     1
 64
     7
176
     1
 65
   257
176
     1
 75
     1
176
     1
175
     1
176
     1
 42
1.0
176
     1
 92
        0
176
     1
 66
   257
176
     1
 43
1.0
176
     1
 76
     1
176
     1
 77
     6
176
     1
 78
     2
176
     1
 67
     7
176
     1
 79
     5
176
     1
170
     0
176
     1
171
     0
176
     1
290
     0
176
     1
 93
        1
176
     1
 44
0.0
176
     1
173
     0
176
     1
  0
VISUALSTYLE
  5
31
102
{ACAD_REACTORS
330
2A
102
}
330
2A
100
AcDbVisualStyle
  2
3D Hidden
 70
     6
177
     2
291
     0
 71
     1
176
     1
 72
     2
176
     1
 73
     2
176
     1
 90
        0
176
     1
 40
-0.6
176
     1
 41
-30.0
176
     1
 62
     5
 63
     7
421
 16777215
176
     1
 74
     2
176
     1
 91
        2
176
     1
 64
     7
176
     1
 65
   257
176
     1
 75
     2
176
     1
175
     1
176
     1
 42
40.0
176
     1
 92
        0
176
     1
 66
   257
176
     1
 43
1.0
176
     1
 76
     1
176
     1
 77
     6
176
     1
 78
     2
176
     1
 67
     7
176
     1
 79
     3
176
     1
170
     0
176
     1
171
     0
176
     1
290
     0
176
     1
 93
        1
176
     1
 44
0.0
176
     1
173
     0
176
     1
  0
VISUALSTYLE
  5
30
102
{ACAD_REACTORS
330
2A
102
}
330
2A
100
AcDbVisualStyle
  2
3dWireframe
 70
     5
177
     2
291
     0
 71
     0
176
     1
 72
     2
176
     1
 73
     0
176
     1
 90
        0
176
     1
 40
-0.6
176
     1
 41
-30.0
176
     1
 62
     5
 63
     7
421
 16777215
176
     1
 74
     1
176
     1
 91
        4
176
     1
 64
     7
176
     1
 65
   257
176
     1
 75
     1
176
     1
175
     1
176
     1
 42
1.0
176
     1
 92
        0
176
     1
 66
   257
176
     1
 43
1.0
176
     1
 76
     1
176
     1
 77
     6
176
     1
 78
     2
176
     1
 67
     7
176
     1
 79
     5
176
     1
170
     0
176
     1
171
     0
176
     1
290
     0
176
     1
 93
        1
176
     1
 44
0.0
176
     1
173
     0
176
     1
  0
VISUALSTYLE
  5
32
102
{ACAD_REACTORS
330
2A
102
}
330
2A
100
AcDbVisualStyle
  2
Basic
 70
     7
177
     2
291
     1
 71
     1
176
     1
 72
     0
176
     1
 73
     1
176
     1
 90
        0
176
     1
 40
-0.6
176
     1
 41
-30.0
176
     1
 62
     5
 63
     7
421
 16777215
176
     1
 74
     0
176
     1
 91
        4
176
     1
 64
     7
176
     1
 65
   257
176
     1
 75
     1
176
     1
175
     1
176
     1
 42
1.0
176
     1
 92
        8
176
     1
 66
     7
176
     1
 43
1.0
176
     1
 76
     1
176
     1
 77
     6
176
     1
 78
     2
176
     1
 67
     7
176
     1
 79
     5
176
     1
170
     0
176
     1
171
     0
176
     1
290
     0
176
     1
 93
        1
176
     1
 44
0.0
176
     1
173
     0
176
     1
  0
VISUALSTYLE
  5
36
102
{ACAD_REACTORS
330
2A
102
}
330
2A
100
AcDbVisualStyle
  2
Brighten
 70
    12
177
     2
291
     1
 71
     2
176
     1
 72
     2
176
     1
 73
     0
176
     1
 90
        0
176
     1
 40
-0.6
176
     1
 41
-30.0
176
     1
 62
     5
 63
     7
421
 16777215
176
     1
 74
     1
176
     1
 91
        4
176
     1
 64
     7
176
     1
 65
   257
176
     1
 75
     1
176
     1
175
     1
176
     1
 42
1.0
176
     1
 92
        8
176
     1
 66
     7
176
     1
 43
1.0
176
     1
 76
     1
176
     1
 77
     6
176
     1
 78
     2
176
     1
 67
     7
176
     1
 79
     5
176
     1
170
     0
176
     1
171
     0
176
     1
290
     0
176
     1
 93
        1
176
     1
 44
50.0
176
     1
173
     0
176
     1
  0
VISUALSTYLE
  5
3A
102
{ACAD_REACTORS
330
2A
102
}
330
2A
100
AcDbVisualStyle
  2
ColorChange
 70
    16
177
     2
291
     1
 71
     2
176
     1
 72
     2
176
     1
 73
     3
176
     1
 90
        0
176
     1
 40
-0.6
176
     1
 41
-30.0
176
     1
 62
     5
 63
     8
421
  8421504
176
     1
 74
     1
176
     1
 91
        4
176
     1
 64
     7
176
     1
 65
   257
176
     1
 75
     1
176
     1
175
     1
176
     1
 42
1.0
176
     1
 92
        8
176
     1
 66
     8
424
  8421504
176
     1
 43
1.0
176
     1
 76
     1
176
     1
 77
     6
176
     1
 78
     2
176
     1
 67
     7
176
     1
 79
     5
176
     1
170
     0
176
     1
171
     0
176
     1
290
     0
176
     1
 93
        1
176
     1
 44
0.0
176
     1
173
     0
176
     1
  0
VISUALSTYLE
  5
34
102
{ACAD_REACTORS
330
2A
102
}
330
2A
100
AcDbVisualStyle
  2
Conceptual
 70
     9
177
     2
291
     0
 71
     3
176
     1
 72
     2
176
     1
 73
     0
176
     1
 90
        0
176
     1
 40
-0.6
176
     1
 41
-30.0
176
     1
 62
     5
 63
     7
421
 16777215
176
     1
 74
     2
176
     1
 91
        2
176
     1
 64
     7
176
     1
 65
   257
176
     1
 75
     1
176
     1
175
     1
176
     1
 42
40.0
176
     1
 92
        8
176
     1
 66
     7
176
     1
 43
1.0
176
     1
 76
     1
176
     1
 77
     6
176
     1
 78
     2
176
     1
 67
     7
176
     1
 79
     3
176
     1
170
     0
176
     1
171
     0
176
     1
290
     0
176
     1
 93
        1
176
     1
 44
0.0
176
     1
173
     0
176
     1
  0
VISUALSTYLE
  5
35
102
{ACAD_REACTORS
330
2A
102
}
330
2A
100
AcDbVisualStyle
  2
Dim
 70
    11
177
     2
291
     1
 71
     2
176
     1
 72
     2
176
     1
 73
     0
176
     1
 90
        0
176
     1
 40
-0.6
176
     1
 41
-30.0
176
     1
 62
     5
 63
     7
421
 16777215
176
     1
 74
     1
176
     1
 91
        4
176
     1
 64
     7
176
     1
 65
   257
176
     1
 75
     1
176
     1
175
     1
176
     1
 42
1.0
176
     1
 92
        8
176
     1
 66
     7
176
     1
 43
1.0
176
     1
 76
     1
176
     1
 77
     6
176
     1
 78
     2
176
     1
 67
     7
176
     1
 79
     5
176
     1
170
     0
176
     1
171
     0
176
     1
290
     0
176
     1
 93
        1
176
     1
 44
-50.0
176
     1
173
     0
176
     1
  0
VISUALSTYLE
  5
39
102
{ACAD_REACTORS
330
2A
102
}
330
2A
100
AcDbVisualStyle
  2
Facepattern
 70
    15
177
     2
291
     1
 71
     2
176
     1
 72
     2
176
     1
 73
     0
176
     1
 90
        0
176
     1
 40
-0.6
176
     1
 41
-30.0
176
     1
 62
     5
 63
     7
421
 16777215
176
     1
 74
     1
176
     1
 91
        4
176
     1
 64
     7
176
     1
 65
   257
176
     1
 75
     1
176
     1
175
     1
176
     1
 42
1.0
176
     1
 92
        8
176
     1
 66
     7
176
     1
 43
1.0
176
     1
 76
     1
176
     1
 77
     6
176
     1
 78
     2
176
     1
 67
     7
176
     1
 79
     5
176
     1
170
     0
176
     1
171
     0
176
     1
290
     0
176
     1
 93
        1
176
     1
 44
0.0
176
     1
173
     0
176
     1
  0
VISUALSTYLE
  5
2B
102
{ACAD_REACTORS
330
2A
102
}
330
2A
100
AcDbVisualStyle
  2
Flat
 70
     0
177
     2
291
     1
 71
     2
176
     1
 72
     1
176
     1
 73
     1
176
     1
 90
        2
176
     1
 40
-0.6
176
     1
 41
30.0
176
     1
 62
     5
 63
     7
421
 16777215
176
     1
 74
     0
176
     1
 91
        4
176
     1
 64
     7
176
     1
 65
   257
176
     1
 75
     1
176
     1
175
     1
176
     1
 42
1.0
176
     1
 92
        8
176
     1
 66
     7
176
     1
 43
1.0
176
     1
 76
     1
176
     1
 77
     6
176
     1
 78
     2
176
     1
 67
     7
176
     1
 79
     5
176
     1
170
     0
176
     1
171
     0
176
     1
290
     0
176
     1
 93
       13
176
     1
 44
0.0
176
     1
173
     0
176
     1
  0
VISUALSTYLE
  5
2C
102
{ACAD_REACTORS
330
2A
102
}
330
2A
100
AcDbVisualStyle
  2
FlatWithEdges
 70
     1
177
     2
291
     1
 71
     2
176
     1
 72
     1
176
     1
 73
     1
176
     1
 90
        2
176
     1
 40
-0.6
176
     1
 41
30.0
176
     1
 62
     5
 63
     7
421
 16777215
176
     1
 74
     1
176
     1
 91
        4
176
     1
 64
     7
176
     1
 65
   257
176
     1
 75
     1
176
     1
175
     1
176
     1
 42
1.0
176
     1
 92
        0
176
     1
 66
   257
176
     1
 43
1.0
176
     1
 76
     1
176
     1
 77
     6
176
     1
 78
     2
176
     1
 67
     7
176
     1
 79
     5
176
     1
170
     0
176
     1
171
     0
176
     1
290
     0
176
     1
 93
       13
176
     1
 44
0.0
176
     1
173
     0
176
     1
  0
VISUALSTYLE
  5
2D
102
{ACAD_REACTORS
330
2A
102
}
330
2A
100
AcDbVisualStyle
  2
Gouraud
 70
     2
177
     2
291
     1
 71
     2
176
     1
 72
     2
176
     1
 73
     1
176
     1
 90
        2
176
     1
 40
-0.6
176
     1
 41
30.0
176
     1
 62
     5
 63
     7
421
 16777215
176
     1
 74
     0
176
     1
 91
        4
176
     1
 64
     7
176
     1
 65
   257
176
     1
 75
     1
176
     1
175
     1
176
     1
 42
1.0
176
     1
 92
        0
176
     1
 66
     7
176
     1
 43
1.0
176
     1
 76
     1
176
     1
 77
     6
176
     1
 78
     2
176
     1
 67
     7
176
     1
 79
     5
176
     1
170
     0
176
     1
171
     0
176
     1
290
     0
176
     1
 93
       13
176
     1
 44
0.0
176
     1
173
     0
176
     1
  0
VISUALSTYLE
  5
2E
102
{ACAD_REACTORS
330
2A
102
}
330
2A
100
AcDbVisualStyle
  2
GouraudWithEdges
 70
     3
177
     2
291
     1
 71
     2
176
     1
 72
     2
176
     1
 73
     1
176
     1
 90
        2
176
     1
 40
-0.6
176
     1
 41
30.0
176
     1
 62
     5
 63
     7
421
 16777215
176
     1
 74
     1
176
     1
 91
        4
176
     1
 64
     7
176
     1
 65
   257
176
     1
 75
     1
176
     1
175
     1
176
     1
 42
1.0
176
     1
 92
        0
176
     1
 66
   257
176
     1
 43
1.0
176
     1
 76
     1
176
     1
 77
     6
176
     1
 78
     2
176
     1
 67
     7
176
     1
 79
     5
176
     1
170
     0
176
     1
171
     0
176
     1
290
     0
176
     1
 93
       13
176
     1
 44
0.0
176
     1
173
     0
176
     1
  0
VISUALSTYLE
  5
38
102
{ACAD_REACTORS
330
2A
102
}
330
2A
100
AcDbVisualStyle
  2
Linepattern
 70
    14
177
     2
291
     1
 71
     2
176
     1
 72
     2
176
     1
 73
     0
176
     1
 90
        0
176
     1
 40
-0.6
176
     1
 41
-30.0
176
     1
 62
     5
 63
     7
421
 16777215
176
     1
 74
     1
176
     1
 91
        4
176
     1
 64
     7
176
     1
 65
   257
176
     1
 75
     7
176
     1
175
     7
176
     1
 42
1.0
176
     1
 92
        8
176
     1
 66
     7
176
     1
 43
1.0
176
     1
 76
     1
176
     1
 77
     6
176
     1
 78
     2
176
     1
 67
     7
176
     1
 79
     5
176
     1
170
     0
176
     1
171
     0
176
     1
290
     0
176
     1
 93
        1
176
     1
 44
0.0
176
     1
173
     0
176
     1
  0
VISUALSTYLE
  5
33
102
{ACAD_REACTORS
330
2A
102
}
330
2A
100
AcDbVisualStyle
  2
Realistic
 70
     8
177
     2
291
     0
 71
     2
176
     1
 72
     2
176
     1
 73
     0
176
     1
 90
        0
176
     1
 40
-0.6
176
     1
 41
-30.0
176
     1
 62
     5
 63
     7
421
 16777215
176
     1
 74
     1
176
     1
 91
        0
176
     1
 64
     7
176
     1
 65
   257
176
     1
 75
     1
176
     1
175
     1
176
     1
 42
1.0
176
     1
 92
        8
176
     1
 66
     8
424
  7895160
176
     1
 43
1.0
176
     1
 76
     1
176
     1
 77
     6
176
     1
 78
     2
176
     1
 67
     7
176
     1
 79
     5
176
     1
170
     0
176
     1
171
     0
176
     1
290
     0
176
     1
 93
       13
176
     1
 44
0.0
176
     1
173
     0
176
     1
  0
VISUALSTYLE
  5
37
102
{ACAD_REACTORS
330
2A
102
}
330
2A
100
AcDbVisualStyle
  2
Thicken
 70
    13
177
     2
291
     1
 71
     2
176
     1
 72
     2
176
     1
 73
     0
176
     1
 90
        0
176
     1
 40
-0.6
176
     1
 41
-30.0
176
     1
 62
     5
 63
     7
421
 16777215
176
     1
 74
     1
176
     1
 91
        4
176
     1
 64
     7
176
     1
 65
   257
176
     1
 75
     1
176
     1
175
     1
176
     1
 42
1.0
176
     1
 92
       12
176
     1
 66
     7
176
     1
 43
1.0
176
     1
 76
     1
176
     1
 77
     6
176
     1
 78
     2
176
     1
 67
     7
176
     1
 79
     5
176
     1
170
     0
176
     1
171
     0
176
     1
290
     0
176
     1
 93
        1
176
     1
 44
0.0
176
     1
173
     0
176
     1
  0
ENDSEC
  0
EOF
