999
DXF file: d:\tmp\workingDir\0000046758\te_680_3d_fd_q03_01.dxf
999
Pro/ENGINEER 2016130 by Parametric Technology Corporation
  0
SECTION
  2
HEADER
  9
$ACADVER
  1
AC1014
  9
$DWGCODEPAGE
  3
ANSI_1252
  9
$EXTMAX
 10
199.898
 20
200.0
 30
0.0
  9
$EXTMIN
 10
0.0
 20
0.0
 30
0.0
  9
$LIMMIN
 10
0.0
 20
0.0
  9
$LIMMAX
 10
199.898
 20
200.0
  9
$VIEWCTR
 10
99.949
 20
100.0
  9
$VIEWSIZE
 40
200.0
  9
$CLAYER
  8
0
  9
$LTSCALE
 40
13.037037037
  9
$CELTYPE
  6
BYLAYER
  9
$DIMSCALE
 40
1.0
  9
$DIMASZ
 40
3.5
  9
$DIMEXO
 40
0.0
  9
$DIMDLI
 40
9.0074074074
  9
$DIMEXE
 40
2.0
  9
$DIMCEN
 40
2.1333333333
  9
$DIMLFAC
 40
1.0
  9
$DIMBLK
  1
_ARROW_FILLED
  9
$DIMALT
 70
0
  9
$DIMALTF
 40
0.0393700787
  9
$DIMTXT
 40
3.5
  9
$DIMTOL
 70
1
  9
$DIMLIM
 70
0
  9
$DIMTFAC
 40
1.0
  9
$DIMTP
 40
0.01
  9
$DIMTM
 40
0.01
  9
$DIMGAP
 40
0.625
  9
$AUNITS
 70
0
  9
$PDMODE
 70
0
  9
$PDSIZE
 40
0.04
  9
$HANDSEED
  5
44C
  9
$TILEMODE
 70
1
  9
$MEASUREMENT
 70
1
  0
ENDSEC
  0
SECTION
  2
CLASSES
  0
ENDSEC
  0
SECTION
  2
TABLES
  0
TABLE
  2
VPORT
  5
8
100
AcDbSymbolTable
 70
2
  0
VPORT
  5
1F4
100
AcDbSymbolTableRecord
100
AcDbViewportTableRecord
  2
*ACTIVE
 70
0
 10
0.0
 20
0.0
 11
1.0
 21
1.0
 12
99.949
 22
100.0
 13
0.0
 23
0.0
 14
1.0
 24
1.0
 15
0.0
 25
0.0
 16
0.0
 26
0.0
 36
1.0
 17
0.0
 27
0.0
 37
0.0
 40
200.0
 41
0.99949
 42
50.0
 43
0.0
 44
0.0
 50
0.0
 51
0.0
 71
0
 72
100
 73
1
 74
1
 75
0
 76
0
 77
0
 78
0
  0
ENDTAB
  0
TABLE
  2
LTYPE
  5
5
100
AcDbSymbolTable
 70
6
  0
LTYPE
  5
14
100
AcDbSymbolTableRecord
100
AcDbLinetypeTableRecord
  2
BYBLOCK
 70
0
  3

 72
65
 73
0
 40
0.0
  0
LTYPE
  5
15
100
AcDbSymbolTableRecord
100
AcDbLinetypeTableRecord
  2
BYLAYER
 70
0
  3

 72
65
 73
0
 40
0.0
  0
LTYPE
  5
16
100
AcDbSymbolTableRecord
100
AcDbLinetypeTableRecord
  2
CONTINUOUS
 70
64
  3
Solid line
 72
65
 73
0
 40
0.0
  0
LTYPE
  5
1F5
100
AcDbSymbolTableRecord
100
AcDbLinetypeTableRecord
  2
CENTER
 70
64
  3
____ _ ____ _ ____ _ ____ _ ____ _ ____ _ ____
 72
65
 73
4
 40
0.6
 49
0.375
 74
0
 49
-0.075
 74
0
 49
0.075
 74
0
 49
-0.075
 74
0
  0
LTYPE
  5
1F6
100
AcDbSymbolTableRecord
100
AcDbLinetypeTableRecord
  2
HIDDEN
 70
64
  3
- - - - - - - - - - - - - - - - - - - -
 72
65
 73
2
 40
0.2
 49
0.1
 74
0
 49
-0.1
 74
0
  0
LTYPE
  5
1F7
100
AcDbSymbolTableRecord
100
AcDbLinetypeTableRecord
  2
PHANTOM
 70
64
  3
_____ _ _ _____ _ _ _____ _ _ _____
 72
65
 73
6
 40
0.8
 49
0.45
 74
0
 49
-0.05
 74
0
 49
0.1
 74
0
 49
-0.05
 74
0
 49
0.1
 74
0
 49
-0.05
 74
0
  0
LTYPE
  5
1F8
100
AcDbSymbolTableRecord
100
AcDbLinetypeTableRecord
  2
DOT
 70
64
  3
. . . . . . . . . . . . . . . . . . . .
 72
65
 73
2
 40
0.2
 49
0.1
 74
0
 49
-0.1
 74
0
  0
LTYPE
  5
1F9
100
AcDbSymbolTableRecord
100
AcDbLinetypeTableRecord
  2
DASHED
 70
64
  3
- - - - - - - - - - - - - - - - - - - -
 72
65
 73
2
 40
0.2
 49
0.1
 74
0
 49
-0.1
 74
0
  0
ENDTAB
  0
TABLE
  2
LAYER
  5
2
100
AcDbSymbolTable
 70
36
  0
LAYER
  5
10
100
AcDbSymbolTableRecord
100
AcDbLayerTableRecord
  2
0
 70
0
 62
7
  6
CONTINUOUS
  0
LAYER
  5
1FA
100
AcDbSymbolTableRecord
100
AcDbLayerTableRecord
  2
DEFAULT_1
 70
0
 62
7
  6
CENTER
  0
LAYER
  5
1FB
100
AcDbSymbolTableRecord
100
AcDbLayerTableRecord
  2
DEFAULT_2
 70
0
 62
8
  6
HIDDEN
  0
LAYER
  5
1FC
100
AcDbSymbolTableRecord
100
AcDbLayerTableRecord
  2
DEFAULT_3
 70
0
 62
7
  6
PHANTOM
  0
LAYER
  5
1FD
100
AcDbSymbolTableRecord
100
AcDbLayerTableRecord
  2
A_ACHSEN
 70
0
 62
7
  6
CONTINUOUS
  0
LAYER
  5
1FE
100
AcDbSymbolTableRecord
100
AcDbLayerTableRecord
  2
A_BASISEBENEN
 70
0
 62
7
  6
CONTINUOUS
  0
LAYER
  5
1FF
100
AcDbSymbolTableRecord
100
AcDbLayerTableRecord
  2
A_BEMASSUNGEN
 70
0
 62
7
  6
CONTINUOUS
  0
LAYER
  5
200
100
AcDbSymbolTableRecord
100
AcDbLayerTableRecord
  2
A_BOHRUNGEN
 70
0
 62
7
  6
CONTINUOUS
  0
LAYER
  5
201
100
AcDbSymbolTableRecord
100
AcDbLayerTableRecord
  2
A_EBENEN
 70
0
 62
7
  6
CONTINUOUS
  0
LAYER
  5
202
100
AcDbSymbolTableRecord
100
AcDbLayerTableRecord
  2
A_FASEN
 70
0
 62
7
  6
CONTINUOUS
  0
LAYER
  5
203
100
AcDbSymbolTableRecord
100
AcDbLayerTableRecord
  2
A_FLAECHEN
 70
0
 62
7
  6
CONTINUOUS
  0
LAYER
  5
204
100
AcDbSymbolTableRecord
100
AcDbLayerTableRecord
  2
A_FL_VERBAENDE
 70
0
 62
7
  6
CONTINUOUS
  0
LAYER
  5
205
100
AcDbSymbolTableRecord
100
AcDbLayerTableRecord
  2
A_KURVEN
 70
0
 62
7
  6
CONTINUOUS
  0
LAYER
  5
206
100
AcDbSymbolTableRecord
100
AcDbLayerTableRecord
  2
A_NOTIZEN_SYMB
 70
0
 62
7
  6
CONTINUOUS
  0
LAYER
  5
207
100
AcDbSymbolTableRecord
100
AcDbLayerTableRecord
  2
A_PUNKTE
 70
0
 62
7
  6
CONTINUOUS
  0
LAYER
  5
208
100
AcDbSymbolTableRecord
100
AcDbLayerTableRecord
  2
A_RUNDUNGEN
 70
0
 62
7
  6
CONTINUOUS
  0
LAYER
  5
209
100
AcDbSymbolTableRecord
100
AcDbLayerTableRecord
  2
BASISEBENEN
 70
0
 62
7
  6
CONTINUOUS
  0
LAYER
  5
20A
100
AcDbSymbolTableRecord
100
AcDbLayerTableRecord
  2
GRUNDEBENE
 70
0
 62
7
  6
CONTINUOUS
  0
LAYER
  5
20B
100
AcDbSymbolTableRecord
100
AcDbLayerTableRecord
  2
IMPORT_KE
 70
0
 62
7
  6
CONTINUOUS
  0
LAYER
  5
20C
100
AcDbSymbolTableRecord
100
AcDbLayerTableRecord
  2
INTFCLR_3
 70
0
 62
7
  6
CONTINUOUS
  0
LAYER
  5
20D
100
AcDbSymbolTableRecord
100
AcDbLayerTableRecord
  2
INTF_1
 70
0
 62
7
  6
CONTINUOUS
  0
LAYER
  5
20E
100
AcDbSymbolTableRecord
100
AcDbLayerTableRecord
  2
INTF_2
 70
0
 62
7
  6
CONTINUOUS
  0
LAYER
  5
20F
100
AcDbSymbolTableRecord
100
AcDbLayerTableRecord
  2
INTF_3
 70
0
 62
7
  6
CONTINUOUS
  0
LAYER
  5
210
100
AcDbSymbolTableRecord
100
AcDbLayerTableRecord
  2
INTF_4
 70
0
 62
7
  6
CONTINUOUS
  0
LAYER
  5
211
100
AcDbSymbolTableRecord
100
AcDbLayerTableRecord
  2
INTF_MAGENTA
 70
0
 62
7
  6
CONTINUOUS
  0
LAYER
  5
212
100
AcDbSymbolTableRecord
100
AcDbLayerTableRecord
  2
INTF_YELLOW
 70
0
 62
7
  6
CONTINUOUS
  0
LAYER
  5
213
100
AcDbSymbolTableRecord
100
AcDbLayerTableRecord
  2
PROFIL
 70
0
 62
7
  6
CONTINUOUS
  0
LAYER
  5
214
100
AcDbSymbolTableRecord
100
AcDbLayerTableRecord
  2
QUER1
 70
0
 62
7
  6
CONTINUOUS
  0
LAYER
  5
215
100
AcDbSymbolTableRecord
100
AcDbLayerTableRecord
  2
QUER2
 70
0
 62
7
  6
CONTINUOUS
  0
LAYER
  5
216
100
AcDbSymbolTableRecord
100
AcDbLayerTableRecord
  2
QUER3
 70
0
 62
7
  6
CONTINUOUS
  0
LAYER
  5
217
100
AcDbSymbolTableRecord
100
AcDbLayerTableRecord
  2
SCHRAFFUR
 70
0
 62
7
  6
CONTINUOUS
  0
ENDTAB
  0
TABLE
  2
STYLE
  5
3
100
AcDbSymbolTable
 70
1
  0
STYLE
  5
11
100
AcDbSymbolTableRecord
100
AcDbTextStyleTableRecord
  2
STANDARD
 70
0
 40
0.0
 41
1.0
 50
0.0
 71
0
 42
0.2
  3
txt
  4

  0
STYLE
  5
218
100
AcDbSymbolTableRecord
100
AcDbTextStyleTableRecord
  2
TEXTSTYLE_1
 70
0
 40
0.0
 41
0.8
 50
0.0
 71
0
 42
0.2
  3
gdt
  4

  0
STYLE
  5
219
100
AcDbSymbolTableRecord
100
AcDbTextStyleTableRecord
  2
TEXTSTYLE_2
 70
0
 40
0.0
 41
1.0
 50
0.0
 71
0
 42
0.2
  3
txt
  4

  0
ENDTAB
  0
TABLE
  2
VIEW
  5
6
100
AcDbSymbolTable
 70
0
  0
ENDTAB
  0
TABLE
  2
UCS
  5
7
100
AcDbSymbolTable
 70
0
  0
ENDTAB
  0
TABLE
  2
APPID
  5
9
100
AcDbSymbolTable
 70
1
  0
APPID
  5
21A
100
AcDbSymbolTableRecord
100
AcDbRegAppTableRecord
  2
ACAD
 70
0
  0
ENDTAB
  0
TABLE
  2
BLOCK_RECORD
  5
1
100
AcDbSymbolTable
 70
0
  0
BLOCK_RECORD
  5
1F
100
AcDbSymbolTableRecord
100
AcDbBlockTableRecord
  2
*MODEL_SPACE
  0
BLOCK_RECORD
  5
1B
100
AcDbSymbolTableRecord
100
AcDbBlockTableRecord
  2
*PAPER_SPACE
  0
BLOCK_RECORD
  5
21B
100
AcDbSymbolTableRecord
100
AcDbBlockTableRecord
  2
_ARROW_FILLED
  0
BLOCK_RECORD
  5
21C
100
AcDbSymbolTableRecord
100
AcDbBlockTableRecord
  2
*D0
  0
BLOCK_RECORD
  5
21D
100
AcDbSymbolTableRecord
100
AcDbBlockTableRecord
  2
*D1
  0
BLOCK_RECORD
  5
21E
100
AcDbSymbolTableRecord
100
AcDbBlockTableRecord
  2
*D2
  0
BLOCK_RECORD
  5
21F
100
AcDbSymbolTableRecord
100
AcDbBlockTableRecord
  2
*D3
  0
BLOCK_RECORD
  5
220
100
AcDbSymbolTableRecord
100
AcDbBlockTableRecord
  2
*D4
  0
BLOCK_RECORD
  5
221
100
AcDbSymbolTableRecord
100
AcDbBlockTableRecord
  2
*D5
  0
BLOCK_RECORD
  5
222
100
AcDbSymbolTableRecord
100
AcDbBlockTableRecord
  2
*D6
  0
BLOCK_RECORD
  5
223
100
AcDbSymbolTableRecord
100
AcDbBlockTableRecord
  2
*D7
  0
BLOCK_RECORD
  5
224
100
AcDbSymbolTableRecord
100
AcDbBlockTableRecord
  2
*D8
  0
BLOCK_RECORD
  5
225
100
AcDbSymbolTableRecord
100
AcDbBlockTableRecord
  2
*D9
  0
ENDTAB
  0
TABLE
  2
DIMSTYLE
  5
A
100
AcDbSymbolTable
 70
1
  0
DIMSTYLE
105
226
100
AcDbSymbolTableRecord
100
AcDbDimStyleTableRecord
  2
STANDARD
 70
0
  3

  4

  5
_ARROW_FILLED
  6
_ARROW_FILLED
  7
_ARROW_FILLED
 40
1.0
 41
3.5
 42
0.0
 43
0.38
 44
2.0
 45
0.0
 46
0.0
 47
0.01
 48
0.01
140
3.5
141
0.09
142
0.0
143
25.4
144
1.0
145
0.0
146
1.0
147
0.625
 71
1.0
 72
0.0
 73
0
 74
0
 75
0
 76
0
 77
1
 78
8
170
0
171
2
172
0
173
0
174
0
175
0
176
0
177
0
178
5
270
2
271
2
272
2
273
2
274
2
275
0
280
0
281
0
282
0
283
1
284
8
285
0
286
0
287
3
288
0
340
11
  0
DIMSTYLE
105
227
100
AcDbSymbolTableRecord
100
AcDbDimStyleTableRecord
  2
DIMSTYLE_1
 70
0
  3

  4

  5
_ARROW_FILLED
  6
_ARROW_FILLED
  7
_ARROW_FILLED
 40
1.0
 41
3.5
 42
0.0
 43
0.38
 44
2.0
 45
0.0
 46
0.0
 47
0.1
 48
0.1
140
3.5
141
0.09
142
0.0
143
25.4
144
1.0
145
0.0
146
1.0
147
0.875
 71
0.0
 72
0.0
 73
0
 74
0
 75
0
 76
0
 77
1
 78
8
170
0
171
2
172
0
173
0
174
0
175
0
176
0
177
0
178
5
270
2
271
4
272
4
273
2
274
2
275
0
280
0
281
0
282
0
283
1
284
8
285
0
286
0
287
3
288
0
340
219
  0
DIMSTYLE
105
228
100
AcDbSymbolTableRecord
100
AcDbDimStyleTableRecord
  2
DIMSTYLE_2
 70
0
  3

  4

  5
_ARROW_FILLED
  6
_ARROW_FILLED
  7
_ARROW_FILLED
 40
1.0
 41
3.5
 42
0.0
 43
0.38
 44
2.0
 45
0.0
 46
0.0
 47
0.3
 48
0.3
140
3.5
141
0.09
142
0.0
143
25.4
144
1.0
145
0.0
146
1.0
147
0.875
 71
0.0
 72
0.0
 73
0
 74
0
 75
0
 76
0
 77
1
 78
8
170
0
171
2
172
0
173
0
174
0
175
0
176
0
177
0
178
5
270
2
271
4
272
4
273
2
274
2
275
0
280
0
281
0
282
0
283
1
284
8
285
0
286
0
287
3
288
0
340
219
  0
DIMSTYLE
105
229
100
AcDbSymbolTableRecord
100
AcDbDimStyleTableRecord
  2
DIMSTYLE_3
 70
0
  3

  4

  5
_ARROW_FILLED
  6
_ARROW_FILLED
  7
_ARROW_FILLED
 40
1.0
 41
3.5
 42
0.0
 43
0.38
 44
2.0
 45
0.0
 46
0.0
 47
0.2
 48
0.2
140
3.5
141
0.09
142
0.0
143
25.4
144
1.0
145
0.0
146
1.0
147
0.875
 71
0.0
 72
0.0
 73
0
 74
0
 75
0
 76
0
 77
1
 78
8
170
0
171
2
172
0
173
0
174
0
175
0
176
0
177
0
178
5
270
2
271
2
272
2
273
2
274
2
275
0
280
0
281
0
282
0
283
1
284
8
285
0
286
0
287
3
288
0
340
219
  0
DIMSTYLE
105
22A
100
AcDbSymbolTableRecord
100
AcDbDimStyleTableRecord
  2
DIMSTYLE_4
 70
0
  3

  4

  5
_ARROW_FILLED
  6
_ARROW_FILLED
  7
_ARROW_FILLED
 40
1.0
 41
3.5
 42
0.0
 43
0.38
 44
2.0
 45
0.0
 46
0.0
 47
0.2
 48
0.2
140
3.5
141
0.09
142
0.0
143
25.4
144
1.0
145
0.0
146
1.0
147
0.875
 71
0.0
 72
0.0
 73
0
 74
0
 75
0
 76
0
 77
1
 78
8
170
0
171
2
172
0
173
0
174
0
175
0
176
0
177
0
178
5
270
2
271
3
272
3
273
2
274
2
275
0
280
0
281
0
282
0
283
1
284
8
285
0
286
0
287
3
288
0
340
219
  0
DIMSTYLE
105
22B
100
AcDbSymbolTableRecord
100
AcDbDimStyleTableRecord
  2
DIMSTYLE_5
 70
0
  3

  4

  5
_ARROW_FILLED
  6
_ARROW_FILLED
  7
_ARROW_FILLED
 40
1.0
 41
3.5
 42
0.0
 43
0.38
 44
2.0
 45
0.0
 46
0.0
 47
0.2
 48
0.2
140
3.5
141
0.09
142
0.0
143
25.4
144
1.0
145
0.0
146
1.0
147
0.875
 71
0.0
 72
0.0
 73
0
 74
0
 75
0
 76
0
 77
1
 78
8
170
0
171
2
172
0
173
0
174
0
175
0
176
0
177
0
178
5
270
2
271
4
272
4
273
2
274
2
275
0
280
0
281
0
282
0
283
1
284
8
285
0
286
0
287
3
288
0
340
219
  0
DIMSTYLE
105
22C
100
AcDbSymbolTableRecord
100
AcDbDimStyleTableRecord
  2
DIMSTYLE_6
 70
0
  3

  4

  5
_ARROW_FILLED
  6
_ARROW_FILLED
  7
_ARROW_FILLED
 40
1.0
 41
3.5
 42
0.0
 43
0.38
 44
2.0
 45
0.0
 46
0.0
 47
0.1
 48
0.1
140
3.5
141
0.09
142
0.0
143
25.4
144
1.0
145
0.0
146
1.0
147
0.875
 71
0.0
 72
0.0
 73
0
 74
0
 75
0
 76
0
 77
1
 78
8
170
0
171
2
172
0
173
0
174
0
175
0
176
0
177
0
178
5
270
2
271
1
272
1
273
2
274
2
275
0
280
0
281
0
282
0
283
1
284
8
285
0
286
0
287
3
288
0
340
219
  0
ENDTAB
  0
ENDSEC
  0
SECTION
  2
BLOCKS
  0
BLOCK
  5
20
100
AcDbEntity
  8
0
100
AcDbBlockBegin
  2
*MODEL_SPACE
 70
0
 10
0.0
 20
0.0
 30
0.0
  3
*MODEL_SPACE
  1

  0
ENDBLK
  5
21
100
AcDbEntity
  8
0
100
AcDbBlockEnd
  0
BLOCK
  5
1C
100
AcDbEntity
  8
0
100
AcDbBlockBegin
  2
*PAPER_SPACE
 70
0
 10
0.0
 20
0.0
 30
0.0
  3
*PAPER_SPACE
  1

  0
ENDBLK
  5
1D
100
AcDbEntity
  8
0
100
AcDbBlockEnd
  0
BLOCK
  5
22D
100
AcDbEntity
  8
0
100
AcDbBlockBegin
  2
_ARROW_FILLED
 70
64
 10
0.0
 20
0.0
  3
_ARROW_FILLED
  1

  0
SOLID
  5
22E
100
AcDbEntity
  8
0
  6
BYBLOCK
 62
0
100
AcDbTrace
 10
0.0
 20
0.0
 11
-1.0
 21
0.1428571429
 12
-1.0
 22
-0.1428571429
 13
-1.0
 23
-0.1428571429
  0
ENDBLK
  5
22F
100
AcDbEntity
  8
0
  6
BYBLOCK
 62
0
100
AcDbBlockEnd
  0
BLOCK
  5
230
100
AcDbEntity
  8
A_BEMASSUNGEN
100
AcDbBlockBegin
 62
2
  6
CONTINUOUS
  2
*D0
 70
65
 10
0.0
 20
0.0
  3
*D0
  1

  0
MTEXT
  5
231
100
AcDbEntity
  8
A_BEMASSUNGEN
100
AcDbMText
 62
5
  6
CONTINUOUS
  7
TEXTSTYLE_2
 71
3
 72
1
 10
179.066163715
 20
61.3365516006
 30
0.0
 11
0.0
 21
1.0
 31
0.0
  1
4
 40
3.5
 41
4.125
  0
LINE
  5
232
100
AcDbEntity
  8
A_BEMASSUNGEN
100
AcDbLine
 62
2
  6
CONTINUOUS
 10
165.3551623113
 20
64.5524944595
 11
185.441163715
 21
64.5524944596
  0
LINE
  5
233
100
AcDbEntity
  8
A_BEMASSUNGEN
100
AcDbLine
 62
2
  6
CONTINUOUS
 10
100.3551623112
 20
68.5524944591
 11
185.441163715
 21
68.5524944596
  0
LINE
  5
234
100
AcDbEntity
  8
A_BEMASSUNGEN
100
AcDbLine
 62
2
  6
CONTINUOUS
 10
183.441163715
 20
64.5524944596
 11
183.441163715
 21
58.5865516006
  0
LINE
  5
235
100
AcDbEntity
  8
A_BEMASSUNGEN
100
AcDbLine
 62
2
  6
CONTINUOUS
 10
183.441163715
 20
58.5865516006
 11
183.441163715
 21
66.5524944596
  0
LINE
  5
236
100
AcDbEntity
  8
A_BEMASSUNGEN
100
AcDbLine
 62
2
  6
CONTINUOUS
 10
183.441163715
 20
68.5524944596
 11
183.4411637149
 21
76.0524944596
  0
LINE
  5
237
100
AcDbEntity
  8
A_BEMASSUNGEN
100
AcDbLine
 62
2
  6
CONTINUOUS
 10
183.4411637149
 20
76.0524944596
 11
183.441163715
 21
66.5524944596
  0
INSERT
  5
238
100
AcDbEntity
  8
A_BEMASSUNGEN
100
AcDbBlockReference
 62
2
  6
CONTINUOUS
  2
_ARROW_FILLED
 10
183.441163715
 20
64.5524944596
 41
3.5
 42
3.5
 43
3.5
 50
90.0000000002
  0
INSERT
  5
239
100
AcDbEntity
  8
A_BEMASSUNGEN
100
AcDbBlockReference
 62
2
  6
CONTINUOUS
  2
_ARROW_FILLED
 10
183.441163715
 20
68.5524944596
 41
3.5
 42
3.5
 43
3.5
 50
270.0000000003
  0
ENDBLK
  5
23A
100
AcDbEntity
  8
0
  6
BYBLOCK
 62
0
100
AcDbBlockEnd
  0
BLOCK
  5
23B
100
AcDbEntity
  8
A_BEMASSUNGEN
100
AcDbBlockBegin
 62
2
  6
CONTINUOUS
  2
*D1
 70
65
 10
0.0
 20
0.0
  3
*D1
  1

  0
MTEXT
  5
23C
100
AcDbEntity
  8
A_BEMASSUNGEN
100
AcDbMText
 62
5
  6
CONTINUOUS
  7
TEXTSTYLE_2
 71
2
 72
1
 10
179.0698138488
 20
88.9024944596
 30
0.0
 11
0.0
 21
1.0
 31
0.0
  1
40.7
 40
3.5
 41
15.375
  0
LINE
  5
23D
100
AcDbEntity
  8
A_BEMASSUNGEN
100
AcDbLine
 62
2
  6
CONTINUOUS
 10
100.3551623112
 20
68.5524944591
 11
185.4448138489
 21
68.5524944596
  0
LINE
  5
23E
100
AcDbEntity
  8
A_BEMASSUNGEN
100
AcDbLine
 62
2
  6
CONTINUOUS
 10
100.355162311
 20
109.2524944591
 11
185.4448138487
 21
109.2524944596
  0
LINE
  5
23F
100
AcDbEntity
  8
A_BEMASSUNGEN
100
AcDbLine
 62
2
  6
CONTINUOUS
 10
183.4448138489
 20
68.5524944596
 11
183.4448138488
 21
88.9024944596
  0
LINE
  5
240
100
AcDbEntity
  8
A_BEMASSUNGEN
100
AcDbLine
 62
2
  6
CONTINUOUS
 10
183.4448138487
 20
109.2524944596
 11
183.4448138488
 21
88.9024944596
  0
INSERT
  5
241
100
AcDbEntity
  8
A_BEMASSUNGEN
100
AcDbBlockReference
 62
2
  6
CONTINUOUS
  2
_ARROW_FILLED
 10
183.4448138489
 20
68.5524944596
 41
3.5
 42
3.5
 43
3.5
 50
270.0000000003
  0
INSERT
  5
242
100
AcDbEntity
  8
A_BEMASSUNGEN
100
AcDbBlockReference
 62
2
  6
CONTINUOUS
  2
_ARROW_FILLED
 10
183.4448138487
 20
109.2524944596
 41
3.5
 42
3.5
 43
3.5
 50
90.0000000003
  0
ENDBLK
  5
243
100
AcDbEntity
  8
0
  6
BYBLOCK
 62
0
100
AcDbBlockEnd
  0
BLOCK
  5
244
100
AcDbEntity
  8
A_BEMASSUNGEN
100
AcDbBlockBegin
 62
2
  6
CONTINUOUS
  2
*D2
 70
65
 10
0.0
 20
0.0
  3
*D2
  1

  0
MTEXT
  5
245
100
AcDbEntity
  8
A_BEMASSUNGEN
100
AcDbMText
 62
5
  6
CONTINUOUS
  7
TEXTSTYLE_2
 71
3
 72
1
 10
50.1912897643
 20
77.13274555
 30
0.0
 11
0.0
 21
1.0
 31
0.0
  1
6
 40
3.5
 41
4.125
  0
LINE
  5
246
100
AcDbEntity
  8
A_BEMASSUNGEN
100
AcDbLine
 62
2
  6
CONTINUOUS
 10
65.8551623112
 20
81.5524944589
 11
52.5662897643
 21
81.5524944589
  0
LINE
  5
247
100
AcDbEntity
  8
A_BEMASSUNGEN
100
AcDbLine
 62
2
  6
CONTINUOUS
 10
54.5662897643
 20
87.5524944589
 11
54.5662897643
 21
95.0524944589
  0
LINE
  5
248
100
AcDbEntity
  8
A_BEMASSUNGEN
100
AcDbLine
 62
2
  6
CONTINUOUS
 10
54.5662897643
 20
95.0524944589
 11
54.5662897643
 21
84.5524944589
  0
LINE
  5
249
100
AcDbEntity
  8
A_BEMASSUNGEN
100
AcDbLine
 62
2
  6
CONTINUOUS
 10
54.5662897643
 20
81.5524944589
 11
54.5662897643
 21
74.38274555
  0
LINE
  5
24A
100
AcDbEntity
  8
A_BEMASSUNGEN
100
AcDbLine
 62
2
  6
CONTINUOUS
 10
54.5662897643
 20
74.38274555
 11
54.5662897643
 21
84.5524944589
  0
INSERT
  5
24B
100
AcDbEntity
  8
A_BEMASSUNGEN
100
AcDbBlockReference
 62
2
  6
CONTINUOUS
  2
_ARROW_FILLED
 10
54.5662897643
 20
87.5524944589
 41
3.5
 42
3.5
 43
3.5
 50
270.0
  0
INSERT
  5
24C
100
AcDbEntity
  8
A_BEMASSUNGEN
100
AcDbBlockReference
 62
2
  6
CONTINUOUS
  2
_ARROW_FILLED
 10
54.5662897643
 20
81.5524944589
 41
3.5
 42
3.5
 43
3.5
 50
90.0
  0
ENDBLK
  5
24D
100
AcDbEntity
  8
0
  6
BYBLOCK
 62
0
100
AcDbBlockEnd
  0
BLOCK
  5
24E
100
AcDbEntity
  8
A_BEMASSUNGEN
100
AcDbBlockBegin
 62
2
  6
CONTINUOUS
  2
*D3
 70
65
 10
0.0
 20
0.0
  3
*D3
  1

  0
MTEXT
  5
24F
100
AcDbEntity
  8
A_BEMASSUNGEN
100
AcDbMText
 62
5
  6
CONTINUOUS
  7
TEXTSTYLE_2
 71
2
 72
1
 10
41.3237646123
 20
76.0524944589
 30
0.0
 11
0.0
 21
1.0
 31
0.0
  1
23
 40
3.5
 41
7.875
  0
LINE
  5
250
100
AcDbEntity
  8
A_BEMASSUNGEN
100
AcDbLine
 62
2
  6
CONTINUOUS
 10
65.8551623113
 20
64.5524944589
 11
43.6987646123
 21
64.5524944589
  0
LINE
  5
251
100
AcDbEntity
  8
A_BEMASSUNGEN
100
AcDbLine
 62
2
  6
CONTINUOUS
 10
45.6987646123
 20
87.5524944589
 11
45.6987646123
 21
76.0524944589
  0
LINE
  5
252
100
AcDbEntity
  8
A_BEMASSUNGEN
100
AcDbLine
 62
2
  6
CONTINUOUS
 10
45.6987646123
 20
64.5524944589
 11
45.6987646123
 21
76.0524944589
  0
INSERT
  5
253
100
AcDbEntity
  8
A_BEMASSUNGEN
100
AcDbBlockReference
 62
2
  6
CONTINUOUS
  2
_ARROW_FILLED
 10
45.6987646123
 20
87.5524944589
 41
3.5
 42
3.5
 43
3.5
 50
90.0
  0
INSERT
  5
254
100
AcDbEntity
  8
A_BEMASSUNGEN
100
AcDbBlockReference
 62
2
  6
CONTINUOUS
  2
_ARROW_FILLED
 10
45.6987646123
 20
64.5524944589
 41
3.5
 42
3.5
 43
3.5
 50
270.0
  0
ENDBLK
  5
255
100
AcDbEntity
  8
0
  6
BYBLOCK
 62
0
100
AcDbBlockEnd
  0
BLOCK
  5
256
100
AcDbEntity
  8
A_BEMASSUNGEN
100
AcDbBlockBegin
 62
2
  6
CONTINUOUS
  2
*D4
 70
65
 10
0.0
 20
0.0
  3
*D4
  1

  0
MTEXT
  5
257
100
AcDbEntity
  8
A_BEMASSUNGEN
100
AcDbMText
 62
5
  6
CONTINUOUS
  7
TEXTSTYLE_2
 71
3
 72
1
 10
4.7763123604
 20
81.4274524589
 30
0.0
 11
0.0
 21
1.0
 31
0.0
  1
8
 40
3.5
 41
4.125
  0
LINE
  5
258
100
AcDbEntity
  8
A_BEMASSUNGEN
100
AcDbLine
 62
2
  6
CONTINUOUS
 10
17.8551623112
 20
87.5524944589
 11
7.1513123604
 21
87.5524944589
  0
LINE
  5
259
100
AcDbEntity
  8
A_BEMASSUNGEN
100
AcDbLine
 62
2
  6
CONTINUOUS
 10
42.8551623112
 20
95.5524944589
 11
7.1513123604
 21
95.5524944589
  0
LINE
  5
25A
100
AcDbEntity
  8
A_BEMASSUNGEN
100
AcDbLine
 62
2
  6
CONTINUOUS
 10
9.1513123604
 20
87.5524944589
 11
9.1513123604
 21
78.6774524589
  0
LINE
  5
25B
100
AcDbEntity
  8
A_BEMASSUNGEN
100
AcDbLine
 62
2
  6
CONTINUOUS
 10
9.1513123604
 20
78.6774524589
 11
9.1513123604
 21
91.5524944589
  0
LINE
  5
25C
100
AcDbEntity
  8
A_BEMASSUNGEN
100
AcDbLine
 62
2
  6
CONTINUOUS
 10
9.1513123604
 20
95.5524944589
 11
9.1513123604
 21
103.0524944589
  0
LINE
  5
25D
100
AcDbEntity
  8
A_BEMASSUNGEN
100
AcDbLine
 62
2
  6
CONTINUOUS
 10
9.1513123604
 20
103.0524944589
 11
9.1513123604
 21
91.5524944589
  0
INSERT
  5
25E
100
AcDbEntity
  8
A_BEMASSUNGEN
100
AcDbBlockReference
 62
2
  6
CONTINUOUS
  2
_ARROW_FILLED
 10
9.1513123604
 20
87.5524944589
 41
3.5
 42
3.5
 43
3.5
 50
90.0
  0
INSERT
  5
25F
100
AcDbEntity
  8
A_BEMASSUNGEN
100
AcDbBlockReference
 62
2
  6
CONTINUOUS
  2
_ARROW_FILLED
 10
9.1513123604
 20
95.5524944589
 41
3.5
 42
3.5
 43
3.5
 50
270.0
  0
ENDBLK
  5
260
100
AcDbEntity
  8
0
  6
BYBLOCK
 62
0
100
AcDbBlockEnd
  0
BLOCK
  5
261
100
AcDbEntity
  8
A_BEMASSUNGEN
100
AcDbBlockBegin
 62
2
  6
CONTINUOUS
  2
*D5
 70
65
 10
0.0
 20
0.0
  3
*D5
  1

  0
MTEXT
  5
262
100
AcDbEntity
  8
A_BEMASSUNGEN
100
AcDbMText
 62
5
  6
CONTINUOUS
  7
TEXTSTYLE_2
 71
2
 72
1
 10
4.7763123604
 20
110.5524944589
 30
0.0
 11
0.0
 21
1.0
 31
0.0
  1
30
 40
3.5
 41
7.875
  0
LINE
  5
263
100
AcDbEntity
  8
A_BEMASSUNGEN
100
AcDbLine
 62
2
  6
CONTINUOUS
 10
42.8551623112
 20
95.5524944589
 11
7.1513123604
 21
95.5524944589
  0
LINE
  5
264
100
AcDbEntity
  8
A_BEMASSUNGEN
100
AcDbLine
 62
2
  6
CONTINUOUS
 10
42.8551623112
 20
125.5524944589
 11
7.1513123604
 21
125.5524944589
  0
LINE
  5
265
100
AcDbEntity
  8
A_BEMASSUNGEN
100
AcDbLine
 62
2
  6
CONTINUOUS
 10
9.1513123604
 20
95.5524944589
 11
9.1513123604
 21
110.5524944589
  0
LINE
  5
266
100
AcDbEntity
  8
A_BEMASSUNGEN
100
AcDbLine
 62
2
  6
CONTINUOUS
 10
9.1513123604
 20
125.5524944589
 11
9.1513123604
 21
110.5524944589
  0
INSERT
  5
267
100
AcDbEntity
  8
A_BEMASSUNGEN
100
AcDbBlockReference
 62
2
  6
CONTINUOUS
  2
_ARROW_FILLED
 10
9.1513123604
 20
95.5524944589
 41
3.5
 42
3.5
 43
3.5
 50
270.0
  0
INSERT
  5
268
100
AcDbEntity
  8
A_BEMASSUNGEN
100
AcDbBlockReference
 62
2
  6
CONTINUOUS
  2
_ARROW_FILLED
 10
9.1513123604
 20
125.5524944589
 41
3.5
 42
3.5
 43
3.5
 50
90.0
  0
ENDBLK
  5
269
100
AcDbEntity
  8
0
  6
BYBLOCK
 62
0
100
AcDbBlockEnd
  0
BLOCK
  5
26A
100
AcDbEntity
  8
A_BEMASSUNGEN
100
AcDbBlockBegin
 62
2
  6
CONTINUOUS
  2
*D6
 70
65
 10
0.0
 20
0.0
  3
*D6
  1

  0
MTEXT
  5
26B
100
AcDbEntity
  8
A_BEMASSUNGEN
100
AcDbMText
 62
5
  6
CONTINUOUS
  7
TEXTSTYLE_2
 71
1
 72
1
 10
86.991501436
 20
177.1405837132
 30
0.0
 11
1.0
 21
0.0
 31
0.0
  1
5
 40
3.5
 41
3.75
  0
LINE
  5
26C
100
AcDbEntity
  8
A_BEMASSUNGEN
100
AcDbLine
 62
2
  6
CONTINUOUS
 10
80.855162311
 20
114.552494459
 11
80.8551623106
 21
174.7655837132
  0
LINE
  5
26D
100
AcDbEntity
  8
A_BEMASSUNGEN
100
AcDbLine
 62
2
  6
CONTINUOUS
 10
75.8551623112
 20
124.9524944589
 11
75.8551623109
 21
174.7655837131
  0
LINE
  5
26E
100
AcDbEntity
  8
A_BEMASSUNGEN
100
AcDbLine
 62
2
  6
CONTINUOUS
 10
80.8551623106
 20
172.7655837132
 11
89.491501436
 21
172.7655837132
  0
LINE
  5
26F
100
AcDbEntity
  8
A_BEMASSUNGEN
100
AcDbLine
 62
2
  6
CONTINUOUS
 10
89.491501436
 20
172.7655837132
 11
78.3551623108
 21
172.7655837131
  0
LINE
  5
270
100
AcDbEntity
  8
A_BEMASSUNGEN
100
AcDbLine
 62
2
  6
CONTINUOUS
 10
75.8551623109
 20
172.7655837131
 11
68.3551623109
 21
172.7655837131
  0
LINE
  5
271
100
AcDbEntity
  8
A_BEMASSUNGEN
100
AcDbLine
 62
2
  6
CONTINUOUS
 10
68.3551623109
 20
172.7655837131
 11
78.3551623108
 21
172.7655837131
  0
INSERT
  5
272
100
AcDbEntity
  8
A_BEMASSUNGEN
100
AcDbBlockReference
 62
2
  6
CONTINUOUS
  2
_ARROW_FILLED
 10
80.8551623106
 20
172.7655837132
 41
3.5
 42
3.5
 43
3.5
 50
180.0000000002
  0
INSERT
  5
273
100
AcDbEntity
  8
A_BEMASSUNGEN
100
AcDbBlockReference
 62
2
  6
CONTINUOUS
  2
_ARROW_FILLED
 10
75.8551623109
 20
172.7655837131
 41
3.5
 42
3.5
 43
3.5
 50
0.0000000003
  0
ENDBLK
  5
274
100
AcDbEntity
  8
0
  6
BYBLOCK
 62
0
100
AcDbBlockEnd
  0
BLOCK
  5
275
100
AcDbEntity
  8
A_BEMASSUNGEN
100
AcDbBlockBegin
 62
2
  6
CONTINUOUS
  2
*D7
 70
65
 10
0.0
 20
0.0
  3
*D7
  1

  0
MTEXT
  5
276
100
AcDbEntity
  8
A_BEMASSUNGEN
100
AcDbMText
 62
5
  6
CONTINUOUS
  7
TEXTSTYLE_2
 71
2
 72
1
 10
59.3551623112
 20
177.1416935188
 30
0.0
 11
1.0
 21
0.0
 31
0.0
  1
33
 40
3.5
 41
7.5
  0
LINE
  5
277
100
AcDbEntity
  8
A_BEMASSUNGEN
100
AcDbLine
 62
2
  6
CONTINUOUS
 10
75.8551623112
 20
124.9524944589
 11
75.8551623112
 21
174.7666935188
  0
LINE
  5
278
100
AcDbEntity
  8
A_BEMASSUNGEN
100
AcDbLine
 62
2
  6
CONTINUOUS
 10
42.8551623112
 20
125.5524944589
 11
42.8551623112
 21
174.7666935188
  0
LINE
  5
279
100
AcDbEntity
  8
A_BEMASSUNGEN
100
AcDbLine
 62
2
  6
CONTINUOUS
 10
75.8551623112
 20
172.7666935188
 11
59.3551623112
 21
172.7666935188
  0
LINE
  5
27A
100
AcDbEntity
  8
A_BEMASSUNGEN
100
AcDbLine
 62
2
  6
CONTINUOUS
 10
42.8551623112
 20
172.7666935188
 11
59.3551623112
 21
172.7666935188
  0
INSERT
  5
27B
100
AcDbEntity
  8
A_BEMASSUNGEN
100
AcDbBlockReference
 62
2
  6
CONTINUOUS
  2
_ARROW_FILLED
 10
75.8551623112
 20
172.7666935188
 41
3.5
 42
3.5
 43
3.5
  0
INSERT
  5
27C
100
AcDbEntity
  8
A_BEMASSUNGEN
100
AcDbBlockReference
 62
2
  6
CONTINUOUS
  2
_ARROW_FILLED
 10
42.8551623112
 20
172.7666935188
 41
3.5
 42
3.5
 43
3.5
 50
180.0
  0
ENDBLK
  5
27D
100
AcDbEntity
  8
0
  6
BYBLOCK
 62
0
100
AcDbBlockEnd
  0
BLOCK
  5
27E
100
AcDbEntity
  8
A_BEMASSUNGEN
100
AcDbBlockBegin
 62
2
  6
CONTINUOUS
  2
*D8
 70
65
 10
0.0
 20
0.0
  3
*D8
  1

  0
MTEXT
  5
27F
100
AcDbEntity
  8
A_BEMASSUNGEN
100
AcDbMText
 62
5
  6
CONTINUOUS
  7
TEXTSTYLE_2
 71
2
 72
1
 10
71.8551623113
 20
59.7379127373
 30
0.0
 11
1.0
 21
0.0
 31
0.0
  1
18
 40
3.5
 41
7.125
  0
LINE
  5
280
100
AcDbEntity
  8
A_BEMASSUNGEN
100
AcDbLine
 62
2
  6
CONTINUOUS
 10
62.8551623112
 20
68.6524944589
 11
62.8551623113
 21
53.3629127372
  0
LINE
  5
281
100
AcDbEntity
  8
A_BEMASSUNGEN
100
AcDbLine
 62
2
  6
CONTINUOUS
 10
80.8551623111
 20
90.6526087391
 11
80.8551623113
 21
53.3629127373
  0
LINE
  5
282
100
AcDbEntity
  8
A_BEMASSUNGEN
100
AcDbLine
 62
2
  6
CONTINUOUS
 10
62.8551623113
 20
55.3629127372
 11
71.8551623113
 21
55.3629127373
  0
LINE
  5
283
100
AcDbEntity
  8
A_BEMASSUNGEN
100
AcDbLine
 62
2
  6
CONTINUOUS
 10
80.8551623113
 20
55.3629127373
 11
71.8551623113
 21
55.3629127373
  0
INSERT
  5
284
100
AcDbEntity
  8
A_BEMASSUNGEN
100
AcDbBlockReference
 62
2
  6
CONTINUOUS
  2
_ARROW_FILLED
 10
62.8551623113
 20
55.3629127372
 41
3.5
 42
3.5
 43
3.5
 50
180.0000000003
  0
INSERT
  5
285
100
AcDbEntity
  8
A_BEMASSUNGEN
100
AcDbBlockReference
 62
2
  6
CONTINUOUS
  2
_ARROW_FILLED
 10
80.8551623113
 20
55.3629127373
 41
3.5
 42
3.5
 43
3.5
 50
0.0000000003
  0
ENDBLK
  5
286
100
AcDbEntity
  8
0
  6
BYBLOCK
 62
0
100
AcDbBlockEnd
  0
BLOCK
  5
287
100
AcDbEntity
  8
A_BEMASSUNGEN
100
AcDbBlockBegin
 62
2
  6
CONTINUOUS
  2
*D9
 70
65
 10
0.0
 20
0.0
  3
*D9
  1

  0
MTEXT
  5
288
100
AcDbEntity
  8
A_BEMASSUNGEN
100
AcDbMText
 62
5
  6
CONTINUOUS
  7
TEXTSTYLE_2
 71
2
 72
1
 10
79.1057859787
 20
51.0317707749
 30
0.0
 11
1.0
 21
0.0
 31
0.0
  1
37.5
 40
3.5
 41
14.625
  0
LINE
  5
289
100
AcDbEntity
  8
A_BEMASSUNGEN
100
AcDbLine
 62
2
  6
CONTINUOUS
 10
62.8551623112
 20
68.6524944589
 11
62.8551623114
 21
44.6567707748
  0
LINE
  5
28A
100
AcDbEntity
  8
A_BEMASSUNGEN
100
AcDbLine
 62
2
  6
CONTINUOUS
 10
100.3551623112
 20
68.5524944591
 11
100.3551623114
 21
44.656770775
  0
LINE
  5
28B
100
AcDbEntity
  8
A_BEMASSUNGEN
100
AcDbLine
 62
2
  6
CONTINUOUS
 10
62.8551623114
 20
46.6567707748
 11
81.6051623114
 21
46.6567707749
  0
LINE
  5
28C
100
AcDbEntity
  8
A_BEMASSUNGEN
100
AcDbLine
 62
2
  6
CONTINUOUS
 10
100.3551623114
 20
46.656770775
 11
81.6051623114
 21
46.6567707749
  0
INSERT
  5
28D
100
AcDbEntity
  8
A_BEMASSUNGEN
100
AcDbBlockReference
 62
2
  6
CONTINUOUS
  2
_ARROW_FILLED
 10
62.8551623114
 20
46.6567707748
 41
3.5
 42
3.5
 43
3.5
 50
180.0000000003
  0
INSERT
  5
28E
100
AcDbEntity
  8
A_BEMASSUNGEN
100
AcDbBlockReference
 62
2
  6
CONTINUOUS
  2
_ARROW_FILLED
 10
100.3551623114
 20
46.656770775
 41
3.5
 42
3.5
 43
3.5
 50
0.0000000003
  0
ENDBLK
  5
28F
100
AcDbEntity
  8
0
  6
BYBLOCK
 62
0
100
AcDbBlockEnd
  0
ENDSEC
  0
SECTION
  2
ENTITIES
  0
DIMENSION
  5
290
100
AcDbEntity
  8
A_BEMASSUNGEN
100
AcDbDimension
 62
2
  6
CONTINUOUS
  2
*D0
 10
183.441163715
 20
68.5524944596
 11
183.441163715
 21
59.4615464504
 70
160
  3
DIMSTYLE_1
100
AcDbAlignedDimension
 13
165.3551623113
 23
64.5524944595
 14
100.3551623112
 24
68.5524944591
 50
90.0000000003
100
AcDbRotatedDimension
  0
DIMENSION
  5
291
100
AcDbEntity
  8
A_BEMASSUNGEN
100
AcDbDimension
 62
2
  6
CONTINUOUS
  2
*D1
 10
183.4448138487
 20
109.2524944596
 11
183.4448138488
 21
88.4024994766
 70
160
  3
DIMSTYLE_2
100
AcDbAlignedDimension
 13
100.3551623112
 23
68.5524944591
 14
100.355162311
 24
109.2524944591
 50
90.0000000003
100
AcDbRotatedDimension
  0
DIMENSION
  5
292
100
AcDbEntity
  8
A_BEMASSUNGEN
100
AcDbDimension
 62
2
  6
CONTINUOUS
  2
*D2
 10
54.5662897643
 20
81.5524944589
 11
54.5662897643
 21
75.2577445589
 70
160
  3
DIMSTYLE_3
100
AcDbAlignedDimension
 13
73.8551623112
 23
87.5524944589
 14
65.8551623112
 24
81.5524944589
 50
270.0
100
AcDbRotatedDimension
  0
DIMENSION
  5
293
100
AcDbEntity
  8
A_BEMASSUNGEN
100
AcDbDimension
 62
2
  6
CONTINUOUS
  2
*D3
 10
45.6987646123
 20
64.5524944589
 11
45.6987646123
 21
75.5524911313
 70
160
  3
DIMSTYLE_4
100
AcDbAlignedDimension
 13
73.8551623112
 23
87.5524944589
 14
65.8551623113
 24
64.5524944589
 50
270.0
100
AcDbRotatedDimension
  0
DIMENSION
  5
294
100
AcDbEntity
  8
A_BEMASSUNGEN
100
AcDbDimension
 62
2
  6
CONTINUOUS
  2
*D4
 10
9.1513123604
 20
95.5524944589
 11
9.1513123604
 21
79.5524531048
 70
160
  3
DIMSTYLE_5
100
AcDbAlignedDimension
 13
17.8551623112
 23
87.5524944589
 14
42.8551623112
 24
95.5524944589
 50
90.0
100
AcDbRotatedDimension
  0
DIMENSION
  5
295
100
AcDbEntity
  8
A_BEMASSUNGEN
100
AcDbDimension
 62
2
  6
CONTINUOUS
  2
*D5
 10
9.1513123604
 20
125.5524944589
 11
9.1513123604
 21
110.0524942006
 70
160
  3
DIMSTYLE_5
100
AcDbAlignedDimension
 13
42.8551623112
 23
95.5524944589
 14
42.8551623112
 24
125.5524944589
 50
90.0
100
AcDbRotatedDimension
  0
DIMENSION
  5
296
100
AcDbEntity
  8
A_BEMASSUNGEN
100
AcDbDimension
 62
2
  6
CONTINUOUS
  2
*D6
 10
75.8551623109
 20
172.7655837131
 11
87.7414985533
 21
172.7655837132
 70
160
  3
DIMSTYLE_6
100
AcDbAlignedDimension
 13
80.855162311
 23
114.552494459
 14
75.8551623112
 24
124.9524944589
 50
180.0000000003
100
AcDbRotatedDimension
  0
DIMENSION
  5
297
100
AcDbEntity
  8
A_BEMASSUNGEN
100
AcDbDimension
 62
2
  6
CONTINUOUS
  2
*D7
 10
42.8551623112
 20
172.7666935188
 11
58.8551631944
 21
172.7666935188
 70
160
  3
DIMSTYLE_2
100
AcDbAlignedDimension
 13
75.8551623112
 23
124.9524944589
 14
42.8551623112
 24
125.5524944589
 50
180.0
100
AcDbRotatedDimension
  0
DIMENSION
  5
298
100
AcDbEntity
  8
A_BEMASSUNGEN
100
AcDbDimension
 62
2
  6
CONTINUOUS
  2
*D8
 10
80.8551623113
 20
55.3629127373
 11
71.3551631945
 21
55.3629127373
 70
160
  3
DIMSTYLE_5
100
AcDbAlignedDimension
 13
62.8551623112
 23
68.6524944589
 14
80.8551623111
 24
90.6526087391
100
AcDbRotatedDimension
  0
DIMENSION
  5
299
100
AcDbEntity
  8
A_BEMASSUNGEN
100
AcDbDimension
 62
2
  6
CONTINUOUS
  2
*D9
 10
100.3551623114
 20
46.656770775
 11
78.6057853009
 21
46.6567707749
 70
160
  3
DIMSTYLE_2
100
AcDbAlignedDimension
 13
62.8551623112
 23
68.6524944589
 14
100.3551623112
 24
68.5524944591
100
AcDbRotatedDimension
  0
LINE
  5
29A
100
AcDbEntity
  8
IMPORT_KE
100
AcDbLine
 62
2
  6
CONTINUOUS
 10
15.8551623112
 20
163.5524944589
 11
15.8551623112
 21
161.3915934589
  0
LINE
  5
29B
100
AcDbEntity
  8
IMPORT_KE
100
AcDbLine
 62
2
  6
CONTINUOUS
 10
15.8551623112
 20
107.8782584589
 11
15.8551623112
 21
89.5524944589
  0
LINE
  5
29C
100
AcDbEntity
  8
0
100
AcDbLine
 62
7
  6
CONTINUOUS
 10
15.8551623112
 20
89.5524944589
 11
15.8551623112
 21
107.8782584589
  0
LINE
  5
29D
100
AcDbEntity
  8
0
100
AcDbLine
 62
7
  6
CONTINUOUS
 10
15.8551623112
 20
161.3915934589
 11
15.8551623112
 21
163.5524944589
  0
LINE
  5
29E
100
AcDbEntity
  8
IMPORT_KE
100
AcDbLine
 62
2
  6
CONTINUOUS
 10
16.3551623112
 20
138.8826224589
 11
16.3551623112
 21
124.2223664589
  0
LINE
  5
29F
100
AcDbEntity
  8
0
100
AcDbLine
 62
7
  6
CONTINUOUS
 10
16.3551623112
 20
124.2223664589
 11
16.3551623112
 21
138.8826224589
  0
LINE
  5
2A0
100
AcDbEntity
  8
IMPORT_KE
100
AcDbLine
 62
2
  6
CONTINUOUS
 10
19.8551623112
 20
159.0080864589
 11
19.8551623112
 21
154.2005114589
  0
LINE
  5
2A1
100
AcDbEntity
  8
0
100
AcDbLine
 62
7
  6
CONTINUOUS
 10
19.8551623112
 20
154.2005114589
 11
19.8551623112
 21
159.0080864589
  0
LINE
  5
2A2
100
AcDbEntity
  8
IMPORT_KE
100
AcDbLine
 62
2
  6
CONTINUOUS
 10
25.8551623112
 20
153.3551004589
 11
25.8551623112
 21
140.7498874589
  0
LINE
  5
2A3
100
AcDbEntity
  8
IMPORT_KE
100
AcDbLine
 62
2
  6
CONTINUOUS
 10
25.8551623112
 20
122.3551004589
 11
25.8551623112
 21
109.7498874589
  0
LINE
  5
2A4
100
AcDbEntity
  8
0
100
AcDbLine
 62
7
  6
CONTINUOUS
 10
25.8551623112
 20
109.7498874589
 11
25.8551623112
 21
122.3551004589
  0
LINE
  5
2A5
100
AcDbEntity
  8
0
100
AcDbLine
 62
7
  6
CONTINUOUS
 10
25.8551623112
 20
140.7498874589
 11
25.8551623112
 21
153.3551004589
  0
LINE
  5
2A6
100
AcDbEntity
  8
0
100
AcDbLine
 62
7
  6
CONTINUOUS
 10
42.8551623112
 20
95.5524944589
 11
42.8551623112
 21
125.5524944589
  0
LINE
  5
2A7
100
AcDbEntity
  8
0
100
AcDbLine
 62
7
  6
CONTINUOUS
 10
43.3551623112
 20
123.0524944589
 11
43.3551623112
 21
117.0524944589
  0
LINE
  5
2A8
100
AcDbEntity
  8
0
100
AcDbLine
 62
7
  6
CONTINUOUS
 10
43.3551623112
 20
107.2024944589
 11
43.3551623112
 21
100.2024944589
  0
LINE
  5
2A9
100
AcDbEntity
  8
0
100
AcDbLine
 62
7
  6
CONTINUOUS
 10
45.6051623112
 20
110.5524944589
 11
45.6051623112
 21
116.5524944589
  0
LINE
  5
2AA
100
AcDbEntity
  8
0
100
AcDbLine
 62
7
  6
CONTINUOUS
 10
47.8551623112
 20
108.3024944589
 11
47.8551623112
 21
118.8024944589
  0
LINE
  5
2AB
100
AcDbEntity
  8
0
100
AcDbLine
 62
7
  6
CONTINUOUS
 10
48.8551623112
 20
95.7349661597
 11
48.8551623112
 21
125.3700227581
  0
LINE
  5
2AC
100
AcDbEntity
  8
A_FASEN
100
AcDbLine
 62
7
  6
CONTINUOUS
 10
49.3551623112
 20
100.2524944589
 11
49.3551623112
 21
107.2524944589
  0
LINE
  5
2AD
100
AcDbEntity
  8
0
100
AcDbLine
 62
7
  6
CONTINUOUS
 10
51.6551623112
 20
98.7375611737
 11
51.6551623112
 21
122.3674277442
  0
LINE
  5
2AE
100
AcDbEntity
  8
0
100
AcDbLine
 62
7
  6
CONTINUOUS
 10
53.3551623112
 20
117.6524944589
 11
53.3551623112
 21
113.6524944589
  0
LINE
  5
2AF
100
AcDbEntity
  8
0
100
AcDbLine
 62
7
  6
CONTINUOUS
 10
53.3551623112
 20
107.1524944589
 11
53.3551623112
 21
103.1524944589
  0
LINE
  5
2B0
100
AcDbEntity
  8
0
100
AcDbLine
 62
7
  6
CONTINUOUS
 10
53.8551623112
 20
102.6524944589
 11
53.8551623112
 21
107.6524944589
  0
LINE
  5
2B1
100
AcDbEntity
  8
0
100
AcDbLine
 62
7
  6
CONTINUOUS
 10
53.8551623112
 20
113.1524944589
 11
53.8551623112
 21
118.1524944589
  0
LINE
  5
2B2
100
AcDbEntity
  8
0
100
AcDbLine
 62
7
  6
CONTINUOUS
 10
54.8551623112
 20
98.8834545934
 11
54.8551623112
 21
113.1524944589
  0
LINE
  5
2B3
100
AcDbEntity
  8
0
100
AcDbLine
 62
7
  6
CONTINUOUS
 10
54.8551623112
 20
118.1524944589
 11
54.8551623112
 21
122.2215343245
  0
LINE
  5
2B4
100
AcDbEntity
  8
0
100
AcDbLine
 62
7
  6
CONTINUOUS
 10
165.3551623113
 20
64.5524944595
 11
65.8551623113
 21
64.5524944589
  0
LINE
  5
2B5
100
AcDbEntity
  8
0
100
AcDbLine
 62
7
  6
CONTINUOUS
 10
42.8551623112
 20
107.7024944589
 11
43.3551623112
 21
107.2024944589
  0
LINE
  5
2B6
100
AcDbEntity
  8
0
100
AcDbLine
 62
7
  6
CONTINUOUS
 10
59.8551623112
 20
99.6899377765
 11
59.8551623112
 21
111.2150511413
  0
LINE
  5
2B7
100
AcDbEntity
  8
A_FASEN
100
AcDbLine
 62
7
  6
CONTINUOUS
 10
61.8551623112
 20
107.2524944589
 11
61.8551623112
 21
100.2524944589
  0
LINE
  5
2B8
100
AcDbEntity
  8
QUER2
100
AcDbLine
 62
7
  6
CONTINUOUS
 10
62.3551623112
 20
121.9524944589
 11
62.3551623112
 21
119.7524944589
  0
LINE
  5
2B9
100
AcDbEntity
  8
QUER2
100
AcDbLine
 62
7
  6
CONTINUOUS
 10
62.3551623112
 20
111.5524944589
 11
62.3551623112
 21
98.9524944589
  0
LINE
  5
2BA
100
AcDbEntity
  8
0
100
AcDbLine
 62
7
  6
CONTINUOUS
 10
62.3551623112
 20
97.331036269
 11
62.3551623112
 21
99.7524944589
  0
LINE
  5
2BB
100
AcDbEntity
  8
0
100
AcDbLine
 62
7
  6
CONTINUOUS
 10
62.3551623112
 20
107.7524944589
 11
62.3551623112
 21
113.1524944589
  0
LINE
  5
2BC
100
AcDbEntity
  8
0
100
AcDbLine
 62
7
  6
CONTINUOUS
 10
62.3551623112
 20
118.1524944589
 11
62.3551623112
 21
123.7739526488
  0
LINE
  5
2BD
100
AcDbEntity
  8
0
100
AcDbLine
 62
7
  6
CONTINUOUS
 10
62.8551623112
 20
68.6524944589
 11
62.8551623112
 21
67.5524944589
  0
LINE
  5
2BE
100
AcDbEntity
  8
A_RUNDUNGEN
100
AcDbLine
 62
7
  6
CONTINUOUS
 10
62.8551623112
 20
68.6524944589
 11
62.8551623112
 21
80.6524944589
  0
LINE
  5
2BF
100
AcDbEntity
  8
0
100
AcDbLine
 62
7
  6
CONTINUOUS
 10
47.8551623112
 20
118.8024944589
 11
45.6051623112
 21
116.5524944589
  0
LINE
  5
2C0
100
AcDbEntity
  8
0
100
AcDbLine
 62
7
  6
CONTINUOUS
 10
98.3656342389
 20
68.8384285545
 11
79.8551623112
 21
68.7415070643
  0
LINE
  5
2C1
100
AcDbEntity
  8
A_RUNDUNGEN
100
AcDbLine
 62
7
  6
CONTINUOUS
 10
62.8551623112
 20
68.6524944589
 11
67.9799779233
 21
68.6793281759
  0
LINE
  5
2C2
100
AcDbEntity
  8
A_RUNDUNGEN
100
AcDbLine
 62
7
  6
CONTINUOUS
 10
68.7896200693
 20
68.683567491
 11
79.8551623112
 21
68.7415070643
  0
LINE
  5
2C3
100
AcDbEntity
  8
0
100
AcDbLine
 62
7
  6
CONTINUOUS
 10
172.8551623112
 20
67.5524944595
 11
168.3551623112
 21
67.5524944595
  0
LINE
  5
2C4
100
AcDbEntity
  8
0
100
AcDbLine
 62
7
  6
CONTINUOUS
 10
100.3551623112
 20
68.5524944591
 11
62.8551623112
 21
68.5524944589
  0
LINE
  5
2C5
100
AcDbEntity
  8
QUER2
100
AcDbLine
 62
7
  6
CONTINUOUS
 10
68.3551623112
 20
69.1524944589
 11
75.3551623112
 21
69.1524944589
  0
LINE
  5
2C6
100
AcDbEntity
  8
0
100
AcDbLine
 62
7
  6
CONTINUOUS
 10
91.8551623112
 20
70.6524944591
 11
86.8551623112
 21
70.652494459
  0
LINE
  5
2C7
100
AcDbEntity
  8
0
100
AcDbLine
 62
7
  6
CONTINUOUS
 10
47.8551623112
 20
108.3024944589
 11
45.6051623112
 21
110.5524944589
  0
LINE
  5
2C8
100
AcDbEntity
  8
0
100
AcDbLine
 62
7
  6
CONTINUOUS
 10
53.8551623112
 20
102.6524944589
 11
53.3551623112
 21
103.1524944589
  0
LINE
  5
2C9
100
AcDbEntity
  8
0
100
AcDbLine
 62
7
  6
CONTINUOUS
 10
48.8551623112
 20
107.7524944589
 11
49.3551623112
 21
107.2524944589
  0
LINE
  5
2CA
100
AcDbEntity
  8
QUER2
100
AcDbLine
 62
7
  6
CONTINUOUS
 10
66.5305037552
 20
85.5230025581
 11
66.4257098816
 21
86.8272492951
  0
LINE
  5
2CB
100
AcDbEntity
  8
DEFAULT_2
100
AcDbLine
 62
8
  6
HIDDEN
 10
65.3551623112
 20
118.1524944589
 11
65.3551623112
 21
113.1524944589
  0
LINE
  5
2CC
100
AcDbEntity
  8
A_RUNDUNGEN
100
AcDbLine
 62
7
  6
CONTINUOUS
 10
65.3551623112
 20
119.602494418
 11
65.3551623112
 21
111.7024944999
  0
LINE
  5
2CD
100
AcDbEntity
  8
QUER2
100
AcDbLine
 62
7
  6
CONTINUOUS
 10
65.3551623112
 20
109.8524944589
 11
65.3551623112
 21
111.8098004723
  0
LINE
  5
2CE
100
AcDbEntity
  8
QUER2
100
AcDbLine
 62
7
  6
CONTINUOUS
 10
65.3551623112
 20
119.6024944187
 11
65.3551623112
 21
121.4524944589
  0
LINE
  5
2CF
100
AcDbEntity
  8
0
100
AcDbLine
 62
7
  6
CONTINUOUS
 10
66.2551623112
 20
123.9818068298
 11
66.2551623112
 21
123.8524944589
  0
LINE
  5
2D0
100
AcDbEntity
  8
0
100
AcDbLine
 62
7
  6
CONTINUOUS
 10
66.2551623112
 20
97.2524944589
 11
66.2551623112
 21
97.123182088
  0
LINE
  5
2D1
100
AcDbEntity
  8
0
100
AcDbLine
 62
7
  6
CONTINUOUS
 10
67.2737648915
 20
123.8168766432
 11
67.2737648915
 21
122.2524944589
  0
LINE
  5
2D2
100
AcDbEntity
  8
0
100
AcDbLine
 62
7
  6
CONTINUOUS
 10
67.2737648915
 20
98.6524944589
 11
67.2737648915
 21
97.2881122746
  0
LINE
  5
2D3
100
AcDbEntity
  8
0
100
AcDbLine
 62
7
  6
CONTINUOUS
 10
67.3551623112
 20
132.5524944589
 11
67.3551623112
 21
127.5524944589
  0
LINE
  5
2D4
100
AcDbEntity
  8
IMPORT_KE
100
AcDbLine
 62
2
  6
CONTINUOUS
 10
67.3551623112
 20
132.5524944589
 11
67.3551623112
 21
127.5524944589
  0
LINE
  5
2D5
100
AcDbEntity
  8
A_ACHSEN
100
AcDbLine
 62
7
  6
CENTER
 10
68.3551623112
 20
65.8640210457
 11
68.3551623112
 21
82.4409678721
  0
LINE
  5
2D6
100
AcDbEntity
  8
A_RUNDUNGEN
100
AcDbLine
 62
7
  6
CONTINUOUS
 10
70.3551623112
 20
119.6024935077
 11
70.3551623112
 21
111.7024954101
  0
LINE
  5
2D7
100
AcDbEntity
  8
A_FLAECHEN
100
AcDbLine
 62
8
  6
HIDDEN
 10
67.8241707978
 20
117.274840987
 11
66.8875085932
 21
115.6524944589
  0
LINE
  5
2D8
100
AcDbEntity
  8
0
100
AcDbLine
 62
7
  6
CONTINUOUS
 10
53.8551623112
 20
118.1524944589
 11
53.3551623112
 21
117.6524944589
  0
LINE
  5
2D9
100
AcDbEntity
  8
0
100
AcDbLine
 62
7
  6
CONTINUOUS
 10
42.8551623112
 20
99.7024944589
 11
43.3551623112
 21
100.2024944589
  0
LINE
  5
2DA
100
AcDbEntity
  8
0
100
AcDbLine
 62
7
  6
CONTINUOUS
 10
86.8551623112
 20
70.652494459
 11
79.8551623112
 21
69.152494459
  0
LINE
  5
2DB
100
AcDbEntity
  8
A_RUNDUNGEN
100
AcDbLine
 62
7
  6
CONTINUOUS
 10
79.5948327483
 20
69.0967095526
 11
79.8551623112
 21
69.152494459
  0
LINE
  5
2DC
100
AcDbEntity
  8
A_ACHSEN
100
AcDbLine
 62
7
  6
CENTER
 10
60.066688898
 20
74.1524944589
 11
76.6436357244
 21
74.1524944589
  0
LINE
  5
2DD
100
AcDbEntity
  8
QUER2
100
AcDbLine
 62
7
  6
CONTINUOUS
 10
75.3551623112
 20
79.1524944589
 11
68.3551623112
 21
79.1524944589
  0
LINE
  5
2DE
100
AcDbEntity
  8
0
100
AcDbLine
 62
7
  6
CONTINUOUS
 10
62.3551623112
 20
99.7524944589
 11
61.8551623112
 21
100.2524944589
  0
LINE
  5
2DF
100
AcDbEntity
  8
0
100
AcDbLine
 62
7
  6
CONTINUOUS
 10
53.8551623112
 20
113.1524944589
 11
53.3551623112
 21
113.6524944589
  0
LINE
  5
2E0
100
AcDbEntity
  8
0
100
AcDbLine
 62
7
  6
CONTINUOUS
 10
71.3551623112
 20
123.8524944589
 11
71.3551623112
 21
121.9524944589
  0
LINE
  5
2E1
100
AcDbEntity
  8
0
100
AcDbLine
 62
7
  6
CONTINUOUS
 10
71.3551623112
 20
98.6524944589
 11
71.3551623112
 21
97.2524944589
  0
LINE
  5
2E2
100
AcDbEntity
  8
QUER2
100
AcDbLine
 62
7
  6
CONTINUOUS
 10
71.3551623112
 20
110.1524944589
 11
71.3551623112
 21
121.9524944589
  0
LINE
  5
2E3
100
AcDbEntity
  8
0
100
AcDbLine
 62
7
  6
CONTINUOUS
 10
74.1551623112
 20
125.5024944589
 11
74.1551623112
 21
125.4490034459
  0
LINE
  5
2E4
100
AcDbEntity
  8
0
100
AcDbLine
 62
7
  6
CONTINUOUS
 10
74.1551623112
 20
95.6024944589
 11
74.1551623112
 21
95.6559854719
  0
LINE
  5
2E5
100
AcDbEntity
  8
A_RUNDUNGEN
100
AcDbLine
 62
7
  6
CONTINUOUS
 10
74.1551623112
 20
110.0124766486
 11
74.1551623112
 21
111.0921247976
  0
LINE
  5
2E6
100
AcDbEntity
  8
A_RUNDUNGEN
100
AcDbLine
 62
7
  6
CONTINUOUS
 10
74.3551623112
 20
124.0524944589
 11
74.3551623112
 21
108.6524944589
  0
LINE
  5
2E7
100
AcDbEntity
  8
A_RUNDUNGEN
100
AcDbLine
 62
7
  6
CONTINUOUS
 10
74.3551623112
 20
98.6524944589
 11
74.3551623112
 21
97.0524944589
  0
LINE
  5
2E8
100
AcDbEntity
  8
0
100
AcDbLine
 62
7
  6
CONTINUOUS
 10
74.3551623112
 20
95.6524944589
 11
74.3551623112
 21
97.0524944589
  0
LINE
  5
2E9
100
AcDbEntity
  8
0
100
AcDbLine
 62
7
  6
CONTINUOUS
 10
74.3551623112
 20
124.0524944589
 11
74.3551623112
 21
125.4524944589
  0
LINE
  5
2EA
100
AcDbEntity
  8
A_RUNDUNGEN
100
AcDbLine
 62
7
  6
CONTINUOUS
 10
75.8551623112
 20
125.4524944589
 11
75.8551623112
 21
108.6167337531
  0
LINE
  5
2EB
100
AcDbEntity
  8
A_RUNDUNGEN
100
AcDbLine
 62
7
  6
CONTINUOUS
 10
75.8551623112
 20
98.6114808467
 11
75.8551623112
 21
95.6524944589
  0
LINE
  5
2EC
100
AcDbEntity
  8
IMPORT_KE
100
AcDbLine
 62
6
  6
CONTINUOUS
 10
75.8551623112
 20
129.4697914589
 11
75.8551623112
 21
89.5524944589
  0
LINE
  5
2ED
100
AcDbEntity
  8
0
100
AcDbLine
 62
7
  6
CONTINUOUS
 10
75.8551623112
 20
89.5524944589
 11
75.8551623112
 21
95.6707739392
  0
LINE
  5
2EE
100
AcDbEntity
  8
0
100
AcDbLine
 62
7
  6
CONTINUOUS
 10
75.8551623112
 20
125.4342149786
 11
75.8551623112
 21
127.5524944589
  0
LINE
  5
2EF
100
AcDbEntity
  8
IMPORT_KE
100
AcDbLine
 62
6
  6
CONTINUOUS
 10
76.8551623112
 20
127.5524944589
 11
76.8551623112
 21
129.5524944589
  0
LINE
  5
2F0
100
AcDbEntity
  8
QUER2
100
AcDbLine
 62
7
  6
CONTINUOUS
 10
72.944700076
 20
87.8806121147
 11
72.8563782452
 21
86.3987587192
  0
LINE
  5
2F1
100
AcDbEntity
  8
0
100
AcDbLine
 62
7
  6
CONTINUOUS
 10
53.8551623112
 20
107.6524944589
 11
53.3551623112
 21
107.1524944589
  0
LINE
  5
2F2
100
AcDbEntity
  8
0
100
AcDbLine
 62
7
  6
CONTINUOUS
 10
48.8551623112
 20
99.7524944589
 11
49.3551623112
 21
100.2524944589
  0
LINE
  5
2F3
100
AcDbEntity
  8
IMPORT_KE
100
AcDbLine
 62
6
  6
CONTINUOUS
 10
81.8551623112
 20
130.3524944589
 11
83.4551623112
 21
131.9524944589
  0
LINE
  5
2F4
100
AcDbEntity
  8
IMPORT_KE
100
AcDbLine
 62
6
  6
CONTINUOUS
 10
84.5865333112
 20
131.9524944589
 11
82.6551623112
 21
130.0211234589
  0
LINE
  5
2F5
100
AcDbEntity
  8
IMPORT_KE
100
AcDbLine
 62
6
  6
CONTINUOUS
 10
70.9352183112
 20
127.7524944589
 11
71.5905403112
 21
128.2113554589
  0
LINE
  5
2F6
100
AcDbEntity
  8
QUER2
100
AcDbLine
 62
7
  6
CONTINUOUS
 10
84.2484640261
 20
82.8458988704
 11
85.1873250616
 21
83.0114454021
  0
LINE
  5
2F7
100
AcDbEntity
  8
A_RUNDUNGEN
100
AcDbLine
 62
7
  6
CONTINUOUS
 10
93.8813419177
 20
80.9232558265
 11
93.4028348957
 21
80.919079959
  0
LINE
  5
2F8
100
AcDbEntity
  8
A_RUNDUNGEN
100
AcDbLine
 62
7
  6
CONTINUOUS
 10
77.5655064211
 20
80.7808696872
 11
62.8551623112
 21
80.6524944589
  0
LINE
  5
2F9
100
AcDbEntity
  8
0
100
AcDbLine
 62
7
  6
CONTINUOUS
 10
65.8551623112
 20
81.5524944589
 11
76.943920655
 21
81.552494459
  0
LINE
  5
2FA
100
AcDbEntity
  8
0
100
AcDbLine
 62
7
  6
CONTINUOUS
 10
83.860997647
 20
86.552494459
 11
80.8551623111
 21
86.552494459
  0
LINE
  5
2FB
100
AcDbEntity
  8
0
100
AcDbLine
 62
7
  6
CONTINUOUS
 10
100.3551623112
 20
73.1524944591
 11
99.8551623112
 21
73.6524944591
  0
LINE
  5
2FC
100
AcDbEntity
  8
A_FLAECHEN
100
AcDbLine
 62
8
  6
HIDDEN
 10
67.8241707978
 20
114.0301479309
 11
66.8875085932
 21
115.6524944589
  0
LINE
  5
2FD
100
AcDbEntity
  8
0
100
AcDbLine
 62
7
  6
CONTINUOUS
 10
79.8551623112
 20
69.152494459
 11
79.8551623112
 21
68.7415070643
  0
LINE
  5
2FE
100
AcDbEntity
  8
0
100
AcDbLine
 62
7
  6
CONTINUOUS
 10
80.8551623111
 20
89.652494459
 11
80.8551623111
 21
86.552494459
  0
LINE
  5
2FF
100
AcDbEntity
  8
A_RUNDUNGEN
100
AcDbLine
 62
7
  6
CONTINUOUS
 10
80.8551623111
 20
89.652494459
 11
80.8551623111
 21
92.5018653759
  0
LINE
  5
300
100
AcDbEntity
  8
A_RUNDUNGEN
100
AcDbLine
 62
7
  6
CONTINUOUS
 10
80.8551623111
 20
93.652494459
 11
80.8551623111
 21
96.9183947957
  0
LINE
  5
301
100
AcDbEntity
  8
0
100
AcDbLine
 62
7
  6
CONTINUOUS
 10
80.855162311
 20
107.8664504581
 11
80.855162311
 21
114.552494459
  0
LINE
  5
302
100
AcDbEntity
  8
IMPORT_KE
100
AcDbLine
 62
6
  6
CONTINUOUS
 10
81.8551623112
 20
129.5524944589
 11
81.8551623112
 21
128.5524944589
  0
LINE
  5
303
100
AcDbEntity
  8
IMPORT_KE
100
AcDbLine
 62
6
  6
CONTINUOUS
 10
82.6551623112
 20
130.0211234589
 11
82.6551623112
 21
128.8524944589
  0
LINE
  5
304
100
AcDbEntity
  8
0
100
AcDbLine
 62
7
  6
CONTINUOUS
 10
80.855162311
 20
114.552494459
 11
81.7452993522
 21
124.7268059313
  0
LINE
  5
305
100
AcDbEntity
  8
0
100
AcDbLine
 62
7
  6
CONTINUOUS
 10
62.3551623112
 20
107.7524944589
 11
61.8551623112
 21
107.2524944589
  0
LINE
  5
306
100
AcDbEntity
  8
IMPORT_KE
100
AcDbLine
 62
6
  6
CONTINUOUS
 10
90.7844523112
 20
130.9060474589
 11
91.8308983112
 21
131.9524944589
  0
LINE
  5
307
100
AcDbEntity
  8
IMPORT_KE
100
AcDbLine
 62
6
  6
CONTINUOUS
 10
91.5622693112
 20
130.5524944589
 11
93.2087163112
 21
132.1989404589
  0
LINE
  5
308
100
AcDbEntity
  8
IMPORT_KE
100
AcDbLine
 62
6
  6
CONTINUOUS
 10
88.3751313112
 20
128.8524944589
 11
89.2572153112
 21
129.5926504589
  0
LINE
  5
309
100
AcDbEntity
  8
IMPORT_KE
100
AcDbLine
 62
6
  6
CONTINUOUS
 10
88.4945713112
 20
128.1694724589
 11
89.6707693112
 21
129.1564194589
  0
LINE
  5
30A
100
AcDbEntity
  8
0
100
AcDbLine
 62
7
  6
CONTINUOUS
 10
73.8551623112
 20
87.5524944589
 11
17.8551623112
 21
87.5524944589
  0
LINE
  5
30B
100
AcDbEntity
  8
IMPORT_KE
100
AcDbLine
 62
2
  6
CONTINUOUS
 10
73.8551623112
 20
87.5524944589
 11
17.8551623112
 21
87.5524944589
  0
LINE
  5
30C
100
AcDbEntity
  8
0
100
AcDbLine
 62
7
  6
CONTINUOUS
 10
99.8551623111
 20
89.1524944591
 11
100.3551623111
 21
89.1524944591
  0
LINE
  5
30D
100
AcDbEntity
  8
0
100
AcDbLine
 62
7
  6
CONTINUOUS
 10
99.8551623111
 20
90.1524944591
 11
100.3551623111
 21
90.1524944591
  0
LINE
  5
30E
100
AcDbEntity
  8
0
100
AcDbLine
 62
7
  6
CONTINUOUS
 10
99.8551623111
 20
92.6494800521
 11
100.3551623111
 21
92.6494800521
  0
LINE
  5
30F
100
AcDbEntity
  8
0
100
AcDbLine
 62
7
  6
CONTINUOUS
 10
99.8551623111
 20
93.8019008403
 11
100.3551623111
 21
93.8019008403
  0
LINE
  5
310
100
AcDbEntity
  8
A_RUNDUNGEN
100
AcDbLine
 62
7
  6
CONTINUOUS
 10
80.8551623111
 20
89.652494459
 11
83.57421945
 21
89.581293442
  0
LINE
  5
311
100
AcDbEntity
  8
A_RUNDUNGEN
100
AcDbLine
 62
7
  6
CONTINUOUS
 10
84.6579161491
 20
89.5529158453
 11
85.0634077537
 21
89.5422976739
  0
LINE
  5
312
100
AcDbEntity
  8
QUER2
100
AcDbLine
 62
7
  6
CONTINUOUS
 10
81.3707280218
 20
79.1881681569
 11
81.4961748707
 21
79.9742490583
  0
LINE
  5
313
100
AcDbEntity
  8
QUER2
100
AcDbLine
 62
7
  6
CONTINUOUS
 10
81.246211368
 20
79.0703317085
 11
81.4117578997
 21
80.009192744
  0
LINE
  5
314
100
AcDbEntity
  8
0
100
AcDbLine
 62
7
  6
CONTINUOUS
 10
80.8551623111
 20
93.652494459
 11
83.7898744947
 21
93.7293426021
  0
LINE
  5
315
100
AcDbEntity
  8
A_RUNDUNGEN
100
AcDbLine
 62
7
  6
CONTINUOUS
 10
80.8551623111
 20
93.652494459
 11
83.7898744947
 21
93.7293426021
  0
LINE
  5
316
100
AcDbEntity
  8
0
100
AcDbLine
 62
7
  6
CONTINUOUS
 10
94.4050850633
 20
94.0073116735
 11
95.8813392594
 21
94.0459687501
  0
LINE
  5
317
100
AcDbEntity
  8
A_RUNDUNGEN
100
AcDbLine
 62
7
  6
CONTINUOUS
 10
94.4050850633
 20
94.0073116735
 11
95.8813392594
 21
94.0459687501
  0
LINE
  5
318
100
AcDbEntity
  8
0
100
AcDbLine
 62
7
  6
CONTINUOUS
 10
99.8551623111
 20
94.5701628307
 11
100.3551623111
 21
94.5701628307
  0
LINE
  5
319
100
AcDbEntity
  8
0
100
AcDbLine
 62
7
  6
CONTINUOUS
 10
42.8551623112
 20
95.5524944589
 11
75.8551623112
 21
95.5524944589
  0
LINE
  5
31A
100
AcDbEntity
  8
A_RUNDUNGEN
100
AcDbLine
 62
7
  6
CONTINUOUS
 10
75.8551623112
 20
95.6524944589
 11
74.3551623112
 21
95.6524944589
  0
LINE
  5
31B
100
AcDbEntity
  8
0
100
AcDbLine
 62
7
  6
CONTINUOUS
 10
99.8551623111
 20
97.0671484237
 11
100.3551623111
 21
97.0671484237
  0
LINE
  5
31C
100
AcDbEntity
  8
A_RUNDUNGEN
100
AcDbLine
 62
7
  6
CONTINUOUS
 10
57.4278149841
 20
97.2524944589
 11
66.2551623112
 21
97.2524944589
  0
LINE
  5
31D
100
AcDbEntity
  8
0
100
AcDbLine
 62
7
  6
CONTINUOUS
 10
99.8551623111
 20
98.1524944591
 11
100.3551623111
 21
98.1524944591
  0
LINE
  5
31E
100
AcDbEntity
  8
QUER2
100
AcDbLine
 62
7
  6
CONTINUOUS
 10
62.6551623112
 20
98.6524944589
 11
75.3551623112
 21
98.6524944589
  0
LINE
  5
31F
100
AcDbEntity
  8
0
100
AcDbLine
 62
7
  6
CONTINUOUS
 10
97.355162311
 20
99.6524944591
 11
96.855162311
 21
99.6524944591
  0
LINE
  5
320
100
AcDbEntity
  8
0
100
AcDbLine
 62
7
  6
CONTINUOUS
 10
97.355162311
 20
100.1524944591
 11
96.855162311
 21
100.1524944591
  0
LINE
  5
321
100
AcDbEntity
  8
0
100
AcDbLine
 62
7
  6
CONTINUOUS
 10
97.355162311
 20
100.2376008394
 11
96.855162311
 21
100.2376008394
  0
LINE
  5
322
100
AcDbEntity
  8
0
100
AcDbLine
 62
7
  6
CONTINUOUS
 10
51.6551623112
 20
100.2524944589
 11
49.3551623112
 21
100.2524944589
  0
LINE
  5
323
100
AcDbEntity
  8
0
100
AcDbLine
 62
7
  6
CONTINUOUS
 10
59.8551623112
 20
100.2524944589
 11
61.8551623112
 21
100.2524944589
  0
LINE
  5
324
100
AcDbEntity
  8
0
100
AcDbLine
 62
7
  6
CONTINUOUS
 10
97.355162311
 20
100.4078136074
 11
96.855162311
 21
100.4078136074
  0
LINE
  5
325
100
AcDbEntity
  8
0
100
AcDbLine
 62
7
  6
CONTINUOUS
 10
97.355162311
 20
100.7482391285
 11
96.855162311
 21
100.7482391285
  0
LINE
  5
326
100
AcDbEntity
  8
A_RUNDUNGEN
100
AcDbLine
 62
7
  6
CONTINUOUS
 10
74.1551623112
 20
95.6024944589
 11
48.8551623112
 21
95.7349661597
  0
LINE
  5
327
100
AcDbEntity
  8
0
100
AcDbLine
 62
7
  6
CONTINUOUS
 10
44.8446903835
 20
95.7559651336
 11
48.8551623112
 21
95.7349661597
  0
LINE
  5
328
100
AcDbEntity
  8
0
100
AcDbLine
 62
7
  6
CONTINUOUS
 10
74.3551623112
 20
97.0524944589
 11
53.1420725079
 21
97.2376182891
  0
LINE
  5
329
100
AcDbEntity
  8
0
100
AcDbLine
 62
7
  6
CONTINUOUS
 10
71.3551623112
 20
97.2524944589
 11
67.2737648915
 21
97.2881122746
  0
LINE
  5
32A
100
AcDbEntity
  8
A_RUNDUNGEN
100
AcDbLine
 62
7
  6
CONTINUOUS
 10
67.2737648915
 20
97.2881122746
 11
62.3551623112
 21
97.331036269
  0
LINE
  5
32B
100
AcDbEntity
  8
0
100
AcDbLine
 62
7
  6
CONTINUOUS
 10
56.3420725079
 20
97.3835117088
 11
62.3551623112
 21
97.331036269
  0
LINE
  5
32C
100
AcDbEntity
  8
0
100
AcDbLine
 62
7
  6
CONTINUOUS
 10
50.3289837015
 20
96.0718729665
 11
74.3551623112
 21
95.6524944589
  0
LINE
  5
32D
100
AcDbEntity
  8
0
100
AcDbLine
 62
7
  6
CONTINUOUS
 10
59.8551623112
 20
100.7150511413
 11
54.8551623112
 21
101.1524944589
  0
LINE
  5
32E
100
AcDbEntity
  8
IMPORT_KE
100
AcDbLine
 62
6
  6
CONTINUOUS
 10
68.5360103112
 20
131.1789174589
 11
70.9352183112
 21
127.7524944589
  0
LINE
  5
32F
100
AcDbEntity
  8
IMPORT_KE
100
AcDbLine
 62
6
  6
CONTINUOUS
 10
71.5905403112
 20
128.2113554589
 11
69.4415563112
 21
131.2804214589
  0
LINE
  5
330
100
AcDbEntity
  8
0
100
AcDbLine
 62
7
  6
CONTINUOUS
 10
93.8551623112
 20
151.1406574589
 11
93.8551623112
 21
134.5524944589
  0
LINE
  5
331
100
AcDbEntity
  8
IMPORT_KE
100
AcDbLine
 62
2
  6
CONTINUOUS
 10
93.8551623112
 20
151.1406574589
 11
93.8551623112
 21
134.5524944589
  0
LINE
  5
332
100
AcDbEntity
  8
0
100
AcDbLine
 62
7
  6
CONTINUOUS
 10
96.8551623112
 20
75.6524944591
 11
96.855162311
 21
105.2722844076
  0
LINE
  5
333
100
AcDbEntity
  8
0
100
AcDbLine
 62
7
  6
CONTINUOUS
 10
97.355162311
 20
99.6524944591
 11
97.355162311
 21
105.1524944591
  0
LINE
  5
334
100
AcDbEntity
  8
0
100
AcDbLine
 62
7
  6
CONTINUOUS
 10
99.0008704495
 20
127.3788462452
 11
100.7102883779
 21
137.0734388393
  0
LINE
  5
335
100
AcDbEntity
  8
QUER2
100
AcDbLine
 62
7
  6
CONTINUOUS
 10
84.9358846753
 20
86.7092785708
 11
84.6279182367
 21
85.4061164477
  0
LINE
  5
336
100
AcDbEntity
  8
0
100
AcDbLine
 62
7
  6
CONTINUOUS
 10
54.8551623112
 20
99.2524944589
 11
59.8551623112
 21
99.6899377765
  0
LINE
  5
337
100
AcDbEntity
  8
0
100
AcDbLine
 62
7
  6
CONTINUOUS
 10
97.355162311
 20
101.0886646795
 11
96.855162311
 21
101.0886646795
  0
LINE
  5
338
100
AcDbEntity
  8
0
100
AcDbLine
 62
7
  6
CONTINUOUS
 10
97.355162311
 20
101.5141965436
 11
96.855162311
 21
101.5141965436
  0
LINE
  5
339
100
AcDbEntity
  8
0
100
AcDbLine
 62
7
  6
CONTINUOUS
 10
54.8551623112
 20
102.6524944589
 11
53.8551623112
 21
102.6524944589
  0
LINE
  5
33A
100
AcDbEntity
  8
0
100
AcDbLine
 62
7
  6
CONTINUOUS
 10
97.355162311
 20
102.7907922553
 11
96.855162311
 21
102.7907922553
  0
LINE
  5
33B
100
AcDbEntity
  8
0
100
AcDbLine
 62
2
  6
CONTINUOUS
 10
53.3551623112
 20
103.1524944589
 11
54.8551623112
 21
103.1524944589
  0
LINE
  5
33C
100
AcDbEntity
  8
0
100
AcDbLine
 62
7
  6
CONTINUOUS
 10
97.355162311
 20
103.2163243579
 11
96.855162311
 21
103.2163243579
  0
LINE
  5
33D
100
AcDbEntity
  8
0
100
AcDbLine
 62
7
  6
CONTINUOUS
 10
97.355162311
 20
103.5567498493
 11
96.855162311
 21
103.5567498493
  0
LINE
  5
33E
100
AcDbEntity
  8
0
100
AcDbLine
 62
7
  6
CONTINUOUS
 10
97.355162311
 20
103.8971753406
 11
96.855162311
 21
103.8971753406
  0
LINE
  5
33F
100
AcDbEntity
  8
0
100
AcDbLine
 62
7
  6
CONTINUOUS
 10
97.355162311
 20
104.0673880863
 11
96.855162311
 21
104.0673880863
  0
LINE
  5
340
100
AcDbEntity
  8
0
100
AcDbLine
 62
7
  6
CONTINUOUS
 10
97.355162311
 20
104.1524944591
 11
96.855162311
 21
104.1524944591
  0
LINE
  5
341
100
AcDbEntity
  8
0
100
AcDbLine
 62
7
  6
CONTINUOUS
 10
97.355162311
 20
105.1524944591
 11
96.855162311
 21
105.1524944591
  0
LINE
  5
342
100
AcDbEntity
  8
0
100
AcDbLine
 62
7
  6
CONTINUOUS
 10
170.355162311
 20
106.5524944595
 11
172.855162311
 21
106.5524944595
  0
LINE
  5
343
100
AcDbEntity
  8
0
100
AcDbLine
 62
2
  6
CONTINUOUS
 10
53.3551623112
 20
107.1524944589
 11
54.8551623112
 21
107.1524944589
  0
LINE
  5
344
100
AcDbEntity
  8
0
100
AcDbLine
 62
7
  6
CONTINUOUS
 10
51.6551623112
 20
107.2524944589
 11
49.3551623112
 21
107.2524944589
  0
LINE
  5
345
100
AcDbEntity
  8
0
100
AcDbLine
 62
7
  6
CONTINUOUS
 10
59.8551623112
 20
107.2524944589
 11
61.8551623112
 21
107.2524944589
  0
LINE
  5
346
100
AcDbEntity
  8
0
100
AcDbLine
 62
7
  6
CONTINUOUS
 10
95.3944277335
 20
106.7717703951
 11
86.5296879239
 21
107.0039017764
  0
LINE
  5
347
100
AcDbEntity
  8
A_RUNDUNGEN
100
AcDbLine
 62
7
  6
CONTINUOUS
 10
86.303552458
 20
107.009823342
 11
82.9426743341
 21
107.0978310329
  0
LINE
  5
348
100
AcDbEntity
  8
0
100
AcDbLine
 62
7
  6
CONTINUOUS
 10
54.8551623112
 20
107.0524944589
 11
59.8551623112
 21
106.6150511413
  0
LINE
  5
349
100
AcDbEntity
  8
0
100
AcDbLine
 62
7
  6
CONTINUOUS
 10
59.8551623112
 20
111.2150511413
 11
54.8551623112
 21
111.6524944589
  0
LINE
  5
34A
100
AcDbEntity
  8
0
100
AcDbLine
 62
7
  6
CONTINUOUS
 10
80.855162311
 20
108.452494459
 11
86.3042310204
 21
107.0357365946
  0
LINE
  5
34B
100
AcDbEntity
  8
0
100
AcDbLine
 62
7
  6
CONTINUOUS
 10
99.8551623112
 20
80.6524944591
 11
99.8551623112
 21
73.6524944591
  0
LINE
  5
34C
100
AcDbEntity
  8
0
100
AcDbLine
 62
7
  6
CONTINUOUS
 10
99.8551623111
 20
89.1524944591
 11
99.8551623111
 21
90.1524944591
  0
LINE
  5
34D
100
AcDbEntity
  8
0
100
AcDbLine
 62
7
  6
CONTINUOUS
 10
99.8551623111
 20
92.6494800521
 11
99.8551623111
 21
94.5701628307
  0
LINE
  5
34E
100
AcDbEntity
  8
0
100
AcDbLine
 62
7
  6
CONTINUOUS
 10
99.8551623111
 20
97.0671484237
 11
99.8551623111
 21
98.1524944591
  0
LINE
  5
34F
100
AcDbEntity
  8
0
100
AcDbLine
 62
7
  6
CONTINUOUS
 10
100.3551623112
 20
68.5524944591
 11
100.355162311
 21
109.2524944591
  0
LINE
  5
350
100
AcDbEntity
  8
IMPORT_KE
100
AcDbLine
 62
2
  6
CONTINUOUS
 10
25.5577803112
 20
109.4498994589
 11
17.3420733112
 21
109.3782014589
  0
LINE
  5
351
100
AcDbEntity
  8
0
100
AcDbLine
 62
7
  6
CONTINUOUS
 10
17.3420723954
 20
109.3782014509
 11
25.5577802891
 21
109.4498994587
  0
LINE
  5
352
100
AcDbEntity
  8
0
100
AcDbLine
 62
7
  6
CONTINUOUS
 10
54.8551623112
 20
107.6524944589
 11
53.8551623112
 21
107.6524944589
  0
LINE
  5
353
100
AcDbEntity
  8
0
100
AcDbLine
 62
7
  6
CONTINUOUS
 10
48.8551623112
 20
108.3024944589
 11
47.8551623112
 21
108.3024944589
  0
LINE
  5
354
100
AcDbEntity
  8
QUER2
100
AcDbLine
 62
7
  6
CONTINUOUS
 10
75.3551623112
 20
108.6524944589
 11
72.8551623112
 21
108.6524944589
  0
LINE
  5
355
100
AcDbEntity
  8
0
100
AcDbLine
 62
7
  6
CONTINUOUS
 10
100.355162311
 20
109.2524944591
 11
80.855162311
 21
109.252494459
  0
LINE
  5
356
100
AcDbEntity
  8
QUER2
100
AcDbLine
 62
7
  6
CONTINUOUS
 10
65.3551623112
 20
109.8524944589
 11
71.3854684655
 21
109.8524944589
  0
LINE
  5
357
100
AcDbEntity
  8
0
100
AcDbLine
 62
7
  6
CONTINUOUS
 10
45.6051623112
 20
110.5524944589
 11
42.8551623112
 21
110.5524944589
  0
LINE
  5
358
100
AcDbEntity
  8
0
100
AcDbLine
 62
7
  6
CONTINUOUS
 10
70.0551623112
 20
111.4024944589
 11
65.6551623112
 21
111.4024944589
  0
LINE
  5
359
100
AcDbEntity
  8
QUER2
100
AcDbLine
 62
7
  6
CONTINUOUS
 10
62.3551623112
 20
111.5524944589
 11
65.3551623112
 21
111.5524944589
  0
LINE
  5
35A
100
AcDbEntity
  8
0
100
AcDbLine
 62
7
  6
CONTINUOUS
 10
48.8551623112
 20
112.6524944589
 11
51.6551623112
 21
112.6524944589
  0
LINE
  5
35B
100
AcDbEntity
  8
0
100
AcDbLine
 62
7
  6
CONTINUOUS
 10
65.0551623112
 20
113.1524944589
 11
53.8551623112
 21
113.1524944589
  0
LINE
  5
35C
100
AcDbEntity
  8
A_ACHSEN
100
AcDbLine
 62
7
  6
CENTER
 10
41.8551623112
 20
113.5524944589
 11
51.8551623112
 21
113.5524944589
  0
LINE
  5
35D
100
AcDbEntity
  8
A_FLAECHEN
100
AcDbLine
 62
8
  6
HIDDEN
 10
68.150546757
 20
113.6454537316
 11
70.1551623112
 21
113.6454537316
  0
LINE
  5
35E
100
AcDbEntity
  8
0
100
AcDbLine
 62
2
  6
CONTINUOUS
 10
53.3551623112
 20
113.6524944589
 11
65.3551623112
 21
113.6524944589
  0
LINE
  5
35F
100
AcDbEntity
  8
A_FLAECHEN
100
AcDbLine
 62
8
  6
HIDDEN
 10
67.8240820458
 20
114.0324944589
 11
70.1551623112
 21
114.0324944589
  0
LINE
  5
360
100
AcDbEntity
  8
0
100
AcDbLine
 62
7
  6
CONTINUOUS
 10
98.3656342387
 20
108.9665603637
 11
80.855162311
 21
109.0582458181
  0
LINE
  5
361
100
AcDbEntity
  8
0
100
AcDbLine
 62
7
  6
CONTINUOUS
 10
172.855162311
 20
114.5524944595
 11
170.355162311
 21
114.5524944595
  0
LINE
  5
362
100
AcDbEntity
  8
A_ACHSEN
100
AcDbLine
 62
7
  6
CENTER
 10
50.3551623112
 20
115.6524944589
 11
73.3551623112
 21
115.6524944589
  0
LINE
  5
363
100
AcDbEntity
  8
0
100
AcDbLine
 62
7
  6
CONTINUOUS
 10
45.6051623112
 20
116.5524944589
 11
42.8551623112
 21
116.5524944589
  0
LINE
  5
364
100
AcDbEntity
  8
0
100
AcDbLine
 62
7
  6
CONTINUOUS
 10
43.3551623112
 20
117.0524944589
 11
42.8551623112
 21
117.0524944589
  0
LINE
  5
365
100
AcDbEntity
  8
A_FLAECHEN
100
AcDbLine
 62
8
  6
HIDDEN
 10
67.8240820458
 20
117.2724944589
 11
70.1551623112
 21
117.2724944589
  0
LINE
  5
366
100
AcDbEntity
  8
0
100
AcDbLine
 62
2
  6
CONTINUOUS
 10
53.3551623112
 20
117.6524944589
 11
65.3551623112
 21
117.6524944589
  0
LINE
  5
367
100
AcDbEntity
  8
A_FLAECHEN
100
AcDbLine
 62
8
  6
HIDDEN
 10
68.150546757
 20
117.6595351862
 11
70.1551623112
 21
117.6595351862
  0
LINE
  5
368
100
AcDbEntity
  8
0
100
AcDbLine
 62
7
  6
CONTINUOUS
 10
43.3551623112
 20
118.1091944589
 11
42.8551623112
 21
118.1091944589
  0
LINE
  5
369
100
AcDbEntity
  8
0
100
AcDbLine
 62
7
  6
CONTINUOUS
 10
65.0551623112
 20
118.1524944589
 11
53.8551623112
 21
118.1524944589
  0
LINE
  5
36A
100
AcDbEntity
  8
0
100
AcDbLine
 62
7
  6
CONTINUOUS
 10
43.3551623112
 20
118.1824561523
 11
42.8551623112
 21
118.1824561523
  0
LINE
  5
36B
100
AcDbEntity
  8
0
100
AcDbLine
 62
7
  6
CONTINUOUS
 10
43.3551623112
 20
118.3289795391
 11
42.8551623112
 21
118.3289795391
  0
LINE
  5
36C
100
AcDbEntity
  8
0
100
AcDbLine
 62
7
  6
CONTINUOUS
 10
43.3551623112
 20
118.6220263127
 11
42.8551623112
 21
118.6220263127
  0
LINE
  5
36D
100
AcDbEntity
  8
0
100
AcDbLine
 62
7
  6
CONTINUOUS
 10
48.8551623112
 20
118.6524944589
 11
51.6551623112
 21
118.6524944589
  0
LINE
  5
36E
100
AcDbEntity
  8
0
100
AcDbLine
 62
7
  6
CONTINUOUS
 10
48.8551623112
 20
118.8024944589
 11
47.8551623112
 21
118.8024944589
  0
LINE
  5
36F
100
AcDbEntity
  8
0
100
AcDbLine
 62
7
  6
CONTINUOUS
 10
43.3551623112
 20
118.9150730863
 11
42.8551623112
 21
118.9150730863
  0
LINE
  5
370
100
AcDbEntity
  8
0
100
AcDbLine
 62
7
  6
CONTINUOUS
 10
43.3551623112
 20
119.2813817585
 11
42.8551623112
 21
119.2813817585
  0
LINE
  5
371
100
AcDbEntity
  8
0
100
AcDbLine
 62
7
  6
CONTINUOUS
 10
187.8551623109
 20
119.5524944596
 11
172.8551623109
 21
119.5524944595
  0
LINE
  5
372
100
AcDbEntity
  8
QUER2
100
AcDbLine
 62
7
  6
CONTINUOUS
 10
62.3551623112
 20
119.7524944589
 11
65.3551623112
 21
119.7524944589
  0
LINE
  5
373
100
AcDbEntity
  8
0
100
AcDbLine
 62
7
  6
CONTINUOUS
 10
70.0551623112
 20
119.9024944589
 11
65.6551623112
 21
119.9024944589
  0
LINE
  5
374
100
AcDbEntity
  8
0
100
AcDbLine
 62
7
  6
CONTINUOUS
 10
43.3551623112
 20
120.380307262
 11
42.8551623112
 21
120.380307262
  0
LINE
  5
375
100
AcDbEntity
  8
0
100
AcDbLine
 62
7
  6
CONTINUOUS
 10
43.3551623112
 20
120.746615729
 11
42.8551623112
 21
120.746615729
  0
LINE
  5
376
100
AcDbEntity
  8
0
100
AcDbLine
 62
7
  6
CONTINUOUS
 10
43.3551623112
 20
121.0396625539
 11
42.8551623112
 21
121.0396625539
  0
LINE
  5
377
100
AcDbEntity
  8
IMPORT_KE
100
AcDbLine
 62
6
  6
CONTINUOUS
 10
70.9598913112
 20
131.7524944589
 11
75.8551623112
 21
129.4697914589
  0
LINE
  5
378
100
AcDbEntity
  8
IMPORT_KE
100
AcDbLine
 62
6
  6
CONTINUOUS
 10
72.8528533112
 20
131.7524944589
 11
75.8551623112
 21
130.3524944589
  0
LINE
  5
379
100
AcDbEntity
  8
IMPORT_KE
100
AcDbLine
 62
6
  6
CONTINUOUS
 10
90.2421633112
 20
129.2064094589
 11
90.8551623112
 21
128.8524944589
  0
LINE
  5
37A
100
AcDbEntity
  8
IMPORT_KE
100
AcDbLine
 62
6
  6
CONTINUOUS
 10
90.4000023112
 20
129.6926314589
 11
91.8551623112
 21
128.8524944589
  0
LINE
  5
37B
100
AcDbEntity
  8
IMPORT_KE
100
AcDbLine
 62
6
  6
CONTINUOUS
 10
92.1308983112
 20
128.8524944589
 11
90.7844523112
 21
130.1989404589
  0
LINE
  5
37C
100
AcDbEntity
  8
IMPORT_KE
100
AcDbLine
 62
6
  6
CONTINUOUS
 10
91.5622693112
 20
130.5524944589
 11
93.2087163112
 21
128.9060474589
  0
LINE
  5
37D
100
AcDbEntity
  8
0
100
AcDbLine
 62
7
  6
CONTINUOUS
 10
89.6318010718
 20
162.9205751166
 11
93.7948552221
 21
151.4826777037
  0
LINE
  5
37E
100
AcDbEntity
  8
IMPORT_KE
100
AcDbLine
 62
2
  6
CONTINUOUS
 10
93.7948553112
 20
151.4826774589
 11
89.6318013112
 21
162.9205744589
  0
LINE
  5
37F
100
AcDbEntity
  8
QUER2
100
AcDbLine
 62
7
  6
CONTINUOUS
 10
85.627702541
 20
82.165488135
 11
82.0921686351
 21
78.6299542291
  0
LINE
  5
380
100
AcDbEntity
  8
0
100
AcDbLine
 62
7
  6
CONTINUOUS
 10
50.3289837015
 20
125.0331159513
 11
74.3551623112
 21
125.4524944589
  0
LINE
  5
381
100
AcDbEntity
  8
0
100
AcDbLine
 62
7
  6
CONTINUOUS
 10
56.3420725079
 20
123.7214772091
 11
62.3551623112
 21
123.7739526488
  0
LINE
  5
382
100
AcDbEntity
  8
A_RUNDUNGEN
100
AcDbLine
 62
7
  6
CONTINUOUS
 10
62.3551623112
 20
123.7739526488
 11
67.2737648915
 21
123.8168766432
  0
LINE
  5
383
100
AcDbEntity
  8
0
100
AcDbLine
 62
7
  6
CONTINUOUS
 10
67.2737648915
 20
123.8168766432
 11
71.3551623112
 21
123.8524944589
  0
LINE
  5
384
100
AcDbEntity
  8
0
100
AcDbLine
 62
7
  6
CONTINUOUS
 10
74.3551623112
 20
124.0524944589
 11
53.1420725079
 21
123.8673706288
  0
LINE
  5
385
100
AcDbEntity
  8
0
100
AcDbLine
 62
7
  6
CONTINUOUS
 10
44.8446903835
 20
125.3490237843
 11
48.8551623112
 21
125.3700227581
  0
LINE
  5
386
100
AcDbEntity
  8
A_RUNDUNGEN
100
AcDbLine
 62
7
  6
CONTINUOUS
 10
48.8551623112
 20
125.3700227581
 11
74.1551623112
 21
125.5024944589
  0
LINE
  5
387
100
AcDbEntity
  8
0
100
AcDbLine
 62
7
  6
CONTINUOUS
 10
43.3551623112
 20
121.3327093531
 11
42.8551623112
 21
121.3327093531
  0
LINE
  5
388
100
AcDbEntity
  8
QUER2
100
AcDbLine
 62
7
  6
CONTINUOUS
 10
65.3551623112
 20
121.4524944589
 11
71.3551623112
 21
121.4524944589
  0
LINE
  5
389
100
AcDbEntity
  8
0
100
AcDbLine
 62
7
  6
CONTINUOUS
 10
43.3551623112
 20
121.4792327591
 11
42.8551623112
 21
121.4792327591
  0
LINE
  5
38A
100
AcDbEntity
  8
0
100
AcDbLine
 62
7
  6
CONTINUOUS
 10
43.3551623112
 20
121.5524944589
 11
42.8551623112
 21
121.5524944589
  0
LINE
  5
38B
100
AcDbEntity
  8
QUER2
100
AcDbLine
 62
7
  6
CONTINUOUS
 10
71.0551623112
 20
122.2524944589
 11
62.6551623112
 21
122.2524944589
  0
LINE
  5
38C
100
AcDbEntity
  8
0
100
AcDbLine
 62
7
  6
CONTINUOUS
 10
43.3551623112
 20
122.7246816558
 11
42.8551623112
 21
122.7246816558
  0
LINE
  5
38D
100
AcDbEntity
  8
0
100
AcDbLine
 62
7
  6
CONTINUOUS
 10
43.3551623112
 20
123.0524944589
 11
42.8551623112
 21
123.0524944589
  0
LINE
  5
38E
100
AcDbEntity
  8
A_RUNDUNGEN
100
AcDbLine
 62
7
  6
CONTINUOUS
 10
57.4278149841
 20
123.8524944589
 11
66.2551623112
 21
123.8524944589
  0
LINE
  5
38F
100
AcDbEntity
  8
A_RUNDUNGEN
100
AcDbLine
 62
7
  6
CONTINUOUS
 10
75.8551623112
 20
125.4524944589
 11
74.3551623112
 21
125.4524944589
  0
LINE
  5
390
100
AcDbEntity
  8
0
100
AcDbLine
 62
7
  6
CONTINUOUS
 10
42.8551623112
 20
125.5524944589
 11
75.8551623112
 21
125.5524944589
  0
LINE
  5
391
100
AcDbEntity
  8
0
100
AcDbLine
 62
7
  6
CONTINUOUS
 10
83.7376883109
 20
126.552494459
 11
98.0160623109
 21
126.5524944591
  0
LINE
  5
392
100
AcDbEntity
  8
IMPORT_KE
100
AcDbLine
 62
2
  6
CONTINUOUS
 10
75.8551623112
 20
127.5524944589
 11
67.3551623112
 21
127.5524944589
  0
LINE
  5
393
100
AcDbEntity
  8
0
100
AcDbLine
 62
7
  6
CONTINUOUS
 10
67.3551623112
 20
127.5524944589
 11
75.8551623112
 21
127.5524944589
  0
LINE
  5
394
100
AcDbEntity
  8
IMPORT_KE
100
AcDbLine
 62
6
  6
CONTINUOUS
 10
82.3551623112
 20
128.0524944589
 11
88.1731773112
 21
128.0524944589
  0
LINE
  5
395
100
AcDbEntity
  8
IMPORT_KE
100
AcDbLine
 62
6
  6
CONTINUOUS
 10
90.7551623112
 20
128.0524944589
 11
92.8551623112
 21
128.0524944589
  0
LINE
  5
396
100
AcDbEntity
  8
0
100
AcDbLine
 62
7
  6
CONTINUOUS
 10
25.5577802773
 20
122.6550894592
 11
17.8420724982
 21
122.722423466
  0
LINE
  5
397
100
AcDbEntity
  8
IMPORT_KE
100
AcDbLine
 62
2
  6
CONTINUOUS
 10
25.5577803112
 20
122.6550894589
 11
17.8420733112
 21
122.7224234589
  0
LINE
  5
398
100
AcDbEntity
  8
0
100
AcDbLine
 62
7
  6
CONTINUOUS
 10
100.3551623112
 20
81.1524944591
 11
99.8551623112
 21
80.6524944591
  0
LINE
  5
399
100
AcDbEntity
  8
QUER2
100
AcDbLine
 62
7
  6
CONTINUOUS
 10
84.4890671943
 20
82.6374675663
 11
84.9369750125
 21
82.8463304121
  0
LINE
  5
39A
100
AcDbEntity
  8
QUER2
100
AcDbLine
 62
7
  6
CONTINUOUS
 10
79.1129998754
 20
81.7904617213
 11
80.721180985
 21
82.5123562222
  0
LINE
  5
39B
100
AcDbEntity
  8
0
100
AcDbLine
 62
7
  6
CONTINUOUS
 10
192.1971821688
 20
124.2009644079
 11
190.3291029416
 21
123.5210400532
  0
LINE
  5
39C
100
AcDbEntity
  8
IMPORT_KE
100
AcDbLine
 62
6
  6
CONTINUOUS
 10
82.6551623112
 20
128.8524944589
 11
88.3751313112
 21
128.8524944589
  0
LINE
  5
39D
100
AcDbEntity
  8
IMPORT_KE
100
AcDbLine
 62
6
  6
CONTINUOUS
 10
91.8551623112
 20
128.8524944589
 11
92.1308983112
 21
128.8524944589
  0
LINE
  5
39E
100
AcDbEntity
  8
IMPORT_KE
100
AcDbLine
 62
6
  6
CONTINUOUS
 10
76.8551623112
 20
129.5524944589
 11
81.8551623112
 21
129.5524944589
  0
LINE
  5
39F
100
AcDbEntity
  8
IMPORT_KE
100
AcDbLine
 62
6
  6
CONTINUOUS
 10
75.8551623112
 20
130.3524944589
 11
81.8551623112
 21
130.3524944589
  0
LINE
  5
3A0
100
AcDbEntity
  8
IMPORT_KE
100
AcDbLine
 62
6
  6
CONTINUOUS
 10
76.2209063112
 20
131.7524944589
 11
72.8528533112
 21
131.7524944589
  0
LINE
  5
3A1
100
AcDbEntity
  8
IMPORT_KE
100
AcDbLine
 62
6
  6
CONTINUOUS
 10
69.6873023112
 20
131.7524944589
 11
70.9598913112
 21
131.7524944589
  0
LINE
  5
3A2
100
AcDbEntity
  8
IMPORT_KE
100
AcDbLine
 62
6
  6
CONTINUOUS
 10
91.8308983112
 20
131.9524944589
 11
84.5865333112
 21
131.9524944589
  0
LINE
  5
3A3
100
AcDbEntity
  8
IMPORT_KE
100
AcDbLine
 62
6
  6
CONTINUOUS
 10
83.4551623112
 20
131.9524944589
 11
77.3551623112
 21
131.9524944589
  0
LINE
  5
3A4
100
AcDbEntity
  8
0
100
AcDbLine
 62
7
  6
CONTINUOUS
 10
75.9891373112
 20
132.5524944589
 11
67.3551623112
 21
132.5524944589
  0
LINE
  5
3A5
100
AcDbEntity
  8
IMPORT_KE
100
AcDbLine
 62
2
  6
CONTINUOUS
 10
75.9891373112
 20
132.5524944589
 11
67.3551623112
 21
132.5524944589
  0
LINE
  5
3A6
100
AcDbEntity
  8
IMPORT_KE
100
AcDbLine
 62
6
  6
CONTINUOUS
 10
76.1410203112
 20
132.7524944589
 11
69.3551623112
 21
132.7524944589
  0
LINE
  5
3A7
100
AcDbEntity
  8
0
100
AcDbLine
 62
7
  6
CONTINUOUS
 10
92.3551623112
 20
133.0524944589
 11
76.8551623112
 21
133.0524944589
  0
LINE
  5
3A8
100
AcDbEntity
  8
IMPORT_KE
100
AcDbLine
 62
6
  6
CONTINUOUS
 10
92.8551623112
 20
133.0524944589
 11
76.8551623112
 21
133.0524944589
  0
LINE
  5
3A9
100
AcDbEntity
  8
IMPORT_KE
100
AcDbLine
 62
6
  6
CONTINUOUS
 10
77.3551623112
 20
131.9524944589
 11
76.2209063112
 21
131.7524944589
  0
LINE
  5
3AA
100
AcDbEntity
  8
IMPORT_KE
100
AcDbLine
 62
2
  6
CONTINUOUS
 10
25.5577803112
 20
140.4498994589
 11
17.8420733112
 21
140.3825654589
  0
LINE
  5
3AB
100
AcDbEntity
  8
0
100
AcDbLine
 62
7
  6
CONTINUOUS
 10
17.8420724982
 20
140.3825654518
 11
25.5577802686
 21
140.4498994585
  0
LINE
  5
3AC
100
AcDbEntity
  8
0
100
AcDbLine
 62
7
  6
CONTINUOUS
 10
103.6647113108
 20
139.5524944591
 11
184.8730303108
 21
139.5524944596
  0
LINE
  5
3AD
100
AcDbEntity
  8
0
100
AcDbLine
 62
7
  6
CONTINUOUS
 10
19.0288106402
 20
159.9928945772
 11
16.6815141834
 21
160.4067864815
  0
LINE
  5
3AE
100
AcDbEntity
  8
IMPORT_KE
100
AcDbLine
 62
2
  6
CONTINUOUS
 10
16.6815143112
 20
160.4067864589
 11
19.0288113112
 21
159.9928944589
  0
LINE
  5
3AF
100
AcDbEntity
  8
0
100
AcDbLine
 62
7
  6
CONTINUOUS
 10
25.5577802966
 20
153.655089459
 11
20.3507990081
 21
153.7005304616
  0
LINE
  5
3B0
100
AcDbEntity
  8
IMPORT_KE
100
AcDbLine
 62
2
  6
CONTINUOUS
 10
25.5577803112
 20
153.6550894589
 11
20.3507993112
 21
153.7005304589
  0
LINE
  5
3B1
100
AcDbEntity
  8
0
100
AcDbLine
 62
7
  6
CONTINUOUS
 10
188.3551623109
 20
120.0524944596
 11
187.8551623109
 21
119.5524944596
  0
LINE
  5
3B2
100
AcDbEntity
  8
IMPORT_KE
100
AcDbLine
 62
2
  6
CONTINUOUS
 10
85.8730303112
 20
165.5524944589
 11
17.8551623112
 21
165.5524944589
  0
LINE
  5
3B3
100
AcDbEntity
  8
0
100
AcDbLine
 62
7
  6
CONTINUOUS
 10
17.8551623112
 20
165.5524944589
 11
85.8730303112
 21
165.5524944589
  0
LINE
  5
3B4
100
AcDbEntity
  8
0
100
AcDbLine
 62
7
  6
CONTINUOUS
 10
170.355162311
 20
114.5524944595
 11
170.355162311
 21
106.5524944595
  0
LINE
  5
3B5
100
AcDbEntity
  8
0
100
AcDbLine
 62
7
  6
CONTINUOUS
 10
172.8551623109
 20
119.5524944595
 11
172.855162311
 21
114.5524944595
  0
LINE
  5
3B6
100
AcDbEntity
  8
0
100
AcDbLine
 62
7
  6
CONTINUOUS
 10
172.855162311
 20
106.5524944595
 11
172.8551623112
 21
67.5524944595
  0
LINE
  5
3B7
100
AcDbEntity
  8
0
100
AcDbLine
 62
7
  6
CONTINUOUS
 10
188.3551623109
 20
120.7019614596
 11
188.3551623109
 21
120.0524944596
  0
LINE
  5
3B8
100
AcDbEntity
  8
0
100
AcDbLine
 62
7
  6
CONTINUOUS
 10
188.6318001884
 20
136.9205747959
 11
192.7948543388
 21
125.482677383
  0
ARC
  5
3B9
100
AcDbEntity
  8
0
100
AcDbCircle
 62
7
  6
CONTINUOUS
 10
17.8551623112
 20
89.5524944589
 40
2.0
100
AcDbArc
 50
180.0
 51
270.0
  0
ARC
  5
3BA
100
AcDbEntity
  8
IMPORT_KE
100
AcDbCircle
 62
2
  6
CONTINUOUS
 10
17.8551623112
 20
89.5524944589
 40
2.0
100
AcDbArc
 50
180.0
 51
270.0
  0
ARC
  5
3BB
100
AcDbEntity
  8
0
100
AcDbCircle
 62
7
  6
CONTINUOUS
 10
44.8551623112
 20
97.755937718
 40
2.0
100
AcDbArc
 50
180.0
 51
269.7
  0
ARC
  5
3BC
100
AcDbEntity
  8
0
100
AcDbCircle
 62
7
  6
CONTINUOUS
 10
56.3551623112
 20
98.8834545934
 40
1.5
100
AcDbArc
 50
180.0
 51
269.5
  0
ARC
  5
3BD
100
AcDbEntity
  8
0
100
AcDbCircle
 62
7
  6
CONTINUOUS
 10
50.3551623112
 20
97.5716445093
 40
1.5
100
AcDbArc
 50
180.0
 51
269.0
  0
ARC
  5
3BE
100
AcDbEntity
  8
0
100
AcDbCircle
 62
7
  6
CONTINUOUS
 10
53.1551623112
 20
98.7375611737
 40
1.5
100
AcDbArc
 50
180.0
 51
269.5
  0
ARC
  5
3BF
100
AcDbEntity
  8
0
100
AcDbCircle
 62
7
  6
CONTINUOUS
 10
17.3551623112
 20
107.8782584589
 40
1.5
100
AcDbArc
 50
90.5000042622
 51
180.0
  0
ARC
  5
3C0
100
AcDbEntity
  8
IMPORT_KE
100
AcDbCircle
 62
2
  6
CONTINUOUS
 10
17.3551623112
 20
107.8782584589
 40
1.5
100
AcDbArc
 50
90.4999692809
 51
180.0
  0
ARC
  5
3C1
100
AcDbEntity
  8
A_RUNDUNGEN
100
AcDbCircle
 62
7
  6
CONTINUOUS
 10
57.7551623112
 20
98.1973985426
 40
1.0
100
AcDbArc
 50
235.7510301834
 51
269.5
  0
ARC
  5
3C2
100
AcDbEntity
  8
0
100
AcDbCircle
 62
7
  6
CONTINUOUS
 10
25.5551623112
 20
109.7498874589
 40
0.3
100
AcDbArc
 50
270.5000042622
 51
360.0
  0
ARC
  5
3C3
100
AcDbEntity
  8
IMPORT_KE
100
AcDbCircle
 62
2
  6
CONTINUOUS
 10
25.5551623112
 20
109.7498874589
 40
0.3
100
AcDbArc
 50
270.5000084766
 51
360.0
  0
ARC
  5
3C4
100
AcDbEntity
  8
QUER2
100
AcDbCircle
 62
7
  6
CONTINUOUS
 10
68.4418610518
 20
73.8752220648
 40
13.3928774596
100
AcDbArc
 50
62.727386009
 51
67.20682206
  0
ARC
  5
3C5
100
AcDbEntity
  8
QUER2
100
AcDbCircle
 62
7
  6
CONTINUOUS
 10
68.4418610518
 20
73.8752220648
 40
13.3928774596
100
AcDbArc
 50
55.2845037669
 51
59.2844205334
  0
ARC
  5
3C6
100
AcDbEntity
  8
QUER2
100
AcDbCircle
 62
7
  6
CONTINUOUS
 10
68.4418610518
 20
73.8752220648
 40
13.3928774596
100
AcDbArc
 50
47.7810361635
 51
51.8421451123
  0
ARC
  5
3C7
100
AcDbEntity
  8
QUER2
100
AcDbCircle
 62
7
  6
CONTINUOUS
 10
68.4418610518
 20
73.8752220648
 40
13.3928774596
100
AcDbArc
 50
39.9704349704
 51
44.3393766357
  0
ARC
  5
3C8
100
AcDbEntity
  8
QUER2
100
AcDbCircle
 62
7
  6
CONTINUOUS
 10
68.4418610518
 20
73.8752220648
 40
13.3928774596
100
AcDbArc
 50
77.598515657
 51
97.5210600325
  0
ARC
  5
3C9
100
AcDbEntity
  8
QUER2
100
AcDbCircle
 62
7
  6
CONTINUOUS
 10
68.4418610518
 20
73.8752220648
 40
11.478516903
100
AcDbArc
 50
30.8333048429
 51
97.8460018237
  0
ARC
  5
3CA
100
AcDbEntity
  8
0
100
AcDbCircle
 62
7
  6
CONTINUOUS
 10
68.3551623112
 20
74.1524944589
 40
5.5
100
AcDbArc
 50
65.390016476
 51
294.6099835241
  0
ARC
  5
3CB
100
AcDbEntity
  8
QUER2
100
AcDbCircle
 62
7
  6
CONTINUOUS
 10
68.3551623112
 20
74.1524944589
 40
5.0
100
AcDbArc
 50
90.0
 51
270.0
  0
ARC
  5
3CC
100
AcDbEntity
  8
0
100
AcDbCircle
 62
7
  6
CONTINUOUS
 10
65.8551623112
 20
67.5524944589
 40
3.0
100
AcDbArc
 50
180.0000000003
 51
270.0000000003
  0
CIRCLE
  5
3CD
100
AcDbEntity
  8
QUER2
100
AcDbCircle
 62
7
  6
CONTINUOUS
 10
68.3551623112
 20
74.1524944589
 40
2.5
  0
CIRCLE
  5
3CE
100
AcDbEntity
  8
A_ACHSEN
100
AcDbCircle
 62
7
  6
CONTINUOUS
 10
68.3551623112
 20
74.1524944589
 40
2.45
  0
CIRCLE
  5
3CF
100
AcDbEntity
  8
A_ACHSEN
100
AcDbCircle
 62
7
  6
CONTINUOUS
 10
68.3551623112
 20
74.1524944589
 40
1.6215728753
  0
ARC
  5
3D0
100
AcDbEntity
  8
0
100
AcDbCircle
 62
7
  6
CONTINUOUS
 10
65.8551623112
 20
78.5524944589
 40
3.0
100
AcDbArc
 50
90.0000000003
 51
135.1506922722
  0
ARC
  5
3D1
100
AcDbEntity
  8
0
100
AcDbCircle
 62
7
  6
CONTINUOUS
 10
73.8551623112
 20
89.5524944589
 40
2.0
100
AcDbArc
 50
270.0
 51
360.0
  0
ARC
  5
3D2
100
AcDbEntity
  8
IMPORT_KE
100
AcDbCircle
 62
2
  6
CONTINUOUS
 10
73.8551623112
 20
89.5524944589
 40
2.0
100
AcDbArc
 50
270.0
 51
360.0
  0
ARC
  5
3D3
100
AcDbEntity
  8
QUER2
100
AcDbCircle
 62
7
  6
CONTINUOUS
 10
71.4259899436
 20
87.4461422543
 40
0.5022619795
100
AcDbArc
 50
257.598515657
 51
0.8619182248
  0
ARC
  5
3D4
100
AcDbEntity
  8
QUER2
100
AcDbCircle
 62
7
  6
CONTINUOUS
 10
73.2580285469
 20
86.3748194482
 40
0.4023630867
100
AcDbArc
 50
176.5890765054
 51
337.7153682265
  0
ARC
  5
3D5
100
AcDbEntity
  8
QUER2
100
AcDbCircle
 62
7
  6
CONTINUOUS
 10
66.8334312245
 20
85.547342234
 40
0.3039037208
100
AcDbArc
 50
184.5937440552
 51
277.8460018237
  0
ARC
  5
3D6
100
AcDbEntity
  8
QUER2
100
AcDbCircle
 62
7
  6
CONTINUOUS
 10
66.7286373509
 20
86.8515889711
 40
0.3039037208
100
AcDbArc
 50
97.5210600325
 51
184.5937440552
  0
ARC
  5
3D7
100
AcDbEntity
  8
QUER2
100
AcDbCircle
 62
7
  6
CONTINUOUS
 10
80.8208732479
 20
80.1133816506
 40
0.6
100
AcDbArc
 50
350.0
 51
121.8763603803
  0
ARC
  5
3D8
100
AcDbEntity
  8
QUER2
100
AcDbCircle
 62
7
  6
CONTINUOUS
 10
80.9187472418
 20
79.8889084273
 40
0.5837
100
AcDbArc
 50
8.4071409463
 51
121.8587620103
  0
ARC
  5
3D9
100
AcDbEntity
  8
QUER2
100
AcDbCircle
 62
7
  6
CONTINUOUS
 10
78.7293019502
 20
80.0158753193
 40
0.5022619795
100
AcDbArc
 50
210.8333048429
 51
290.547271683
  0
ARC
  5
3DA
100
AcDbEntity
  8
QUER2
100
AcDbCircle
 62
7
  6
CONTINUOUS
 10
81.8644802516
 20
79.1093726267
 40
0.5
100
AcDbArc
 50
170.9328996899
 51
315.0
  0
ARC
  5
3DB
100
AcDbEntity
  8
QUER2
100
AcDbCircle
 62
7
  6
CONTINUOUS
 10
81.7386152445
 20
78.9835076197
 40
0.5
100
AcDbArc
 50
170.0
 51
315.0
  0
ARC
  5
3DC
100
AcDbEntity
  8
QUER2
100
AcDbCircle
 62
7
  6
CONTINUOUS
 10
77.7226668441
 20
83.506009675
 40
0.4023630867
100
AcDbArc
 50
134.3466524339
 51
317.7737603653
  0
ARC
  5
3DD
100
AcDbEntity
  8
QUER2
100
AcDbCircle
 62
7
  6
CONTINUOUS
 10
78.9482235511
 20
82.1575377576
 40
0.4023630867
100
AcDbArc
 50
127.0417644818
 51
294.1747780881
  0
ARC
  5
3DE
100
AcDbEntity
  8
QUER2
100
AcDbCircle
 62
7
  6
CONTINUOUS
 10
75.3551623112
 20
88.9024944589
 40
19.75
100
AcDbArc
 50
270.0
 51
90.0
  0
ARC
  5
3DF
100
AcDbEntity
  8
QUER2
100
AcDbCircle
 62
7
  6
CONTINUOUS
 10
75.3551623112
 20
88.9024944589
 40
9.75
100
AcDbArc
 50
270.0
 51
301.8763603803
  0
ARC
  5
3E0
100
AcDbEntity
  8
QUER2
100
AcDbCircle
 62
7
  6
CONTINUOUS
 10
75.3551623112
 20
88.9024944589
 40
9.75
100
AcDbArc
 50
328.1236396197
 51
90.0
  0
ARC
  5
3E1
100
AcDbEntity
  8
QUER2
100
AcDbCircle
 62
7
  6
CONTINUOUS
 10
75.5216169524
 20
88.5736876516
 40
9.6414848656
100
AcDbArc
 50
290.547271683
 51
301.8587620103
  0
ARC
  5
3E2
100
AcDbEntity
  8
QUER2
100
AcDbCircle
 62
7
  6
CONTINUOUS
 10
75.5216169524
 20
88.5736876516
 40
9.6414848656
100
AcDbArc
 50
328.2593605105
 51
340.8200823557
  0
ARC
  5
3E3
100
AcDbEntity
  8
QUER2
100
AcDbCircle
 62
7
  6
CONTINUOUS
 10
78.458963989
 20
87.551949451
 40
6.5315079261
100
AcDbArc
 50
352.5872491716
 51
180.8619182248
  0
ARC
  5
3E4
100
AcDbEntity
  8
QUER2
100
AcDbCircle
 62
7
  6
CONTINUOUS
 10
78.458963989
 20
87.551949451
 40
5.5240497507
100
AcDbArc
 50
294.1747780881
 51
176.5890765054
  0
ARC
  5
3E5
100
AcDbEntity
  8
QUER2
100
AcDbCircle
 62
7
  6
CONTINUOUS
 10
74.9329947118
 20
85.5883831342
 40
0.4023630867
100
AcDbArc
 50
151.6741664759
 51
330.3376400666
  0
ARC
  5
3E6
100
AcDbEntity
  8
QUER2
100
AcDbCircle
 62
7
  6
CONTINUOUS
 10
76.3980383021
 20
84.6522686595
 40
0.4023630867
100
AcDbArc
 50
144.829576765
 51
322.2970721142
  0
ARC
  5
3E7
100
AcDbEntity
  8
0
100
AcDbCircle
 62
7
  6
CONTINUOUS
 10
91.8551623112
 20
75.6524944591
 40
5.0
100
AcDbArc
 50
270.0000000003
 51
360.0
  0
ARC
  5
3E8
100
AcDbEntity
  8
0
100
AcDbCircle
 62
7
  6
CONTINUOUS
 10
98.3551623112
 20
70.838401139
 40
2.0
100
AcDbArc
 50
270.3000000003
 51
360.0
  0
ARC
  5
3E9
100
AcDbEntity
  8
A_RUNDUNGEN
100
AcDbCircle
 62
7
  6
CONTINUOUS
 10
91.8551623444
 20
84.3627354112
 40
4.9999999497
100
AcDbArc
 50
359.9999994059
 51
50.0137376057
  0
ARC
  5
3EA
100
AcDbEntity
  8
A_RUNDUNGEN
100
AcDbCircle
 62
7
  6
CONTINUOUS
 10
93.8551623764
 20
83.9231415002
 40
2.999999909
100
AcDbArc
 50
270.4999987695
 51
359.6073082936
  0
ARC
  5
3EB
100
AcDbEntity
  8
QUER2
100
AcDbCircle
 62
7
  6
CONTINUOUS
 10
84.2341253571
 20
83.1841921005
 40
0.6032437788
100
AcDbArc
 50
148.2593605105
 51
295.0
  0
ARC
  5
3EC
100
AcDbEntity
  8
QUER2
100
AcDbCircle
 62
7
  6
CONTINUOUS
 10
84.1442751195
 20
83.4367835222
 40
0.6
100
AcDbArc
 50
148.1236396197
 51
280.0
  0
ARC
  5
3ED
100
AcDbEntity
  8
QUER2
100
AcDbCircle
 62
7
  6
CONTINUOUS
 10
85.1482841434
 20
82.3931765186
 40
0.5
100
AcDbArc
 50
315.0
 51
115.0
  0
ARC
  5
3EE
100
AcDbEntity
  8
QUER2
100
AcDbCircle
 62
7
  6
CONTINUOUS
 10
85.2741491504
 20
82.5190415256
 40
0.5
100
AcDbArc
 50
315.0
 51
100.0
  0
ARC
  5
3EF
100
AcDbEntity
  8
0
100
AcDbCircle
 62
7
  6
CONTINUOUS
 10
77.6621317474
 20
110.5524944589
 40
3.5547736725
100
AcDbArc
 50
175.9671753207
 51
184.0328246793
  0
ARC
  5
3F0
100
AcDbEntity
  8
0
100
AcDbCircle
 62
7
  6
CONTINUOUS
 10
98.355162311
 20
106.9665877792
 40
2.0
100
AcDbArc
 50
0.0000000003
 51
89.7000000003
  0
ARC
  5
3F1
100
AcDbEntity
  8
0
100
AcDbCircle
 62
7
  6
CONTINUOUS
 10
95.355162311
 20
105.2722844076
 40
1.5
100
AcDbArc
 50
0.0000000003
 51
88.5000000003
  0
ARC
  5
3F2
100
AcDbEntity
  8
QUER2
100
AcDbCircle
 62
7
  6
CONTINUOUS
 10
72.8551623112
 20
110.1524944589
 40
1.5
100
AcDbArc
 50
180.0
 51
270.0
  0
ARC
  5
3F3
100
AcDbEntity
  8
0
100
AcDbCircle
 62
7
  6
CONTINUOUS
 10
86.5558648722
 20
108.0035591014
 40
1.0
100
AcDbArc
 50
255.4257838023
 51
268.5000000003
  0
ARC
  5
3F4
100
AcDbEntity
  8
A_RUNDUNGEN
100
AcDbCircle
 62
7
  6
CONTINUOUS
 10
95.8551623111
 20
95.0455982198
 40
0.9999860771
100
AcDbArc
 50
271.5000417797
 51
0.0015959924
  0
ARC
  5
3F5
100
AcDbEntity
  8
A_RUNDUNGEN
100
AcDbCircle
 62
7
  6
CONTINUOUS
 10
65.0551623112
 20
112.8524944589
 40
0.3
100
AcDbArc
 50
0.0007005519
 51
90.0
  0
ARC
  5
3F6
100
AcDbEntity
  8
A_RUNDUNGEN
100
AcDbCircle
 62
7
  6
CONTINUOUS
 10
65.6551623112
 20
111.7024944589
 40
0.3
100
AcDbArc
 50
179.9999923139
 51
270.0
  0
ARC
  5
3F7
100
AcDbEntity
  8
A_RUNDUNGEN
100
AcDbCircle
 62
7
  6
CONTINUOUS
 10
70.0551623112
 20
111.7024944589
 40
0.3
100
AcDbArc
 50
270.0
 51
0.0001801248
  0
ARC
  5
3F8
100
AcDbEntity
  8
QUER2
100
AcDbCircle
 62
7
  6
CONTINUOUS
 10
62.6551623112
 20
98.9524944589
 40
0.3
100
AcDbArc
 50
180.0
 51
270.0
  0
ARC
  5
3F9
100
AcDbEntity
  8
A_RUNDUNGEN
100
AcDbCircle
 62
8
  6
HIDDEN
 10
70.1551623112
 20
113.4454537316
 40
0.2
100
AcDbArc
 50
0.0000004502
 51
90.0
  0
ARC
  5
3FA
100
AcDbEntity
  8
A_RUNDUNGEN
100
AcDbCircle
 62
8
  6
HIDDEN
 10
70.1551623112
 20
113.8324944589
 40
0.2
100
AcDbArc
 50
359.9980360846
 51
90.0
  0
ARC
  5
3FB
100
AcDbEntity
  8
0
100
AcDbCircle
 62
7
  6
CONTINUOUS
 10
44.8551623112
 20
123.3490511998
 40
2.0
100
AcDbArc
 50
90.3
 51
180.0
  0
ARC
  5
3FC
100
AcDbEntity
  8
0
100
AcDbCircle
 62
7
  6
CONTINUOUS
 10
17.8551623112
 20
124.2223664589
 40
1.5000001084
100
AcDbArc
 50
180.0
 51
269.4999996651
  0
ARC
  5
3FD
100
AcDbEntity
  8
IMPORT_KE
100
AcDbCircle
 62
2
  6
CONTINUOUS
 10
17.8551623112
 20
124.2223664589
 40
1.5000001084
100
AcDbArc
 50
180.0
 51
269.5000307191
  0
ARC
  5
3FE
100
AcDbEntity
  8
0
100
AcDbCircle
 62
7
  6
CONTINUOUS
 10
56.3551623112
 20
122.2215343245
 40
1.5
100
AcDbArc
 50
90.5
 51
180.0
  0
ARC
  5
3FF
100
AcDbEntity
  8
0
100
AcDbCircle
 62
7
  6
CONTINUOUS
 10
50.3551623112
 20
123.5333444086
 40
1.5
100
AcDbArc
 50
91.0
 51
180.0
  0
ARC
  5
400
100
AcDbEntity
  8
0
100
AcDbCircle
 62
7
  6
CONTINUOUS
 10
53.1551623112
 20
122.3674277442
 40
1.5
100
AcDbArc
 50
90.5
 51
180.0
  0
ARC
  5
401
100
AcDbEntity
  8
0
100
AcDbCircle
 62
7
  6
CONTINUOUS
 10
17.8551623112
 20
138.8826224589
 40
1.5
100
AcDbArc
 50
90.5000003349
 51
180.0
  0
ARC
  5
402
100
AcDbEntity
  8
IMPORT_KE
100
AcDbCircle
 62
2
  6
CONTINUOUS
 10
17.8551623112
 20
138.8826224589
 40
1.5
100
AcDbArc
 50
90.4999692809
 51
180.0
  0
ARC
  5
403
100
AcDbEntity
  8
A_RUNDUNGEN
100
AcDbCircle
 62
7
  6
CONTINUOUS
 10
57.7551394751
 20
122.9075901759
 40
0.999992388
100
AcDbArc
 50
90.4986915378
 51
124.247925682
  0
ARC
  5
404
100
AcDbEntity
  8
0
100
AcDbCircle
 62
7
  6
CONTINUOUS
 10
25.5551623112
 20
122.3551004589
 40
0.3000004234
100
AcDbArc
 50
0.0
 51
89.4999996651
  0
ARC
  5
405
100
AcDbEntity
  8
IMPORT_KE
100
AcDbCircle
 62
2
  6
CONTINUOUS
 10
25.5551623112
 20
122.3551004589
 40
0.3000004234
100
AcDbArc
 50
0.0
 51
89.49999319
  0
ARC
  5
406
100
AcDbEntity
  8
0
100
AcDbCircle
 62
7
  6
CONTINUOUS
 10
17.8551623112
 20
163.5524944589
 40
2.0
100
AcDbArc
 50
90.0
 51
180.0
  0
ARC
  5
407
100
AcDbEntity
  8
IMPORT_KE
100
AcDbCircle
 62
2
  6
CONTINUOUS
 10
17.8551623112
 20
163.5524944589
 40
2.0
100
AcDbArc
 50
90.0
 51
180.0
  0
ARC
  5
408
100
AcDbEntity
  8
0
100
AcDbCircle
 62
7
  6
CONTINUOUS
 10
18.8551623112
 20
159.0080864589
 40
1.000000386
100
AcDbArc
 50
0.0
 51
79.9999950958
  0
ARC
  5
409
100
AcDbEntity
  8
IMPORT_KE
100
AcDbCircle
 62
2
  6
CONTINUOUS
 10
18.8551623112
 20
159.0080864589
 40
1.000000386
100
AcDbArc
 50
0.0
 51
79.999956057
  0
ARC
  5
40A
100
AcDbEntity
  8
0
100
AcDbCircle
 62
7
  6
CONTINUOUS
 10
16.8551623112
 20
161.3915934589
 40
0.9999992276
100
AcDbArc
 50
180.0
 51
259.9999950958
  0
ARC
  5
40B
100
AcDbEntity
  8
IMPORT_KE
100
AcDbCircle
 62
2
  6
CONTINUOUS
 10
16.8551623112
 20
161.3915934589
 40
0.9999992276
100
AcDbArc
 50
180.0
 51
260.000002533
  0
ARC
  5
40C
100
AcDbEntity
  8
0
100
AcDbCircle
 62
7
  6
CONTINUOUS
 10
20.3551623112
 20
154.2005114589
 40
0.5000000361
100
AcDbArc
 50
180.0
 51
269.4999959815
  0
ARC
  5
40D
100
AcDbEntity
  8
IMPORT_KE
100
AcDbCircle
 62
2
  6
CONTINUOUS
 10
20.3551623112
 20
154.2005114589
 40
0.5000000361
100
AcDbArc
 50
180.0
 51
269.5000307191
  0
ARC
  5
40E
100
AcDbEntity
  8
0
100
AcDbCircle
 62
7
  6
CONTINUOUS
 10
25.5551623112
 20
140.7498874589
 40
0.3
100
AcDbArc
 50
270.5000003349
 51
360.0
  0
ARC
  5
40F
100
AcDbEntity
  8
IMPORT_KE
100
AcDbCircle
 62
2
  6
CONTINUOUS
 10
25.5551623112
 20
140.7498874589
 40
0.3
100
AcDbArc
 50
270.5000084766
 51
360.0
  0
ARC
  5
410
100
AcDbEntity
  8
0
100
AcDbCircle
 62
7
  6
CONTINUOUS
 10
25.5551623112
 20
153.3551004589
 40
0.3000004234
100
AcDbArc
 50
0.0
 51
89.4999959815
  0
ARC
  5
411
100
AcDbEntity
  8
IMPORT_KE
100
AcDbCircle
 62
2
  6
CONTINUOUS
 10
25.5551623112
 20
153.3551004589
 40
0.3000004234
100
AcDbArc
 50
0.0
 51
89.49999319
  0
ARC
  5
412
100
AcDbEntity
  8
A_RUNDUNGEN
100
AcDbCircle
 62
7
  6
CONTINUOUS
 10
65.0551623112
 20
118.4524944589
 40
0.3
100
AcDbArc
 50
270.0
 51
359.9992994481
  0
ARC
  5
413
100
AcDbEntity
  8
A_RUNDUNGEN
100
AcDbCircle
 62
7
  6
CONTINUOUS
 10
65.6551623112
 20
119.6024944589
 40
0.3
100
AcDbArc
 50
90.0
 51
180.0000076861
  0
ARC
  5
414
100
AcDbEntity
  8
A_RUNDUNGEN
100
AcDbCircle
 62
7
  6
CONTINUOUS
 10
70.0551623112
 20
119.6024944589
 40
0.3
100
AcDbArc
 50
359.9998198752
 51
90.0
  0
ARC
  5
415
100
AcDbEntity
  8
QUER2
100
AcDbCircle
 62
7
  6
CONTINUOUS
 10
62.6551623112
 20
121.9524944589
 40
0.3
100
AcDbArc
 50
90.0
 51
180.0
  0
ARC
  5
416
100
AcDbEntity
  8
QUER2
100
AcDbCircle
 62
7
  6
CONTINUOUS
 10
71.0551623112
 20
121.9524944589
 40
0.3
100
AcDbArc
 50
0.0
 51
90.0
  0
ARC
  5
417
100
AcDbEntity
  8
A_RUNDUNGEN
100
AcDbCircle
 62
8
  6
HIDDEN
 10
70.1551623112
 20
117.8595351862
 40
0.2
100
AcDbArc
 50
270.0
 51
359.9999995498
  0
ARC
  5
418
100
AcDbEntity
  8
A_RUNDUNGEN
100
AcDbCircle
 62
8
  6
HIDDEN
 10
70.1551623112
 20
117.4724944589
 40
0.2
100
AcDbArc
 50
270.0
 51
0.0019639154
  0
ARC
  5
419
100
AcDbEntity
  8
IMPORT_KE
100
AcDbCircle
 62
6
  6
CONTINUOUS
 10
69.3551623112
 20
131.7524944589
 40
1.000000287
100
AcDbArc
 50
90.0
 51
215.0000279098
  0
ARC
  5
41A
100
AcDbEntity
  8
IMPORT_KE
100
AcDbCircle
 62
6
  6
CONTINUOUS
 10
75.8551623112
 20
127.5524944589
 40
1.0
100
AcDbArc
 50
270.0
 51
360.0
  0
ARC
  5
41B
100
AcDbEntity
  8
IMPORT_KE
100
AcDbCircle
 62
2
  6
CONTINUOUS
 10
76.8551623112
 20
132.0524944589
 40
0.9999996503
100
AcDbArc
 50
135.5729621948
 51
149.9999884324
  0
ARC
  5
41C
100
AcDbEntity
  8
0
100
AcDbCircle
 62
7
  6
CONTINUOUS
 10
76.8551623112
 20
132.0524944589
 40
0.9999993981
100
AcDbArc
 50
90.0
 51
149.9999884324
  0
ARC
  5
41D
100
AcDbEntity
  8
IMPORT_KE
100
AcDbCircle
 62
6
  6
CONTINUOUS
 10
76.8551623112
 20
132.0524944589
 40
0.9999993981
100
AcDbArc
 50
90.0
 51
135.5729621948
  0
ARC
  5
41E
100
AcDbEntity
  8
IMPORT_KE
100
AcDbCircle
 62
6
  6
CONTINUOUS
 10
82.3551623112
 20
128.5524944589
 40
0.5
100
AcDbArc
 50
180.0
 51
270.0
  0
ARC
  5
41F
100
AcDbEntity
  8
IMPORT_KE
100
AcDbCircle
 62
6
  6
CONTINUOUS
 10
69.6873023112
 20
131.4524944589
 40
0.3000003564
100
AcDbArc
 50
90.0
 51
214.9999684471
  0
ARC
  5
420
100
AcDbEntity
  8
0
100
AcDbCircle
 62
7
  6
CONTINUOUS
 10
83.7376883109
 20
124.552494459
 40
1.999999563
100
AcDbArc
 50
90.0000000003
 51
174.9999992832
  0
ARC
  5
421
100
AcDbEntity
  8
0
100
AcDbCircle
 62
7
  6
CONTINUOUS
 10
103.6647113108
 20
136.5524944591
 40
2.9999996523
100
AcDbArc
 50
90.0000000003
 51
170.0000017938
  0
ARC
  5
422
100
AcDbEntity
  8
0
100
AcDbCircle
 62
7
  6
CONTINUOUS
 10
92.3551623112
 20
134.5524944589
 40
1.5
100
AcDbArc
 50
270.0
 51
360.0
  0
ARC
  5
423
100
AcDbEntity
  8
IMPORT_KE
100
AcDbCircle
 62
2
  6
CONTINUOUS
 10
92.3551623112
 20
134.5524944589
 40
1.5
100
AcDbArc
 50
270.0
 51
360.0
  0
ARC
  5
424
100
AcDbEntity
  8
0
100
AcDbCircle
 62
7
  6
CONTINUOUS
 10
98.0160623109
 20
127.5524944591
 40
1.000000386
100
AcDbArc
 50
270.0000000003
 51
350.0000017938
  0
ARC
  5
425
100
AcDbEntity
  8
IMPORT_KE
100
AcDbCircle
 62
6
  6
CONTINUOUS
 10
89.9000023112
 20
128.8266054589
 40
1.0000000347
100
AcDbArc
 50
60.0000170803
 51
129.9999527308
  0
ARC
  5
426
100
AcDbEntity
  8
IMPORT_KE
100
AcDbCircle
 62
6
  6
CONTINUOUS
 10
92.8551623112
 20
128.5524944589
 40
0.5000001547
100
AcDbArc
 50
270.0
 51
44.9999189716
  0
ARC
  5
427
100
AcDbEntity
  8
IMPORT_KE
100
AcDbCircle
 62
6
  6
CONTINUOUS
 10
91.1380053112
 20
130.5524944589
 40
0.5000001547
100
AcDbArc
 50
135.0
 51
225.0000810284
  0
ARC
  5
428
100
AcDbEntity
  8
IMPORT_KE
100
AcDbCircle
 62
6
  6
CONTINUOUS
 10
92.8551623112
 20
132.5524944589
 40
0.5
100
AcDbArc
 50
315.0
 51
90.0
  0
ARC
  5
429
100
AcDbEntity
  8
IMPORT_KE
100
AcDbCircle
 62
6
  6
CONTINUOUS
 10
88.1731773112
 20
128.5524944589
 40
0.4999999557
100
AcDbArc
 50
270.0
 51
310.0000334509
  0
ARC
  5
42A
100
AcDbEntity
  8
IMPORT_KE
100
AcDbCircle
 62
6
  6
CONTINUOUS
 10
89.9921633112
 20
128.7733974589
 40
0.4999999557
100
AcDbArc
 50
59.9999597845
 51
130.0000334509
  0
ARC
  5
42B
100
AcDbEntity
  8
IMPORT_KE
100
AcDbCircle
 62
6
  6
CONTINUOUS
 10
90.8051623112
 20
128.4524944589
 40
0.4031128874
100
AcDbArc
 50
82.8749836511
 51
262.8749836511
  0
ARC
  5
42C
100
AcDbEntity
  8
0
100
AcDbCircle
 62
7
  6
CONTINUOUS
 10
85.8730303112
 20
161.5524944589
 40
4.0
100
AcDbArc
 50
19.9999997762
 51
90.0
  0
ARC
  5
42D
100
AcDbEntity
  8
IMPORT_KE
100
AcDbCircle
 62
2
  6
CONTINUOUS
 10
85.8730303112
 20
161.5524944589
 40
4.0
100
AcDbArc
 50
19.9999897512
 51
90.0
  0
ARC
  5
42E
100
AcDbEntity
  8
0
100
AcDbCircle
 62
7
  6
CONTINUOUS
 10
92.8551623112
 20
151.1406574589
 40
1.0000003073
100
AcDbArc
 50
0.0
 51
19.9999997762
  0
ARC
  5
42F
100
AcDbEntity
  8
IMPORT_KE
100
AcDbCircle
 62
2
  6
CONTINUOUS
 10
92.8551623112
 20
151.1406574589
 40
1.0000003073
100
AcDbArc
 50
0.0
 51
19.9999848521
  0
ARC
  5
430
100
AcDbEntity
  8
0
100
AcDbCircle
 62
7
  6
CONTINUOUS
 10
165.3551623112
 20
67.5524944595
 40
3.0
100
AcDbArc
 50
270.0000000003
 51
360.0
  0
ARC
  5
431
100
AcDbEntity
  8
0
100
AcDbCircle
 62
7
  6
CONTINUOUS
 10
184.8730303108
 20
135.5524944596
 40
4.0
100
AcDbArc
 50
19.9999997765
 51
90.0000000003
  0
ARC
  5
432
100
AcDbEntity
  8
0
100
AcDbCircle
 62
7
  6
CONTINUOUS
 10
191.3551623109
 20
120.7019614597
 40
3.0
100
AcDbArc
 50
109.9999761889
 51
180.0000000003
  0
ARC
  5
433
100
AcDbEntity
  8
0
100
AcDbCircle
 62
7
  6
CONTINUOUS
 10
191.8551623109
 20
125.1406574597
 40
0.9999993676
100
AcDbArc
 50
289.9999761889
 51
19.9999997765
  0
SPLINE
  5
434
100
AcDbEntity
  8
DEFAULT_2
100
AcDbSpline
 62
8
  6
HIDDEN
 70
0
 71
3
 72
14
 73
10
 74
0
 42
0.0000001
 43
0.0000001
 44
0.0000000001
 40
0.0
 40
0.0
 40
0.0
 40
0.0
 40
0.3952466228
 40
0.5656913327
 40
0.7129850789
 40
0.8333670463
 40
0.9234448995
 40
0.9800489379
 40
1.0
 40
1.0
 40
1.0
 40
1.0
 10
68.014499864
 20
117.5187931036
 30
0.0
 10
67.9906423965
 20
117.4852888573
 30
0.0
 10
67.955686911
 20
117.4379047442
 30
0.0
 10
67.910292959
 20
117.3792178419
 30
0.0
 10
67.8819686852
 20
117.3434839261
 30
0.0
 10
67.8583810298
 20
117.3146942789
 30
0.0
 10
67.8407873165
 20
117.2931474571
 30
0.0
 10
67.8291869261
 20
117.2803011747
 30
0.0
 10
67.8243657384
 20
117.2738876922
 30
0.0
 10
67.8228222066
 20
117.2724991829
 30
0.0
  0
SPLINE
  5
435
100
AcDbEntity
  8
DEFAULT_2
100
AcDbSpline
 62
8
  6
HIDDEN
 70
0
 71
3
 72
11
 73
7
 74
0
 42
0.0000001
 43
0.0000001
 44
0.0000000001
 40
0.0
 40
0.0
 40
0.0
 40
0.0
 40
0.3530470657
 40
0.6448732653
 40
0.861337275
 40
1.0
 40
1.0
 40
1.0
 40
1.0
 10
68.014499864
 20
117.5187931036
 30
0.0
 10
68.0284336696
 20
117.5383610502
 30
0.0
 10
68.054557063
 20
117.5735630527
 30
0.0
 10
68.0929827904
 20
117.6182321958
 30
0.0
 10
68.1249818038
 20
117.6478422631
 30
0.0
 10
68.1479938372
 20
117.6595173729
 30
0.0
 10
68.1574284336
 20
117.6594455601
 30
0.0
  0
SPLINE
  5
436
100
AcDbEntity
  8
DEFAULT_2
100
AcDbSpline
 62
8
  6
HIDDEN
 70
0
 71
3
 72
10
 73
6
 74
0
 42
0.0000001
 43
0.0000001
 44
0.0000000001
 40
0.0
 40
0.0
 40
0.0
 40
0.0
 40
0.3177774129
 40
0.6005475257
 40
1.0
 40
1.0
 40
1.0
 40
1.0
 10
68.1853434434
 20
115.6524952455
 30
0.0
 10
68.1853434953
 20
115.6009799155
 30
0.0
 10
68.1773559786
 20
115.5027514108
 30
0.0
 10
68.1390882055
 20
115.3477651736
 30
0.0
 10
68.0735870747
 20
115.2412627199
 30
0.0
 10
68.014499864
 20
115.2147671862
 30
0.0
  0
SPLINE
  5
437
100
AcDbEntity
  8
DEFAULT_2
100
AcDbSpline
 62
8
  6
HIDDEN
 70
0
 71
3
 72
18
 73
14
 74
0
 42
0.0000001
 43
0.0000001
 44
0.0000000001
 40
0.0
 40
0.0
 40
0.0
 40
0.0
 40
0.1710567901
 40
0.3453539309
 40
0.514402822
 40
0.6690275211
 40
0.7994335553
 40
0.8529283029
 40
0.897798482
 40
0.9337373034
 40
0.9609575977
 40
0.9813847112
 40
1.0
 40
1.0
 40
1.0
 40
1.0
 10
68.014499864
 20
114.223923087
 30
0.0
 10
68.0313504075
 20
114.1927029981
 30
0.0
 10
68.0631854413
 20
114.1284768534
 30
0.0
 10
68.1049606727
 20
114.0302513639
 30
0.0
 10
68.1397212609
 20
113.9329198701
 30
0.0
 10
68.1656460983
 20
113.8423279634
 30
0.0
 10
68.1798784046
 20
113.7734344465
 30
0.0
 10
68.1849446397
 20
113.726220837
 30
0.0
 10
68.1856278801
 20
113.6983291679
 30
0.0
 10
68.1834575668
 20
113.6759527287
 30
0.0
 10
68.17854768
 20
113.6591550493
 30
0.0
 10
68.1696658517
 20
113.6478392948
 30
0.0
 10
68.1612889984
 20
113.6455727333
 30
0.0
 10
68.1574282921
 20
113.6455433719
 30
0.0
  0
SPLINE
  5
438
100
AcDbEntity
  8
DEFAULT_2
100
AcDbSpline
 62
8
  6
HIDDEN
 70
0
 71
3
 72
14
 73
10
 74
0
 42
0.0000001
 43
0.0000001
 44
0.0000000001
 40
0.0
 40
0.0
 40
0.0
 40
0.0
 40
0.3952466228
 40
0.5656913327
 40
0.7129850789
 40
0.8333670463
 40
0.9234448995
 40
0.9800489379
 40
1.0
 40
1.0
 40
1.0
 40
1.0
 10
68.014499864
 20
113.7861958143
 30
0.0
 10
67.9906423965
 20
113.8197000605
 30
0.0
 10
67.955686911
 20
113.8670841736
 30
0.0
 10
67.910292959
 20
113.925771076
 30
0.0
 10
67.8819686852
 20
113.9615049918
 30
0.0
 10
67.8583810298
 20
113.9902946389
 30
0.0
 10
67.8407873165
 20
114.0118414608
 30
0.0
 10
67.8291869261
 20
114.0246877431
 30
0.0
 10
67.8243657384
 20
114.0311012257
 30
0.0
 10
67.8228222066
 20
114.0324897349
 30
0.0
  0
SPLINE
  5
439
100
AcDbEntity
  8
DEFAULT_2
100
AcDbSpline
 62
8
  6
HIDDEN
 70
0
 71
3
 72
11
 73
7
 74
0
 42
0.0000001
 43
0.0000001
 44
0.0000000001
 40
0.0
 40
0.0
 40
0.0
 40
0.0
 40
0.3530470657
 40
0.6448732653
 40
0.861337275
 40
1.0
 40
1.0
 40
1.0
 40
1.0
 10
68.014499864
 20
113.7861958143
 30
0.0
 10
68.0284336696
 20
113.7666278676
 30
0.0
 10
68.054557063
 20
113.7314258652
 30
0.0
 10
68.0929827904
 20
113.686756722
 30
0.0
 10
68.1249818038
 20
113.6571466548
 30
0.0
 10
68.1479938372
 20
113.6454715449
 30
0.0
 10
68.1574284336
 20
113.6455433577
 30
0.0
  0
SPLINE
  5
43A
100
AcDbEntity
  8
DEFAULT_2
100
AcDbSpline
 62
8
  6
HIDDEN
 70
0
 71
3
 72
15
 73
11
 74
0
 42
0.0000001
 43
0.0000001
 44
0.0000000001
 40
0.0
 40
0.0
 40
0.0
 40
0.0
 40
0.0193905661
 40
0.0432267016
 40
0.0759186539
 40
0.1661593374
 40
0.2867011206
 40
0.4340525756
 40
0.6045207503
 40
1.0
 40
1.0
 40
1.0
 40
1.0
 10
67.8228215117
 20
114.0324903155
 30
0.0
 10
67.8211887092
 20
114.0336759143
 30
0.0
 10
67.8287616252
 20
114.0260218533
 30
0.0
 10
67.8315520508
 20
114.0221820458
 30
0.0
 10
67.8427241134
 20
114.0093561397
 30
0.0
 10
67.8580384728
 20
113.9907471287
 30
0.0
 10
67.8820056057
 20
113.9614743944
 30
0.0
 10
67.910226919
 20
113.9258917831
 30
0.0
 10
67.9556886174
 20
113.8671009137
 30
0.0
 10
67.9906282688
 20
113.8197199008
 30
0.0
 10
68.014499864
 20
113.7861958143
 30
0.0
  0
SPLINE
  5
43B
100
AcDbEntity
  8
DEFAULT_2
100
AcDbSpline
 62
8
  6
HIDDEN
 70
0
 71
3
 72
18
 73
14
 74
0
 42
0.0000001
 43
0.0000001
 44
0.0000000001
 40
0.0
 40
0.0
 40
0.0
 40
0.0
 40
0.0186152665
 40
0.0390424149
 40
0.0662627538
 40
0.1022016468
 40
0.1470719053
 40
0.2005667204
 40
0.3309728372
 40
0.4855975863
 40
0.6546464113
 40
0.828943352
 40
1.0
 40
1.0
 40
1.0
 40
1.0
 10
68.1574284336
 20
117.6594455601
 30
0.0
 10
68.1612891343
 20
117.6594161739
 30
0.0
 10
68.1696659671
 20
117.6571495403
 30
0.0
 10
68.1785477391
 20
117.6458337423
 30
0.0
 10
68.1834576064
 20
117.6290360305
 30
0.0
 10
68.1856278858
 20
117.6066595512
 30
0.0
 10
68.1849446199
 20
117.5787678442
 30
0.0
 10
68.1798783549
 20
117.5315541998
 30
0.0
 10
68.1656460225
 20
117.4626606613
 30
0.0
 10
68.1397211567
 20
117.3720687691
 30
0.0
 10
68.1049606039
 20
117.2747373335
 30
0.0
 10
68.0631853982
 20
117.1765119484
 30
0.0
 10
68.03135039
 20
117.1122858873
 30
0.0
 10
68.014499864
 20
117.0810658308
 30
0.0
  0
SPLINE
  5
43C
100
AcDbEntity
  8
DEFAULT_2
100
AcDbSpline
 62
8
  6
HIDDEN
 70
0
 71
3
 72
15
 73
11
 74
0
 42
0.0000001
 43
0.0000001
 44
0.0000000001
 40
0.0
 40
0.0
 40
0.0
 40
0.0
 40
0.0193905661
 40
0.0432267016
 40
0.0759186539
 40
0.1661593374
 40
0.2867011206
 40
0.4340525756
 40
0.6045207503
 40
1.0
 40
1.0
 40
1.0
 40
1.0
 10
67.8228215117
 20
117.2724986023
 30
0.0
 10
67.8211887092
 20
117.2713130035
 30
0.0
 10
67.8287616252
 20
117.2789670645
 30
0.0
 10
67.8315520508
 20
117.282806872
 30
0.0
 10
67.8427241134
 20
117.2956327781
 30
0.0
 10
67.8580384728
 20
117.3142417891
 30
0.0
 10
67.8820056057
 20
117.3435145234
 30
0.0
 10
67.910226919
 20
117.3790971347
 30
0.0
 10
67.9556886174
 20
117.4378880041
 30
0.0
 10
67.9906282688
 20
117.485269017
 30
0.0
 10
68.014499864
 20
117.5187931036
 30
0.0
  0
SPLINE
  5
43D
100
AcDbEntity
  8
DEFAULT_2
100
AcDbSpline
 62
8
  6
HIDDEN
 70
0
 71
3
 72
17
 73
13
 74
0
 42
0.0000001
 43
0.0000001
 44
0.0000000001
 40
0.0
 40
0.0
 40
0.0
 40
0.0
 40
0.0214851375
 40
0.0432290658
 40
0.0690459369
 40
0.1014671337
 40
0.1889769828
 40
0.306766113
 40
0.4522824728
 40
0.620547553
 40
0.805246921
 40
1.0
 40
1.0
 40
1.0
 40
1.0
 10
68.1574284336
 20
113.6455433577
 30
0.0
 10
68.160373204
 20
113.6455657722
 30
0.0
 10
68.1664173213
 20
113.6467259576
 30
0.0
 10
68.1740701821
 20
113.6528006838
 30
0.0
 10
68.179528935
 20
113.662514596
 30
0.0
 10
68.184848798
 20
113.6818796649
 30
0.0
 10
68.1860296333
 20
113.7147470144
 30
0.0
 10
68.1813953593
 20
113.7626257151
 30
0.0
 10
68.1702903296
 20
113.82081306
 30
0.0
 10
68.1532184452
 20
113.8869965727
 30
0.0
 10
68.1307179523
 20
113.9586521634
 30
0.0
 10
68.1127734414
 20
114.0074908548
 30
0.0
 10
68.1030124725
 20
114.0323360117
 30
0.0
  0
SPLINE
  5
43E
100
AcDbEntity
  8
DEFAULT_2
100
AcDbSpline
 62
8
  6
HIDDEN
 70
0
 71
3
 72
9
 73
5
 74
0
 42
0.0000001
 43
0.0000001
 44
0.0000000001
 40
0.0
 40
0.0
 40
0.0
 40
0.0
 40
0.2521920203
 40
1.0
 40
1.0
 40
1.0
 40
1.0
 10
68.1030124725
 20
114.0323360117
 30
0.0
 10
68.0965230041
 20
114.0488540297
 30
0.0
 10
68.0698174284
 20
114.113961714
 30
0.0
 10
68.0394946377
 20
114.1776136573
 30
0.0
 10
68.014499864
 20
114.223923087
 30
0.0
  0
SPLINE
  5
43F
100
AcDbEntity
  8
DEFAULT_2
100
AcDbSpline
 62
8
  6
HIDDEN
 70
0
 71
3
 72
14
 73
10
 74
0
 42
0.0000001
 43
0.0000001
 44
0.0000000001
 40
0.0
 40
0.0
 40
0.0
 40
0.0
 40
0.0805617912
 40
0.1718295938
 40
0.2789178472
 40
0.4032481423
 40
0.5438450656
 40
0.6951010366
 40
1.0
 40
1.0
 40
1.0
 40
1.0
 10
68.014499864
 20
115.2147671862
 30
0.0
 10
67.9876939019
 20
115.2027470169
 30
0.0
 10
67.9346944548
 20
115.1668613013
 30
0.0
 10
67.8723870061
 20
115.0844075359
 30
0.0
 10
67.8317891582
 20
114.9724020963
 30
0.0
 10
67.8174697797
 20
114.8362834549
 30
0.0
 10
67.8351562212
 20
114.6846291217
 30
0.0
 10
67.8917116198
 20
114.4740046916
 30
0.0
 10
67.9616909336
 20
114.3217655994
 30
0.0
 10
68.014499864
 20
114.223923087
 30
0.0
  0
SPLINE
  5
440
100
AcDbEntity
  8
DEFAULT_2
100
AcDbSpline
 62
8
  6
HIDDEN
 70
0
 71
3
 72
10
 73
6
 74
0
 42
0.0000001
 43
0.0000001
 44
0.0000000001
 40
0.0
 40
0.0
 40
0.0
 40
0.0
 40
0.3177774129
 40
0.6005475257
 40
1.0
 40
1.0
 40
1.0
 40
1.0
 10
68.1853434434
 20
115.6524936723
 30
0.0
 10
68.1853434954
 20
115.7040090022
 30
0.0
 10
68.1773559786
 20
115.8022375069
 30
0.0
 10
68.1390882055
 20
115.9572237442
 30
0.0
 10
68.0735870747
 20
116.063726198
 30
0.0
 10
68.014499864
 20
116.0902217316
 30
0.0
  0
SPLINE
  5
441
100
AcDbEntity
  8
DEFAULT_2
100
AcDbSpline
 62
8
  6
HIDDEN
 70
0
 71
3
 72
14
 73
10
 74
0
 42
0.0000001
 43
0.0000001
 44
0.0000000001
 40
0.0
 40
0.0
 40
0.0
 40
0.0
 40
0.3050259422
 40
0.4563281837
 40
0.5970549242
 40
0.7212668187
 40
0.828252979
 40
0.9194814589
 40
1.0
 40
1.0
 40
1.0
 40
1.0
 10
68.014499864
 20
117.0810658308
 30
0.0
 10
67.9616690592
 20
116.9831827905
 30
0.0
 10
67.8915357834
 20
116.8309253453
 30
0.0
 10
67.8352329137
 20
116.6201148851
 30
0.0
 10
67.8174854597
 20
116.4684699545
 30
0.0
 10
67.8316807985
 20
116.3323422372
 30
0.0
 10
67.8725204944
 20
116.2205293795
 30
0.0
 10
67.9347367241
 20
116.1381189432
 30
0.0
 10
67.987708353
 20
116.1022354208
 30
0.0
 10
68.014499864
 20
116.0902217316
 30
0.0
  0
SPLINE
  5
442
100
AcDbEntity
  8
DEFAULT_2
100
AcDbSpline
 62
8
  6
HIDDEN
 70
0
 71
3
 72
9
 73
5
 74
0
 42
0.0000001
 43
0.0000001
 44
0.0000000001
 40
0.0
 40
0.0
 40
0.0
 40
0.0
 40
0.2449691492
 40
1.0
 40
1.0
 40
1.0
 40
1.0
 10
68.014499864
 20
117.0810658308
 30
0.0
 10
68.0226878399
 20
117.0962362219
 30
0.0
 10
68.0550398717
 20
117.1587383543
 30
0.0
 10
68.0835835499
 20
117.2231993949
 30
0.0
 10
68.1030124678
 20
117.2726529278
 30
0.0
  0
SPLINE
  5
443
100
AcDbEntity
  8
0
100
AcDbSpline
 62
7
  6
CONTINUOUS
 70
0
 71
3
 72
15
 73
11
 74
0
 42
0.0000001
 43
0.0000001
 44
0.0000000001
 40
0.0
 40
0.0
 40
0.0
 40
0.0
 40
0.1250245363
 40
0.2500293709
 40
0.3750074733
 40
0.4999666607
 40
0.6249397407
 40
0.7499416157
 40
0.8749633898
 40
1.0
 40
1.0
 40
1.0
 40
1.0
 10
74.1163297089
 20
108.6515710238
 30
0.0
 10
74.0280095034
 20
108.8158949314
 30
0.0
 10
73.8637599972
 20
109.1515097756
 30
0.0
 10
73.6728878212
 20
109.6790726928
 30
0.0
 10
73.5621054018
 20
110.230205376
 30
0.0
 10
73.5541685471
 20
110.7930246453
 30
0.0
 10
73.651112538
 20
111.3469161309
 30
0.0
 10
73.831975676
 20
111.8781713129
 30
0.0
 10
74.071514947
 20
112.3848569258
 30
0.0
 10
74.2576356124
 20
112.7086081674
 30
0.0
 10
74.3551623112
 20
112.8676618395
 30
0.0
  0
SPLINE
  5
444
100
AcDbEntity
  8
0
100
AcDbSpline
 62
7
  6
CONTINUOUS
 70
0
 71
3
 72
9
 73
5
 74
0
 42
0.0000001
 43
0.0000001
 44
0.0000000001
 40
0.0
 40
0.0
 40
0.0
 40
0.0
 40
0.5009299054
 40
1.0
 40
1.0
 40
1.0
 40
1.0
 10
74.1161599676
 20
110.8024944589
 30
0.0
 10
74.1273145087
 20
110.9605123607
 30
0.0
 10
74.1824892471
 20
111.2742566084
 30
0.0
 10
74.2913743857
 20
111.5725432484
 30
0.0
 10
74.3551623112
 20
111.7169011131
 30
0.0
  0
SPLINE
  5
445
100
AcDbEntity
  8
0
100
AcDbSpline
 62
7
  6
CONTINUOUS
 70
0
 71
3
 72
9
 73
5
 74
0
 42
0.0000001
 43
0.0000001
 44
0.0000000001
 40
0.0
 40
0.0
 40
0.0
 40
0.0
 40
0.4990716142
 40
1.0
 40
1.0
 40
1.0
 40
1.0
 10
74.3551623112
 20
109.3880878047
 30
0.0
 10
74.2913741922
 20
109.5324461075
 30
0.0
 10
74.1824892373
 20
109.8307328187
 30
0.0
 10
74.1273144748
 20
110.1444770381
 30
0.0
 10
74.1161599676
 20
110.3024944589
 30
0.0
  0
SPLINE
  5
446
100
AcDbEntity
  8
A_RUNDUNGEN
100
AcDbSpline
 62
7
  6
CONTINUOUS
 70
0
 71
3
 72
12
 73
8
 74
0
 42
0.0000001
 43
0.0000001
 44
0.0000000001
 40
0.0
 40
0.0
 40
0.0
 40
0.0
 40
0.3016107602
 40
0.5768876568
 40
0.8129482289
 40
0.9127827064
 40
1.0
 40
1.0
 40
1.0
 40
1.0
 10
78.5181466281
 20
69.425979731
 30
0.0
 10
78.6214662395
 20
69.3764912455
 30
0.0
 10
78.8203777527
 20
69.2843002463
 30
0.0
 10
79.1068372367
 20
69.1691244617
 30
0.0
 10
79.3306980211
 20
69.1030598129
 30
0.0
 10
79.4908082811
 20
69.0849868009
 30
0.0
 10
79.5624405176
 20
69.0897683604
 30
0.0
 10
79.5948327483
 20
69.0967095526
 30
0.0
  0
SPLINE
  5
447
100
AcDbEntity
  8
A_RUNDUNGEN
100
AcDbSpline
 62
7
  6
CONTINUOUS
 70
0
 71
3
 72
14
 73
10
 74
0
 42
0.0000001
 43
0.0000001
 44
0.0000000001
 40
0.0
 40
0.0
 40
0.0
 40
0.0
 40
0.3820312629
 40
0.5547774445
 40
0.7063658421
 40
0.831008064
 40
0.9236945867
 40
0.9807312587
 40
1.0
 40
1.0
 40
1.0
 40
1.0
 10
86.7579484923
 20
71.652494459
 30
0.0
 10
86.7714274511
 20
71.525253296
 30
0.0
 10
86.7907069348
 20
71.3404451979
 30
0.0
 10
86.8145990795
 20
71.105072182
 30
0.0
 10
86.8293561162
 20
70.9554236704
 30
0.0
 10
86.8411406639
 20
70.8324233689
 30
0.0
 10
86.8497071052
 20
70.7409369802
 30
0.0
 10
86.854061669
 20
70.6844869598
 30
0.0
 10
86.8550063403
 20
70.6589475159
 30
0.0
 10
86.8551623112
 20
70.652494459
 30
0.0
  0
ENDSEC
  0
SECTION
  2
OBJECTS
  0
DICTIONARY
  5
448
100
AcDbDictionary
  3
ACAD_GROUP
350
449
  3
ACAD_MLINESTYLE
350
44A
  0
DICTIONARY
  5
449
102
{ACAD_REACTORS
330
448
102
}
100
AcDbDictionary
  0
DICTIONARY
  5
44A
102
{ACAD_REACTORS
330
448
102
}
100
AcDbDictionary
  3
STANDARD
350
44B
  0
MLINESTYLE
  5
44B
102
{ACAD_REACTORS
330
44A
102
}
100
AcDbMlineStyle
  2
STANDARD
 70
0
  3

 62
256
 51
90.0
 52
90.0
 71
2
 49
0.5
 62
256
  6
BYLAYER
 49
-0.5
 62
256
  6
BYLAYER
  0
ENDSEC
  0
EOF
