999
DXF file: d:\tmp\workingDir\0000046768\te_680_3d_fd_q07_01.dxf
999
Pro/ENGINEER 2016130 by Parametric Technology Corporation
  0
SECTION
  2
HEADER
  9
$ACADVER
  1
AC1014
  9
$DWGCODEPAGE
  3
ANSI_1252
  9
$EXTMAX
 10
199.898
 20
200.0
 30
0.0
  9
$EXTMIN
 10
0.0
 20
0.0
 30
0.0
  9
$LIMMIN
 10
0.0
 20
0.0
  9
$LIMMAX
 10
199.898
 20
200.0
  9
$VIEWCTR
 10
99.949
 20
100.0
  9
$VIEWSIZE
 40
200.0
  9
$CLAYER
  8
0
  9
$LTSCALE
 40
13.037037037
  9
$CELTYPE
  6
BYLAYER
  9
$DIMSCALE
 40
1.0
  9
$DIMASZ
 40
3.5
  9
$DIMEXO
 40
0.0
  9
$DIMDLI
 40
9.0074074074
  9
$DIMEXE
 40
2.0
  9
$DIMCEN
 40
2.1333333333
  9
$DIMLFAC
 40
1.0
  9
$DIMBLK
  1
_ARROW_FILLED
  9
$DIMALT
 70
0
  9
$DIMALTF
 40
0.0393700787
  9
$DIMTXT
 40
3.5
  9
$DIMTOL
 70
1
  9
$DIMLIM
 70
0
  9
$DIMTFAC
 40
1.0
  9
$DIMTP
 40
0.01
  9
$DIMTM
 40
0.01
  9
$DIMGAP
 40
0.625
  9
$AUNITS
 70
0
  9
$PDMODE
 70
0
  9
$PDSIZE
 40
0.04
  9
$HANDSEED
  5
450
  9
$TILEMODE
 70
1
  9
$MEASUREMENT
 70
1
  0
ENDSEC
  0
SECTION
  2
CLASSES
  0
ENDSEC
  0
SECTION
  2
TABLES
  0
TABLE
  2
VPORT
  5
8
100
AcDbSymbolTable
 70
2
  0
VPORT
  5
1F4
100
AcDbSymbolTableRecord
100
AcDbViewportTableRecord
  2
*ACTIVE
 70
0
 10
0.0
 20
0.0
 11
1.0
 21
1.0
 12
99.949
 22
100.0
 13
0.0
 23
0.0
 14
1.0
 24
1.0
 15
0.0
 25
0.0
 16
0.0
 26
0.0
 36
1.0
 17
0.0
 27
0.0
 37
0.0
 40
200.0
 41
0.99949
 42
50.0
 43
0.0
 44
0.0
 50
0.0
 51
0.0
 71
0
 72
100
 73
1
 74
1
 75
0
 76
0
 77
0
 78
0
  0
ENDTAB
  0
TABLE
  2
LTYPE
  5
5
100
AcDbSymbolTable
 70
6
  0
LTYPE
  5
14
100
AcDbSymbolTableRecord
100
AcDbLinetypeTableRecord
  2
BYBLOCK
 70
0
  3

 72
65
 73
0
 40
0.0
  0
LTYPE
  5
15
100
AcDbSymbolTableRecord
100
AcDbLinetypeTableRecord
  2
BYLAYER
 70
0
  3

 72
65
 73
0
 40
0.0
  0
LTYPE
  5
16
100
AcDbSymbolTableRecord
100
AcDbLinetypeTableRecord
  2
CONTINUOUS
 70
64
  3
Solid line
 72
65
 73
0
 40
0.0
  0
LTYPE
  5
1F5
100
AcDbSymbolTableRecord
100
AcDbLinetypeTableRecord
  2
CENTER
 70
64
  3
____ _ ____ _ ____ _ ____ _ ____ _ ____ _ ____
 72
65
 73
4
 40
0.6
 49
0.375
 74
0
 49
-0.075
 74
0
 49
0.075
 74
0
 49
-0.075
 74
0
  0
LTYPE
  5
1F6
100
AcDbSymbolTableRecord
100
AcDbLinetypeTableRecord
  2
HIDDEN
 70
64
  3
- - - - - - - - - - - - - - - - - - - -
 72
65
 73
2
 40
0.2
 49
0.1
 74
0
 49
-0.1
 74
0
  0
LTYPE
  5
1F7
100
AcDbSymbolTableRecord
100
AcDbLinetypeTableRecord
  2
PHANTOM
 70
64
  3
_____ _ _ _____ _ _ _____ _ _ _____
 72
65
 73
6
 40
0.8
 49
0.45
 74
0
 49
-0.05
 74
0
 49
0.1
 74
0
 49
-0.05
 74
0
 49
0.1
 74
0
 49
-0.05
 74
0
  0
LTYPE
  5
1F8
100
AcDbSymbolTableRecord
100
AcDbLinetypeTableRecord
  2
DOT
 70
64
  3
. . . . . . . . . . . . . . . . . . . .
 72
65
 73
2
 40
0.2
 49
0.1
 74
0
 49
-0.1
 74
0
  0
LTYPE
  5
1F9
100
AcDbSymbolTableRecord
100
AcDbLinetypeTableRecord
  2
DASHED
 70
64
  3
- - - - - - - - - - - - - - - - - - - -
 72
65
 73
2
 40
0.2
 49
0.1
 74
0
 49
-0.1
 74
0
  0
ENDTAB
  0
TABLE
  2
LAYER
  5
2
100
AcDbSymbolTable
 70
36
  0
LAYER
  5
10
100
AcDbSymbolTableRecord
100
AcDbLayerTableRecord
  2
0
 70
0
 62
7
  6
CONTINUOUS
  0
LAYER
  5
1FA
100
AcDbSymbolTableRecord
100
AcDbLayerTableRecord
  2
DEFAULT_1
 70
0
 62
7
  6
CENTER
  0
LAYER
  5
1FB
100
AcDbSymbolTableRecord
100
AcDbLayerTableRecord
  2
DEFAULT_2
 70
0
 62
8
  6
HIDDEN
  0
LAYER
  5
1FC
100
AcDbSymbolTableRecord
100
AcDbLayerTableRecord
  2
DEFAULT_3
 70
0
 62
7
  6
PHANTOM
  0
LAYER
  5
1FD
100
AcDbSymbolTableRecord
100
AcDbLayerTableRecord
  2
A_ACHSEN
 70
0
 62
7
  6
CONTINUOUS
  0
LAYER
  5
1FE
100
AcDbSymbolTableRecord
100
AcDbLayerTableRecord
  2
A_BASISEBENEN
 70
0
 62
7
  6
CONTINUOUS
  0
LAYER
  5
1FF
100
AcDbSymbolTableRecord
100
AcDbLayerTableRecord
  2
A_BEMASSUNGEN
 70
0
 62
7
  6
CONTINUOUS
  0
LAYER
  5
200
100
AcDbSymbolTableRecord
100
AcDbLayerTableRecord
  2
A_BOHRUNGEN
 70
0
 62
7
  6
CONTINUOUS
  0
LAYER
  5
201
100
AcDbSymbolTableRecord
100
AcDbLayerTableRecord
  2
A_EBENEN
 70
0
 62
7
  6
CONTINUOUS
  0
LAYER
  5
202
100
AcDbSymbolTableRecord
100
AcDbLayerTableRecord
  2
A_FASEN
 70
0
 62
7
  6
CONTINUOUS
  0
LAYER
  5
203
100
AcDbSymbolTableRecord
100
AcDbLayerTableRecord
  2
A_FLAECHEN
 70
0
 62
7
  6
CONTINUOUS
  0
LAYER
  5
204
100
AcDbSymbolTableRecord
100
AcDbLayerTableRecord
  2
A_FL_VERBAENDE
 70
0
 62
7
  6
CONTINUOUS
  0
LAYER
  5
205
100
AcDbSymbolTableRecord
100
AcDbLayerTableRecord
  2
A_KURVEN
 70
0
 62
7
  6
CONTINUOUS
  0
LAYER
  5
206
100
AcDbSymbolTableRecord
100
AcDbLayerTableRecord
  2
A_NOTIZEN_SYMB
 70
0
 62
7
  6
CONTINUOUS
  0
LAYER
  5
207
100
AcDbSymbolTableRecord
100
AcDbLayerTableRecord
  2
A_PUNKTE
 70
0
 62
7
  6
CONTINUOUS
  0
LAYER
  5
208
100
AcDbSymbolTableRecord
100
AcDbLayerTableRecord
  2
A_RUNDUNGEN
 70
0
 62
7
  6
CONTINUOUS
  0
LAYER
  5
209
100
AcDbSymbolTableRecord
100
AcDbLayerTableRecord
  2
BASISEBENEN
 70
0
 62
7
  6
CONTINUOUS
  0
LAYER
  5
20A
100
AcDbSymbolTableRecord
100
AcDbLayerTableRecord
  2
GRUNDEBENE
 70
0
 62
7
  6
CONTINUOUS
  0
LAYER
  5
20B
100
AcDbSymbolTableRecord
100
AcDbLayerTableRecord
  2
IMPORT_KE
 70
0
 62
7
  6
CONTINUOUS
  0
LAYER
  5
20C
100
AcDbSymbolTableRecord
100
AcDbLayerTableRecord
  2
INTFCLR_3
 70
0
 62
7
  6
CONTINUOUS
  0
LAYER
  5
20D
100
AcDbSymbolTableRecord
100
AcDbLayerTableRecord
  2
INTF_1
 70
0
 62
7
  6
CONTINUOUS
  0
LAYER
  5
20E
100
AcDbSymbolTableRecord
100
AcDbLayerTableRecord
  2
INTF_2
 70
0
 62
7
  6
CONTINUOUS
  0
LAYER
  5
20F
100
AcDbSymbolTableRecord
100
AcDbLayerTableRecord
  2
INTF_3
 70
0
 62
7
  6
CONTINUOUS
  0
LAYER
  5
210
100
AcDbSymbolTableRecord
100
AcDbLayerTableRecord
  2
INTF_4
 70
0
 62
7
  6
CONTINUOUS
  0
LAYER
  5
211
100
AcDbSymbolTableRecord
100
AcDbLayerTableRecord
  2
INTF_MAGENTA
 70
0
 62
7
  6
CONTINUOUS
  0
LAYER
  5
212
100
AcDbSymbolTableRecord
100
AcDbLayerTableRecord
  2
INTF_YELLOW
 70
0
 62
7
  6
CONTINUOUS
  0
LAYER
  5
213
100
AcDbSymbolTableRecord
100
AcDbLayerTableRecord
  2
PROFIL
 70
0
 62
7
  6
CONTINUOUS
  0
LAYER
  5
214
100
AcDbSymbolTableRecord
100
AcDbLayerTableRecord
  2
QUER1
 70
0
 62
7
  6
CONTINUOUS
  0
LAYER
  5
215
100
AcDbSymbolTableRecord
100
AcDbLayerTableRecord
  2
QUER2
 70
0
 62
7
  6
CONTINUOUS
  0
LAYER
  5
216
100
AcDbSymbolTableRecord
100
AcDbLayerTableRecord
  2
QUER3
 70
0
 62
7
  6
CONTINUOUS
  0
LAYER
  5
217
100
AcDbSymbolTableRecord
100
AcDbLayerTableRecord
  2
SCHRAFFUR
 70
0
 62
7
  6
CONTINUOUS
  0
ENDTAB
  0
TABLE
  2
STYLE
  5
3
100
AcDbSymbolTable
 70
1
  0
STYLE
  5
11
100
AcDbSymbolTableRecord
100
AcDbTextStyleTableRecord
  2
STANDARD
 70
0
 40
0.0
 41
1.0
 50
0.0
 71
0
 42
0.2
  3
txt
  4

  0
STYLE
  5
218
100
AcDbSymbolTableRecord
100
AcDbTextStyleTableRecord
  2
TEXTSTYLE_1
 70
0
 40
0.0
 41
0.8
 50
0.0
 71
0
 42
0.2
  3
gdt
  4

  0
STYLE
  5
219
100
AcDbSymbolTableRecord
100
AcDbTextStyleTableRecord
  2
TEXTSTYLE_2
 70
0
 40
0.0
 41
1.0
 50
0.0
 71
0
 42
0.2
  3
txt
  4

  0
ENDTAB
  0
TABLE
  2
VIEW
  5
6
100
AcDbSymbolTable
 70
0
  0
ENDTAB
  0
TABLE
  2
UCS
  5
7
100
AcDbSymbolTable
 70
0
  0
ENDTAB
  0
TABLE
  2
APPID
  5
9
100
AcDbSymbolTable
 70
1
  0
APPID
  5
21A
100
AcDbSymbolTableRecord
100
AcDbRegAppTableRecord
  2
ACAD
 70
0
  0
ENDTAB
  0
TABLE
  2
BLOCK_RECORD
  5
1
100
AcDbSymbolTable
 70
0
  0
BLOCK_RECORD
  5
1F
100
AcDbSymbolTableRecord
100
AcDbBlockTableRecord
  2
*MODEL_SPACE
  0
BLOCK_RECORD
  5
1B
100
AcDbSymbolTableRecord
100
AcDbBlockTableRecord
  2
*PAPER_SPACE
  0
BLOCK_RECORD
  5
21B
100
AcDbSymbolTableRecord
100
AcDbBlockTableRecord
  2
_ARROW_FILLED
  0
BLOCK_RECORD
  5
21C
100
AcDbSymbolTableRecord
100
AcDbBlockTableRecord
  2
*D0
  0
BLOCK_RECORD
  5
21D
100
AcDbSymbolTableRecord
100
AcDbBlockTableRecord
  2
*D1
  0
BLOCK_RECORD
  5
21E
100
AcDbSymbolTableRecord
100
AcDbBlockTableRecord
  2
*D2
  0
BLOCK_RECORD
  5
21F
100
AcDbSymbolTableRecord
100
AcDbBlockTableRecord
  2
*D3
  0
BLOCK_RECORD
  5
220
100
AcDbSymbolTableRecord
100
AcDbBlockTableRecord
  2
*D4
  0
BLOCK_RECORD
  5
221
100
AcDbSymbolTableRecord
100
AcDbBlockTableRecord
  2
*D5
  0
BLOCK_RECORD
  5
222
100
AcDbSymbolTableRecord
100
AcDbBlockTableRecord
  2
*D6
  0
BLOCK_RECORD
  5
223
100
AcDbSymbolTableRecord
100
AcDbBlockTableRecord
  2
*D7
  0
BLOCK_RECORD
  5
224
100
AcDbSymbolTableRecord
100
AcDbBlockTableRecord
  2
*D8
  0
BLOCK_RECORD
  5
225
100
AcDbSymbolTableRecord
100
AcDbBlockTableRecord
  2
*D9
  0
ENDTAB
  0
TABLE
  2
DIMSTYLE
  5
A
100
AcDbSymbolTable
 70
1
  0
DIMSTYLE
105
226
100
AcDbSymbolTableRecord
100
AcDbDimStyleTableRecord
  2
STANDARD
 70
0
  3

  4

  5
_ARROW_FILLED
  6
_ARROW_FILLED
  7
_ARROW_FILLED
 40
1.0
 41
3.5
 42
0.0
 43
0.38
 44
2.0
 45
0.0
 46
0.0
 47
0.01
 48
0.01
140
3.5
141
0.09
142
0.0
143
25.4
144
1.0
145
0.0
146
1.0
147
0.625
 71
1.0
 72
0.0
 73
0
 74
0
 75
0
 76
0
 77
1
 78
8
170
0
171
2
172
0
173
0
174
0
175
0
176
0
177
0
178
5
270
2
271
2
272
2
273
2
274
2
275
0
280
0
281
0
282
0
283
1
284
8
285
0
286
0
287
3
288
0
340
11
  0
DIMSTYLE
105
227
100
AcDbSymbolTableRecord
100
AcDbDimStyleTableRecord
  2
DIMSTYLE_1
 70
0
  3

  4

  5
_ARROW_FILLED
  6
_ARROW_FILLED
  7
_ARROW_FILLED
 40
1.0
 41
3.5
 42
0.0
 43
0.38
 44
2.0
 45
0.0
 46
0.0
 47
0.1
 48
0.1
140
3.5
141
0.09
142
0.0
143
25.4
144
1.0
145
0.0
146
1.0
147
0.875
 71
0.0
 72
0.0
 73
0
 74
0
 75
0
 76
0
 77
1
 78
8
170
0
171
2
172
0
173
0
174
0
175
0
176
0
177
0
178
5
270
2
271
4
272
4
273
2
274
2
275
0
280
0
281
0
282
0
283
1
284
8
285
0
286
0
287
3
288
0
340
219
  0
DIMSTYLE
105
228
100
AcDbSymbolTableRecord
100
AcDbDimStyleTableRecord
  2
DIMSTYLE_2
 70
0
  3

  4

  5
_ARROW_FILLED
  6
_ARROW_FILLED
  7
_ARROW_FILLED
 40
1.0
 41
3.5
 42
0.0
 43
0.38
 44
2.0
 45
0.0
 46
0.0
 47
0.3
 48
0.3
140
3.5
141
0.09
142
0.0
143
25.4
144
1.0
145
0.0
146
1.0
147
0.875
 71
0.0
 72
0.0
 73
0
 74
0
 75
0
 76
0
 77
1
 78
8
170
0
171
2
172
0
173
0
174
0
175
0
176
0
177
0
178
5
270
2
271
4
272
4
273
2
274
2
275
0
280
0
281
0
282
0
283
1
284
8
285
0
286
0
287
3
288
0
340
219
  0
DIMSTYLE
105
229
100
AcDbSymbolTableRecord
100
AcDbDimStyleTableRecord
  2
DIMSTYLE_3
 70
0
  3

  4

  5
_ARROW_FILLED
  6
_ARROW_FILLED
  7
_ARROW_FILLED
 40
1.0
 41
3.5
 42
0.0
 43
0.38
 44
2.0
 45
0.0
 46
0.0
 47
0.1
 48
0.1
140
3.5
141
0.09
142
0.0
143
25.4
144
1.0
145
0.0
146
1.0
147
0.875
 71
0.0
 72
0.0
 73
0
 74
0
 75
0
 76
0
 77
1
 78
8
170
0
171
2
172
0
173
0
174
0
175
0
176
0
177
0
178
5
270
2
271
2
272
2
273
2
274
2
275
0
280
0
281
0
282
0
283
1
284
8
285
0
286
0
287
3
288
0
340
219
  0
DIMSTYLE
105
22A
100
AcDbSymbolTableRecord
100
AcDbDimStyleTableRecord
  2
DIMSTYLE_4
 70
0
  3

  4

  5
_ARROW_FILLED
  6
_ARROW_FILLED
  7
_ARROW_FILLED
 40
1.0
 41
3.5
 42
0.0
 43
0.38
 44
2.0
 45
0.0
 46
0.0
 47
0.2
 48
0.2
140
3.5
141
0.09
142
0.0
143
25.4
144
1.0
145
0.0
146
1.0
147
0.875
 71
0.0
 72
0.0
 73
0
 74
0
 75
0
 76
0
 77
1
 78
8
170
0
171
2
172
0
173
0
174
0
175
0
176
0
177
0
178
5
270
2
271
3
272
3
273
2
274
2
275
0
280
0
281
0
282
0
283
1
284
8
285
0
286
0
287
3
288
0
340
219
  0
DIMSTYLE
105
22B
100
AcDbSymbolTableRecord
100
AcDbDimStyleTableRecord
  2
DIMSTYLE_5
 70
0
  3

  4

  5
_ARROW_FILLED
  6
_ARROW_FILLED
  7
_ARROW_FILLED
 40
1.0
 41
3.5
 42
0.0
 43
0.38
 44
2.0
 45
0.0
 46
0.0
 47
0.2
 48
0.2
140
3.5
141
0.09
142
0.0
143
25.4
144
1.0
145
0.0
146
1.0
147
0.875
 71
0.0
 72
0.0
 73
0
 74
0
 75
0
 76
0
 77
1
 78
8
170
0
171
2
172
0
173
0
174
0
175
0
176
0
177
0
178
5
270
2
271
4
272
4
273
2
274
2
275
0
280
0
281
0
282
0
283
1
284
8
285
0
286
0
287
3
288
0
340
219
  0
DIMSTYLE
105
22C
100
AcDbSymbolTableRecord
100
AcDbDimStyleTableRecord
  2
DIMSTYLE_6
 70
0
  3

  4

  5
_ARROW_FILLED
  6
_ARROW_FILLED
  7
_ARROW_FILLED
 40
1.0
 41
3.5
 42
0.0
 43
0.38
 44
2.0
 45
0.0
 46
0.0
 47
0.1
 48
0.1
140
3.5
141
0.09
142
0.0
143
25.4
144
1.0
145
0.0
146
1.0
147
0.875
 71
0.0
 72
0.0
 73
0
 74
0
 75
0
 76
0
 77
1
 78
8
170
0
171
2
172
0
173
0
174
0
175
0
176
0
177
0
178
5
270
2
271
1
272
1
273
2
274
2
275
0
280
0
281
0
282
0
283
1
284
8
285
0
286
0
287
3
288
0
340
219
  0
ENDTAB
  0
ENDSEC
  0
SECTION
  2
BLOCKS
  0
BLOCK
  5
20
100
AcDbEntity
  8
0
100
AcDbBlockBegin
  2
*MODEL_SPACE
 70
0
 10
0.0
 20
0.0
 30
0.0
  3
*MODEL_SPACE
  1

  0
ENDBLK
  5
21
100
AcDbEntity
  8
0
100
AcDbBlockEnd
  0
BLOCK
  5
1C
100
AcDbEntity
  8
0
100
AcDbBlockBegin
  2
*PAPER_SPACE
 70
0
 10
0.0
 20
0.0
 30
0.0
  3
*PAPER_SPACE
  1

  0
ENDBLK
  5
1D
100
AcDbEntity
  8
0
100
AcDbBlockEnd
  0
BLOCK
  5
22D
100
AcDbEntity
  8
0
100
AcDbBlockBegin
  2
_ARROW_FILLED
 70
64
 10
0.0
 20
0.0
  3
_ARROW_FILLED
  1

  0
SOLID
  5
22E
100
AcDbEntity
  8
0
  6
BYBLOCK
 62
0
100
AcDbTrace
 10
0.0
 20
0.0
 11
-1.0
 21
0.1428571429
 12
-1.0
 22
-0.1428571429
 13
-1.0
 23
-0.1428571429
  0
ENDBLK
  5
22F
100
AcDbEntity
  8
0
  6
BYBLOCK
 62
0
100
AcDbBlockEnd
  0
BLOCK
  5
230
100
AcDbEntity
  8
A_BEMASSUNGEN
100
AcDbBlockBegin
 62
2
  6
CONTINUOUS
  2
*D0
 70
65
 10
0.0
 20
0.0
  3
*D0
  1

  0
MTEXT
  5
231
100
AcDbEntity
  8
A_BEMASSUNGEN
100
AcDbMText
 62
5
  6
CONTINUOUS
  7
TEXTSTYLE_2
 71
3
 72
1
 10
178.970009869
 20
45.5873877203
 30
0.0
 11
0.0
 21
1.0
 31
0.0
  1
5
 40
3.5
 41
3.75
  0
LINE
  5
232
100
AcDbEntity
  8
A_BEMASSUNGEN
100
AcDbLine
 62
2
  6
CONTINUOUS
 10
165.2590084649
 20
48.8033305793
 11
185.345009869
 21
48.8033305793
  0
LINE
  5
233
100
AcDbEntity
  8
A_BEMASSUNGEN
100
AcDbLine
 62
2
  6
CONTINUOUS
 10
100.2590084649
 20
53.8033305793
 11
185.345009869
 21
53.8033305793
  0
LINE
  5
234
100
AcDbEntity
  8
A_BEMASSUNGEN
100
AcDbLine
 62
2
  6
CONTINUOUS
 10
183.345009869
 20
48.8033305793
 11
183.345009869
 21
43.0873877203
  0
LINE
  5
235
100
AcDbEntity
  8
A_BEMASSUNGEN
100
AcDbLine
 62
2
  6
CONTINUOUS
 10
183.345009869
 20
43.0873877203
 11
183.345009869
 21
51.3033305793
  0
LINE
  5
236
100
AcDbEntity
  8
A_BEMASSUNGEN
100
AcDbLine
 62
2
  6
CONTINUOUS
 10
183.345009869
 20
53.8033305793
 11
183.345009869
 21
61.3033305793
  0
LINE
  5
237
100
AcDbEntity
  8
A_BEMASSUNGEN
100
AcDbLine
 62
2
  6
CONTINUOUS
 10
183.345009869
 20
61.3033305793
 11
183.345009869
 21
51.3033305793
  0
INSERT
  5
238
100
AcDbEntity
  8
A_BEMASSUNGEN
100
AcDbBlockReference
 62
2
  6
CONTINUOUS
  2
_ARROW_FILLED
 10
183.345009869
 20
48.8033305793
 41
3.5
 42
3.5
 43
3.5
 50
90.0
  0
INSERT
  5
239
100
AcDbEntity
  8
A_BEMASSUNGEN
100
AcDbBlockReference
 62
2
  6
CONTINUOUS
  2
_ARROW_FILLED
 10
183.345009869
 20
53.8033305793
 41
3.5
 42
3.5
 43
3.5
 50
270.0
  0
ENDBLK
  5
23A
100
AcDbEntity
  8
0
  6
BYBLOCK
 62
0
100
AcDbBlockEnd
  0
BLOCK
  5
23B
100
AcDbEntity
  8
A_BEMASSUNGEN
100
AcDbBlockBegin
 62
2
  6
CONTINUOUS
  2
*D1
 70
65
 10
0.0
 20
0.0
  3
*D1
  1

  0
MTEXT
  5
23C
100
AcDbEntity
  8
A_BEMASSUNGEN
100
AcDbMText
 62
5
  6
CONTINUOUS
  7
TEXTSTYLE_2
 71
2
 72
1
 10
178.9736600028
 20
74.1533305793
 30
0.0
 11
0.0
 21
1.0
 31
0.0
  1
40.7
 40
3.5
 41
15.375
  0
LINE
  5
23D
100
AcDbEntity
  8
A_BEMASSUNGEN
100
AcDbLine
 62
2
  6
CONTINUOUS
 10
100.2590084649
 20
53.8033305793
 11
185.3486600028
 21
53.8033305793
  0
LINE
  5
23E
100
AcDbEntity
  8
A_BEMASSUNGEN
100
AcDbLine
 62
2
  6
CONTINUOUS
 10
100.2590084649
 20
94.5033305793
 11
185.3486600028
 21
94.5033305793
  0
LINE
  5
23F
100
AcDbEntity
  8
A_BEMASSUNGEN
100
AcDbLine
 62
2
  6
CONTINUOUS
 10
183.3486600028
 20
53.8033305793
 11
183.3486600028
 21
74.1533305793
  0
LINE
  5
240
100
AcDbEntity
  8
A_BEMASSUNGEN
100
AcDbLine
 62
2
  6
CONTINUOUS
 10
183.3486600028
 20
94.5033305793
 11
183.3486600028
 21
74.1533305793
  0
INSERT
  5
241
100
AcDbEntity
  8
A_BEMASSUNGEN
100
AcDbBlockReference
 62
2
  6
CONTINUOUS
  2
_ARROW_FILLED
 10
183.3486600028
 20
53.8033305793
 41
3.5
 42
3.5
 43
3.5
 50
270.0
  0
INSERT
  5
242
100
AcDbEntity
  8
A_BEMASSUNGEN
100
AcDbBlockReference
 62
2
  6
CONTINUOUS
  2
_ARROW_FILLED
 10
183.3486600028
 20
94.5033305793
 41
3.5
 42
3.5
 43
3.5
 50
90.0
  0
ENDBLK
  5
243
100
AcDbEntity
  8
0
  6
BYBLOCK
 62
0
100
AcDbBlockEnd
  0
BLOCK
  5
244
100
AcDbEntity
  8
A_BEMASSUNGEN
100
AcDbBlockBegin
 62
2
  6
CONTINUOUS
  2
*D2
 70
65
 10
0.0
 20
0.0
  3
*D2
  1

  0
MTEXT
  5
245
100
AcDbEntity
  8
A_BEMASSUNGEN
100
AcDbMText
 62
5
  6
CONTINUOUS
  7
TEXTSTYLE_2
 71
3
 72
1
 10
48.8187453561
 20
65.4471037938
 30
0.0
 11
0.0
 21
1.0
 31
0.0
  1
6
 40
3.5
 41
4.125
  0
LINE
  5
246
100
AcDbEntity
  8
A_BEMASSUNGEN
100
AcDbLine
 62
2
  6
CONTINUOUS
 10
65.7590084649
 20
69.8033305793
 11
51.1937453561
 21
69.8033305793
  0
LINE
  5
247
100
AcDbEntity
  8
A_BEMASSUNGEN
100
AcDbLine
 62
2
  6
CONTINUOUS
 10
53.1937453561
 20
75.8033305793
 11
53.1937453561
 21
83.3033305793
  0
LINE
  5
248
100
AcDbEntity
  8
A_BEMASSUNGEN
100
AcDbLine
 62
2
  6
CONTINUOUS
 10
53.1937453561
 20
83.3033305793
 11
53.1937453561
 21
72.8033305793
  0
LINE
  5
249
100
AcDbEntity
  8
A_BEMASSUNGEN
100
AcDbLine
 62
2
  6
CONTINUOUS
 10
53.1937453561
 20
69.8033305793
 11
53.1937453561
 21
62.6971037938
  0
LINE
  5
24A
100
AcDbEntity
  8
A_BEMASSUNGEN
100
AcDbLine
 62
2
  6
CONTINUOUS
 10
53.1937453561
 20
62.6971037938
 11
53.1937453561
 21
72.8033305793
  0
INSERT
  5
24B
100
AcDbEntity
  8
A_BEMASSUNGEN
100
AcDbBlockReference
 62
2
  6
CONTINUOUS
  2
_ARROW_FILLED
 10
53.1937453561
 20
75.8033305793
 41
3.5
 42
3.5
 43
3.5
 50
270.0
  0
INSERT
  5
24C
100
AcDbEntity
  8
A_BEMASSUNGEN
100
AcDbBlockReference
 62
2
  6
CONTINUOUS
  2
_ARROW_FILLED
 10
53.1937453561
 20
69.8033305793
 41
3.5
 42
3.5
 43
3.5
 50
90.0
  0
ENDBLK
  5
24D
100
AcDbEntity
  8
0
  6
BYBLOCK
 62
0
100
AcDbBlockEnd
  0
BLOCK
  5
24E
100
AcDbEntity
  8
A_BEMASSUNGEN
100
AcDbBlockBegin
 62
2
  6
CONTINUOUS
  2
*D3
 70
65
 10
0.0
 20
0.0
  3
*D3
  1

  0
MTEXT
  5
24F
100
AcDbEntity
  8
A_BEMASSUNGEN
100
AcDbMText
 62
5
  6
CONTINUOUS
  7
TEXTSTYLE_2
 71
2
 72
1
 10
39.294928864
 20
62.3033305793
 30
0.0
 11
0.0
 21
1.0
 31
0.0
  1
27
 40
3.5
 41
8.25
  0
LINE
  5
250
100
AcDbEntity
  8
A_BEMASSUNGEN
100
AcDbLine
 62
2
  6
CONTINUOUS
 10
65.7590084649
 20
48.8033305793
 11
41.669928864
 21
48.8033305793
  0
LINE
  5
251
100
AcDbEntity
  8
A_BEMASSUNGEN
100
AcDbLine
 62
2
  6
CONTINUOUS
 10
43.669928864
 20
75.8033305793
 11
43.669928864
 21
62.3033305793
  0
LINE
  5
252
100
AcDbEntity
  8
A_BEMASSUNGEN
100
AcDbLine
 62
2
  6
CONTINUOUS
 10
43.669928864
 20
48.8033305793
 11
43.669928864
 21
62.3033305793
  0
INSERT
  5
253
100
AcDbEntity
  8
A_BEMASSUNGEN
100
AcDbBlockReference
 62
2
  6
CONTINUOUS
  2
_ARROW_FILLED
 10
43.669928864
 20
75.8033305793
 41
3.5
 42
3.5
 43
3.5
 50
90.0
  0
INSERT
  5
254
100
AcDbEntity
  8
A_BEMASSUNGEN
100
AcDbBlockReference
 62
2
  6
CONTINUOUS
  2
_ARROW_FILLED
 10
43.669928864
 20
48.8033305793
 41
3.5
 42
3.5
 43
3.5
 50
270.0
  0
ENDBLK
  5
255
100
AcDbEntity
  8
0
  6
BYBLOCK
 62
0
100
AcDbBlockEnd
  0
BLOCK
  5
256
100
AcDbEntity
  8
A_BEMASSUNGEN
100
AcDbBlockBegin
 62
2
  6
CONTINUOUS
  2
*D4
 70
65
 10
0.0
 20
0.0
  3
*D4
  1

  0
MTEXT
  5
257
100
AcDbEntity
  8
A_BEMASSUNGEN
100
AcDbMText
 62
5
  6
CONTINUOUS
  7
TEXTSTYLE_2
 71
3
 72
1
 10
4.6801585141
 20
69.6782885793
 30
0.0
 11
0.0
 21
1.0
 31
0.0
  1
5
 40
3.5
 41
3.75
  0
LINE
  5
258
100
AcDbEntity
  8
A_BEMASSUNGEN
100
AcDbLine
 62
2
  6
CONTINUOUS
 10
17.7590084649
 20
75.8033305793
 11
7.0551585141
 21
75.8033305793
  0
LINE
  5
259
100
AcDbEntity
  8
A_BEMASSUNGEN
100
AcDbLine
 62
2
  6
CONTINUOUS
 10
42.7590084649
 20
80.8033305793
 11
7.0551585141
 21
80.8033305793
  0
LINE
  5
25A
100
AcDbEntity
  8
A_BEMASSUNGEN
100
AcDbLine
 62
2
  6
CONTINUOUS
 10
9.0551585141
 20
75.8033305793
 11
9.0551585141
 21
67.1782885793
  0
LINE
  5
25B
100
AcDbEntity
  8
A_BEMASSUNGEN
100
AcDbLine
 62
2
  6
CONTINUOUS
 10
9.0551585141
 20
67.1782885793
 11
9.0551585141
 21
78.3033305793
  0
LINE
  5
25C
100
AcDbEntity
  8
A_BEMASSUNGEN
100
AcDbLine
 62
2
  6
CONTINUOUS
 10
9.0551585141
 20
80.8033305793
 11
9.0551585141
 21
88.3033305793
  0
LINE
  5
25D
100
AcDbEntity
  8
A_BEMASSUNGEN
100
AcDbLine
 62
2
  6
CONTINUOUS
 10
9.0551585141
 20
88.3033305793
 11
9.0551585141
 21
78.3033305793
  0
INSERT
  5
25E
100
AcDbEntity
  8
A_BEMASSUNGEN
100
AcDbBlockReference
 62
2
  6
CONTINUOUS
  2
_ARROW_FILLED
 10
9.0551585141
 20
75.8033305793
 41
3.5
 42
3.5
 43
3.5
 50
90.0
  0
INSERT
  5
25F
100
AcDbEntity
  8
A_BEMASSUNGEN
100
AcDbBlockReference
 62
2
  6
CONTINUOUS
  2
_ARROW_FILLED
 10
9.0551585141
 20
80.8033305793
 41
3.5
 42
3.5
 43
3.5
 50
270.0
  0
ENDBLK
  5
260
100
AcDbEntity
  8
0
  6
BYBLOCK
 62
0
100
AcDbBlockEnd
  0
BLOCK
  5
261
100
AcDbEntity
  8
A_BEMASSUNGEN
100
AcDbBlockBegin
 62
2
  6
CONTINUOUS
  2
*D5
 70
65
 10
0.0
 20
0.0
  3
*D5
  1

  0
MTEXT
  5
262
100
AcDbEntity
  8
A_BEMASSUNGEN
100
AcDbMText
 62
5
  6
CONTINUOUS
  7
TEXTSTYLE_2
 71
2
 72
1
 10
4.6801585141
 20
95.8033305793
 30
0.0
 11
0.0
 21
1.0
 31
0.0
  1
30
 40
3.5
 41
7.875
  0
LINE
  5
263
100
AcDbEntity
  8
A_BEMASSUNGEN
100
AcDbLine
 62
2
  6
CONTINUOUS
 10
42.7590084649
 20
80.8033305793
 11
7.0551585141
 21
80.8033305793
  0
LINE
  5
264
100
AcDbEntity
  8
A_BEMASSUNGEN
100
AcDbLine
 62
2
  6
CONTINUOUS
 10
42.7590084649
 20
110.8033305793
 11
7.0551585141
 21
110.8033305793
  0
LINE
  5
265
100
AcDbEntity
  8
A_BEMASSUNGEN
100
AcDbLine
 62
2
  6
CONTINUOUS
 10
9.0551585141
 20
80.8033305793
 11
9.0551585141
 21
95.8033305793
  0
LINE
  5
266
100
AcDbEntity
  8
A_BEMASSUNGEN
100
AcDbLine
 62
2
  6
CONTINUOUS
 10
9.0551585141
 20
110.8033305793
 11
9.0551585141
 21
95.8033305793
  0
INSERT
  5
267
100
AcDbEntity
  8
A_BEMASSUNGEN
100
AcDbBlockReference
 62
2
  6
CONTINUOUS
  2
_ARROW_FILLED
 10
9.0551585141
 20
80.8033305793
 41
3.5
 42
3.5
 43
3.5
 50
270.0
  0
INSERT
  5
268
100
AcDbEntity
  8
A_BEMASSUNGEN
100
AcDbBlockReference
 62
2
  6
CONTINUOUS
  2
_ARROW_FILLED
 10
9.0551585141
 20
110.8033305793
 41
3.5
 42
3.5
 43
3.5
 50
90.0
  0
ENDBLK
  5
269
100
AcDbEntity
  8
0
  6
BYBLOCK
 62
0
100
AcDbBlockEnd
  0
BLOCK
  5
26A
100
AcDbEntity
  8
A_BEMASSUNGEN
100
AcDbBlockBegin
 62
2
  6
CONTINUOUS
  2
*D6
 70
65
 10
0.0
 20
0.0
  3
*D6
  1

  0
MTEXT
  5
26B
100
AcDbEntity
  8
A_BEMASSUNGEN
100
AcDbMText
 62
5
  6
CONTINUOUS
  7
TEXTSTYLE_2
 71
1
 72
1
 10
86.8953475902
 20
165.3914198336
 30
0.0
 11
1.0
 21
0.0
 31
0.0
  1
5
 40
3.5
 41
3.75
  0
LINE
  5
26C
100
AcDbEntity
  8
A_BEMASSUNGEN
100
AcDbLine
 62
2
  6
CONTINUOUS
 10
80.7590084649
 20
102.8033305793
 11
80.7590084649
 21
163.0164198336
  0
LINE
  5
26D
100
AcDbEntity
  8
A_BEMASSUNGEN
100
AcDbLine
 62
2
  6
CONTINUOUS
 10
75.7590084649
 20
110.2033305793
 11
75.7590084649
 21
163.0164198336
  0
LINE
  5
26E
100
AcDbEntity
  8
A_BEMASSUNGEN
100
AcDbLine
 62
2
  6
CONTINUOUS
 10
80.7590084649
 20
161.0164198336
 11
89.3953475902
 21
161.0164198336
  0
LINE
  5
26F
100
AcDbEntity
  8
A_BEMASSUNGEN
100
AcDbLine
 62
2
  6
CONTINUOUS
 10
89.3953475902
 20
161.0164198336
 11
78.2590084649
 21
161.0164198336
  0
LINE
  5
270
100
AcDbEntity
  8
A_BEMASSUNGEN
100
AcDbLine
 62
2
  6
CONTINUOUS
 10
75.7590084649
 20
161.0164198336
 11
68.2590084649
 21
161.0164198336
  0
LINE
  5
271
100
AcDbEntity
  8
A_BEMASSUNGEN
100
AcDbLine
 62
2
  6
CONTINUOUS
 10
68.2590084649
 20
161.0164198336
 11
78.2590084649
 21
161.0164198336
  0
INSERT
  5
272
100
AcDbEntity
  8
A_BEMASSUNGEN
100
AcDbBlockReference
 62
2
  6
CONTINUOUS
  2
_ARROW_FILLED
 10
80.7590084649
 20
161.0164198336
 41
3.5
 42
3.5
 43
3.5
 50
180.0
  0
INSERT
  5
273
100
AcDbEntity
  8
A_BEMASSUNGEN
100
AcDbBlockReference
 62
2
  6
CONTINUOUS
  2
_ARROW_FILLED
 10
75.7590084649
 20
161.0164198336
 41
3.5
 42
3.5
 43
3.5
  0
ENDBLK
  5
274
100
AcDbEntity
  8
0
  6
BYBLOCK
 62
0
100
AcDbBlockEnd
  0
BLOCK
  5
275
100
AcDbEntity
  8
A_BEMASSUNGEN
100
AcDbBlockBegin
 62
2
  6
CONTINUOUS
  2
*D7
 70
65
 10
0.0
 20
0.0
  3
*D7
  1

  0
MTEXT
  5
276
100
AcDbEntity
  8
A_BEMASSUNGEN
100
AcDbMText
 62
5
  6
CONTINUOUS
  7
TEXTSTYLE_2
 71
2
 72
1
 10
59.2590084649
 20
165.3925296392
 30
0.0
 11
1.0
 21
0.0
 31
0.0
  1
33
 40
3.5
 41
7.5
  0
LINE
  5
277
100
AcDbEntity
  8
A_BEMASSUNGEN
100
AcDbLine
 62
2
  6
CONTINUOUS
 10
75.7590084649
 20
110.2033305793
 11
75.7590084649
 21
163.0175296392
  0
LINE
  5
278
100
AcDbEntity
  8
A_BEMASSUNGEN
100
AcDbLine
 62
2
  6
CONTINUOUS
 10
42.7590084649
 20
110.8033305793
 11
42.7590084649
 21
163.0175296392
  0
LINE
  5
279
100
AcDbEntity
  8
A_BEMASSUNGEN
100
AcDbLine
 62
2
  6
CONTINUOUS
 10
75.7590084649
 20
161.0175296392
 11
59.2590084649
 21
161.0175296392
  0
LINE
  5
27A
100
AcDbEntity
  8
A_BEMASSUNGEN
100
AcDbLine
 62
2
  6
CONTINUOUS
 10
42.7590084649
 20
161.0175296392
 11
59.2590084649
 21
161.0175296392
  0
INSERT
  5
27B
100
AcDbEntity
  8
A_BEMASSUNGEN
100
AcDbBlockReference
 62
2
  6
CONTINUOUS
  2
_ARROW_FILLED
 10
75.7590084649
 20
161.0175296392
 41
3.5
 42
3.5
 43
3.5
  0
INSERT
  5
27C
100
AcDbEntity
  8
A_BEMASSUNGEN
100
AcDbBlockReference
 62
2
  6
CONTINUOUS
  2
_ARROW_FILLED
 10
42.7590084649
 20
161.0175296392
 41
3.5
 42
3.5
 43
3.5
 50
180.0
  0
ENDBLK
  5
27D
100
AcDbEntity
  8
0
  6
BYBLOCK
 62
0
100
AcDbBlockEnd
  0
BLOCK
  5
27E
100
AcDbEntity
  8
A_BEMASSUNGEN
100
AcDbBlockBegin
 62
2
  6
CONTINUOUS
  2
*D8
 70
65
 10
0.0
 20
0.0
  3
*D8
  1

  0
MTEXT
  5
27F
100
AcDbEntity
  8
A_BEMASSUNGEN
100
AcDbMText
 62
5
  6
CONTINUOUS
  7
TEXTSTYLE_2
 71
2
 72
1
 10
71.7590084649
 20
46.9887488577
 30
0.0
 11
1.0
 21
0.0
 31
0.0
  1
18
 40
3.5
 41
7.125
  0
LINE
  5
280
100
AcDbEntity
  8
A_BEMASSUNGEN
100
AcDbLine
 62
2
  6
CONTINUOUS
 10
62.7590084649
 20
53.9033305793
 11
62.7590084649
 21
40.6137488577
  0
LINE
  5
281
100
AcDbEntity
  8
A_BEMASSUNGEN
100
AcDbLine
 62
2
  6
CONTINUOUS
 10
80.7590084649
 20
75.9034448594
 11
80.7590084649
 21
40.6137488577
  0
LINE
  5
282
100
AcDbEntity
  8
A_BEMASSUNGEN
100
AcDbLine
 62
2
  6
CONTINUOUS
 10
62.7590084649
 20
42.6137488577
 11
71.7590084649
 21
42.6137488577
  0
LINE
  5
283
100
AcDbEntity
  8
A_BEMASSUNGEN
100
AcDbLine
 62
2
  6
CONTINUOUS
 10
80.7590084649
 20
42.6137488577
 11
71.7590084649
 21
42.6137488577
  0
INSERT
  5
284
100
AcDbEntity
  8
A_BEMASSUNGEN
100
AcDbBlockReference
 62
2
  6
CONTINUOUS
  2
_ARROW_FILLED
 10
62.7590084649
 20
42.6137488577
 41
3.5
 42
3.5
 43
3.5
 50
180.0
  0
INSERT
  5
285
100
AcDbEntity
  8
A_BEMASSUNGEN
100
AcDbBlockReference
 62
2
  6
CONTINUOUS
  2
_ARROW_FILLED
 10
80.7590084649
 20
42.6137488577
 41
3.5
 42
3.5
 43
3.5
 50
0.0
  0
ENDBLK
  5
286
100
AcDbEntity
  8
0
  6
BYBLOCK
 62
0
100
AcDbBlockEnd
  0
BLOCK
  5
287
100
AcDbEntity
  8
A_BEMASSUNGEN
100
AcDbBlockBegin
 62
2
  6
CONTINUOUS
  2
*D9
 70
65
 10
0.0
 20
0.0
  3
*D9
  1

  0
MTEXT
  5
288
100
AcDbEntity
  8
A_BEMASSUNGEN
100
AcDbMText
 62
5
  6
CONTINUOUS
  7
TEXTSTYLE_2
 71
2
 72
1
 10
79.0096321322
 20
38.2826068953
 30
0.0
 11
1.0
 21
0.0
 31
0.0
  1
37.5
 40
3.5
 41
14.625
  0
LINE
  5
289
100
AcDbEntity
  8
A_BEMASSUNGEN
100
AcDbLine
 62
2
  6
CONTINUOUS
 10
62.7590084649
 20
53.9033305793
 11
62.7590084649
 21
31.9076068953
  0
LINE
  5
28A
100
AcDbEntity
  8
A_BEMASSUNGEN
100
AcDbLine
 62
2
  6
CONTINUOUS
 10
100.2590084649
 20
53.8033305793
 11
100.2590084649
 21
31.9076068953
  0
LINE
  5
28B
100
AcDbEntity
  8
A_BEMASSUNGEN
100
AcDbLine
 62
2
  6
CONTINUOUS
 10
62.7590084649
 20
33.9076068953
 11
81.5090084649
 21
33.9076068953
  0
LINE
  5
28C
100
AcDbEntity
  8
A_BEMASSUNGEN
100
AcDbLine
 62
2
  6
CONTINUOUS
 10
100.2590084649
 20
33.9076068953
 11
81.5090084649
 21
33.9076068953
  0
INSERT
  5
28D
100
AcDbEntity
  8
A_BEMASSUNGEN
100
AcDbBlockReference
 62
2
  6
CONTINUOUS
  2
_ARROW_FILLED
 10
62.7590084649
 20
33.9076068953
 41
3.5
 42
3.5
 43
3.5
 50
180.0
  0
INSERT
  5
28E
100
AcDbEntity
  8
A_BEMASSUNGEN
100
AcDbBlockReference
 62
2
  6
CONTINUOUS
  2
_ARROW_FILLED
 10
100.2590084649
 20
33.9076068953
 41
3.5
 42
3.5
 43
3.5
 50
0.0
  0
ENDBLK
  5
28F
100
AcDbEntity
  8
0
  6
BYBLOCK
 62
0
100
AcDbBlockEnd
  0
ENDSEC
  0
SECTION
  2
ENTITIES
  0
DIMENSION
  5
290
100
AcDbEntity
  8
A_BEMASSUNGEN
100
AcDbDimension
 62
2
  6
CONTINUOUS
  2
*D0
 10
183.345009869
 20
53.8033305793
 11
183.345009869
 21
43.8373847958
 70
160
  3
DIMSTYLE_1
100
AcDbAlignedDimension
 13
165.2590084649
 23
48.8033305793
 14
100.2590084649
 24
53.8033305793
 50
90.0
100
AcDbRotatedDimension
  0
DIMENSION
  5
291
100
AcDbEntity
  8
A_BEMASSUNGEN
100
AcDbDimension
 62
2
  6
CONTINUOUS
  2
*D1
 10
183.3486600028
 20
94.5033305793
 11
183.3486600028
 21
73.6533233543
 70
160
  3
DIMSTYLE_2
100
AcDbAlignedDimension
 13
100.2590084649
 23
53.8033305793
 14
100.2590084649
 24
94.5033305793
 50
90.0
100
AcDbRotatedDimension
  0
DIMENSION
  5
292
100
AcDbEntity
  8
A_BEMASSUNGEN
100
AcDbDimension
 62
2
  6
CONTINUOUS
  2
*D2
 10
53.1937453561
 20
69.8033305793
 11
53.1937453561
 21
63.5721067015
 70
160
  3
DIMSTYLE_3
100
AcDbAlignedDimension
 13
73.7590084649
 23
75.8033305793
 14
65.7590084649
 24
69.8033305793
 50
270.0
100
AcDbRotatedDimension
  0
DIMENSION
  5
293
100
AcDbEntity
  8
A_BEMASSUNGEN
100
AcDbDimension
 62
2
  6
CONTINUOUS
  2
*D3
 10
43.669928864
 20
48.8033305793
 11
43.669928864
 21
61.803329088
 70
160
  3
DIMSTYLE_4
100
AcDbAlignedDimension
 13
73.7590084649
 23
75.8033305793
 14
65.7590084649
 24
48.8033305793
 50
270.0
100
AcDbRotatedDimension
  0
DIMENSION
  5
294
100
AcDbEntity
  8
A_BEMASSUNGEN
100
AcDbDimension
 62
2
  6
CONTINUOUS
  2
*D4
 10
9.0551585141
 20
80.8033305793
 11
9.0551585141
 21
67.9282878343
 70
160
  3
DIMSTYLE_1
100
AcDbAlignedDimension
 13
17.7590084649
 23
75.8033305793
 14
42.7590084649
 24
80.8033305793
 50
90.0
100
AcDbRotatedDimension
  0
DIMENSION
  5
295
100
AcDbEntity
  8
A_BEMASSUNGEN
100
AcDbDimension
 62
2
  6
CONTINUOUS
  2
*D5
 10
9.0551585141
 20
110.8033305793
 11
9.0551585141
 21
95.3033307385
 70
160
  3
DIMSTYLE_5
100
AcDbAlignedDimension
 13
42.7590084649
 23
80.8033305793
 14
42.7590084649
 24
110.8033305793
 50
90.0
100
AcDbRotatedDimension
  0
DIMENSION
  5
296
100
AcDbEntity
  8
A_BEMASSUNGEN
100
AcDbDimension
 62
2
  6
CONTINUOUS
  2
*D6
 10
75.7590084649
 20
161.0164198336
 11
87.6453469329
 21
161.0164198336
 70
160
  3
DIMSTYLE_6
100
AcDbAlignedDimension
 13
80.7590084649
 23
102.8033305793
 14
75.7590084649
 24
110.2033305793
 50
180.0
100
AcDbRotatedDimension
  0
DIMENSION
  5
297
100
AcDbEntity
  8
A_BEMASSUNGEN
100
AcDbDimension
 62
2
  6
CONTINUOUS
  2
*D7
 10
42.7590084649
 20
161.0175296392
 11
58.7590115741
 21
161.0175296392
 70
160
  3
DIMSTYLE_2
100
AcDbAlignedDimension
 13
75.7590084649
 23
110.2033305793
 14
42.7590084649
 24
110.8033305793
 50
180.0
100
AcDbRotatedDimension
  0
DIMENSION
  5
298
100
AcDbEntity
  8
A_BEMASSUNGEN
100
AcDbDimension
 62
2
  6
CONTINUOUS
  2
*D8
 10
80.7590084649
 20
42.6137488577
 11
71.2590115741
 21
42.6137488577
 70
160
  3
DIMSTYLE_5
100
AcDbAlignedDimension
 13
62.7590084649
 23
53.9033305793
 14
80.7590084649
 24
75.9034448594
100
AcDbRotatedDimension
  0
DIMENSION
  5
299
100
AcDbEntity
  8
A_BEMASSUNGEN
100
AcDbDimension
 62
2
  6
CONTINUOUS
  2
*D9
 10
100.2590084649
 20
33.9076068953
 11
78.5096336806
 21
33.9076068953
 70
160
  3
DIMSTYLE_2
100
AcDbAlignedDimension
 13
62.7590084649
 23
53.9033305793
 14
100.2590084649
 24
53.8033305793
100
AcDbRotatedDimension
  0
LINE
  5
29A
100
AcDbEntity
  8
IMPORT_KE
100
AcDbLine
 62
2
  6
CONTINUOUS
 10
15.7590084649
 20
151.8033305793
 11
15.7590084649
 21
149.6424295793
  0
LINE
  5
29B
100
AcDbEntity
  8
IMPORT_KE
100
AcDbLine
 62
2
  6
CONTINUOUS
 10
15.7590084649
 20
96.1290945793
 11
15.7590084649
 21
77.8033305793
  0
LINE
  5
29C
100
AcDbEntity
  8
0
100
AcDbLine
 62
7
  6
CONTINUOUS
 10
15.7590084649
 20
77.8033305793
 11
15.7590084649
 21
96.1290945793
  0
LINE
  5
29D
100
AcDbEntity
  8
0
100
AcDbLine
 62
7
  6
CONTINUOUS
 10
15.7590084649
 20
149.6424295793
 11
15.7590084649
 21
151.8033305793
  0
LINE
  5
29E
100
AcDbEntity
  8
IMPORT_KE
100
AcDbLine
 62
2
  6
CONTINUOUS
 10
16.2590084649
 20
127.1334585793
 11
16.2590084649
 21
112.4732025793
  0
LINE
  5
29F
100
AcDbEntity
  8
0
100
AcDbLine
 62
7
  6
CONTINUOUS
 10
16.2590084649
 20
112.4732025793
 11
16.2590084649
 21
127.1334585793
  0
LINE
  5
2A0
100
AcDbEntity
  8
IMPORT_KE
100
AcDbLine
 62
2
  6
CONTINUOUS
 10
19.7590084649
 20
147.2589225793
 11
19.7590084649
 21
142.4513475793
  0
LINE
  5
2A1
100
AcDbEntity
  8
0
100
AcDbLine
 62
7
  6
CONTINUOUS
 10
19.7590084649
 20
142.4513475793
 11
19.7590084649
 21
147.2589225793
  0
LINE
  5
2A2
100
AcDbEntity
  8
IMPORT_KE
100
AcDbLine
 62
2
  6
CONTINUOUS
 10
25.7590084649
 20
141.6059365793
 11
25.7590084649
 21
129.0007235793
  0
LINE
  5
2A3
100
AcDbEntity
  8
IMPORT_KE
100
AcDbLine
 62
2
  6
CONTINUOUS
 10
25.7590084649
 20
110.6059365793
 11
25.7590084649
 21
98.0007235793
  0
LINE
  5
2A4
100
AcDbEntity
  8
0
100
AcDbLine
 62
7
  6
CONTINUOUS
 10
25.7590084649
 20
98.0007235793
 11
25.7590084649
 21
110.6059365793
  0
LINE
  5
2A5
100
AcDbEntity
  8
0
100
AcDbLine
 62
7
  6
CONTINUOUS
 10
25.7590084649
 20
129.0007235793
 11
25.7590084649
 21
141.6059365793
  0
LINE
  5
2A6
100
AcDbEntity
  8
0
100
AcDbLine
 62
7
  6
CONTINUOUS
 10
42.7590084649
 20
80.8033305793
 11
42.7590084649
 21
110.8033305793
  0
LINE
  5
2A7
100
AcDbEntity
  8
0
100
AcDbLine
 62
7
  6
CONTINUOUS
 10
43.2590084649
 20
108.3033305793
 11
43.2590084649
 21
102.3033305793
  0
LINE
  5
2A8
100
AcDbEntity
  8
0
100
AcDbLine
 62
7
  6
CONTINUOUS
 10
43.2590084649
 20
92.4533305793
 11
43.2590084649
 21
85.4533305793
  0
LINE
  5
2A9
100
AcDbEntity
  8
0
100
AcDbLine
 62
7
  6
CONTINUOUS
 10
45.5090084649
 20
95.8033305793
 11
45.5090084649
 21
101.8033305793
  0
LINE
  5
2AA
100
AcDbEntity
  8
0
100
AcDbLine
 62
7
  6
CONTINUOUS
 10
47.7590084649
 20
93.5533305793
 11
47.7590084649
 21
104.0533305793
  0
LINE
  5
2AB
100
AcDbEntity
  8
0
100
AcDbLine
 62
7
  6
CONTINUOUS
 10
48.7590084649
 20
80.9858022801
 11
48.7590084649
 21
110.6208588785
  0
LINE
  5
2AC
100
AcDbEntity
  8
A_FASEN
100
AcDbLine
 62
7
  6
CONTINUOUS
 10
49.2590084649
 20
85.5033305793
 11
49.2590084649
 21
92.5033305793
  0
LINE
  5
2AD
100
AcDbEntity
  8
0
100
AcDbLine
 62
7
  6
CONTINUOUS
 10
51.5590084649
 20
83.9883972941
 11
51.5590084649
 21
107.6182638646
  0
LINE
  5
2AE
100
AcDbEntity
  8
0
100
AcDbLine
 62
7
  6
CONTINUOUS
 10
53.2590084649
 20
102.9033305793
 11
53.2590084649
 21
98.9033305793
  0
LINE
  5
2AF
100
AcDbEntity
  8
0
100
AcDbLine
 62
7
  6
CONTINUOUS
 10
53.2590084649
 20
92.4033305793
 11
53.2590084649
 21
88.4033305793
  0
LINE
  5
2B0
100
AcDbEntity
  8
0
100
AcDbLine
 62
7
  6
CONTINUOUS
 10
53.7590084649
 20
87.9033305793
 11
53.7590084649
 21
92.9033305793
  0
LINE
  5
2B1
100
AcDbEntity
  8
0
100
AcDbLine
 62
7
  6
CONTINUOUS
 10
53.7590084649
 20
98.4033305793
 11
53.7590084649
 21
103.4033305793
  0
LINE
  5
2B2
100
AcDbEntity
  8
0
100
AcDbLine
 62
7
  6
CONTINUOUS
 10
54.7590084649
 20
84.1342907138
 11
54.7590084649
 21
98.4033305793
  0
LINE
  5
2B3
100
AcDbEntity
  8
0
100
AcDbLine
 62
7
  6
CONTINUOUS
 10
54.7590084649
 20
103.4033305793
 11
54.7590084649
 21
107.4723704449
  0
LINE
  5
2B4
100
AcDbEntity
  8
0
100
AcDbLine
 62
7
  6
CONTINUOUS
 10
98.2694803926
 20
54.0892646747
 11
79.7590084649
 21
53.9923431846
  0
LINE
  5
2B5
100
AcDbEntity
  8
A_RUNDUNGEN
100
AcDbLine
 62
7
  6
CONTINUOUS
 10
62.7590084649
 20
53.9033305793
 11
67.883824077
 21
53.9301642963
  0
LINE
  5
2B6
100
AcDbEntity
  8
A_RUNDUNGEN
100
AcDbLine
 62
7
  6
CONTINUOUS
 10
68.693466223
 20
53.9344036114
 11
79.7590084649
 21
53.9923431846
  0
LINE
  5
2B7
100
AcDbEntity
  8
0
100
AcDbLine
 62
7
  6
CONTINUOUS
 10
165.2590084649
 20
48.8033305793
 11
65.7590084649
 21
48.8033305793
  0
LINE
  5
2B8
100
AcDbEntity
  8
0
100
AcDbLine
 62
7
  6
CONTINUOUS
 10
172.7590084649
 20
51.8033305793
 11
168.2590084649
 21
51.8033305793
  0
LINE
  5
2B9
100
AcDbEntity
  8
0
100
AcDbLine
 62
7
  6
CONTINUOUS
 10
100.2590084649
 20
53.8033305793
 11
62.7590084649
 21
53.8033305793
  0
LINE
  5
2BA
100
AcDbEntity
  8
0
100
AcDbLine
 62
7
  6
CONTINUOUS
 10
42.7590084649
 20
92.9533305793
 11
43.2590084649
 21
92.4533305793
  0
LINE
  5
2BB
100
AcDbEntity
  8
0
100
AcDbLine
 62
7
  6
CONTINUOUS
 10
59.7590084649
 20
84.9407738969
 11
59.7590084649
 21
96.4658872617
  0
LINE
  5
2BC
100
AcDbEntity
  8
A_FASEN
100
AcDbLine
 62
7
  6
CONTINUOUS
 10
61.7590084649
 20
92.5033305793
 11
61.7590084649
 21
85.5033305793
  0
LINE
  5
2BD
100
AcDbEntity
  8
QUER2
100
AcDbLine
 62
7
  6
CONTINUOUS
 10
62.2590084649
 20
107.2033305793
 11
62.2590084649
 21
105.0033305793
  0
LINE
  5
2BE
100
AcDbEntity
  8
QUER2
100
AcDbLine
 62
7
  6
CONTINUOUS
 10
62.2590084649
 20
96.8033305793
 11
62.2590084649
 21
84.2033305793
  0
LINE
  5
2BF
100
AcDbEntity
  8
0
100
AcDbLine
 62
7
  6
CONTINUOUS
 10
62.2590084649
 20
82.5818723894
 11
62.2590084649
 21
85.0033305793
  0
LINE
  5
2C0
100
AcDbEntity
  8
0
100
AcDbLine
 62
7
  6
CONTINUOUS
 10
62.2590084649
 20
93.0033305793
 11
62.2590084649
 21
98.4033305793
  0
LINE
  5
2C1
100
AcDbEntity
  8
0
100
AcDbLine
 62
7
  6
CONTINUOUS
 10
62.2590084649
 20
103.4033305793
 11
62.2590084649
 21
109.0247887692
  0
LINE
  5
2C2
100
AcDbEntity
  8
0
100
AcDbLine
 62
7
  6
CONTINUOUS
 10
62.7590084649
 20
66.8033305793
 11
62.7590084649
 21
65.9033305793
  0
LINE
  5
2C3
100
AcDbEntity
  8
0
100
AcDbLine
 62
7
  6
CONTINUOUS
 10
62.7590084649
 20
53.9033305793
 11
62.7590084649
 21
51.8033305793
  0
LINE
  5
2C4
100
AcDbEntity
  8
A_RUNDUNGEN
100
AcDbLine
 62
7
  6
CONTINUOUS
 10
62.7590084649
 20
53.9033305793
 11
62.7590084649
 21
65.9033305793
  0
LINE
  5
2C5
100
AcDbEntity
  8
0
100
AcDbLine
 62
7
  6
CONTINUOUS
 10
47.7590084649
 20
104.0533305793
 11
45.5090084649
 21
101.8033305793
  0
LINE
  5
2C6
100
AcDbEntity
  8
0
100
AcDbLine
 62
7
  6
CONTINUOUS
 10
86.7590084649
 20
55.9033305793
 11
79.7590084649
 21
54.4033305793
  0
LINE
  5
2C7
100
AcDbEntity
  8
A_RUNDUNGEN
100
AcDbLine
 62
7
  6
CONTINUOUS
 10
79.4986789019
 20
54.347545673
 11
79.7590084649
 21
54.4033305793
  0
LINE
  5
2C8
100
AcDbEntity
  8
QUER2
100
AcDbLine
 62
7
  6
CONTINUOUS
 10
68.2590084649
 20
54.4033305793
 11
75.2590084649
 21
54.4033305793
  0
LINE
  5
2C9
100
AcDbEntity
  8
0
100
AcDbLine
 62
7
  6
CONTINUOUS
 10
91.7590084649
 20
55.9033305793
 11
86.7590084649
 21
55.9033305793
  0
LINE
  5
2CA
100
AcDbEntity
  8
A_ACHSEN
100
AcDbLine
 62
7
  6
CENTER
 10
60.8246088611
 20
59.4033305793
 11
75.6934080686
 21
59.4033305793
  0
LINE
  5
2CB
100
AcDbEntity
  8
0
100
AcDbLine
 62
7
  6
CONTINUOUS
 10
47.7590084649
 20
93.5533305793
 11
45.5090084649
 21
95.8033305793
  0
LINE
  5
2CC
100
AcDbEntity
  8
0
100
AcDbLine
 62
7
  6
CONTINUOUS
 10
53.7590084649
 20
87.9033305793
 11
53.2590084649
 21
88.4033305793
  0
LINE
  5
2CD
100
AcDbEntity
  8
0
100
AcDbLine
 62
7
  6
CONTINUOUS
 10
48.7590084649
 20
93.0033305793
 11
49.2590084649
 21
92.5033305793
  0
LINE
  5
2CE
100
AcDbEntity
  8
0
100
AcDbLine
 62
7
  6
CONTINUOUS
 10
62.2590084649
 20
85.0033305793
 11
61.7590084649
 21
85.5033305793
  0
LINE
  5
2CF
100
AcDbEntity
  8
QUER2
100
AcDbLine
 62
7
  6
CONTINUOUS
 10
66.4343499089
 20
70.7738386785
 11
66.3295560352
 21
72.0780854155
  0
LINE
  5
2D0
100
AcDbEntity
  8
DEFAULT_2
100
AcDbLine
 62
8
  6
HIDDEN
 10
65.2590084649
 20
103.4033305793
 11
65.2590084649
 21
98.4033305793
  0
LINE
  5
2D1
100
AcDbEntity
  8
A_RUNDUNGEN
100
AcDbLine
 62
7
  6
CONTINUOUS
 10
65.2590084649
 20
104.8533305383
 11
65.2590084649
 21
96.9533306203
  0
LINE
  5
2D2
100
AcDbEntity
  8
QUER2
100
AcDbLine
 62
7
  6
CONTINUOUS
 10
65.2590084649
 20
95.1033305793
 11
65.2590084649
 21
97.0606365927
  0
LINE
  5
2D3
100
AcDbEntity
  8
QUER2
100
AcDbLine
 62
7
  6
CONTINUOUS
 10
65.2590084649
 20
104.8533305391
 11
65.2590084649
 21
106.7033305793
  0
LINE
  5
2D4
100
AcDbEntity
  8
0
100
AcDbLine
 62
7
  6
CONTINUOUS
 10
66.1590084649
 20
109.2326429502
 11
66.1590084649
 21
109.1033305793
  0
LINE
  5
2D5
100
AcDbEntity
  8
0
100
AcDbLine
 62
7
  6
CONTINUOUS
 10
66.1590084649
 20
82.5033305793
 11
66.1590084649
 21
82.3740182084
  0
LINE
  5
2D6
100
AcDbEntity
  8
0
100
AcDbLine
 62
7
  6
CONTINUOUS
 10
67.1776110452
 20
109.0677127636
 11
67.1776110452
 21
107.5033305793
  0
LINE
  5
2D7
100
AcDbEntity
  8
0
100
AcDbLine
 62
7
  6
CONTINUOUS
 10
67.1776110452
 20
83.9033305793
 11
67.1776110452
 21
82.538948395
  0
LINE
  5
2D8
100
AcDbEntity
  8
0
100
AcDbLine
 62
7
  6
CONTINUOUS
 10
67.2590084649
 20
120.8033305793
 11
67.2590084649
 21
115.8033305793
  0
LINE
  5
2D9
100
AcDbEntity
  8
IMPORT_KE
100
AcDbLine
 62
2
  6
CONTINUOUS
 10
67.2590084649
 20
120.8033305793
 11
67.2590084649
 21
115.8033305793
  0
LINE
  5
2DA
100
AcDbEntity
  8
A_ACHSEN
100
AcDbLine
 62
7
  6
CENTER
 10
68.2590084649
 20
51.9689309756
 11
68.2590084649
 21
66.8377301831
  0
LINE
  5
2DB
100
AcDbEntity
  8
A_RUNDUNGEN
100
AcDbLine
 62
7
  6
CONTINUOUS
 10
70.2590084649
 20
104.8533296281
 11
70.2590084649
 21
96.9533315305
  0
LINE
  5
2DC
100
AcDbEntity
  8
0
100
AcDbLine
 62
7
  6
CONTINUOUS
 10
53.7590084649
 20
103.4033305793
 11
53.2590084649
 21
102.9033305793
  0
LINE
  5
2DD
100
AcDbEntity
  8
0
100
AcDbLine
 62
7
  6
CONTINUOUS
 10
93.7851880714
 20
66.1740919468
 11
93.3066810494
 21
66.1699160793
  0
LINE
  5
2DE
100
AcDbEntity
  8
A_RUNDUNGEN
100
AcDbLine
 62
7
  6
CONTINUOUS
 10
93.7851880714
 20
66.1740919468
 11
93.3066810494
 21
66.1699160793
  0
LINE
  5
2DF
100
AcDbEntity
  8
0
100
AcDbLine
 62
7
  6
CONTINUOUS
 10
77.4693525748
 20
66.0317058075
 11
62.7590084649
 21
65.9033305793
  0
LINE
  5
2E0
100
AcDbEntity
  8
A_RUNDUNGEN
100
AcDbLine
 62
7
  6
CONTINUOUS
 10
77.4693525748
 20
66.0317058075
 11
62.7590084649
 21
65.9033305793
  0
LINE
  5
2E1
100
AcDbEntity
  8
QUER2
100
AcDbLine
 62
7
  6
CONTINUOUS
 10
75.2590084649
 20
64.4033305793
 11
68.2590084649
 21
64.4033305793
  0
LINE
  5
2E2
100
AcDbEntity
  8
0
100
AcDbLine
 62
7
  6
CONTINUOUS
 10
53.7590084649
 20
98.4033305793
 11
53.2590084649
 21
98.9033305793
  0
LINE
  5
2E3
100
AcDbEntity
  8
0
100
AcDbLine
 62
7
  6
CONTINUOUS
 10
71.2590084649
 20
109.1033305793
 11
71.2590084649
 21
107.2033305793
  0
LINE
  5
2E4
100
AcDbEntity
  8
0
100
AcDbLine
 62
7
  6
CONTINUOUS
 10
71.2590084649
 20
83.9033305793
 11
71.2590084649
 21
82.5033305793
  0
LINE
  5
2E5
100
AcDbEntity
  8
QUER2
100
AcDbLine
 62
7
  6
CONTINUOUS
 10
71.2590084649
 20
95.4033305793
 11
71.2590084649
 21
107.2033305793
  0
LINE
  5
2E6
100
AcDbEntity
  8
0
100
AcDbLine
 62
7
  6
CONTINUOUS
 10
74.0590084649
 20
110.7533305793
 11
74.0590084649
 21
110.6998395663
  0
LINE
  5
2E7
100
AcDbEntity
  8
0
100
AcDbLine
 62
7
  6
CONTINUOUS
 10
74.0590084649
 20
80.8533305793
 11
74.0590084649
 21
80.9068215923
  0
LINE
  5
2E8
100
AcDbEntity
  8
A_RUNDUNGEN
100
AcDbLine
 62
7
  6
CONTINUOUS
 10
74.0590084649
 20
95.263312769
 11
74.0590084649
 21
96.342960918
  0
LINE
  5
2E9
100
AcDbEntity
  8
A_RUNDUNGEN
100
AcDbLine
 62
7
  6
CONTINUOUS
 10
74.2590084649
 20
109.3033305793
 11
74.2590084649
 21
93.9033305793
  0
LINE
  5
2EA
100
AcDbEntity
  8
A_RUNDUNGEN
100
AcDbLine
 62
7
  6
CONTINUOUS
 10
74.2590084649
 20
83.9033305793
 11
74.2590084649
 21
82.3033305793
  0
LINE
  5
2EB
100
AcDbEntity
  8
0
100
AcDbLine
 62
7
  6
CONTINUOUS
 10
74.2590084649
 20
80.9033305793
 11
74.2590084649
 21
82.3033305793
  0
LINE
  5
2EC
100
AcDbEntity
  8
0
100
AcDbLine
 62
7
  6
CONTINUOUS
 10
74.2590084649
 20
109.3033305793
 11
74.2590084649
 21
110.7033305793
  0
LINE
  5
2ED
100
AcDbEntity
  8
A_RUNDUNGEN
100
AcDbLine
 62
7
  6
CONTINUOUS
 10
75.7590084649
 20
110.7033305793
 11
75.7590084649
 21
93.8675698735
  0
LINE
  5
2EE
100
AcDbEntity
  8
A_RUNDUNGEN
100
AcDbLine
 62
7
  6
CONTINUOUS
 10
75.7590084649
 20
83.8623169671
 11
75.7590084649
 21
80.9033305793
  0
LINE
  5
2EF
100
AcDbEntity
  8
IMPORT_KE
100
AcDbLine
 62
6
  6
CONTINUOUS
 10
75.7590084649
 20
117.7206275793
 11
75.7590084649
 21
77.8033305793
  0
LINE
  5
2F0
100
AcDbEntity
  8
0
100
AcDbLine
 62
7
  6
CONTINUOUS
 10
75.7590084649
 20
77.8033305793
 11
75.7590084649
 21
80.9216100596
  0
LINE
  5
2F1
100
AcDbEntity
  8
0
100
AcDbLine
 62
7
  6
CONTINUOUS
 10
75.7590084649
 20
110.685051099
 11
75.7590084649
 21
115.8033305793
  0
LINE
  5
2F2
100
AcDbEntity
  8
IMPORT_KE
100
AcDbLine
 62
6
  6
CONTINUOUS
 10
76.7590084649
 20
115.8033305793
 11
76.7590084649
 21
117.8033305793
  0
LINE
  5
2F3
100
AcDbEntity
  8
QUER2
100
AcDbLine
 62
7
  6
CONTINUOUS
 10
72.8485462297
 20
73.1314482351
 11
72.7602243989
 21
71.6495948396
  0
LINE
  5
2F4
100
AcDbEntity
  8
A_FLAECHEN
100
AcDbLine
 62
8
  6
HIDDEN
 10
67.7280169515
 20
102.5256771073
 11
66.7913547468
 21
100.9033305793
  0
LINE
  5
2F5
100
AcDbEntity
  8
0
100
AcDbLine
 62
7
  6
CONTINUOUS
 10
42.7590084649
 20
84.9533305793
 11
43.2590084649
 21
85.4533305793
  0
LINE
  5
2F6
100
AcDbEntity
  8
0
100
AcDbLine
 62
7
  6
CONTINUOUS
 10
53.7590084649
 20
92.9033305793
 11
53.2590084649
 21
92.4033305793
  0
LINE
  5
2F7
100
AcDbEntity
  8
IMPORT_KE
100
AcDbLine
 62
6
  6
CONTINUOUS
 10
81.7590084649
 20
118.6033305793
 11
83.3590084649
 21
120.2033305793
  0
LINE
  5
2F8
100
AcDbEntity
  8
0
100
AcDbLine
 62
7
  6
CONTINUOUS
 10
48.7590084649
 20
85.0033305793
 11
49.2590084649
 21
85.5033305793
  0
LINE
  5
2F9
100
AcDbEntity
  8
IMPORT_KE
100
AcDbLine
 62
6
  6
CONTINUOUS
 10
84.4903794649
 20
120.2033305793
 11
82.5590084649
 21
118.2719595793
  0
LINE
  5
2FA
100
AcDbEntity
  8
IMPORT_KE
100
AcDbLine
 62
6
  6
CONTINUOUS
 10
70.8390644649
 20
116.0033305793
 11
71.4943864649
 21
116.4621915793
  0
LINE
  5
2FB
100
AcDbEntity
  8
QUER2
100
AcDbLine
 62
7
  6
CONTINUOUS
 10
84.1523101798
 20
68.0967349908
 11
85.0911712153
 21
68.2622815225
  0
LINE
  5
2FC
100
AcDbEntity
  8
0
100
AcDbLine
 62
7
  6
CONTINUOUS
 10
65.7590084649
 20
69.8033305793
 11
72.5352889653
 21
69.8033305793
  0
LINE
  5
2FD
100
AcDbEntity
  8
0
100
AcDbLine
 62
7
  6
CONTINUOUS
 10
75.9178051545
 20
69.8033305793
 11
82.9708550815
 21
69.8033305793
  0
LINE
  5
2FE
100
AcDbEntity
  8
0
100
AcDbLine
 62
7
  6
CONTINUOUS
 10
99.7590084649
 20
74.4033305793
 11
100.2590084649
 21
74.4033305793
  0
LINE
  5
2FF
100
AcDbEntity
  8
A_RUNDUNGEN
100
AcDbLine
 62
7
  6
CONTINUOUS
 10
80.7590084649
 20
74.9033305793
 11
83.4780656037
 21
74.8321295623
  0
LINE
  5
300
100
AcDbEntity
  8
A_RUNDUNGEN
100
AcDbLine
 62
7
  6
CONTINUOUS
 10
84.5617623028
 20
74.8037519656
 11
84.9672539073
 21
74.7931337942
  0
LINE
  5
301
100
AcDbEntity
  8
0
100
AcDbLine
 62
7
  6
CONTINUOUS
 10
100.2590084649
 20
58.4033305793
 11
99.7590084649
 21
58.9033305793
  0
LINE
  5
302
100
AcDbEntity
  8
A_FLAECHEN
100
AcDbLine
 62
8
  6
HIDDEN
 10
67.7280169515
 20
99.2809840513
 11
66.7913547468
 21
100.9033305793
  0
LINE
  5
303
100
AcDbEntity
  8
0
100
AcDbLine
 62
7
  6
CONTINUOUS
 10
79.7590084649
 20
54.4033305793
 11
79.7590084649
 21
53.9923431846
  0
LINE
  5
304
100
AcDbEntity
  8
0
100
AcDbLine
 62
7
  6
CONTINUOUS
 10
80.7590084649
 20
74.9033305793
 11
80.7590084649
 21
74.8033305793
  0
LINE
  5
305
100
AcDbEntity
  8
A_RUNDUNGEN
100
AcDbLine
 62
7
  6
CONTINUOUS
 10
80.7590084649
 20
74.9033305793
 11
80.7590084649
 21
77.7527014962
  0
LINE
  5
306
100
AcDbEntity
  8
A_RUNDUNGEN
100
AcDbLine
 62
7
  6
CONTINUOUS
 10
80.7590084649
 20
78.9033305793
 11
80.7590084649
 21
82.169230916
  0
LINE
  5
307
100
AcDbEntity
  8
0
100
AcDbLine
 62
7
  6
CONTINUOUS
 10
80.7590084649
 20
93.1172865785
 11
80.7590084649
 21
102.8033305793
  0
LINE
  5
308
100
AcDbEntity
  8
IMPORT_KE
100
AcDbLine
 62
6
  6
CONTINUOUS
 10
81.7590084649
 20
117.8033305793
 11
81.7590084649
 21
116.8033305793
  0
LINE
  5
309
100
AcDbEntity
  8
IMPORT_KE
100
AcDbLine
 62
6
  6
CONTINUOUS
 10
82.5590084649
 20
118.2719595793
 11
82.5590084649
 21
117.1033305793
  0
LINE
  5
30A
100
AcDbEntity
  8
0
100
AcDbLine
 62
7
  6
CONTINUOUS
 10
80.7590084649
 20
102.8033305793
 11
81.6491455062
 21
112.9776420517
  0
LINE
  5
30B
100
AcDbEntity
  8
0
100
AcDbLine
 62
7
  6
CONTINUOUS
 10
62.2590084649
 20
93.0033305793
 11
61.7590084649
 21
92.5033305793
  0
LINE
  5
30C
100
AcDbEntity
  8
IMPORT_KE
100
AcDbLine
 62
6
  6
CONTINUOUS
 10
90.6882984649
 20
119.1568835793
 11
91.7347444649
 21
120.2033305793
  0
LINE
  5
30D
100
AcDbEntity
  8
IMPORT_KE
100
AcDbLine
 62
6
  6
CONTINUOUS
 10
91.4661154649
 20
118.8033305793
 11
93.1125624649
 21
120.4497765793
  0
LINE
  5
30E
100
AcDbEntity
  8
IMPORT_KE
100
AcDbLine
 62
6
  6
CONTINUOUS
 10
88.2789774649
 20
117.1033305793
 11
89.1610614649
 21
117.8434865793
  0
LINE
  5
30F
100
AcDbEntity
  8
IMPORT_KE
100
AcDbLine
 62
6
  6
CONTINUOUS
 10
88.3984174649
 20
116.4203085793
 11
89.5746154649
 21
117.4072555793
  0
LINE
  5
310
100
AcDbEntity
  8
0
100
AcDbLine
 62
7
  6
CONTINUOUS
 10
80.7590084649
 20
78.9033305793
 11
83.6937206485
 21
78.9801787224
  0
LINE
  5
311
100
AcDbEntity
  8
A_RUNDUNGEN
100
AcDbLine
 62
7
  6
CONTINUOUS
 10
80.7590084649
 20
78.9033305793
 11
83.6937206485
 21
78.9801787224
  0
LINE
  5
312
100
AcDbEntity
  8
0
100
AcDbLine
 62
7
  6
CONTINUOUS
 10
94.308931217
 20
79.2581477938
 11
95.7851854132
 21
79.2968048704
  0
LINE
  5
313
100
AcDbEntity
  8
A_RUNDUNGEN
100
AcDbLine
 62
7
  6
CONTINUOUS
 10
94.308931217
 20
79.2581477938
 11
95.7851854132
 21
79.2968048704
  0
LINE
  5
314
100
AcDbEntity
  8
0
100
AcDbLine
 62
7
  6
CONTINUOUS
 10
83.4915438623
 20
74.8033305793
 11
80.7590084649
 21
74.8033305793
  0
LINE
  5
315
100
AcDbEntity
  8
0
100
AcDbLine
 62
7
  6
CONTINUOUS
 10
99.7590084649
 20
75.4033305793
 11
100.2590084649
 21
75.4033305793
  0
LINE
  5
316
100
AcDbEntity
  8
0
100
AcDbLine
 62
7
  6
CONTINUOUS
 10
73.7590084649
 20
75.8033305793
 11
17.7590084649
 21
75.8033305793
  0
LINE
  5
317
100
AcDbEntity
  8
IMPORT_KE
100
AcDbLine
 62
2
  6
CONTINUOUS
 10
73.7590084649
 20
75.8033305793
 11
17.7590084649
 21
75.8033305793
  0
LINE
  5
318
100
AcDbEntity
  8
0
100
AcDbLine
 62
7
  6
CONTINUOUS
 10
99.7590084649
 20
77.9003161723
 11
100.2590084649
 21
77.9003161723
  0
LINE
  5
319
100
AcDbEntity
  8
0
100
AcDbLine
 62
7
  6
CONTINUOUS
 10
99.7590084649
 20
79.0527369605
 11
100.2590084649
 21
79.0527369605
  0
LINE
  5
31A
100
AcDbEntity
  8
0
100
AcDbLine
 62
7
  6
CONTINUOUS
 10
99.7590084649
 20
79.8209989509
 11
100.2590084649
 21
79.8209989509
  0
LINE
  5
31B
100
AcDbEntity
  8
0
100
AcDbLine
 62
7
  6
CONTINUOUS
 10
42.7590084649
 20
80.8033305793
 11
75.7590084649
 21
80.8033305793
  0
LINE
  5
31C
100
AcDbEntity
  8
A_RUNDUNGEN
100
AcDbLine
 62
7
  6
CONTINUOUS
 10
75.7590084649
 20
80.9033305793
 11
74.2590084649
 21
80.9033305793
  0
LINE
  5
31D
100
AcDbEntity
  8
A_RUNDUNGEN
100
AcDbLine
 62
7
  6
CONTINUOUS
 10
74.0590084649
 20
80.8533305793
 11
48.7590084649
 21
80.9858022801
  0
LINE
  5
31E
100
AcDbEntity
  8
0
100
AcDbLine
 62
7
  6
CONTINUOUS
 10
44.7485365372
 20
81.0068012539
 11
48.7590084649
 21
80.9858022801
  0
LINE
  5
31F
100
AcDbEntity
  8
0
100
AcDbLine
 62
7
  6
CONTINUOUS
 10
50.2328298552
 20
81.3227090869
 11
74.2590084649
 21
80.9033305793
  0
LINE
  5
320
100
AcDbEntity
  8
QUER2
100
AcDbLine
 62
7
  6
CONTINUOUS
 10
81.2745741755
 20
64.4390042773
 11
81.4000210244
 21
65.2250851787
  0
LINE
  5
321
100
AcDbEntity
  8
QUER2
100
AcDbLine
 62
7
  6
CONTINUOUS
 10
81.1500575217
 20
64.3211678289
 11
81.3156040534
 21
65.2600288644
  0
LINE
  5
322
100
AcDbEntity
  8
0
100
AcDbLine
 62
7
  6
CONTINUOUS
 10
99.7590084649
 20
82.3179845439
 11
100.2590084649
 21
82.3179845439
  0
LINE
  5
323
100
AcDbEntity
  8
A_RUNDUNGEN
100
AcDbLine
 62
7
  6
CONTINUOUS
 10
57.3316611378
 20
82.5033305793
 11
66.1590084649
 21
82.5033305793
  0
LINE
  5
324
100
AcDbEntity
  8
0
100
AcDbLine
 62
7
  6
CONTINUOUS
 10
99.7590084649
 20
83.4033305793
 11
100.2590084649
 21
83.4033305793
  0
LINE
  5
325
100
AcDbEntity
  8
QUER2
100
AcDbLine
 62
7
  6
CONTINUOUS
 10
62.5590084649
 20
83.9033305793
 11
75.2590084649
 21
83.9033305793
  0
LINE
  5
326
100
AcDbEntity
  8
0
100
AcDbLine
 62
7
  6
CONTINUOUS
 10
97.2590084649
 20
84.9033305793
 11
96.7590084649
 21
84.9033305793
  0
LINE
  5
327
100
AcDbEntity
  8
0
100
AcDbLine
 62
7
  6
CONTINUOUS
 10
97.2590084649
 20
85.4033305793
 11
96.7590084649
 21
85.4033305793
  0
LINE
  5
328
100
AcDbEntity
  8
0
100
AcDbLine
 62
7
  6
CONTINUOUS
 10
97.2590084649
 20
85.4884369596
 11
96.7590084649
 21
85.4884369596
  0
LINE
  5
329
100
AcDbEntity
  8
0
100
AcDbLine
 62
7
  6
CONTINUOUS
 10
51.5590084649
 20
85.5033305793
 11
49.2590084649
 21
85.5033305793
  0
LINE
  5
32A
100
AcDbEntity
  8
0
100
AcDbLine
 62
7
  6
CONTINUOUS
 10
59.7590084649
 20
85.5033305793
 11
61.7590084649
 21
85.5033305793
  0
LINE
  5
32B
100
AcDbEntity
  8
0
100
AcDbLine
 62
7
  6
CONTINUOUS
 10
97.2590084649
 20
85.6586497276
 11
96.7590084649
 21
85.6586497276
  0
LINE
  5
32C
100
AcDbEntity
  8
0
100
AcDbLine
 62
7
  6
CONTINUOUS
 10
97.2590084649
 20
85.9990752487
 11
96.7590084649
 21
85.9990752487
  0
LINE
  5
32D
100
AcDbEntity
  8
0
100
AcDbLine
 62
7
  6
CONTINUOUS
 10
97.2590084649
 20
86.3395007997
 11
96.7590084649
 21
86.3395007997
  0
LINE
  5
32E
100
AcDbEntity
  8
0
100
AcDbLine
 62
7
  6
CONTINUOUS
 10
97.2590084649
 20
86.7650326639
 11
96.7590084649
 21
86.7650326639
  0
LINE
  5
32F
100
AcDbEntity
  8
0
100
AcDbLine
 62
7
  6
CONTINUOUS
 10
54.7590084649
 20
87.9033305793
 11
53.7590084649
 21
87.9033305793
  0
LINE
  5
330
100
AcDbEntity
  8
0
100
AcDbLine
 62
7
  6
CONTINUOUS
 10
97.2590084649
 20
88.0416283756
 11
96.7590084649
 21
88.0416283756
  0
LINE
  5
331
100
AcDbEntity
  8
0
100
AcDbLine
 62
2
  6
CONTINUOUS
 10
53.2590084649
 20
88.4033305793
 11
54.7590084649
 21
88.4033305793
  0
LINE
  5
332
100
AcDbEntity
  8
0
100
AcDbLine
 62
7
  6
CONTINUOUS
 10
97.2590084649
 20
88.4671604781
 11
96.7590084649
 21
88.4671604781
  0
LINE
  5
333
100
AcDbEntity
  8
0
100
AcDbLine
 62
7
  6
CONTINUOUS
 10
74.2590084649
 20
82.3033305793
 11
53.0459186616
 21
82.4884544095
  0
LINE
  5
334
100
AcDbEntity
  8
0
100
AcDbLine
 62
7
  6
CONTINUOUS
 10
71.2590084649
 20
82.5033305793
 11
67.1776110452
 21
82.538948395
  0
LINE
  5
335
100
AcDbEntity
  8
A_RUNDUNGEN
100
AcDbLine
 62
7
  6
CONTINUOUS
 10
67.1776110452
 20
82.538948395
 11
62.2590084649
 21
82.5818723894
  0
LINE
  5
336
100
AcDbEntity
  8
0
100
AcDbLine
 62
7
  6
CONTINUOUS
 10
56.2459186616
 20
82.6343478292
 11
62.2590084649
 21
82.5818723894
  0
LINE
  5
337
100
AcDbEntity
  8
0
100
AcDbLine
 62
7
  6
CONTINUOUS
 10
59.7590084649
 20
85.9658872617
 11
54.7590084649
 21
86.4033305793
  0
LINE
  5
338
100
AcDbEntity
  8
0
100
AcDbLine
 62
7
  6
CONTINUOUS
 10
54.7590084649
 20
92.3033305793
 11
59.7590084649
 21
91.8658872617
  0
LINE
  5
339
100
AcDbEntity
  8
0
100
AcDbLine
 62
7
  6
CONTINUOUS
 10
80.7590084649
 20
93.7033305793
 11
86.2080771743
 21
92.2865727149
  0
LINE
  5
33A
100
AcDbEntity
  8
IMPORT_KE
100
AcDbLine
 62
6
  6
CONTINUOUS
 10
68.4398564649
 20
119.4297535793
 11
70.8390644649
 21
116.0033305793
  0
LINE
  5
33B
100
AcDbEntity
  8
IMPORT_KE
100
AcDbLine
 62
6
  6
CONTINUOUS
 10
71.4943864649
 20
116.4621915793
 11
69.3454024649
 21
119.5312575793
  0
LINE
  5
33C
100
AcDbEntity
  8
0
100
AcDbLine
 62
7
  6
CONTINUOUS
 10
93.7590084649
 20
139.3914935793
 11
93.7590084649
 21
122.8033305793
  0
LINE
  5
33D
100
AcDbEntity
  8
IMPORT_KE
100
AcDbLine
 62
2
  6
CONTINUOUS
 10
93.7590084649
 20
139.3914935793
 11
93.7590084649
 21
122.8033305793
  0
LINE
  5
33E
100
AcDbEntity
  8
0
100
AcDbLine
 62
7
  6
CONTINUOUS
 10
96.7590084649
 20
60.9033305793
 11
96.7590084649
 21
90.5231205278
  0
LINE
  5
33F
100
AcDbEntity
  8
0
100
AcDbLine
 62
7
  6
CONTINUOUS
 10
97.2590084649
 20
84.9033305793
 11
97.2590084649
 21
90.4033305793
  0
LINE
  5
340
100
AcDbEntity
  8
0
100
AcDbLine
 62
7
  6
CONTINUOUS
 10
98.9047166035
 20
115.6296823654
 11
100.6141345319
 21
125.3242749595
  0
LINE
  5
341
100
AcDbEntity
  8
QUER2
100
AcDbLine
 62
7
  6
CONTINUOUS
 10
84.839730829
 20
71.9601146912
 11
84.5317643904
 21
70.6569525681
  0
LINE
  5
342
100
AcDbEntity
  8
0
100
AcDbLine
 62
7
  6
CONTINUOUS
 10
54.7590084649
 20
84.5033305793
 11
59.7590084649
 21
84.9407738969
  0
LINE
  5
343
100
AcDbEntity
  8
0
100
AcDbLine
 62
7
  6
CONTINUOUS
 10
97.2590084649
 20
88.8075859695
 11
96.7590084649
 21
88.8075859695
  0
LINE
  5
344
100
AcDbEntity
  8
0
100
AcDbLine
 62
7
  6
CONTINUOUS
 10
97.2590084649
 20
89.1480114608
 11
96.7590084649
 21
89.1480114608
  0
LINE
  5
345
100
AcDbEntity
  8
0
100
AcDbLine
 62
7
  6
CONTINUOUS
 10
97.2590084649
 20
89.3182242065
 11
96.7590084649
 21
89.3182242065
  0
LINE
  5
346
100
AcDbEntity
  8
0
100
AcDbLine
 62
7
  6
CONTINUOUS
 10
97.2590084649
 20
89.4033305793
 11
96.7590084649
 21
89.4033305793
  0
LINE
  5
347
100
AcDbEntity
  8
0
100
AcDbLine
 62
7
  6
CONTINUOUS
 10
97.2590084649
 20
90.4033305793
 11
96.7590084649
 21
90.4033305793
  0
LINE
  5
348
100
AcDbEntity
  8
0
100
AcDbLine
 62
2
  6
CONTINUOUS
 10
53.2590084649
 20
92.4033305793
 11
54.7590084649
 21
92.4033305793
  0
LINE
  5
349
100
AcDbEntity
  8
0
100
AcDbLine
 62
7
  6
CONTINUOUS
 10
51.5590084649
 20
92.5033305793
 11
49.2590084649
 21
92.5033305793
  0
LINE
  5
34A
100
AcDbEntity
  8
0
100
AcDbLine
 62
7
  6
CONTINUOUS
 10
59.7590084649
 20
92.5033305793
 11
61.7590084649
 21
92.5033305793
  0
LINE
  5
34B
100
AcDbEntity
  8
0
100
AcDbLine
 62
7
  6
CONTINUOUS
 10
54.7590084649
 20
92.9033305793
 11
53.7590084649
 21
92.9033305793
  0
LINE
  5
34C
100
AcDbEntity
  8
0
100
AcDbLine
 62
7
  6
CONTINUOUS
 10
48.7590084649
 20
93.5533305793
 11
47.7590084649
 21
93.5533305793
  0
LINE
  5
34D
100
AcDbEntity
  8
QUER2
100
AcDbLine
 62
7
  6
CONTINUOUS
 10
75.2590084649
 20
93.9033305793
 11
72.7590084649
 21
93.9033305793
  0
LINE
  5
34E
100
AcDbEntity
  8
0
100
AcDbLine
 62
7
  6
CONTINUOUS
 10
100.2590084649
 20
94.5033305793
 11
80.7590084649
 21
94.5033305793
  0
LINE
  5
34F
100
AcDbEntity
  8
0
100
AcDbLine
 62
7
  6
CONTINUOUS
 10
170.2590084649
 20
94.8033305793
 11
172.7590084649
 21
94.8033305793
  0
LINE
  5
350
100
AcDbEntity
  8
QUER2
100
AcDbLine
 62
7
  6
CONTINUOUS
 10
65.2590084649
 20
95.1033305793
 11
71.2893146192
 21
95.1033305793
  0
LINE
  5
351
100
AcDbEntity
  8
0
100
AcDbLine
 62
7
  6
CONTINUOUS
 10
98.2694803926
 20
94.2173964839
 11
80.7590084649
 21
94.3090819384
  0
LINE
  5
352
100
AcDbEntity
  8
0
100
AcDbLine
 62
7
  6
CONTINUOUS
 10
95.2982738874
 20
92.0226065153
 11
86.4335340778
 21
92.2547378967
  0
LINE
  5
353
100
AcDbEntity
  8
A_RUNDUNGEN
100
AcDbLine
 62
7
  6
CONTINUOUS
 10
86.2073986119
 20
92.2606594622
 11
82.846520488
 21
92.3486671532
  0
LINE
  5
354
100
AcDbEntity
  8
0
100
AcDbLine
 62
7
  6
CONTINUOUS
 10
59.7590084649
 20
96.4658872617
 11
54.7590084649
 21
96.9033305793
  0
LINE
  5
355
100
AcDbEntity
  8
0
100
AcDbLine
 62
7
  6
CONTINUOUS
 10
99.7590084649
 20
65.9033305793
 11
99.7590084649
 21
58.9033305793
  0
LINE
  5
356
100
AcDbEntity
  8
0
100
AcDbLine
 62
7
  6
CONTINUOUS
 10
99.7590084649
 20
74.4033305793
 11
99.7590084649
 21
75.4033305793
  0
LINE
  5
357
100
AcDbEntity
  8
0
100
AcDbLine
 62
7
  6
CONTINUOUS
 10
99.7590084649
 20
77.9003161723
 11
99.7590084649
 21
79.8209989509
  0
LINE
  5
358
100
AcDbEntity
  8
0
100
AcDbLine
 62
7
  6
CONTINUOUS
 10
99.7590084649
 20
82.3179845439
 11
99.7590084649
 21
83.4033305793
  0
LINE
  5
359
100
AcDbEntity
  8
0
100
AcDbLine
 62
7
  6
CONTINUOUS
 10
100.2590084649
 20
53.8033305793
 11
100.2590084649
 21
94.5033305793
  0
LINE
  5
35A
100
AcDbEntity
  8
IMPORT_KE
100
AcDbLine
 62
2
  6
CONTINUOUS
 10
25.4616264649
 20
97.7007355793
 11
17.2459194649
 21
97.6290375793
  0
LINE
  5
35B
100
AcDbEntity
  8
0
100
AcDbLine
 62
7
  6
CONTINUOUS
 10
17.2459185491
 20
97.6290375713
 11
25.4616264428
 21
97.7007355791
  0
LINE
  5
35C
100
AcDbEntity
  8
0
100
AcDbLine
 62
7
  6
CONTINUOUS
 10
45.5090084649
 20
95.8033305793
 11
42.7590084649
 21
95.8033305793
  0
LINE
  5
35D
100
AcDbEntity
  8
0
100
AcDbLine
 62
7
  6
CONTINUOUS
 10
69.9590084649
 20
96.6533305793
 11
65.5590084649
 21
96.6533305793
  0
LINE
  5
35E
100
AcDbEntity
  8
QUER2
100
AcDbLine
 62
7
  6
CONTINUOUS
 10
62.2590084649
 20
96.8033305793
 11
65.2590084649
 21
96.8033305793
  0
LINE
  5
35F
100
AcDbEntity
  8
0
100
AcDbLine
 62
7
  6
CONTINUOUS
 10
48.7590084649
 20
97.9033305793
 11
51.5590084649
 21
97.9033305793
  0
LINE
  5
360
100
AcDbEntity
  8
0
100
AcDbLine
 62
7
  6
CONTINUOUS
 10
64.9590084649
 20
98.4033305793
 11
53.7590084649
 21
98.4033305793
  0
LINE
  5
361
100
AcDbEntity
  8
A_ACHSEN
100
AcDbLine
 62
7
  6
CENTER
 10
41.7590084649
 20
98.8033305793
 11
51.7590084649
 21
98.8033305793
  0
LINE
  5
362
100
AcDbEntity
  8
A_FLAECHEN
100
AcDbLine
 62
8
  6
HIDDEN
 10
68.0543929106
 20
98.896289852
 11
70.0590084649
 21
98.896289852
  0
LINE
  5
363
100
AcDbEntity
  8
0
100
AcDbLine
 62
2
  6
CONTINUOUS
 10
53.2590084649
 20
98.9033305793
 11
65.2590084649
 21
98.9033305793
  0
LINE
  5
364
100
AcDbEntity
  8
A_FLAECHEN
100
AcDbLine
 62
8
  6
HIDDEN
 10
67.7279281995
 20
99.2833305793
 11
70.0590084649
 21
99.2833305793
  0
LINE
  5
365
100
AcDbEntity
  8
A_ACHSEN
100
AcDbLine
 62
7
  6
CENTER
 10
50.2590084649
 20
100.9033305793
 11
73.2590084649
 21
100.9033305793
  0
LINE
  5
366
100
AcDbEntity
  8
0
100
AcDbLine
 62
7
  6
CONTINUOUS
 10
45.5090084649
 20
101.8033305793
 11
42.7590084649
 21
101.8033305793
  0
LINE
  5
367
100
AcDbEntity
  8
0
100
AcDbLine
 62
7
  6
CONTINUOUS
 10
43.2590084649
 20
102.3033305793
 11
42.7590084649
 21
102.3033305793
  0
LINE
  5
368
100
AcDbEntity
  8
A_FLAECHEN
100
AcDbLine
 62
8
  6
HIDDEN
 10
67.7279281995
 20
102.5233305793
 11
70.0590084649
 21
102.5233305793
  0
LINE
  5
369
100
AcDbEntity
  8
0
100
AcDbLine
 62
7
  6
CONTINUOUS
 10
172.7590084649
 20
102.8033305793
 11
170.2590084649
 21
102.8033305793
  0
LINE
  5
36A
100
AcDbEntity
  8
0
100
AcDbLine
 62
2
  6
CONTINUOUS
 10
53.2590084649
 20
102.9033305793
 11
65.2590084649
 21
102.9033305793
  0
LINE
  5
36B
100
AcDbEntity
  8
A_FLAECHEN
100
AcDbLine
 62
8
  6
HIDDEN
 10
68.0543929106
 20
102.9103713066
 11
70.0590084649
 21
102.9103713066
  0
LINE
  5
36C
100
AcDbEntity
  8
0
100
AcDbLine
 62
7
  6
CONTINUOUS
 10
43.2590084649
 20
103.3600305793
 11
42.7590084649
 21
103.3600305793
  0
LINE
  5
36D
100
AcDbEntity
  8
0
100
AcDbLine
 62
7
  6
CONTINUOUS
 10
64.9590084649
 20
103.4033305793
 11
53.7590084649
 21
103.4033305793
  0
LINE
  5
36E
100
AcDbEntity
  8
0
100
AcDbLine
 62
7
  6
CONTINUOUS
 10
43.2590084649
 20
103.4332922727
 11
42.7590084649
 21
103.4332922727
  0
LINE
  5
36F
100
AcDbEntity
  8
0
100
AcDbLine
 62
7
  6
CONTINUOUS
 10
43.2590084649
 20
103.5798156595
 11
42.7590084649
 21
103.5798156595
  0
LINE
  5
370
100
AcDbEntity
  8
0
100
AcDbLine
 62
7
  6
CONTINUOUS
 10
43.2590084649
 20
103.8728624331
 11
42.7590084649
 21
103.8728624331
  0
LINE
  5
371
100
AcDbEntity
  8
0
100
AcDbLine
 62
7
  6
CONTINUOUS
 10
48.7590084649
 20
103.9033305793
 11
51.5590084649
 21
103.9033305793
  0
LINE
  5
372
100
AcDbEntity
  8
0
100
AcDbLine
 62
7
  6
CONTINUOUS
 10
48.7590084649
 20
104.0533305793
 11
47.7590084649
 21
104.0533305793
  0
LINE
  5
373
100
AcDbEntity
  8
0
100
AcDbLine
 62
7
  6
CONTINUOUS
 10
43.2590084649
 20
104.1659092066
 11
42.7590084649
 21
104.1659092066
  0
LINE
  5
374
100
AcDbEntity
  8
0
100
AcDbLine
 62
7
  6
CONTINUOUS
 10
43.2590084649
 20
104.5322178789
 11
42.7590084649
 21
104.5322178789
  0
LINE
  5
375
100
AcDbEntity
  8
QUER2
100
AcDbLine
 62
7
  6
CONTINUOUS
 10
62.2590084649
 20
105.0033305793
 11
65.2590084649
 21
105.0033305793
  0
LINE
  5
376
100
AcDbEntity
  8
0
100
AcDbLine
 62
7
  6
CONTINUOUS
 10
69.9590084649
 20
105.1533305793
 11
65.5590084649
 21
105.1533305793
  0
LINE
  5
377
100
AcDbEntity
  8
0
100
AcDbLine
 62
7
  6
CONTINUOUS
 10
43.2590084649
 20
105.6311433824
 11
42.7590084649
 21
105.6311433824
  0
LINE
  5
378
100
AcDbEntity
  8
0
100
AcDbLine
 62
7
  6
CONTINUOUS
 10
43.2590084649
 20
105.9974518494
 11
42.7590084649
 21
105.9974518494
  0
LINE
  5
379
100
AcDbEntity
  8
0
100
AcDbLine
 62
7
  6
CONTINUOUS
 10
43.2590084649
 20
106.2904986742
 11
42.7590084649
 21
106.2904986742
  0
LINE
  5
37A
100
AcDbEntity
  8
0
100
AcDbLine
 62
7
  6
CONTINUOUS
 10
43.2590084649
 20
106.5835454735
 11
42.7590084649
 21
106.5835454735
  0
LINE
  5
37B
100
AcDbEntity
  8
QUER2
100
AcDbLine
 62
7
  6
CONTINUOUS
 10
65.2590084649
 20
106.7033305793
 11
71.2590084649
 21
106.7033305793
  0
LINE
  5
37C
100
AcDbEntity
  8
0
100
AcDbLine
 62
7
  6
CONTINUOUS
 10
43.2590084649
 20
106.7300688795
 11
42.7590084649
 21
106.7300688795
  0
LINE
  5
37D
100
AcDbEntity
  8
0
100
AcDbLine
 62
7
  6
CONTINUOUS
 10
43.2590084649
 20
106.8033305793
 11
42.7590084649
 21
106.8033305793
  0
LINE
  5
37E
100
AcDbEntity
  8
QUER2
100
AcDbLine
 62
7
  6
CONTINUOUS
 10
70.9590084649
 20
107.5033305793
 11
62.5590084649
 21
107.5033305793
  0
LINE
  5
37F
100
AcDbEntity
  8
0
100
AcDbLine
 62
7
  6
CONTINUOUS
 10
187.7590084649
 20
107.8033305793
 11
172.7590084649
 21
107.8033305793
  0
LINE
  5
380
100
AcDbEntity
  8
0
100
AcDbLine
 62
7
  6
CONTINUOUS
 10
43.2590084649
 20
107.9755177762
 11
42.7590084649
 21
107.9755177762
  0
LINE
  5
381
100
AcDbEntity
  8
0
100
AcDbLine
 62
7
  6
CONTINUOUS
 10
43.2590084649
 20
108.3033305793
 11
42.7590084649
 21
108.3033305793
  0
LINE
  5
382
100
AcDbEntity
  8
IMPORT_KE
100
AcDbLine
 62
6
  6
CONTINUOUS
 10
70.8637374649
 20
120.0033305793
 11
75.7590084649
 21
117.7206275793
  0
LINE
  5
383
100
AcDbEntity
  8
IMPORT_KE
100
AcDbLine
 62
6
  6
CONTINUOUS
 10
72.7566994649
 20
120.0033305793
 11
75.7590084649
 21
118.6033305793
  0
LINE
  5
384
100
AcDbEntity
  8
IMPORT_KE
100
AcDbLine
 62
6
  6
CONTINUOUS
 10
90.1460094649
 20
117.4572455793
 11
90.7590084649
 21
117.1033305793
  0
LINE
  5
385
100
AcDbEntity
  8
IMPORT_KE
100
AcDbLine
 62
6
  6
CONTINUOUS
 10
90.3038484649
 20
117.9434675793
 11
91.7590084649
 21
117.1033305793
  0
LINE
  5
386
100
AcDbEntity
  8
IMPORT_KE
100
AcDbLine
 62
6
  6
CONTINUOUS
 10
92.0347444649
 20
117.1033305793
 11
90.6882984649
 21
118.4497765793
  0
LINE
  5
387
100
AcDbEntity
  8
IMPORT_KE
100
AcDbLine
 62
6
  6
CONTINUOUS
 10
91.4661154649
 20
118.8033305793
 11
93.1125624649
 21
117.1568835793
  0
LINE
  5
388
100
AcDbEntity
  8
0
100
AcDbLine
 62
7
  6
CONTINUOUS
 10
89.5356472255
 20
151.171411237
 11
93.6987013758
 21
139.7335138241
  0
LINE
  5
389
100
AcDbEntity
  8
IMPORT_KE
100
AcDbLine
 62
2
  6
CONTINUOUS
 10
93.6987014649
 20
139.7335135793
 11
89.5356474649
 21
151.1714105793
  0
LINE
  5
38A
100
AcDbEntity
  8
QUER2
100
AcDbLine
 62
7
  6
CONTINUOUS
 10
85.5315486947
 20
67.4163242554
 11
81.9960147888
 21
63.8807903495
  0
LINE
  5
38B
100
AcDbEntity
  8
0
100
AcDbLine
 62
7
  6
CONTINUOUS
 10
50.2328298552
 20
110.2839520717
 11
74.2590084649
 21
110.7033305793
  0
LINE
  5
38C
100
AcDbEntity
  8
0
100
AcDbLine
 62
7
  6
CONTINUOUS
 10
56.2459186616
 20
108.9723133295
 11
62.2590084649
 21
109.0247887692
  0
LINE
  5
38D
100
AcDbEntity
  8
A_RUNDUNGEN
100
AcDbLine
 62
7
  6
CONTINUOUS
 10
62.2590084649
 20
109.0247887692
 11
67.1776110452
 21
109.0677127636
  0
LINE
  5
38E
100
AcDbEntity
  8
0
100
AcDbLine
 62
7
  6
CONTINUOUS
 10
67.1776110452
 20
109.0677127636
 11
71.2590084649
 21
109.1033305793
  0
LINE
  5
38F
100
AcDbEntity
  8
0
100
AcDbLine
 62
7
  6
CONTINUOUS
 10
74.2590084649
 20
109.3033305793
 11
53.0459186616
 21
109.1182067492
  0
LINE
  5
390
100
AcDbEntity
  8
0
100
AcDbLine
 62
7
  6
CONTINUOUS
 10
44.7485365372
 20
110.5998599047
 11
48.7590084649
 21
110.6208588785
  0
LINE
  5
391
100
AcDbEntity
  8
A_RUNDUNGEN
100
AcDbLine
 62
7
  6
CONTINUOUS
 10
48.7590084649
 20
110.6208588785
 11
74.0590084649
 21
110.7533305793
  0
LINE
  5
392
100
AcDbEntity
  8
A_RUNDUNGEN
100
AcDbLine
 62
7
  6
CONTINUOUS
 10
57.3316611378
 20
109.1033305793
 11
66.1590084649
 21
109.1033305793
  0
LINE
  5
393
100
AcDbEntity
  8
A_RUNDUNGEN
100
AcDbLine
 62
7
  6
CONTINUOUS
 10
75.7590084649
 20
110.7033305793
 11
74.2590084649
 21
110.7033305793
  0
LINE
  5
394
100
AcDbEntity
  8
0
100
AcDbLine
 62
7
  6
CONTINUOUS
 10
42.7590084649
 20
110.8033305793
 11
75.7590084649
 21
110.8033305793
  0
LINE
  5
395
100
AcDbEntity
  8
0
100
AcDbLine
 62
7
  6
CONTINUOUS
 10
83.6415344649
 20
114.8033305793
 11
97.9199084649
 21
114.8033305793
  0
LINE
  5
396
100
AcDbEntity
  8
IMPORT_KE
100
AcDbLine
 62
2
  6
CONTINUOUS
 10
75.7590084649
 20
115.8033305793
 11
67.2590084649
 21
115.8033305793
  0
LINE
  5
397
100
AcDbEntity
  8
0
100
AcDbLine
 62
7
  6
CONTINUOUS
 10
67.2590084649
 20
115.8033305793
 11
75.7590084649
 21
115.8033305793
  0
LINE
  5
398
100
AcDbEntity
  8
0
100
AcDbLine
 62
7
  6
CONTINUOUS
 10
25.461626431
 20
110.9059255796
 11
17.7459186519
 21
110.9732595864
  0
LINE
  5
399
100
AcDbEntity
  8
IMPORT_KE
100
AcDbLine
 62
2
  6
CONTINUOUS
 10
25.4616264649
 20
110.9059255793
 11
17.7459194649
 21
110.9732595793
  0
LINE
  5
39A
100
AcDbEntity
  8
QUER2
100
AcDbLine
 62
7
  6
CONTINUOUS
 10
79.0168460291
 20
67.0412978417
 11
80.6250271387
 21
67.7631923426
  0
LINE
  5
39B
100
AcDbEntity
  8
0
100
AcDbLine
 62
7
  6
CONTINUOUS
 10
192.1010283228
 20
112.4518005276
 11
190.2329490956
 21
111.7718761728
  0
LINE
  5
39C
100
AcDbEntity
  8
IMPORT_KE
100
AcDbLine
 62
6
  6
CONTINUOUS
 10
82.2590084649
 20
116.3033305793
 11
88.0770234649
 21
116.3033305793
  0
LINE
  5
39D
100
AcDbEntity
  8
IMPORT_KE
100
AcDbLine
 62
6
  6
CONTINUOUS
 10
90.6590084649
 20
116.3033305793
 11
92.7590084649
 21
116.3033305793
  0
LINE
  5
39E
100
AcDbEntity
  8
IMPORT_KE
100
AcDbLine
 62
6
  6
CONTINUOUS
 10
82.5590084649
 20
117.1033305793
 11
88.2789774649
 21
117.1033305793
  0
LINE
  5
39F
100
AcDbEntity
  8
IMPORT_KE
100
AcDbLine
 62
6
  6
CONTINUOUS
 10
91.7590084649
 20
117.1033305793
 11
92.0347444649
 21
117.1033305793
  0
LINE
  5
3A0
100
AcDbEntity
  8
IMPORT_KE
100
AcDbLine
 62
6
  6
CONTINUOUS
 10
76.7590084649
 20
117.8033305793
 11
81.7590084649
 21
117.8033305793
  0
LINE
  5
3A1
100
AcDbEntity
  8
IMPORT_KE
100
AcDbLine
 62
6
  6
CONTINUOUS
 10
75.7590084649
 20
118.6033305793
 11
81.7590084649
 21
118.6033305793
  0
LINE
  5
3A2
100
AcDbEntity
  8
IMPORT_KE
100
AcDbLine
 62
6
  6
CONTINUOUS
 10
76.1247524649
 20
120.0033305793
 11
72.7566994649
 21
120.0033305793
  0
LINE
  5
3A3
100
AcDbEntity
  8
IMPORT_KE
100
AcDbLine
 62
6
  6
CONTINUOUS
 10
69.5911484649
 20
120.0033305793
 11
70.8637374649
 21
120.0033305793
  0
LINE
  5
3A4
100
AcDbEntity
  8
IMPORT_KE
100
AcDbLine
 62
6
  6
CONTINUOUS
 10
91.7347444649
 20
120.2033305793
 11
84.4903794649
 21
120.2033305793
  0
LINE
  5
3A5
100
AcDbEntity
  8
IMPORT_KE
100
AcDbLine
 62
6
  6
CONTINUOUS
 10
83.3590084649
 20
120.2033305793
 11
77.2590084649
 21
120.2033305793
  0
LINE
  5
3A6
100
AcDbEntity
  8
0
100
AcDbLine
 62
7
  6
CONTINUOUS
 10
75.8929834649
 20
120.8033305793
 11
67.2590084649
 21
120.8033305793
  0
LINE
  5
3A7
100
AcDbEntity
  8
IMPORT_KE
100
AcDbLine
 62
2
  6
CONTINUOUS
 10
75.8929834649
 20
120.8033305793
 11
67.2590084649
 21
120.8033305793
  0
LINE
  5
3A8
100
AcDbEntity
  8
IMPORT_KE
100
AcDbLine
 62
6
  6
CONTINUOUS
 10
76.0448664649
 20
121.0033305793
 11
69.2590084649
 21
121.0033305793
  0
LINE
  5
3A9
100
AcDbEntity
  8
0
100
AcDbLine
 62
7
  6
CONTINUOUS
 10
92.2590084649
 20
121.3033305793
 11
76.7590084649
 21
121.3033305793
  0
LINE
  5
3AA
100
AcDbEntity
  8
IMPORT_KE
100
AcDbLine
 62
6
  6
CONTINUOUS
 10
92.7590084649
 20
121.3033305793
 11
76.7590084649
 21
121.3033305793
  0
LINE
  5
3AB
100
AcDbEntity
  8
0
100
AcDbLine
 62
7
  6
CONTINUOUS
 10
100.2590084649
 20
66.4033305793
 11
99.7590084649
 21
65.9033305793
  0
LINE
  5
3AC
100
AcDbEntity
  8
QUER2
100
AcDbLine
 62
7
  6
CONTINUOUS
 10
84.392913348
 20
67.8883036867
 11
84.8408211662
 21
68.0971665325
  0
LINE
  5
3AD
100
AcDbEntity
  8
IMPORT_KE
100
AcDbLine
 62
6
  6
CONTINUOUS
 10
77.2590084649
 20
120.2033305793
 11
76.1247524649
 21
120.0033305793
  0
LINE
  5
3AE
100
AcDbEntity
  8
IMPORT_KE
100
AcDbLine
 62
2
  6
CONTINUOUS
 10
25.4616264649
 20
128.7007355793
 11
17.7459194649
 21
128.6334015793
  0
LINE
  5
3AF
100
AcDbEntity
  8
0
100
AcDbLine
 62
7
  6
CONTINUOUS
 10
17.7459186519
 20
128.6334015722
 11
25.4616264223
 21
128.7007355789
  0
LINE
  5
3B0
100
AcDbEntity
  8
0
100
AcDbLine
 62
7
  6
CONTINUOUS
 10
103.5685574649
 20
127.8033305793
 11
184.7768764649
 21
127.8033305793
  0
LINE
  5
3B1
100
AcDbEntity
  8
0
100
AcDbLine
 62
7
  6
CONTINUOUS
 10
18.9326567939
 20
148.2437306976
 11
16.5853603371
 21
148.6576226019
  0
LINE
  5
3B2
100
AcDbEntity
  8
IMPORT_KE
100
AcDbLine
 62
2
  6
CONTINUOUS
 10
16.5853604649
 20
148.6576225793
 11
18.9326574649
 21
148.2437305793
  0
LINE
  5
3B3
100
AcDbEntity
  8
0
100
AcDbLine
 62
7
  6
CONTINUOUS
 10
25.4616264503
 20
141.9059255794
 11
20.2546451618
 21
141.951366582
  0
LINE
  5
3B4
100
AcDbEntity
  8
IMPORT_KE
100
AcDbLine
 62
2
  6
CONTINUOUS
 10
25.4616264649
 20
141.9059255793
 11
20.2546454649
 21
141.9513665793
  0
LINE
  5
3B5
100
AcDbEntity
  8
0
100
AcDbLine
 62
7
  6
CONTINUOUS
 10
188.2590084649
 20
108.3033305793
 11
187.7590084649
 21
107.8033305793
  0
LINE
  5
3B6
100
AcDbEntity
  8
IMPORT_KE
100
AcDbLine
 62
2
  6
CONTINUOUS
 10
85.7768764649
 20
153.8033305793
 11
17.7590084649
 21
153.8033305793
  0
LINE
  5
3B7
100
AcDbEntity
  8
0
100
AcDbLine
 62
7
  6
CONTINUOUS
 10
17.7590084649
 20
153.8033305793
 11
85.7768764649
 21
153.8033305793
  0
LINE
  5
3B8
100
AcDbEntity
  8
0
100
AcDbLine
 62
7
  6
CONTINUOUS
 10
170.2590084649
 20
102.8033305793
 11
170.2590084649
 21
94.8033305793
  0
LINE
  5
3B9
100
AcDbEntity
  8
0
100
AcDbLine
 62
7
  6
CONTINUOUS
 10
172.7590084649
 20
107.8033305793
 11
172.7590084649
 21
102.8033305793
  0
LINE
  5
3BA
100
AcDbEntity
  8
0
100
AcDbLine
 62
7
  6
CONTINUOUS
 10
172.7590084649
 20
94.8033305793
 11
172.7590084649
 21
51.8033305793
  0
LINE
  5
3BB
100
AcDbEntity
  8
0
100
AcDbLine
 62
7
  6
CONTINUOUS
 10
188.2590084649
 20
108.9527975793
 11
188.2590084649
 21
108.3033305793
  0
LINE
  5
3BC
100
AcDbEntity
  8
0
100
AcDbLine
 62
7
  6
CONTINUOUS
 10
188.5356463425
 20
125.1714109156
 11
192.6987004928
 21
113.7335135027
  0
ARC
  5
3BD
100
AcDbEntity
  8
0
100
AcDbCircle
 62
7
  6
CONTINUOUS
 10
44.7590084649
 20
83.0067738384
 40
2.0
100
AcDbArc
 50
180.0
 51
269.7
  0
ARC
  5
3BE
100
AcDbEntity
  8
0
100
AcDbCircle
 62
7
  6
CONTINUOUS
 10
17.7590084649
 20
77.8033305793
 40
2.0
100
AcDbArc
 50
180.0
 51
270.0
  0
ARC
  5
3BF
100
AcDbEntity
  8
IMPORT_KE
100
AcDbCircle
 62
2
  6
CONTINUOUS
 10
17.7590084649
 20
77.8033305793
 40
2.0
100
AcDbArc
 50
180.0
 51
270.0
  0
ARC
  5
3C0
100
AcDbEntity
  8
0
100
AcDbCircle
 62
7
  6
CONTINUOUS
 10
56.2590084649
 20
84.1342907138
 40
1.5
100
AcDbArc
 50
180.0
 51
269.5
  0
ARC
  5
3C1
100
AcDbEntity
  8
0
100
AcDbCircle
 62
7
  6
CONTINUOUS
 10
50.2590084649
 20
82.8224806297
 40
1.5
100
AcDbArc
 50
180.0
 51
269.0
  0
ARC
  5
3C2
100
AcDbEntity
  8
0
100
AcDbCircle
 62
7
  6
CONTINUOUS
 10
53.0590084649
 20
83.9883972941
 40
1.5
100
AcDbArc
 50
180.0
 51
269.5
  0
ARC
  5
3C3
100
AcDbEntity
  8
0
100
AcDbCircle
 62
7
  6
CONTINUOUS
 10
17.2590084649
 20
96.1290945793
 40
1.5
100
AcDbArc
 50
90.5000042622
 51
180.0
  0
ARC
  5
3C4
100
AcDbEntity
  8
IMPORT_KE
100
AcDbCircle
 62
2
  6
CONTINUOUS
 10
17.2590084649
 20
96.1290945793
 40
1.5
100
AcDbArc
 50
90.4999692809
 51
180.0
  0
ARC
  5
3C5
100
AcDbEntity
  8
A_RUNDUNGEN
100
AcDbCircle
 62
7
  6
CONTINUOUS
 10
57.6590084649
 20
83.448234663
 40
1.0
100
AcDbArc
 50
235.7510301834
 51
269.5
  0
ARC
  5
3C6
100
AcDbEntity
  8
0
100
AcDbCircle
 62
7
  6
CONTINUOUS
 10
25.4590084649
 20
98.0007235793
 40
0.3
100
AcDbArc
 50
270.5000042622
 51
360.0
  0
ARC
  5
3C7
100
AcDbEntity
  8
IMPORT_KE
100
AcDbCircle
 62
2
  6
CONTINUOUS
 10
25.4590084649
 20
98.0007235793
 40
0.3
100
AcDbArc
 50
270.5000084766
 51
360.0
  0
ARC
  5
3C8
100
AcDbEntity
  8
QUER2
100
AcDbCircle
 62
7
  6
CONTINUOUS
 10
68.3457072054
 20
59.1260581851
 40
13.3928774596
100
AcDbArc
 50
62.727386009
 51
67.20682206
  0
ARC
  5
3C9
100
AcDbEntity
  8
QUER2
100
AcDbCircle
 62
7
  6
CONTINUOUS
 10
68.3457072054
 20
59.1260581851
 40
13.3928774596
100
AcDbArc
 50
55.2845037669
 51
59.2844205334
  0
ARC
  5
3CA
100
AcDbEntity
  8
QUER2
100
AcDbCircle
 62
7
  6
CONTINUOUS
 10
68.3457072054
 20
59.1260581851
 40
13.3928774596
100
AcDbArc
 50
47.7810361635
 51
51.8421451123
  0
ARC
  5
3CB
100
AcDbEntity
  8
QUER2
100
AcDbCircle
 62
7
  6
CONTINUOUS
 10
68.3457072054
 20
59.1260581851
 40
13.3928774596
100
AcDbArc
 50
39.9704349704
 51
44.3393766357
  0
ARC
  5
3CC
100
AcDbEntity
  8
QUER2
100
AcDbCircle
 62
7
  6
CONTINUOUS
 10
68.3457072054
 20
59.1260581851
 40
13.3928774596
100
AcDbArc
 50
77.598515657
 51
97.5210600325
  0
ARC
  5
3CD
100
AcDbEntity
  8
QUER2
100
AcDbCircle
 62
7
  6
CONTINUOUS
 10
68.3457072054
 20
59.1260581851
 40
11.478516903
100
AcDbArc
 50
30.8333048429
 51
97.8460018237
  0
ARC
  5
3CE
100
AcDbEntity
  8
0
100
AcDbCircle
 62
7
  6
CONTINUOUS
 10
68.2590084649
 20
59.4033305793
 40
5.5
100
AcDbArc
 50
65.390016476
 51
294.609983524
  0
ARC
  5
3CF
100
AcDbEntity
  8
QUER2
100
AcDbCircle
 62
7
  6
CONTINUOUS
 10
68.2590084649
 20
59.4033305793
 40
5.0
100
AcDbArc
 50
90.0
 51
270.0
  0
ARC
  5
3D0
100
AcDbEntity
  8
0
100
AcDbCircle
 62
7
  6
CONTINUOUS
 10
65.7590084649
 20
51.8033305793
 40
3.0
100
AcDbArc
 50
180.0
 51
270.0
  0
CIRCLE
  5
3D1
100
AcDbEntity
  8
QUER2
100
AcDbCircle
 62
7
  6
CONTINUOUS
 10
68.2590084649
 20
59.4033305793
 40
2.5
  0
CIRCLE
  5
3D2
100
AcDbEntity
  8
A_ACHSEN
100
AcDbCircle
 62
7
  6
CONTINUOUS
 10
68.2590084649
 20
59.4033305793
 40
2.45
  0
CIRCLE
  5
3D3
100
AcDbEntity
  8
A_ACHSEN
100
AcDbCircle
 62
7
  6
CONTINUOUS
 10
68.2590084649
 20
59.4033305793
 40
1.6215728753
  0
ARC
  5
3D4
100
AcDbEntity
  8
0
100
AcDbCircle
 62
7
  6
CONTINUOUS
 10
65.7590084649
 20
66.8033305793
 40
3.0
100
AcDbArc
 50
90.0
 51
180.0
  0
ARC
  5
3D5
100
AcDbEntity
  8
QUER2
100
AcDbCircle
 62
7
  6
CONTINUOUS
 10
71.3298360973
 20
72.6969783747
 40
0.5022619795
100
AcDbArc
 50
257.598515657
 51
0.8619182248
  0
ARC
  5
3D6
100
AcDbEntity
  8
QUER2
100
AcDbCircle
 62
7
  6
CONTINUOUS
 10
73.1618747006
 20
71.6256555686
 40
0.4023630867
100
AcDbArc
 50
176.5890765054
 51
337.7153682265
  0
ARC
  5
3D7
100
AcDbEntity
  8
QUER2
100
AcDbCircle
 62
7
  6
CONTINUOUS
 10
66.7372773782
 20
70.7981783544
 40
0.3039037208
100
AcDbArc
 50
184.5937440552
 51
277.8460018237
  0
ARC
  5
3D8
100
AcDbEntity
  8
QUER2
100
AcDbCircle
 62
7
  6
CONTINUOUS
 10
66.6324835046
 20
72.1024250915
 40
0.3039037208
100
AcDbArc
 50
97.5210600325
 51
184.5937440552
  0
ARC
  5
3D9
100
AcDbEntity
  8
QUER2
100
AcDbCircle
 62
7
  6
CONTINUOUS
 10
80.7247194016
 20
65.364217771
 40
0.6
100
AcDbArc
 50
350.0
 51
121.8763603803
  0
ARC
  5
3DA
100
AcDbEntity
  8
QUER2
100
AcDbCircle
 62
7
  6
CONTINUOUS
 10
80.8225933955
 20
65.1397445477
 40
0.5837
100
AcDbArc
 50
8.4071409463
 51
121.8587620103
  0
ARC
  5
3DB
100
AcDbEntity
  8
QUER2
100
AcDbCircle
 62
7
  6
CONTINUOUS
 10
78.6331481039
 20
65.2667114397
 40
0.5022619795
100
AcDbArc
 50
210.8333048429
 51
290.547271683
  0
ARC
  5
3DC
100
AcDbEntity
  8
QUER2
100
AcDbCircle
 62
7
  6
CONTINUOUS
 10
81.7683264052
 20
64.3602087471
 40
0.5
100
AcDbArc
 50
170.9328996899
 51
315.0
  0
ARC
  5
3DD
100
AcDbEntity
  8
QUER2
100
AcDbCircle
 62
7
  6
CONTINUOUS
 10
81.6424613982
 20
64.2343437401
 40
0.5
100
AcDbArc
 50
170.0
 51
315.0
  0
ARC
  5
3DE
100
AcDbEntity
  8
QUER2
100
AcDbCircle
 62
7
  6
CONTINUOUS
 10
77.6265129978
 20
68.7568457954
 40
0.4023630867
100
AcDbArc
 50
134.3466524339
 51
317.7737603653
  0
ARC
  5
3DF
100
AcDbEntity
  8
QUER2
100
AcDbCircle
 62
7
  6
CONTINUOUS
 10
78.8520697048
 20
67.408373878
 40
0.4023630867
100
AcDbArc
 50
127.0417644818
 51
294.1747780881
  0
ARC
  5
3E0
100
AcDbEntity
  8
QUER2
100
AcDbCircle
 62
7
  6
CONTINUOUS
 10
75.2590084649
 20
74.1533305793
 40
19.75
100
AcDbArc
 50
270.0
 51
90.0
  0
ARC
  5
3E1
100
AcDbEntity
  8
QUER2
100
AcDbCircle
 62
7
  6
CONTINUOUS
 10
75.2590084649
 20
74.1533305793
 40
9.75
100
AcDbArc
 50
270.0
 51
301.8763603803
  0
ARC
  5
3E2
100
AcDbEntity
  8
QUER2
100
AcDbCircle
 62
7
  6
CONTINUOUS
 10
75.2590084649
 20
74.1533305793
 40
9.75
100
AcDbArc
 50
328.1236396197
 51
90.0
  0
ARC
  5
3E3
100
AcDbEntity
  8
QUER2
100
AcDbCircle
 62
7
  6
CONTINUOUS
 10
75.4254631061
 20
73.824523772
 40
9.6414848656
100
AcDbArc
 50
290.547271683
 51
301.8587620103
  0
ARC
  5
3E4
100
AcDbEntity
  8
QUER2
100
AcDbCircle
 62
7
  6
CONTINUOUS
 10
75.4254631061
 20
73.824523772
 40
9.6414848656
100
AcDbArc
 50
328.2593605105
 51
340.8200823557
  0
ARC
  5
3E5
100
AcDbEntity
  8
QUER2
100
AcDbCircle
 62
7
  6
CONTINUOUS
 10
78.3628101427
 20
72.8027855714
 40
6.5315079261
100
AcDbArc
 50
352.5872491716
 51
180.8619182248
  0
ARC
  5
3E6
100
AcDbEntity
  8
QUER2
100
AcDbCircle
 62
7
  6
CONTINUOUS
 10
78.3628101427
 20
72.8027855714
 40
5.5240497507
100
AcDbArc
 50
294.1747780881
 51
176.5890765054
  0
ARC
  5
3E7
100
AcDbEntity
  8
QUER2
100
AcDbCircle
 62
7
  6
CONTINUOUS
 10
74.8368408655
 20
70.8392192546
 40
0.4023630867
100
AcDbArc
 50
151.6741664759
 51
330.3376400666
  0
ARC
  5
3E8
100
AcDbEntity
  8
QUER2
100
AcDbCircle
 62
7
  6
CONTINUOUS
 10
76.3018844558
 20
69.9031047799
 40
0.4023630867
100
AcDbArc
 50
144.829576765
 51
322.2970721142
  0
ARC
  5
3E9
100
AcDbEntity
  8
0
100
AcDbCircle
 62
7
  6
CONTINUOUS
 10
91.7590084649
 20
60.9033305793
 40
5.0
100
AcDbArc
 50
270.0
 51
360.0
  0
ARC
  5
3EA
100
AcDbEntity
  8
0
100
AcDbCircle
 62
7
  6
CONTINUOUS
 10
98.2590084649
 20
56.0892372592
 40
2.0
100
AcDbArc
 50
270.3
 51
360.0
  0
ARC
  5
3EB
100
AcDbEntity
  8
A_RUNDUNGEN
100
AcDbCircle
 62
7
  6
CONTINUOUS
 10
91.7590084981
 20
69.6135715315
 40
4.9999999497
100
AcDbArc
 50
359.9999994056
 51
50.0137376067
  0
ARC
  5
3EC
100
AcDbEntity
  8
A_RUNDUNGEN
100
AcDbCircle
 62
7
  6
CONTINUOUS
 10
93.7590085302
 20
69.1739776204
 40
2.999999909
100
AcDbArc
 50
270.4999987692
 51
359.6073082932
  0
ARC
  5
3ED
100
AcDbEntity
  8
QUER2
100
AcDbCircle
 62
7
  6
CONTINUOUS
 10
84.1379715108
 20
68.4350282209
 40
0.6032437788
100
AcDbArc
 50
148.2593605105
 51
295.0
  0
ARC
  5
3EE
100
AcDbEntity
  8
QUER2
100
AcDbCircle
 62
7
  6
CONTINUOUS
 10
84.0481212732
 20
68.6876196426
 40
0.6
100
AcDbArc
 50
148.1236396197
 51
280.0
  0
ARC
  5
3EF
100
AcDbEntity
  8
QUER2
100
AcDbCircle
 62
7
  6
CONTINUOUS
 10
85.0521302971
 20
67.644012639
 40
0.5
100
AcDbArc
 50
315.0
 51
115.0
  0
ARC
  5
3F0
100
AcDbEntity
  8
QUER2
100
AcDbCircle
 62
7
  6
CONTINUOUS
 10
85.1779953041
 20
67.769877646
 40
0.5
100
AcDbArc
 50
315.0
 51
100.0
  0
ARC
  5
3F1
100
AcDbEntity
  8
0
100
AcDbCircle
 62
7
  6
CONTINUOUS
 10
77.5659779011
 20
95.8033305793
 40
3.5547736725
100
AcDbArc
 50
175.9671753207
 51
184.0328246793
  0
ARC
  5
3F2
100
AcDbEntity
  8
0
100
AcDbCircle
 62
7
  6
CONTINUOUS
 10
98.2590084649
 20
92.2174238994
 40
2.0
100
AcDbArc
 50
0.0
 51
89.7
  0
ARC
  5
3F3
100
AcDbEntity
  8
0
100
AcDbCircle
 62
7
  6
CONTINUOUS
 10
73.7590084649
 20
77.8033305793
 40
2.0
100
AcDbArc
 50
270.0
 51
360.0
  0
ARC
  5
3F4
100
AcDbEntity
  8
IMPORT_KE
100
AcDbCircle
 62
2
  6
CONTINUOUS
 10
73.7590084649
 20
77.8033305793
 40
2.0
100
AcDbArc
 50
270.0
 51
360.0
  0
ARC
  5
3F5
100
AcDbEntity
  8
0
100
AcDbCircle
 62
7
  6
CONTINUOUS
 10
95.2590084649
 20
90.5231205278
 40
1.5
100
AcDbArc
 50
0.0
 51
88.5
  0
ARC
  5
3F6
100
AcDbEntity
  8
QUER2
100
AcDbCircle
 62
7
  6
CONTINUOUS
 10
72.7590084649
 20
95.4033305793
 40
1.5
100
AcDbArc
 50
180.0
 51
270.0
  0
ARC
  5
3F7
100
AcDbEntity
  8
0
100
AcDbCircle
 62
7
  6
CONTINUOUS
 10
86.4597110261
 20
93.2543952216
 40
1.0
100
AcDbArc
 50
255.425783802
 51
268.5
  0
ARC
  5
3F8
100
AcDbEntity
  8
A_RUNDUNGEN
100
AcDbCircle
 62
7
  6
CONTINUOUS
 10
95.7590084649
 20
80.29643434
 40
0.9999860771
100
AcDbArc
 50
271.5000417794
 51
0.001595992
  0
ARC
  5
3F9
100
AcDbEntity
  8
A_RUNDUNGEN
100
AcDbCircle
 62
7
  6
CONTINUOUS
 10
64.9590084649
 20
98.1033305793
 40
0.3
100
AcDbArc
 50
0.0007005519
 51
90.0
  0
ARC
  5
3FA
100
AcDbEntity
  8
A_RUNDUNGEN
100
AcDbCircle
 62
7
  6
CONTINUOUS
 10
65.5590084649
 20
96.9533305793
 40
0.3
100
AcDbArc
 50
179.9999923139
 51
270.0
  0
ARC
  5
3FB
100
AcDbEntity
  8
A_RUNDUNGEN
100
AcDbCircle
 62
7
  6
CONTINUOUS
 10
69.9590084649
 20
96.9533305793
 40
0.3
100
AcDbArc
 50
270.0
 51
0.0001801248
  0
ARC
  5
3FC
100
AcDbEntity
  8
QUER2
100
AcDbCircle
 62
7
  6
CONTINUOUS
 10
62.5590084649
 20
84.2033305793
 40
0.3
100
AcDbArc
 50
180.0
 51
270.0
  0
ARC
  5
3FD
100
AcDbEntity
  8
A_RUNDUNGEN
100
AcDbCircle
 62
8
  6
HIDDEN
 10
70.0590084649
 20
98.696289852
 40
0.2
100
AcDbArc
 50
0.0000004502
 51
90.0
  0
ARC
  5
3FE
100
AcDbEntity
  8
A_RUNDUNGEN
100
AcDbCircle
 62
8
  6
HIDDEN
 10
70.0590084649
 20
99.0833305793
 40
0.2
100
AcDbArc
 50
359.9980360846
 51
90.0
  0
ARC
  5
3FF
100
AcDbEntity
  8
0
100
AcDbCircle
 62
7
  6
CONTINUOUS
 10
44.7590084649
 20
108.5998873202
 40
2.0
100
AcDbArc
 50
90.3
 51
180.0
  0
ARC
  5
400
100
AcDbEntity
  8
0
100
AcDbCircle
 62
7
  6
CONTINUOUS
 10
17.7590084649
 20
112.4732025793
 40
1.5000001084
100
AcDbArc
 50
180.0
 51
269.4999996651
  0
ARC
  5
401
100
AcDbEntity
  8
IMPORT_KE
100
AcDbCircle
 62
2
  6
CONTINUOUS
 10
17.7590084649
 20
112.4732025793
 40
1.5000001084
100
AcDbArc
 50
180.0
 51
269.5000307191
  0
ARC
  5
402
100
AcDbEntity
  8
0
100
AcDbCircle
 62
7
  6
CONTINUOUS
 10
56.2590084649
 20
107.4723704449
 40
1.5
100
AcDbArc
 50
90.5
 51
180.0
  0
ARC
  5
403
100
AcDbEntity
  8
0
100
AcDbCircle
 62
7
  6
CONTINUOUS
 10
50.2590084649
 20
108.784180529
 40
1.5
100
AcDbArc
 50
91.0
 51
180.0
  0
ARC
  5
404
100
AcDbEntity
  8
0
100
AcDbCircle
 62
7
  6
CONTINUOUS
 10
53.0590084649
 20
107.6182638646
 40
1.5
100
AcDbArc
 50
90.5
 51
180.0
  0
ARC
  5
405
100
AcDbEntity
  8
0
100
AcDbCircle
 62
7
  6
CONTINUOUS
 10
17.7590084649
 20
127.1334585793
 40
1.5
100
AcDbArc
 50
90.5000003349
 51
180.0
  0
ARC
  5
406
100
AcDbEntity
  8
IMPORT_KE
100
AcDbCircle
 62
2
  6
CONTINUOUS
 10
17.7590084649
 20
127.1334585793
 40
1.5
100
AcDbArc
 50
90.4999692809
 51
180.0
  0
ARC
  5
407
100
AcDbEntity
  8
A_RUNDUNGEN
100
AcDbCircle
 62
7
  6
CONTINUOUS
 10
57.6589856288
 20
108.1584262963
 40
0.999992388
100
AcDbArc
 50
90.4986915378
 51
124.247925682
  0
ARC
  5
408
100
AcDbEntity
  8
0
100
AcDbCircle
 62
7
  6
CONTINUOUS
 10
25.4590084649
 20
110.6059365793
 40
0.3000004234
100
AcDbArc
 50
0.0
 51
89.4999996651
  0
ARC
  5
409
100
AcDbEntity
  8
IMPORT_KE
100
AcDbCircle
 62
2
  6
CONTINUOUS
 10
25.4590084649
 20
110.6059365793
 40
0.3000004234
100
AcDbArc
 50
0.0
 51
89.49999319
  0
ARC
  5
40A
100
AcDbEntity
  8
0
100
AcDbCircle
 62
7
  6
CONTINUOUS
 10
17.7590084649
 20
151.8033305793
 40
2.0
100
AcDbArc
 50
90.0
 51
180.0
  0
ARC
  5
40B
100
AcDbEntity
  8
IMPORT_KE
100
AcDbCircle
 62
2
  6
CONTINUOUS
 10
17.7590084649
 20
151.8033305793
 40
2.0
100
AcDbArc
 50
90.0
 51
180.0
  0
ARC
  5
40C
100
AcDbEntity
  8
0
100
AcDbCircle
 62
7
  6
CONTINUOUS
 10
18.7590084649
 20
147.2589225793
 40
1.000000386
100
AcDbArc
 50
0.0
 51
79.9999950958
  0
ARC
  5
40D
100
AcDbEntity
  8
IMPORT_KE
100
AcDbCircle
 62
2
  6
CONTINUOUS
 10
18.7590084649
 20
147.2589225793
 40
1.000000386
100
AcDbArc
 50
0.0
 51
79.999956057
  0
ARC
  5
40E
100
AcDbEntity
  8
0
100
AcDbCircle
 62
7
  6
CONTINUOUS
 10
16.7590084649
 20
149.6424295793
 40
0.9999992276
100
AcDbArc
 50
180.0
 51
259.9999950958
  0
ARC
  5
40F
100
AcDbEntity
  8
IMPORT_KE
100
AcDbCircle
 62
2
  6
CONTINUOUS
 10
16.7590084649
 20
149.6424295793
 40
0.9999992276
100
AcDbArc
 50
180.0
 51
260.000002533
  0
ARC
  5
410
100
AcDbEntity
  8
0
100
AcDbCircle
 62
7
  6
CONTINUOUS
 10
20.2590084649
 20
142.4513475793
 40
0.5000000361
100
AcDbArc
 50
180.0
 51
269.4999959815
  0
ARC
  5
411
100
AcDbEntity
  8
IMPORT_KE
100
AcDbCircle
 62
2
  6
CONTINUOUS
 10
20.2590084649
 20
142.4513475793
 40
0.5000000361
100
AcDbArc
 50
180.0
 51
269.5000307191
  0
ARC
  5
412
100
AcDbEntity
  8
0
100
AcDbCircle
 62
7
  6
CONTINUOUS
 10
25.4590084649
 20
129.0007235793
 40
0.3
100
AcDbArc
 50
270.5000003349
 51
360.0
  0
ARC
  5
413
100
AcDbEntity
  8
IMPORT_KE
100
AcDbCircle
 62
2
  6
CONTINUOUS
 10
25.4590084649
 20
129.0007235793
 40
0.3
100
AcDbArc
 50
270.5000084766
 51
360.0
  0
ARC
  5
414
100
AcDbEntity
  8
0
100
AcDbCircle
 62
7
  6
CONTINUOUS
 10
25.4590084649
 20
141.6059365793
 40
0.3000004234
100
AcDbArc
 50
0.0
 51
89.4999959815
  0
ARC
  5
415
100
AcDbEntity
  8
IMPORT_KE
100
AcDbCircle
 62
2
  6
CONTINUOUS
 10
25.4590084649
 20
141.6059365793
 40
0.3000004234
100
AcDbArc
 50
0.0
 51
89.49999319
  0
ARC
  5
416
100
AcDbEntity
  8
A_RUNDUNGEN
100
AcDbCircle
 62
7
  6
CONTINUOUS
 10
64.9590084649
 20
103.7033305793
 40
0.3
100
AcDbArc
 50
270.0
 51
359.9992994481
  0
ARC
  5
417
100
AcDbEntity
  8
A_RUNDUNGEN
100
AcDbCircle
 62
7
  6
CONTINUOUS
 10
65.5590084649
 20
104.8533305793
 40
0.3
100
AcDbArc
 50
90.0
 51
180.0000076861
  0
ARC
  5
418
100
AcDbEntity
  8
A_RUNDUNGEN
100
AcDbCircle
 62
7
  6
CONTINUOUS
 10
69.9590084649
 20
104.8533305793
 40
0.3
100
AcDbArc
 50
359.9998198752
 51
90.0
  0
ARC
  5
419
100
AcDbEntity
  8
QUER2
100
AcDbCircle
 62
7
  6
CONTINUOUS
 10
62.5590084649
 20
107.2033305793
 40
0.3
100
AcDbArc
 50
90.0
 51
180.0
  0
ARC
  5
41A
100
AcDbEntity
  8
QUER2
100
AcDbCircle
 62
7
  6
CONTINUOUS
 10
70.9590084649
 20
107.2033305793
 40
0.3
100
AcDbArc
 50
0.0
 51
90.0
  0
ARC
  5
41B
100
AcDbEntity
  8
A_RUNDUNGEN
100
AcDbCircle
 62
8
  6
HIDDEN
 10
70.0590084649
 20
103.1103713066
 40
0.2
100
AcDbArc
 50
270.0
 51
359.9999995498
  0
ARC
  5
41C
100
AcDbEntity
  8
A_RUNDUNGEN
100
AcDbCircle
 62
8
  6
HIDDEN
 10
70.0590084649
 20
102.7233305793
 40
0.2
100
AcDbArc
 50
270.0
 51
0.0019639154
  0
ARC
  5
41D
100
AcDbEntity
  8
IMPORT_KE
100
AcDbCircle
 62
6
  6
CONTINUOUS
 10
69.2590084649
 20
120.0033305793
 40
1.000000287
100
AcDbArc
 50
90.0
 51
215.0000279098
  0
ARC
  5
41E
100
AcDbEntity
  8
IMPORT_KE
100
AcDbCircle
 62
6
  6
CONTINUOUS
 10
75.7590084649
 20
115.8033305793
 40
1.0
100
AcDbArc
 50
270.0
 51
360.0
  0
ARC
  5
41F
100
AcDbEntity
  8
IMPORT_KE
100
AcDbCircle
 62
2
  6
CONTINUOUS
 10
76.7590084649
 20
120.3033305793
 40
0.9999996503
100
AcDbArc
 50
135.5729621948
 51
149.9999884324
  0
ARC
  5
420
100
AcDbEntity
  8
0
100
AcDbCircle
 62
7
  6
CONTINUOUS
 10
76.7590084649
 20
120.3033305793
 40
0.9999993981
100
AcDbArc
 50
90.0
 51
149.9999884324
  0
ARC
  5
421
100
AcDbEntity
  8
IMPORT_KE
100
AcDbCircle
 62
6
  6
CONTINUOUS
 10
76.7590084649
 20
120.3033305793
 40
0.9999993981
100
AcDbArc
 50
90.0
 51
135.5729621948
  0
ARC
  5
422
100
AcDbEntity
  8
IMPORT_KE
100
AcDbCircle
 62
6
  6
CONTINUOUS
 10
82.2590084649
 20
116.8033305793
 40
0.5
100
AcDbArc
 50
180.0
 51
270.0
  0
ARC
  5
423
100
AcDbEntity
  8
IMPORT_KE
100
AcDbCircle
 62
6
  6
CONTINUOUS
 10
69.5911484649
 20
119.7033305793
 40
0.3000003564
100
AcDbArc
 50
90.0
 51
214.9999684471
  0
ARC
  5
424
100
AcDbEntity
  8
0
100
AcDbCircle
 62
7
  6
CONTINUOUS
 10
83.6415344649
 20
112.8033305793
 40
1.999999563
100
AcDbArc
 50
90.0
 51
174.9999992829
  0
ARC
  5
425
100
AcDbEntity
  8
0
100
AcDbCircle
 62
7
  6
CONTINUOUS
 10
103.5685574649
 20
124.8033305793
 40
2.9999996523
100
AcDbArc
 50
90.0
 51
170.0000017934
  0
ARC
  5
426
100
AcDbEntity
  8
0
100
AcDbCircle
 62
7
  6
CONTINUOUS
 10
92.2590084649
 20
122.8033305793
 40
1.5
100
AcDbArc
 50
270.0
 51
360.0
  0
ARC
  5
427
100
AcDbEntity
  8
IMPORT_KE
100
AcDbCircle
 62
2
  6
CONTINUOUS
 10
92.2590084649
 20
122.8033305793
 40
1.5
100
AcDbArc
 50
270.0
 51
360.0
  0
ARC
  5
428
100
AcDbEntity
  8
0
100
AcDbCircle
 62
7
  6
CONTINUOUS
 10
97.9199084649
 20
115.8033305793
 40
1.000000386
100
AcDbArc
 50
270.0
 51
350.0000017934
  0
ARC
  5
429
100
AcDbEntity
  8
IMPORT_KE
100
AcDbCircle
 62
6
  6
CONTINUOUS
 10
89.8038484649
 20
117.0774415793
 40
1.0000000347
100
AcDbArc
 50
60.0000170803
 51
129.9999527308
  0
ARC
  5
42A
100
AcDbEntity
  8
IMPORT_KE
100
AcDbCircle
 62
6
  6
CONTINUOUS
 10
92.7590084649
 20
116.8033305793
 40
0.5000001547
100
AcDbArc
 50
270.0
 51
44.9999189716
  0
ARC
  5
42B
100
AcDbEntity
  8
IMPORT_KE
100
AcDbCircle
 62
6
  6
CONTINUOUS
 10
91.0418514649
 20
118.8033305793
 40
0.5000001547
100
AcDbArc
 50
135.0
 51
225.0000810284
  0
ARC
  5
42C
100
AcDbEntity
  8
IMPORT_KE
100
AcDbCircle
 62
6
  6
CONTINUOUS
 10
92.7590084649
 20
120.8033305793
 40
0.5
100
AcDbArc
 50
315.0
 51
90.0
  0
ARC
  5
42D
100
AcDbEntity
  8
IMPORT_KE
100
AcDbCircle
 62
6
  6
CONTINUOUS
 10
88.0770234649
 20
116.8033305793
 40
0.4999999557
100
AcDbArc
 50
270.0
 51
310.0000334509
  0
ARC
  5
42E
100
AcDbEntity
  8
IMPORT_KE
100
AcDbCircle
 62
6
  6
CONTINUOUS
 10
89.8960094649
 20
117.0242335793
 40
0.4999999557
100
AcDbArc
 50
59.9999597845
 51
130.0000334509
  0
ARC
  5
42F
100
AcDbEntity
  8
IMPORT_KE
100
AcDbCircle
 62
6
  6
CONTINUOUS
 10
90.7090084649
 20
116.7033305793
 40
0.4031128874
100
AcDbArc
 50
82.8749836511
 51
262.8749836511
  0
ARC
  5
430
100
AcDbEntity
  8
0
100
AcDbCircle
 62
7
  6
CONTINUOUS
 10
85.7768764649
 20
149.8033305793
 40
4.0
100
AcDbArc
 50
19.9999997762
 51
90.0
  0
ARC
  5
431
100
AcDbEntity
  8
IMPORT_KE
100
AcDbCircle
 62
2
  6
CONTINUOUS
 10
85.7768764649
 20
149.8033305793
 40
4.0
100
AcDbArc
 50
19.9999897512
 51
90.0
  0
ARC
  5
432
100
AcDbEntity
  8
0
100
AcDbCircle
 62
7
  6
CONTINUOUS
 10
92.7590084649
 20
139.3914935793
 40
1.0000003073
100
AcDbArc
 50
0.0
 51
19.9999997762
  0
ARC
  5
433
100
AcDbEntity
  8
IMPORT_KE
100
AcDbCircle
 62
2
  6
CONTINUOUS
 10
92.7590084649
 20
139.3914935793
 40
1.0000003073
100
AcDbArc
 50
0.0
 51
19.9999848521
  0
ARC
  5
434
100
AcDbEntity
  8
0
100
AcDbCircle
 62
7
  6
CONTINUOUS
 10
165.2590084649
 20
51.8033305793
 40
3.0
100
AcDbArc
 50
270.0
 51
360.0
  0
ARC
  5
435
100
AcDbEntity
  8
0
100
AcDbCircle
 62
7
  6
CONTINUOUS
 10
184.7768764649
 20
123.8033305793
 40
4.0
100
AcDbArc
 50
19.9999997762
 51
90.0
  0
ARC
  5
436
100
AcDbEntity
  8
0
100
AcDbCircle
 62
7
  6
CONTINUOUS
 10
191.2590084649
 20
108.9527975793
 40
3.0
100
AcDbArc
 50
109.9999761886
 51
180.0
  0
ARC
  5
437
100
AcDbEntity
  8
0
100
AcDbCircle
 62
7
  6
CONTINUOUS
 10
191.7590084649
 20
113.3914935793
 40
0.9999993676
100
AcDbArc
 50
289.9999761886
 51
19.9999997762
  0
SPLINE
  5
438
100
AcDbEntity
  8
DEFAULT_2
100
AcDbSpline
 62
8
  6
HIDDEN
 70
0
 71
3
 72
14
 73
10
 74
0
 42
0.0000001
 43
0.0000001
 44
0.0000000001
 40
0.0
 40
0.0
 40
0.0
 40
0.0
 40
0.3952466228
 40
0.5656913327
 40
0.7129850789
 40
0.8333670463
 40
0.9234448995
 40
0.9800489379
 40
1.0
 40
1.0
 40
1.0
 40
1.0
 10
67.9183460177
 20
102.769629224
 30
0.0
 10
67.8944885502
 20
102.7361249777
 30
0.0
 10
67.8595330647
 20
102.6887408646
 30
0.0
 10
67.8141391127
 20
102.6300539623
 30
0.0
 10
67.7858148389
 20
102.5943200465
 30
0.0
 10
67.7622271835
 20
102.5655303993
 30
0.0
 10
67.7446334702
 20
102.5439835775
 30
0.0
 10
67.7330330798
 20
102.5311372951
 30
0.0
 10
67.7282118921
 20
102.5247238126
 30
0.0
 10
67.7266683603
 20
102.5233353033
 30
0.0
  0
SPLINE
  5
439
100
AcDbEntity
  8
DEFAULT_2
100
AcDbSpline
 62
8
  6
HIDDEN
 70
0
 71
3
 72
11
 73
7
 74
0
 42
0.0000001
 43
0.0000001
 44
0.0000000001
 40
0.0
 40
0.0
 40
0.0
 40
0.0
 40
0.3530470657
 40
0.6448732653
 40
0.861337275
 40
1.0
 40
1.0
 40
1.0
 40
1.0
 10
67.9183460177
 20
102.769629224
 30
0.0
 10
67.9322798233
 20
102.7891971706
 30
0.0
 10
67.9584032167
 20
102.8243991731
 30
0.0
 10
67.9968289441
 20
102.8690683162
 30
0.0
 10
68.0288279575
 20
102.8986783835
 30
0.0
 10
68.0518399909
 20
102.9103534933
 30
0.0
 10
68.0612745873
 20
102.9102816805
 30
0.0
  0
SPLINE
  5
43A
100
AcDbEntity
  8
DEFAULT_2
100
AcDbSpline
 62
8
  6
HIDDEN
 70
0
 71
3
 72
10
 73
6
 74
0
 42
0.0000001
 43
0.0000001
 44
0.0000000001
 40
0.0
 40
0.0
 40
0.0
 40
0.0
 40
0.3177774129
 40
0.6005475257
 40
1.0
 40
1.0
 40
1.0
 40
1.0
 10
68.0891895971
 20
100.9033313659
 30
0.0
 10
68.089189649
 20
100.8518160359
 30
0.0
 10
68.0812021323
 20
100.7535875312
 30
0.0
 10
68.0429343592
 20
100.598601294
 30
0.0
 10
67.9774332284
 20
100.4920988402
 30
0.0
 10
67.9183460177
 20
100.4656033066
 30
0.0
  0
SPLINE
  5
43B
100
AcDbEntity
  8
DEFAULT_2
100
AcDbSpline
 62
8
  6
HIDDEN
 70
0
 71
3
 72
18
 73
14
 74
0
 42
0.0000001
 43
0.0000001
 44
0.0000000001
 40
0.0
 40
0.0
 40
0.0
 40
0.0
 40
0.1710567901
 40
0.3453539309
 40
0.514402822
 40
0.6690275211
 40
0.7994335553
 40
0.8529283029
 40
0.897798482
 40
0.9337373034
 40
0.9609575977
 40
0.9813847112
 40
1.0
 40
1.0
 40
1.0
 40
1.0
 10
67.9183460177
 20
99.4747592074
 30
0.0
 10
67.9351965612
 20
99.4435391185
 30
0.0
 10
67.967031595
 20
99.3793129738
 30
0.0
 10
68.0088068264
 20
99.2810874843
 30
0.0
 10
68.0435674146
 20
99.1837559905
 30
0.0
 10
68.069492252
 20
99.0931640838
 30
0.0
 10
68.0837245583
 20
99.0242705669
 30
0.0
 10
68.0887907934
 20
98.9770569574
 30
0.0
 10
68.0894740338
 20
98.9491652882
 30
0.0
 10
68.0873037204
 20
98.9267888491
 30
0.0
 10
68.0823938337
 20
98.9099911697
 30
0.0
 10
68.0735120054
 20
98.8986754152
 30
0.0
 10
68.0651351521
 20
98.8964088537
 30
0.0
 10
68.0612744458
 20
98.8963794923
 30
0.0
  0
SPLINE
  5
43C
100
AcDbEntity
  8
DEFAULT_2
100
AcDbSpline
 62
8
  6
HIDDEN
 70
0
 71
3
 72
14
 73
10
 74
0
 42
0.0000001
 43
0.0000001
 44
0.0000000001
 40
0.0
 40
0.0
 40
0.0
 40
0.0
 40
0.3952466228
 40
0.5656913327
 40
0.7129850789
 40
0.8333670463
 40
0.9234448995
 40
0.9800489379
 40
1.0
 40
1.0
 40
1.0
 40
1.0
 10
67.9183460177
 20
99.0370319347
 30
0.0
 10
67.8944885502
 20
99.0705361809
 30
0.0
 10
67.8595330647
 20
99.117920294
 30
0.0
 10
67.8141391127
 20
99.1766071964
 30
0.0
 10
67.7858148389
 20
99.2123411122
 30
0.0
 10
67.7622271835
 20
99.2411307593
 30
0.0
 10
67.7446334702
 20
99.2626775812
 30
0.0
 10
67.7330330798
 20
99.2755238635
 30
0.0
 10
67.7282118921
 20
99.2819373461
 30
0.0
 10
67.7266683603
 20
99.2833258553
 30
0.0
  0
SPLINE
  5
43D
100
AcDbEntity
  8
DEFAULT_2
100
AcDbSpline
 62
8
  6
HIDDEN
 70
0
 71
3
 72
11
 73
7
 74
0
 42
0.0000001
 43
0.0000001
 44
0.0000000001
 40
0.0
 40
0.0
 40
0.0
 40
0.0
 40
0.3530470657
 40
0.6448732653
 40
0.861337275
 40
1.0
 40
1.0
 40
1.0
 40
1.0
 10
67.9183460177
 20
99.0370319347
 30
0.0
 10
67.9322798233
 20
99.017463988
 30
0.0
 10
67.9584032167
 20
98.9822619856
 30
0.0
 10
67.9968289441
 20
98.9375928424
 30
0.0
 10
68.0288279575
 20
98.9079827751
 30
0.0
 10
68.0518399909
 20
98.8963076653
 30
0.0
 10
68.0612745873
 20
98.8963794781
 30
0.0
  0
SPLINE
  5
43E
100
AcDbEntity
  8
DEFAULT_2
100
AcDbSpline
 62
8
  6
HIDDEN
 70
0
 71
3
 72
15
 73
11
 74
0
 42
0.0000001
 43
0.0000001
 44
0.0000000001
 40
0.0
 40
0.0
 40
0.0
 40
0.0
 40
0.0193905661
 40
0.0432267016
 40
0.0759186539
 40
0.1661593374
 40
0.2867011206
 40
0.4340525756
 40
0.6045207503
 40
1.0
 40
1.0
 40
1.0
 40
1.0
 10
67.7266676654
 20
99.2833264359
 30
0.0
 10
67.7250348629
 20
99.2845120347
 30
0.0
 10
67.7326077789
 20
99.2768579737
 30
0.0
 10
67.7353982045
 20
99.2730181662
 30
0.0
 10
67.7465702671
 20
99.2601922601
 30
0.0
 10
67.7618846265
 20
99.2415832491
 30
0.0
 10
67.7858517594
 20
99.2123105148
 30
0.0
 10
67.8140730727
 20
99.1767279035
 30
0.0
 10
67.8595347711
 20
99.1179370341
 30
0.0
 10
67.8944744225
 20
99.0705560212
 30
0.0
 10
67.9183460177
 20
99.0370319347
 30
0.0
  0
SPLINE
  5
43F
100
AcDbEntity
  8
DEFAULT_2
100
AcDbSpline
 62
8
  6
HIDDEN
 70
0
 71
3
 72
18
 73
14
 74
0
 42
0.0000001
 43
0.0000001
 44
0.0000000001
 40
0.0
 40
0.0
 40
0.0
 40
0.0
 40
0.0186152665
 40
0.0390424149
 40
0.0662627538
 40
0.1022016468
 40
0.1470719053
 40
0.2005667204
 40
0.3309728372
 40
0.4855975863
 40
0.6546464113
 40
0.828943352
 40
1.0
 40
1.0
 40
1.0
 40
1.0
 10
68.0612745873
 20
102.9102816805
 30
0.0
 10
68.065135288
 20
102.9102522943
 30
0.0
 10
68.0735121208
 20
102.9079856607
 30
0.0
 10
68.0823938928
 20
102.8966698627
 30
0.0
 10
68.0873037601
 20
102.8798721509
 30
0.0
 10
68.0894740395
 20
102.8574956716
 30
0.0
 10
68.0887907736
 20
102.8296039646
 30
0.0
 10
68.0837245086
 20
102.7823903202
 30
0.0
 10
68.0694921762
 20
102.7134967817
 30
0.0
 10
68.0435673103
 20
102.6229048895
 30
0.0
 10
68.0088067576
 20
102.5255734539
 30
0.0
 10
67.9670315519
 20
102.4273480688
 30
0.0
 10
67.9351965437
 20
102.3631220077
 30
0.0
 10
67.9183460177
 20
102.3319019512
 30
0.0
  0
SPLINE
  5
440
100
AcDbEntity
  8
DEFAULT_2
100
AcDbSpline
 62
8
  6
HIDDEN
 70
0
 71
3
 72
15
 73
11
 74
0
 42
0.0000001
 43
0.0000001
 44
0.0000000001
 40
0.0
 40
0.0
 40
0.0
 40
0.0
 40
0.0193905661
 40
0.0432267016
 40
0.0759186539
 40
0.1661593374
 40
0.2867011206
 40
0.4340525756
 40
0.6045207503
 40
1.0
 40
1.0
 40
1.0
 40
1.0
 10
67.7266676654
 20
102.5233347227
 30
0.0
 10
67.7250348629
 20
102.5221491239
 30
0.0
 10
67.7326077789
 20
102.5298031849
 30
0.0
 10
67.7353982045
 20
102.5336429924
 30
0.0
 10
67.7465702671
 20
102.5464688985
 30
0.0
 10
67.7618846265
 20
102.5650779095
 30
0.0
 10
67.7858517594
 20
102.5943506438
 30
0.0
 10
67.8140730727
 20
102.6299332551
 30
0.0
 10
67.8595347711
 20
102.6887241245
 30
0.0
 10
67.8944744225
 20
102.7361051374
 30
0.0
 10
67.9183460177
 20
102.769629224
 30
0.0
  0
SPLINE
  5
441
100
AcDbEntity
  8
DEFAULT_2
100
AcDbSpline
 62
8
  6
HIDDEN
 70
0
 71
3
 72
17
 73
13
 74
0
 42
0.0000001
 43
0.0000001
 44
0.0000000001
 40
0.0
 40
0.0
 40
0.0
 40
0.0
 40
0.0214851375
 40
0.0432290658
 40
0.0690459369
 40
0.1014671337
 40
0.1889769828
 40
0.306766113
 40
0.4522824728
 40
0.620547553
 40
0.805246921
 40
1.0
 40
1.0
 40
1.0
 40
1.0
 10
68.0612745873
 20
98.8963794781
 30
0.0
 10
68.0642193577
 20
98.8964018926
 30
0.0
 10
68.070263475
 20
98.897562078
 30
0.0
 10
68.0779163358
 20
98.9036368042
 30
0.0
 10
68.0833750887
 20
98.9133507164
 30
0.0
 10
68.0886949517
 20
98.9327157853
 30
0.0
 10
68.089875787
 20
98.9655831348
 30
0.0
 10
68.085241513
 20
99.0134618355
 30
0.0
 10
68.0741364833
 20
99.0716491804
 30
0.0
 10
68.0570645989
 20
99.1378326931
 30
0.0
 10
68.0345641059
 20
99.2094882838
 30
0.0
 10
68.0166195951
 20
99.2583269752
 30
0.0
 10
68.0068586262
 20
99.2831721321
 30
0.0
  0
SPLINE
  5
442
100
AcDbEntity
  8
DEFAULT_2
100
AcDbSpline
 62
8
  6
HIDDEN
 70
0
 71
3
 72
9
 73
5
 74
0
 42
0.0000001
 43
0.0000001
 44
0.0000000001
 40
0.0
 40
0.0
 40
0.0
 40
0.0
 40
0.2521920203
 40
1.0
 40
1.0
 40
1.0
 40
1.0
 10
68.0068586262
 20
99.2831721321
 30
0.0
 10
68.0003691577
 20
99.2996901501
 30
0.0
 10
67.9736635821
 20
99.3647978344
 30
0.0
 10
67.9433407914
 20
99.4284497777
 30
0.0
 10
67.9183460177
 20
99.4747592074
 30
0.0
  0
SPLINE
  5
443
100
AcDbEntity
  8
DEFAULT_2
100
AcDbSpline
 62
8
  6
HIDDEN
 70
0
 71
3
 72
14
 73
10
 74
0
 42
0.0000001
 43
0.0000001
 44
0.0000000001
 40
0.0
 40
0.0
 40
0.0
 40
0.0
 40
0.0805617912
 40
0.1718295938
 40
0.2789178472
 40
0.4032481423
 40
0.5438450656
 40
0.6951010366
 40
1.0
 40
1.0
 40
1.0
 40
1.0
 10
67.9183460177
 20
100.4656033066
 30
0.0
 10
67.8915400556
 20
100.4535831373
 30
0.0
 10
67.8385406085
 20
100.4176974217
 30
0.0
 10
67.7762331598
 20
100.3352436563
 30
0.0
 10
67.7356353119
 20
100.2232382166
 30
0.0
 10
67.7213159334
 20
100.0871195753
 30
0.0
 10
67.7390023749
 20
99.9354652421
 30
0.0
 10
67.7955577735
 20
99.724840812
 30
0.0
 10
67.8655370873
 20
99.5726017198
 30
0.0
 10
67.9183460177
 20
99.4747592074
 30
0.0
  0
SPLINE
  5
444
100
AcDbEntity
  8
DEFAULT_2
100
AcDbSpline
 62
8
  6
HIDDEN
 70
0
 71
3
 72
10
 73
6
 74
0
 42
0.0000001
 43
0.0000001
 44
0.0000000001
 40
0.0
 40
0.0
 40
0.0
 40
0.0
 40
0.3177774129
 40
0.6005475257
 40
1.0
 40
1.0
 40
1.0
 40
1.0
 10
68.0891895971
 20
100.9033297927
 30
0.0
 10
68.0891896491
 20
100.9548451226
 30
0.0
 10
68.0812021323
 20
101.0530736273
 30
0.0
 10
68.0429343592
 20
101.2080598646
 30
0.0
 10
67.9774332284
 20
101.3145623184
 30
0.0
 10
67.9183460177
 20
101.341057852
 30
0.0
  0
SPLINE
  5
445
100
AcDbEntity
  8
DEFAULT_2
100
AcDbSpline
 62
8
  6
HIDDEN
 70
0
 71
3
 72
14
 73
10
 74
0
 42
0.0000001
 43
0.0000001
 44
0.0000000001
 40
0.0
 40
0.0
 40
0.0
 40
0.0
 40
0.3050259422
 40
0.4563281837
 40
0.5970549242
 40
0.7212668187
 40
0.828252979
 40
0.9194814589
 40
1.0
 40
1.0
 40
1.0
 40
1.0
 10
67.9183460177
 20
102.3319019512
 30
0.0
 10
67.8655152129
 20
102.2340189109
 30
0.0
 10
67.7953819371
 20
102.0817614657
 30
0.0
 10
67.7390790674
 20
101.8709510055
 30
0.0
 10
67.7213316134
 20
101.7193060749
 30
0.0
 10
67.7355269522
 20
101.5831783575
 30
0.0
 10
67.7763666481
 20
101.4713654999
 30
0.0
 10
67.8385828778
 20
101.3889550636
 30
0.0
 10
67.8915545067
 20
101.3530715412
 30
0.0
 10
67.9183460177
 20
101.341057852
 30
0.0
  0
SPLINE
  5
446
100
AcDbEntity
  8
DEFAULT_2
100
AcDbSpline
 62
8
  6
HIDDEN
 70
0
 71
3
 72
9
 73
5
 74
0
 42
0.0000001
 43
0.0000001
 44
0.0000000001
 40
0.0
 40
0.0
 40
0.0
 40
0.0
 40
0.2449691492
 40
1.0
 40
1.0
 40
1.0
 40
1.0
 10
67.9183460177
 20
102.3319019512
 30
0.0
 10
67.9265339936
 20
102.3470723423
 30
0.0
 10
67.9588860254
 20
102.4095744747
 30
0.0
 10
67.9874297035
 20
102.4740355153
 30
0.0
 10
68.0068586215
 20
102.5234890481
 30
0.0
  0
SPLINE
  5
447
100
AcDbEntity
  8
0
100
AcDbSpline
 62
7
  6
CONTINUOUS
 70
0
 71
3
 72
15
 73
11
 74
0
 42
0.0000001
 43
0.0000001
 44
0.0000000001
 40
0.0
 40
0.0
 40
0.0
 40
0.0
 40
0.1250245363
 40
0.2500293709
 40
0.3750074733
 40
0.4999666607
 40
0.6249397407
 40
0.7499416157
 40
0.8749633898
 40
1.0
 40
1.0
 40
1.0
 40
1.0
 10
74.0201758626
 20
93.9024071442
 30
0.0
 10
73.9318556571
 20
94.0667310518
 30
0.0
 10
73.7676061509
 20
94.402345896
 30
0.0
 10
73.5767339748
 20
94.9299088132
 30
0.0
 10
73.4659515555
 20
95.4810414964
 30
0.0
 10
73.4580147008
 20
96.0438607657
 30
0.0
 10
73.5549586916
 20
96.5977522513
 30
0.0
 10
73.7358218297
 20
97.1290074333
 30
0.0
 10
73.9753611006
 20
97.6356930462
 30
0.0
 10
74.1614817661
 20
97.9594442878
 30
0.0
 10
74.2590084649
 20
98.1184979599
 30
0.0
  0
SPLINE
  5
448
100
AcDbEntity
  8
0
100
AcDbSpline
 62
7
  6
CONTINUOUS
 70
0
 71
3
 72
9
 73
5
 74
0
 42
0.0000001
 43
0.0000001
 44
0.0000000001
 40
0.0
 40
0.0
 40
0.0
 40
0.0
 40
0.5009299054
 40
1.0
 40
1.0
 40
1.0
 40
1.0
 10
74.0200061213
 20
96.0533305793
 30
0.0
 10
74.0311606624
 20
96.2113484811
 30
0.0
 10
74.0863354008
 20
96.5250927288
 30
0.0
 10
74.1952205394
 20
96.8233793688
 30
0.0
 10
74.2590084649
 20
96.9677372335
 30
0.0
  0
SPLINE
  5
449
100
AcDbEntity
  8
0
100
AcDbSpline
 62
7
  6
CONTINUOUS
 70
0
 71
3
 72
9
 73
5
 74
0
 42
0.0000001
 43
0.0000001
 44
0.0000000001
 40
0.0
 40
0.0
 40
0.0
 40
0.0
 40
0.4990716142
 40
1.0
 40
1.0
 40
1.0
 40
1.0
 10
74.2590084649
 20
94.6389239251
 30
0.0
 10
74.1952203459
 20
94.7832822279
 30
0.0
 10
74.086335391
 20
95.0815689391
 30
0.0
 10
74.0311606285
 20
95.3953131585
 30
0.0
 10
74.0200061213
 20
95.5533305793
 30
0.0
  0
SPLINE
  5
44A
100
AcDbEntity
  8
A_RUNDUNGEN
100
AcDbSpline
 62
7
  6
CONTINUOUS
 70
0
 71
3
 72
12
 73
8
 74
0
 42
0.0000001
 43
0.0000001
 44
0.0000000001
 40
0.0
 40
0.0
 40
0.0
 40
0.0
 40
0.3016107602
 40
0.5768876568
 40
0.8129482289
 40
0.9127827064
 40
1.0
 40
1.0
 40
1.0
 40
1.0
 10
78.4219927816
 20
54.6768158514
 30
0.0
 10
78.5253123931
 20
54.6273273658
 30
0.0
 10
78.7242239063
 20
54.5351363667
 30
0.0
 10
79.0106833903
 20
54.4199605821
 30
0.0
 10
79.2345441747
 20
54.3538959332
 30
0.0
 10
79.3946544347
 20
54.3358229212
 30
0.0
 10
79.4662866713
 20
54.3406044807
 30
0.0
 10
79.4986789019
 20
54.347545673
 30
0.0
  0
SPLINE
  5
44B
100
AcDbEntity
  8
A_RUNDUNGEN
100
AcDbSpline
 62
7
  6
CONTINUOUS
 70
0
 71
3
 72
14
 73
10
 74
0
 42
0.0000001
 43
0.0000001
 44
0.0000000001
 40
0.0
 40
0.0
 40
0.0
 40
0.0
 40
0.3820312629
 40
0.5547774445
 40
0.7063658421
 40
0.831008064
 40
0.9236945867
 40
0.9807312587
 40
1.0
 40
1.0
 40
1.0
 40
1.0
 10
86.661794646
 20
56.9033305793
 30
0.0
 10
86.6752736047
 20
56.7760894163
 30
0.0
 10
86.6945530885
 20
56.5912813182
 30
0.0
 10
86.7184452332
 20
56.3559083023
 30
0.0
 10
86.7332022699
 20
56.2062597907
 30
0.0
 10
86.7449868176
 20
56.0832594892
 30
0.0
 10
86.7535532588
 20
55.9917731005
 30
0.0
 10
86.7579078227
 20
55.9353230801
 30
0.0
 10
86.758852494
 20
55.9097836362
 30
0.0
 10
86.7590084649
 20
55.9033305793
 30
0.0
  0
ENDSEC
  0
SECTION
  2
OBJECTS
  0
DICTIONARY
  5
44C
100
AcDbDictionary
  3
ACAD_GROUP
350
44D
  3
ACAD_MLINESTYLE
350
44E
  0
DICTIONARY
  5
44D
102
{ACAD_REACTORS
330
44C
102
}
100
AcDbDictionary
  0
DICTIONARY
  5
44E
102
{ACAD_REACTORS
330
44C
102
}
100
AcDbDictionary
  3
STANDARD
350
44F
  0
MLINESTYLE
  5
44F
102
{ACAD_REACTORS
330
44E
102
}
100
AcDbMlineStyle
  2
STANDARD
 70
0
  3

 62
256
 51
90.0
 52
90.0
 71
2
 49
0.5
 62
256
  6
BYLAYER
 49
-0.5
 62
256
  6
BYLAYER
  0
ENDSEC
  0
EOF
