999
DXF file: d:\tmp\workingDir\0000046752\te_680_3d_fd_v01_01.dxf
999
Pro/ENGINEER 2016130 by Parametric Technology Corporation
  0
SECTION
  2
HEADER
  9
$ACADVER
  1
AC1014
  9
$DWGCODEPAGE
  3
ANSI_1252
  9
$EXTMAX
 10
160.02
 20
280.0
 30
0.0
  9
$EXTMIN
 10
0.0
 20
0.0
 30
0.0
  9
$LIMMIN
 10
0.0
 20
0.0
  9
$LIMMAX
 10
160.02
 20
280.0
  9
$VIEWCTR
 10
80.01
 20
140.0
  9
$VIEWSIZE
 40
280.0
  9
$CLAYER
  8
0
  9
$LTSCALE
 40
18.2518518519
  9
$CELTYPE
  6
BYLAYER
  9
$DIMSCALE
 40
1.0
  9
$DIMASZ
 40
3.5
  9
$DIMEXO
 40
0.0
  9
$DIMDLI
 40
12.6103703704
  9
$DIMEXE
 40
2.0
  9
$DIMCEN
 40
2.9866666667
  9
$DIMLFAC
 40
1.0
  9
$DIMBLK
  1
_ARROW_FILLED
  9
$DIMALT
 70
0
  9
$DIMALTF
 40
0.0393700787
  9
$DIMTXT
 40
3.5
  9
$DIMTOL
 70
1
  9
$DIMLIM
 70
0
  9
$DIMTFAC
 40
1.0
  9
$DIMTP
 40
0.01
  9
$DIMTM
 40
0.01
  9
$DIMGAP
 40
0.625
  9
$AUNITS
 70
0
  9
$PDMODE
 70
0
  9
$PDSIZE
 40
0.04
  9
$HANDSEED
  5
498
  9
$TILEMODE
 70
1
  9
$MEASUREMENT
 70
1
  0
ENDSEC
  0
SECTION
  2
CLASSES
  0
ENDSEC
  0
SECTION
  2
TABLES
  0
TABLE
  2
VPORT
  5
8
100
AcDbSymbolTable
 70
2
  0
VPORT
  5
1F4
100
AcDbSymbolTableRecord
100
AcDbViewportTableRecord
  2
*ACTIVE
 70
0
 10
0.0
 20
0.0
 11
1.0
 21
1.0
 12
80.01
 22
140.0
 13
0.0
 23
0.0
 14
1.0
 24
1.0
 15
0.0
 25
0.0
 16
0.0
 26
0.0
 36
1.0
 17
0.0
 27
0.0
 37
0.0
 40
280.0
 41
0.5715
 42
50.0
 43
0.0
 44
0.0
 50
0.0
 51
0.0
 71
0
 72
100
 73
1
 74
1
 75
0
 76
0
 77
0
 78
0
  0
ENDTAB
  0
TABLE
  2
LTYPE
  5
5
100
AcDbSymbolTable
 70
6
  0
LTYPE
  5
14
100
AcDbSymbolTableRecord
100
AcDbLinetypeTableRecord
  2
BYBLOCK
 70
0
  3

 72
65
 73
0
 40
0.0
  0
LTYPE
  5
15
100
AcDbSymbolTableRecord
100
AcDbLinetypeTableRecord
  2
BYLAYER
 70
0
  3

 72
65
 73
0
 40
0.0
  0
LTYPE
  5
16
100
AcDbSymbolTableRecord
100
AcDbLinetypeTableRecord
  2
CONTINUOUS
 70
64
  3
Solid line
 72
65
 73
0
 40
0.0
  0
LTYPE
  5
1F5
100
AcDbSymbolTableRecord
100
AcDbLinetypeTableRecord
  2
CENTER
 70
64
  3
____ _ ____ _ ____ _ ____ _ ____ _ ____ _ ____
 72
65
 73
4
 40
0.6
 49
0.375
 74
0
 49
-0.075
 74
0
 49
0.075
 74
0
 49
-0.075
 74
0
  0
LTYPE
  5
1F6
100
AcDbSymbolTableRecord
100
AcDbLinetypeTableRecord
  2
HIDDEN
 70
64
  3
- - - - - - - - - - - - - - - - - - - -
 72
65
 73
2
 40
0.2
 49
0.1
 74
0
 49
-0.1
 74
0
  0
LTYPE
  5
1F7
100
AcDbSymbolTableRecord
100
AcDbLinetypeTableRecord
  2
PHANTOM
 70
64
  3
_____ _ _ _____ _ _ _____ _ _ _____
 72
65
 73
6
 40
0.8
 49
0.45
 74
0
 49
-0.05
 74
0
 49
0.1
 74
0
 49
-0.05
 74
0
 49
0.1
 74
0
 49
-0.05
 74
0
  0
LTYPE
  5
1F8
100
AcDbSymbolTableRecord
100
AcDbLinetypeTableRecord
  2
DOT
 70
64
  3
. . . . . . . . . . . . . . . . . . . .
 72
65
 73
2
 40
0.2
 49
0.1
 74
0
 49
-0.1
 74
0
  0
LTYPE
  5
1F9
100
AcDbSymbolTableRecord
100
AcDbLinetypeTableRecord
  2
DASHED
 70
64
  3
- - - - - - - - - - - - - - - - - - - -
 72
65
 73
2
 40
0.2
 49
0.1
 74
0
 49
-0.1
 74
0
  0
ENDTAB
  0
TABLE
  2
LAYER
  5
2
100
AcDbSymbolTable
 70
36
  0
LAYER
  5
10
100
AcDbSymbolTableRecord
100
AcDbLayerTableRecord
  2
0
 70
0
 62
7
  6
CONTINUOUS
  0
LAYER
  5
1FA
100
AcDbSymbolTableRecord
100
AcDbLayerTableRecord
  2
DEFAULT_1
 70
0
 62
7
  6
CENTER
  0
LAYER
  5
1FB
100
AcDbSymbolTableRecord
100
AcDbLayerTableRecord
  2
DEFAULT_2
 70
0
 62
8
  6
HIDDEN
  0
LAYER
  5
1FC
100
AcDbSymbolTableRecord
100
AcDbLayerTableRecord
  2
DEFAULT_3
 70
0
 62
7
  6
PHANTOM
  0
LAYER
  5
1FD
100
AcDbSymbolTableRecord
100
AcDbLayerTableRecord
  2
A_ACHSEN
 70
0
 62
7
  6
CONTINUOUS
  0
LAYER
  5
1FE
100
AcDbSymbolTableRecord
100
AcDbLayerTableRecord
  2
A_BASISEBENEN
 70
0
 62
7
  6
CONTINUOUS
  0
LAYER
  5
1FF
100
AcDbSymbolTableRecord
100
AcDbLayerTableRecord
  2
A_BEMASSUNGEN
 70
0
 62
7
  6
CONTINUOUS
  0
LAYER
  5
200
100
AcDbSymbolTableRecord
100
AcDbLayerTableRecord
  2
A_BOHRUNGEN
 70
0
 62
7
  6
CONTINUOUS
  0
LAYER
  5
201
100
AcDbSymbolTableRecord
100
AcDbLayerTableRecord
  2
A_EBENEN
 70
0
 62
7
  6
CONTINUOUS
  0
LAYER
  5
202
100
AcDbSymbolTableRecord
100
AcDbLayerTableRecord
  2
A_FASEN
 70
0
 62
7
  6
CONTINUOUS
  0
LAYER
  5
203
100
AcDbSymbolTableRecord
100
AcDbLayerTableRecord
  2
A_FLAECHEN
 70
0
 62
7
  6
CONTINUOUS
  0
LAYER
  5
204
100
AcDbSymbolTableRecord
100
AcDbLayerTableRecord
  2
A_FL_VERBAENDE
 70
0
 62
7
  6
CONTINUOUS
  0
LAYER
  5
205
100
AcDbSymbolTableRecord
100
AcDbLayerTableRecord
  2
A_KURVEN
 70
0
 62
7
  6
CONTINUOUS
  0
LAYER
  5
206
100
AcDbSymbolTableRecord
100
AcDbLayerTableRecord
  2
A_NOTIZEN_SYMB
 70
0
 62
7
  6
CONTINUOUS
  0
LAYER
  5
207
100
AcDbSymbolTableRecord
100
AcDbLayerTableRecord
  2
A_PUNKTE
 70
0
 62
7
  6
CONTINUOUS
  0
LAYER
  5
208
100
AcDbSymbolTableRecord
100
AcDbLayerTableRecord
  2
A_RUNDUNGEN
 70
0
 62
7
  6
CONTINUOUS
  0
LAYER
  5
209
100
AcDbSymbolTableRecord
100
AcDbLayerTableRecord
  2
BASISEBENEN
 70
0
 62
7
  6
CONTINUOUS
  0
LAYER
  5
20A
100
AcDbSymbolTableRecord
100
AcDbLayerTableRecord
  2
GRUNDEBENE
 70
0
 62
7
  6
CONTINUOUS
  0
LAYER
  5
20B
100
AcDbSymbolTableRecord
100
AcDbLayerTableRecord
  2
INTFCLR_3
 70
0
 62
7
  6
CONTINUOUS
  0
LAYER
  5
20C
100
AcDbSymbolTableRecord
100
AcDbLayerTableRecord
  2
INTF_YELLOW
 70
0
 62
7
  6
CONTINUOUS
  0
LAYER
  5
20D
100
AcDbSymbolTableRecord
100
AcDbLayerTableRecord
  2
PROFIL
 70
0
 62
7
  6
CONTINUOUS
  0
LAYER
  5
20E
100
AcDbSymbolTableRecord
100
AcDbLayerTableRecord
  2
SCHRAFFUR
 70
0
 62
7
  6
CONTINUOUS
  0
ENDTAB
  0
TABLE
  2
STYLE
  5
3
100
AcDbSymbolTable
 70
1
  0
STYLE
  5
11
100
AcDbSymbolTableRecord
100
AcDbTextStyleTableRecord
  2
STANDARD
 70
0
 40
0.0
 41
1.0
 50
0.0
 71
0
 42
0.2
  3
txt
  4

  0
STYLE
  5
20F
100
AcDbSymbolTableRecord
100
AcDbTextStyleTableRecord
  2
TEXTSTYLE_1
 70
0
 40
0.0
 41
0.8
 50
0.0
 71
0
 42
0.2
  3
gdt
  4

  0
STYLE
  5
210
100
AcDbSymbolTableRecord
100
AcDbTextStyleTableRecord
  2
TEXTSTYLE_2
 70
0
 40
0.0
 41
1.0
 50
0.0
 71
0
 42
0.2
  3
txt
  4

  0
ENDTAB
  0
TABLE
  2
VIEW
  5
6
100
AcDbSymbolTable
 70
0
  0
ENDTAB
  0
TABLE
  2
UCS
  5
7
100
AcDbSymbolTable
 70
0
  0
ENDTAB
  0
TABLE
  2
APPID
  5
9
100
AcDbSymbolTable
 70
1
  0
APPID
  5
211
100
AcDbSymbolTableRecord
100
AcDbRegAppTableRecord
  2
ACAD
 70
0
  0
ENDTAB
  0
TABLE
  2
BLOCK_RECORD
  5
1
100
AcDbSymbolTable
 70
0
  0
BLOCK_RECORD
  5
1F
100
AcDbSymbolTableRecord
100
AcDbBlockTableRecord
  2
*MODEL_SPACE
  0
BLOCK_RECORD
  5
1B
100
AcDbSymbolTableRecord
100
AcDbBlockTableRecord
  2
*PAPER_SPACE
  0
BLOCK_RECORD
  5
212
100
AcDbSymbolTableRecord
100
AcDbBlockTableRecord
  2
_ARROW_FILLED
  0
BLOCK_RECORD
  5
213
100
AcDbSymbolTableRecord
100
AcDbBlockTableRecord
  2
*D0
  0
BLOCK_RECORD
  5
214
100
AcDbSymbolTableRecord
100
AcDbBlockTableRecord
  2
*D1
  0
BLOCK_RECORD
  5
215
100
AcDbSymbolTableRecord
100
AcDbBlockTableRecord
  2
*D2
  0
BLOCK_RECORD
  5
216
100
AcDbSymbolTableRecord
100
AcDbBlockTableRecord
  2
*D3
  0
BLOCK_RECORD
  5
217
100
AcDbSymbolTableRecord
100
AcDbBlockTableRecord
  2
*D4
  0
ENDTAB
  0
TABLE
  2
DIMSTYLE
  5
A
100
AcDbSymbolTable
 70
1
  0
DIMSTYLE
105
218
100
AcDbSymbolTableRecord
100
AcDbDimStyleTableRecord
  2
STANDARD
 70
0
  3

  4

  5
_ARROW_FILLED
  6
_ARROW_FILLED
  7
_ARROW_FILLED
 40
1.0
 41
3.5
 42
0.0
 43
0.38
 44
2.0
 45
0.0
 46
0.0
 47
0.01
 48
0.01
140
3.5
141
0.09
142
0.0
143
25.4
144
1.0
145
0.0
146
1.0
147
0.625
 71
1.0
 72
0.0
 73
0
 74
0
 75
0
 76
0
 77
1
 78
8
170
0
171
2
172
0
173
0
174
0
175
0
176
0
177
0
178
5
270
2
271
2
272
2
273
2
274
2
275
0
280
0
281
0
282
0
283
1
284
8
285
0
286
0
287
3
288
0
340
11
  0
DIMSTYLE
105
219
100
AcDbSymbolTableRecord
100
AcDbDimStyleTableRecord
  2
DIMSTYLE_1
 70
0
  3

  4

  5
_ARROW_FILLED
  6
_ARROW_FILLED
  7
_ARROW_FILLED
 40
1.0
 41
3.5
 42
0.0
 43
0.38
 44
2.0
 45
0.0
 46
0.0
 47
0.3
 48
0.3
140
3.5
141
0.09
142
0.0
143
25.4
144
1.0
145
0.0
146
1.0
147
0.875
 71
0.0
 72
0.0
 73
0
 74
0
 75
0
 76
0
 77
1
 78
8
170
0
171
2
172
0
173
0
174
0
175
0
176
0
177
0
178
5
270
2
271
4
272
4
273
2
274
2
275
0
280
0
281
0
282
0
283
1
284
8
285
0
286
0
287
3
288
0
340
210
  0
DIMSTYLE
105
21A
100
AcDbSymbolTableRecord
100
AcDbDimStyleTableRecord
  2
DIMSTYLE_2
 70
0
  3

  4

  5
_ARROW_FILLED
  6
_ARROW_FILLED
  7
_ARROW_FILLED
 40
1.0
 41
3.5
 42
0.0
 43
0.38
 44
2.0
 45
0.0
 46
0.0
 47
0.2
 48
0.2
140
3.5
141
0.09
142
0.0
143
25.4
144
1.0
145
0.0
146
1.0
147
0.875
 71
0.0
 72
0.0
 73
0
 74
0
 75
0
 76
0
 77
1
 78
8
170
0
171
2
172
0
173
0
174
0
175
0
176
0
177
0
178
5
270
2
271
4
272
4
273
2
274
2
275
0
280
0
281
0
282
0
283
1
284
8
285
0
286
0
287
3
288
0
340
210
  0
DIMSTYLE
105
21B
100
AcDbSymbolTableRecord
100
AcDbDimStyleTableRecord
  2
DIMSTYLE_3
 70
0
  3

  4

  5
_ARROW_FILLED
  6
_ARROW_FILLED
  7
_ARROW_FILLED
 40
1.0
 41
3.5
 42
0.0
 43
0.38
 44
2.0
 45
0.0
 46
0.0
 47
0.2
 48
0.2
140
3.5
141
0.09
142
0.0
143
25.4
144
1.0
145
0.0
146
1.0
147
0.875
 71
0.0
 72
0.0
 73
0
 74
0
 75
0
 76
0
 77
1
 78
8
170
0
171
2
172
0
173
0
174
0
175
0
176
0
177
0
178
5
270
2
271
0
272
0
273
2
274
2
275
0
280
0
281
0
282
0
283
1
284
8
285
0
286
0
287
3
288
0
340
210
  0
DIMSTYLE
105
21C
100
AcDbSymbolTableRecord
100
AcDbDimStyleTableRecord
  2
DIMSTYLE_4
 70
0
  3

  4

  5
_ARROW_FILLED
  6
_ARROW_FILLED
  7
_ARROW_FILLED
 40
1.0
 41
3.5
 42
0.0
 43
0.38
 44
2.0
 45
0.0
 46
0.0
 47
0.5
 48
0.5
140
3.5
141
0.09
142
0.0
143
25.4
144
1.0
145
0.0
146
1.0
147
0.875
 71
0.0
 72
0.0
 73
0
 74
0
 75
0
 76
0
 77
1
 78
8
170
0
171
2
172
0
173
0
174
0
175
0
176
0
177
0
178
5
270
2
271
0
272
0
273
2
274
2
275
0
280
0
281
0
282
0
283
1
284
8
285
0
286
0
287
3
288
0
340
210
  0
DIMSTYLE
105
21D
100
AcDbSymbolTableRecord
100
AcDbDimStyleTableRecord
  2
DIMSTYLE_5
 70
0
  3

  4

  5
_ARROW_FILLED
  6
_ARROW_FILLED
  7
_ARROW_FILLED
 40
1.0
 41
3.5
 42
0.0
 43
0.38
 44
2.0
 45
0.0
 46
0.0
 47
0.5
 48
0.5
140
3.5
141
0.09
142
0.0
143
25.4
144
1.0
145
0.0
146
1.0
147
0.875
 71
0.0
 72
0.0
 73
0
 74
0
 75
0
 76
0
 77
1
 78
8
170
0
171
2
172
0
173
0
174
0
175
0
176
0
177
0
178
5
270
2
271
4
272
4
273
2
274
2
275
0
280
0
281
0
282
0
283
1
284
8
285
0
286
0
287
3
288
0
340
210
  0
ENDTAB
  0
ENDSEC
  0
SECTION
  2
BLOCKS
  0
BLOCK
  5
20
100
AcDbEntity
  8
0
100
AcDbBlockBegin
  2
*MODEL_SPACE
 70
0
 10
0.0
 20
0.0
 30
0.0
  3
*MODEL_SPACE
  1

  0
ENDBLK
  5
21
100
AcDbEntity
  8
0
100
AcDbBlockEnd
  0
BLOCK
  5
1C
100
AcDbEntity
  8
0
100
AcDbBlockBegin
  2
*PAPER_SPACE
 70
0
 10
0.0
 20
0.0
 30
0.0
  3
*PAPER_SPACE
  1

  0
ENDBLK
  5
1D
100
AcDbEntity
  8
0
100
AcDbBlockEnd
  0
BLOCK
  5
21E
100
AcDbEntity
  8
0
100
AcDbBlockBegin
  2
_ARROW_FILLED
 70
64
 10
0.0
 20
0.0
  3
_ARROW_FILLED
  1

  0
SOLID
  5
21F
100
AcDbEntity
  8
0
  6
BYBLOCK
 62
0
100
AcDbTrace
 10
0.0
 20
0.0
 11
-1.0
 21
0.1428571429
 12
-1.0
 22
-0.1428571429
 13
-1.0
 23
-0.1428571429
  0
ENDBLK
  5
220
100
AcDbEntity
  8
0
  6
BYBLOCK
 62
0
100
AcDbBlockEnd
  0
BLOCK
  5
221
100
AcDbEntity
  8
A_BEMASSUNGEN
100
AcDbBlockBegin
 62
2
  6
CONTINUOUS
  2
*D0
 70
65
 10
0.0
 20
0.0
  3
*D0
  1

  0
MTEXT
  5
222
100
AcDbEntity
  8
A_BEMASSUNGEN
100
AcDbMText
 62
5
  6
CONTINUOUS
  7
TEXTSTYLE_2
 71
2
 72
1
 10
56.9034924281
 20
71.0958086918
 30
0.0
 11
1.0
 21
0.0
 31
0.0
  1
40.5
 40
3.5
 41
15.0
  0
LINE
  5
223
100
AcDbEntity
  8
A_BEMASSUNGEN
100
AcDbLine
 62
2
  6
CONTINUOUS
 10
36.7006167485
 20
88.4737767914
 11
36.7006167485
 21
67.5958086918
  0
LINE
  5
224
100
AcDbEntity
  8
A_BEMASSUNGEN
100
AcDbLine
 62
2
  6
CONTINUOUS
 10
36.7006167485
 20
67.5958086918
 11
36.7006167485
 21
64.7208086918
  0
LINE
  5
225
100
AcDbEntity
  8
A_BEMASSUNGEN
100
AcDbLine
 62
2
  6
CONTINUOUS
 10
77.1063681076
 20
88.4737767914
 11
77.1063681076
 21
67.5958086918
  0
LINE
  5
226
100
AcDbEntity
  8
A_BEMASSUNGEN
100
AcDbLine
 62
2
  6
CONTINUOUS
 10
77.1063681076
 20
67.5958086918
 11
77.1063681076
 21
64.7208086918
  0
LINE
  5
227
100
AcDbEntity
  8
A_BEMASSUNGEN
100
AcDbLine
 62
2
  6
CONTINUOUS
 10
36.7006167485
 20
66.7208086918
 11
56.9034924281
 21
66.7208086918
  0
LINE
  5
228
100
AcDbEntity
  8
A_BEMASSUNGEN
100
AcDbLine
 62
2
  6
CONTINUOUS
 10
77.1063681076
 20
66.7208086918
 11
56.9034924281
 21
66.7208086918
  0
INSERT
  5
229
100
AcDbEntity
  8
A_BEMASSUNGEN
100
AcDbBlockReference
 62
2
  6
CONTINUOUS
  2
_ARROW_FILLED
 10
36.7006167485
 20
66.7208086918
 41
3.5
 42
3.5
 43
3.5
 50
180.0
  0
INSERT
  5
22A
100
AcDbEntity
  8
A_BEMASSUNGEN
100
AcDbBlockReference
 62
2
  6
CONTINUOUS
  2
_ARROW_FILLED
 10
77.1063681076
 20
66.7208086918
 41
3.5
 42
3.5
 43
3.5
  0
ENDBLK
  5
22B
100
AcDbEntity
  8
0
  6
BYBLOCK
 62
0
100
AcDbBlockEnd
  0
BLOCK
  5
22C
100
AcDbEntity
  8
A_BEMASSUNGEN
100
AcDbBlockBegin
 62
2
  6
CONTINUOUS
  2
*D1
 70
65
 10
0.0
 20
0.0
  3
*D1
  1

  0
MTEXT
  5
22D
100
AcDbEntity
  8
A_BEMASSUNGEN
100
AcDbMText
 62
5
  6
CONTINUOUS
  7
TEXTSTYLE_2
 71
2
 72
1
 10
85.1063681076
 20
70.9902141507
 30
0.0
 11
1.0
 21
0.0
 31
0.0
  1
16
 40
3.5
 41
7.125
  0
LINE
  5
22E
100
AcDbEntity
  8
A_BEMASSUNGEN
100
AcDbLine
 62
2
  6
CONTINUOUS
 10
77.1063681076
 20
88.4737767914
 11
77.1063681076
 21
64.6152141507
  0
LINE
  5
22F
100
AcDbEntity
  8
A_BEMASSUNGEN
100
AcDbLine
 62
2
  6
CONTINUOUS
 10
77.1063681076
 20
66.6152141507
 11
85.1063681076
 21
66.6152141507
  0
LINE
  5
230
100
AcDbEntity
  8
A_BEMASSUNGEN
100
AcDbLine
 62
2
  6
CONTINUOUS
 10
93.1063681076
 20
66.6152141507
 11
85.1063681076
 21
66.6152141507
  0
INSERT
  5
231
100
AcDbEntity
  8
A_BEMASSUNGEN
100
AcDbBlockReference
 62
2
  6
CONTINUOUS
  2
_ARROW_FILLED
 10
77.1063681076
 20
66.6152141507
 41
3.5
 42
3.5
 43
3.5
 50
180.0
  0
INSERT
  5
232
100
AcDbEntity
  8
A_BEMASSUNGEN
100
AcDbBlockReference
 62
2
  6
CONTINUOUS
  2
_ARROW_FILLED
 10
93.1063681076
 20
66.6152141507
 41
3.5
 42
3.5
 43
3.5
  0
ENDBLK
  5
233
100
AcDbEntity
  8
0
  6
BYBLOCK
 62
0
100
AcDbBlockEnd
  0
BLOCK
  5
234
100
AcDbEntity
  8
A_BEMASSUNGEN
100
AcDbBlockBegin
 62
2
  6
CONTINUOUS
  2
*D2
 70
65
 10
0.0
 20
0.0
  3
*D2
  1

  0
MTEXT
  5
235
100
AcDbEntity
  8
A_BEMASSUNGEN
100
AcDbMText
 62
5
  6
CONTINUOUS
  7
TEXTSTYLE_2
 71
2
 72
1
 10
108.0063681076
 20
19.4221905385
 30
0.0
 11
1.0
 21
0.0
 31
0.0
  1
30
 40
3.5
 41
7.875
  0
LINE
  5
236
100
AcDbEntity
  8
A_BEMASSUNGEN
100
AcDbLine
 62
2
  6
CONTINUOUS
 10
93.1063681076
 20
38.4237767914
 11
93.1063681076
 21
13.0471905385
  0
LINE
  5
237
100
AcDbEntity
  8
A_BEMASSUNGEN
100
AcDbLine
 62
2
  6
CONTINUOUS
 10
122.9063681076
 20
38.4237767914
 11
122.9063681076
 21
13.0471905385
  0
LINE
  5
238
100
AcDbEntity
  8
A_BEMASSUNGEN
100
AcDbLine
 62
2
  6
CONTINUOUS
 10
93.1063681076
 20
15.0471905385
 11
108.0063681076
 21
15.0471905385
  0
LINE
  5
239
100
AcDbEntity
  8
A_BEMASSUNGEN
100
AcDbLine
 62
2
  6
CONTINUOUS
 10
122.9063681076
 20
15.0471905385
 11
108.0063681076
 21
15.0471905385
  0
INSERT
  5
23A
100
AcDbEntity
  8
A_BEMASSUNGEN
100
AcDbBlockReference
 62
2
  6
CONTINUOUS
  2
_ARROW_FILLED
 10
93.1063681076
 20
15.0471905385
 41
3.5
 42
3.5
 43
3.5
 50
180.0
  0
INSERT
  5
23B
100
AcDbEntity
  8
A_BEMASSUNGEN
100
AcDbBlockReference
 62
2
  6
CONTINUOUS
  2
_ARROW_FILLED
 10
122.9063681076
 20
15.0471905385
 41
3.5
 42
3.5
 43
3.5
  0
ENDBLK
  5
23C
100
AcDbEntity
  8
0
  6
BYBLOCK
 62
0
100
AcDbBlockEnd
  0
BLOCK
  5
23D
100
AcDbEntity
  8
A_BEMASSUNGEN
100
AcDbBlockBegin
 62
2
  6
CONTINUOUS
  2
*D3
 70
65
 10
0.0
 20
0.0
  3
*D3
  1

  0
MTEXT
  5
23E
100
AcDbEntity
  8
A_BEMASSUNGEN
100
AcDbMText
 62
5
  6
CONTINUOUS
  7
TEXTSTYLE_2
 71
2
 72
1
 10
135.8786882343
 20
148.4237767914
 30
0.0
 11
0.0
 21
1.0
 31
0.0
  1
250
 40
3.5
 41
12.0
  0
LINE
  5
23F
100
AcDbEntity
  8
A_BEMASSUNGEN
100
AcDbLine
 62
2
  6
CONTINUOUS
 10
108.0063681076
 20
273.3237767914
 11
142.2536882343
 21
273.3237767914
  0
LINE
  5
240
100
AcDbEntity
  8
A_BEMASSUNGEN
100
AcDbLine
 62
2
  6
CONTINUOUS
 10
108.0063681076
 20
23.5237767914
 11
121.4158066154
 21
23.5237767914
  0
LINE
  5
241
100
AcDbEntity
  8
A_BEMASSUNGEN
100
AcDbLine
 62
2
  6
CONTINUOUS
 10
125.1648281619
 20
23.5237767914
 11
142.2536882343
 21
23.5237767914
  0
LINE
  5
242
100
AcDbEntity
  8
A_BEMASSUNGEN
100
AcDbLine
 62
2
  6
CONTINUOUS
 10
140.2536882343
 20
273.3237767914
 11
140.2536882343
 21
148.4237767914
  0
LINE
  5
243
100
AcDbEntity
  8
A_BEMASSUNGEN
100
AcDbLine
 62
2
  6
CONTINUOUS
 10
140.2536882343
 20
23.5237767914
 11
140.2536882343
 21
148.4237767914
  0
INSERT
  5
244
100
AcDbEntity
  8
A_BEMASSUNGEN
100
AcDbBlockReference
 62
2
  6
CONTINUOUS
  2
_ARROW_FILLED
 10
140.2536882343
 20
273.3237767914
 41
3.5
 42
3.5
 43
3.5
 50
90.0
  0
INSERT
  5
245
100
AcDbEntity
  8
A_BEMASSUNGEN
100
AcDbBlockReference
 62
2
  6
CONTINUOUS
  2
_ARROW_FILLED
 10
140.2536882343
 20
23.5237767914
 41
3.5
 42
3.5
 43
3.5
 50
270.0
  0
ENDBLK
  5
246
100
AcDbEntity
  8
0
  6
BYBLOCK
 62
0
100
AcDbBlockEnd
  0
BLOCK
  5
247
100
AcDbEntity
  8
A_BEMASSUNGEN
100
AcDbBlockBegin
 62
2
  6
CONTINUOUS
  2
*D4
 70
65
 10
0.0
 20
0.0
  3
*D4
  1

  0
MTEXT
  5
248
100
AcDbEntity
  8
A_BEMASSUNGEN
100
AcDbMText
 62
5
  6
CONTINUOUS
  7
TEXTSTYLE_2
 71
2
 72
1
 10
14.9793288748
 20
148.4237767914
 30
0.0
 11
0.0
 21
1.0
 31
0.0
  1
140
 40
3.5
 41
11.25
  0
LINE
  5
249
100
AcDbEntity
  8
A_BEMASSUNGEN
100
AcDbLine
 62
2
  6
CONTINUOUS
 10
54.5142350854
 20
218.4237767914
 11
17.3543288748
 21
218.4237767914
  0
LINE
  5
24A
100
AcDbEntity
  8
A_BEMASSUNGEN
100
AcDbLine
 62
2
  6
CONTINUOUS
 10
56.1908135485
 20
78.4237767914
 11
17.3543288748
 21
78.4237767914
  0
LINE
  5
24B
100
AcDbEntity
  8
A_BEMASSUNGEN
100
AcDbLine
 62
2
  6
CONTINUOUS
 10
19.3543288748
 20
218.4237767914
 11
19.3543288748
 21
148.4237767914
  0
LINE
  5
24C
100
AcDbEntity
  8
A_BEMASSUNGEN
100
AcDbLine
 62
2
  6
CONTINUOUS
 10
19.3543288748
 20
78.4237767914
 11
19.3543288748
 21
148.4237767914
  0
INSERT
  5
24D
100
AcDbEntity
  8
A_BEMASSUNGEN
100
AcDbBlockReference
 62
2
  6
CONTINUOUS
  2
_ARROW_FILLED
 10
19.3543288748
 20
218.4237767914
 41
3.5
 42
3.5
 43
3.5
 50
90.0
  0
INSERT
  5
24E
100
AcDbEntity
  8
A_BEMASSUNGEN
100
AcDbBlockReference
 62
2
  6
CONTINUOUS
  2
_ARROW_FILLED
 10
19.3543288748
 20
78.4237767914
 41
3.5
 42
3.5
 43
3.5
 50
270.0
  0
ENDBLK
  5
24F
100
AcDbEntity
  8
0
  6
BYBLOCK
 62
0
100
AcDbBlockEnd
  0
ENDSEC
  0
SECTION
  2
ENTITIES
  0
DIMENSION
  5
250
100
AcDbEntity
  8
A_BEMASSUNGEN
100
AcDbDimension
 62
2
  6
CONTINUOUS
  2
*D0
 10
77.1063681076
 20
66.7208086918
 11
56.4034924769
 21
66.7208086918
 70
160
  1
40.5
  3
DIMSTYLE_1
100
AcDbAlignedDimension
 13
36.7006167485
 23
88.4737767914
 14
77.1063681076
 24
88.4737767914
100
AcDbRotatedDimension
  0
DIMENSION
  5
251
100
AcDbEntity
  8
A_BEMASSUNGEN
100
AcDbDimension
 62
2
  6
CONTINUOUS
  2
*D1
 10
93.1063681076
 20
66.6152141507
 11
84.6063729745
 21
66.6152141507
 70
160
  3
DIMSTYLE_2
100
AcDbAlignedDimension
 13
77.1063681076
 23
88.4737767914
 14
93.1063681076
 24
94.6237767914
100
AcDbRotatedDimension
  0
DIMENSION
  5
252
100
AcDbEntity
  8
A_BEMASSUNGEN
100
AcDbDimension
 62
2
  6
CONTINUOUS
  2
*D2
 10
122.9063681076
 20
15.0471905385
 11
107.5063686343
 21
15.0471905385
 70
160
  3
DIMSTYLE_3
100
AcDbAlignedDimension
 13
93.1063681076
 23
38.4237767914
 14
122.9063681076
 24
38.4237767914
100
AcDbRotatedDimension
  0
DIMENSION
  5
253
100
AcDbEntity
  8
A_BEMASSUNGEN
100
AcDbDimension
 62
2
  6
CONTINUOUS
  2
*D3
 10
140.2536882343
 20
23.5237767914
 11
140.2536882343
 21
147.9237777931
 70
160
  3
DIMSTYLE_4
100
AcDbAlignedDimension
 13
108.0063681076
 23
273.3237767914
 14
108.0063681076
 24
23.5237767914
 50
270.0
100
AcDbRotatedDimension
  0
DIMENSION
  5
254
100
AcDbEntity
  8
A_BEMASSUNGEN
100
AcDbDimension
 62
2
  6
CONTINUOUS
  2
*D4
 10
19.3543288748
 20
78.4237767914
 11
19.3543288748
 21
147.9237766202
 70
160
  3
DIMSTYLE_5
100
AcDbAlignedDimension
 13
54.5142350854
 23
218.4237767914
 14
56.1908135485
 24
78.4237767914
 50
270.0
100
AcDbRotatedDimension
  0
MTEXT
  5
255
100
AcDbEntity
  8
A_NOTIZEN_SYMB
100
AcDbMText
 62
5
  6
CONTINUOUS
  7
TEXTSTYLE_2
 71
1
 72
1
 10
27.381189676
 20
152.4981742323
 30
0.0
 11
1.0
 21
0.0
 31
0.0
  1
BBL
 40
2.5
 41
9.0178571429
  0
LINE
  5
256
100
AcDbEntity
  8
A_NOTIZEN_SYMB
100
AcDbLine
 62
7
  6
PHANTOM
 10
24.9254111135
 20
148.5328893797
 11
126.0338316784
 21
148.4964027153
  0
LINE
  5
257
100
AcDbEntity
  8
A_ACHSEN
100
AcDbLine
 62
7
  6
CENTER
 10
93.4100575237
 20
32.4237767914
 11
123.1921505189
 21
32.4237767914
  0
LINE
  5
258
100
AcDbEntity
  8
0
100
AcDbLine
 62
7
  6
CONTINUOUS
 10
122.9563681076
 20
48.4237767914
 11
122.9063681076
 21
48.4237767914
  0
LINE
  5
259
100
AcDbEntity
  8
0
100
AcDbLine
 62
7
  6
CONTINUOUS
 10
93.0563681076
 20
48.4237767914
 11
93.1063681076
 21
48.4237767914
  0
LINE
  5
25A
100
AcDbEntity
  8
A_ACHSEN
100
AcDbLine
 62
7
  6
CENTER
 10
122.885324234
 20
60.4237767914
 11
110.5543225908
 21
60.4237767914
  0
LINE
  5
25B
100
AcDbEntity
  8
A_ACHSEN
100
AcDbLine
 62
7
  6
CENTER
 10
93.784175661
 20
60.4237767914
 11
105.2285605542
 21
60.4237767914
  0
LINE
  5
25C
100
AcDbEntity
  8
0
100
AcDbLine
 62
7
  6
CONTINUOUS
 10
107.5063681076
 20
63.5237767914
 11
108.5063681076
 21
63.5237767914
  0
LINE
  5
25D
100
AcDbEntity
  8
0
100
AcDbLine
 62
7
  6
CONTINUOUS
 10
107.991191309
 20
64.0085999927
 11
108.0215449062
 21
64.0085999927
  0
LINE
  5
25E
100
AcDbEntity
  8
0
100
AcDbLine
 62
7
  6
CONTINUOUS
 10
106.1063681076
 20
64.9237767914
 11
107.2063681076
 21
64.9237767914
  0
LINE
  5
25F
100
AcDbEntity
  8
0
100
AcDbLine
 62
7
  6
CONTINUOUS
 10
108.8063681076
 20
64.9237767914
 11
109.9063681076
 21
64.9237767914
  0
LINE
  5
260
100
AcDbEntity
  8
0
100
AcDbLine
 62
7
  6
CONTINUOUS
 10
106.591191309
 20
65.4085999927
 11
107.2063681076
 21
65.4085999927
  0
LINE
  5
261
100
AcDbEntity
  8
0
100
AcDbLine
 62
7
  6
CONTINUOUS
 10
108.8063681076
 20
65.4085999927
 11
109.4215449062
 21
65.4085999927
  0
LINE
  5
262
100
AcDbEntity
  8
0
100
AcDbLine
 62
7
  6
CONTINUOUS
 10
95.5063681076
 20
65.4237767914
 11
96.8263681076
 21
65.4237767914
  0
LINE
  5
263
100
AcDbEntity
  8
0
100
AcDbLine
 62
7
  6
CONTINUOUS
 10
97.0963681076
 20
65.4237767914
 11
98.0063681076
 21
65.4237767914
  0
LINE
  5
264
100
AcDbEntity
  8
DEFAULT_1
100
AcDbLine
 62
7
  6
CENTER
 10
101.3805123427
 20
65.4237767914
 11
114.6322238726
 21
65.4237767914
  0
LINE
  5
265
100
AcDbEntity
  8
0
100
AcDbLine
 62
7
  6
CONTINUOUS
 10
109.4215449062
 20
65.43895359
 11
108.8063681076
 21
65.43895359
  0
LINE
  5
266
100
AcDbEntity
  8
0
100
AcDbLine
 62
7
  6
CONTINUOUS
 10
107.2063681076
 20
65.43895359
 11
106.591191309
 21
65.43895359
  0
LINE
  5
267
100
AcDbEntity
  8
0
100
AcDbLine
 62
7
  6
CONTINUOUS
 10
109.9063681076
 20
65.9237767914
 11
108.8063681076
 21
65.9237767914
  0
LINE
  5
268
100
AcDbEntity
  8
0
100
AcDbLine
 62
7
  6
CONTINUOUS
 10
107.2063681076
 20
65.9237767914
 11
106.1063681076
 21
65.9237767914
  0
LINE
  5
269
100
AcDbEntity
  8
A_ACHSEN
100
AcDbLine
 62
7
  6
CENTER
 10
94.1675516145
 20
66.4237767914
 11
104.8451846007
 21
66.4237767914
  0
LINE
  5
26A
100
AcDbEntity
  8
A_ACHSEN
100
AcDbLine
 62
7
  6
CENTER
 10
110.3225368456
 20
66.4237767914
 11
122.6901993696
 21
66.4237767914
  0
LINE
  5
26B
100
AcDbEntity
  8
0
100
AcDbLine
 62
7
  6
CONTINUOUS
 10
96.8263681076
 20
66.5337767914
 11
96.4163681076
 21
66.5337767914
  0
LINE
  5
26C
100
AcDbEntity
  8
0
100
AcDbLine
 62
7
  6
CONTINUOUS
 10
96.6863681076
 20
66.8137767914
 11
97.0963681076
 21
66.8137767914
  0
LINE
  5
26D
100
AcDbEntity
  8
0
100
AcDbLine
 62
7
  6
CONTINUOUS
 10
108.0215449062
 20
66.83895359
 11
107.991191309
 21
66.83895359
  0
LINE
  5
26E
100
AcDbEntity
  8
0
100
AcDbLine
 62
7
  6
CONTINUOUS
 10
108.5063681076
 20
67.3237767914
 11
107.5063681076
 21
67.3237767914
  0
LINE
  5
26F
100
AcDbEntity
  8
0
100
AcDbLine
 62
7
  6
CONTINUOUS
 10
98.0063681076
 20
67.9237767914
 11
96.6863681076
 21
67.9237767914
  0
LINE
  5
270
100
AcDbEntity
  8
0
100
AcDbLine
 62
7
  6
CONTINUOUS
 10
96.4163681076
 20
67.9237767914
 11
95.5063681076
 21
67.9237767914
  0
LINE
  5
271
100
AcDbEntity
  8
0
100
AcDbLine
 62
7
  6
CONTINUOUS
 10
95.5463681076
 20
70.8237767914
 11
98.0063681076
 21
70.8237767914
  0
LINE
  5
272
100
AcDbEntity
  8
0
100
AcDbLine
 62
7
  6
CONTINUOUS
 10
98.0063681076
 20
71.3637767914
 11
95.5463681076
 21
71.3637767914
  0
LINE
  5
273
100
AcDbEntity
  8
0
100
AcDbLine
 62
7
  6
CONTINUOUS
 10
95.5463681076
 20
71.8137767914
 11
98.0063681076
 21
71.8137767914
  0
LINE
  5
274
100
AcDbEntity
  8
0
100
AcDbLine
 62
7
  6
CONTINUOUS
 10
98.0063681076
 20
72.3537767914
 11
96.6363681076
 21
72.3537767914
  0
LINE
  5
275
100
AcDbEntity
  8
0
100
AcDbLine
 62
7
  6
CONTINUOUS
 10
96.6363681076
 20
73.6737767914
 11
98.0063681076
 21
73.6737767914
  0
LINE
  5
276
100
AcDbEntity
  8
0
100
AcDbLine
 62
7
  6
CONTINUOUS
 10
98.0063681076
 20
74.2137767914
 11
95.5463681076
 21
74.2137767914
  0
LINE
  5
277
100
AcDbEntity
  8
0
100
AcDbLine
 62
7
  6
CONTINUOUS
 10
95.5463681076
 20
76.8337767914
 11
98.0063681076
 21
76.8337767914
  0
LINE
  5
278
100
AcDbEntity
  8
0
100
AcDbLine
 62
7
  6
CONTINUOUS
 10
98.0063681076
 20
77.3737767914
 11
96.3863681076
 21
77.3737767914
  0
LINE
  5
279
100
AcDbEntity
  8
0
100
AcDbLine
 62
7
  6
CONTINUOUS
 10
95.5463681076
 20
78.3237767914
 11
97.2463681076
 21
78.3237767914
  0
LINE
  5
27A
100
AcDbEntity
  8
0
100
AcDbLine
 62
7
  6
CONTINUOUS
 10
54.4241800608
 20
78.4237767914
 11
59.461890272
 21
78.4237767914
  0
LINE
  5
27B
100
AcDbEntity
  8
0
100
AcDbLine
 62
7
  6
CONTINUOUS
 10
59.4702051311
 20
78.4237767914
 11
65.1063681076
 21
78.4237767914
  0
LINE
  5
27C
100
AcDbEntity
  8
0
100
AcDbLine
 62
7
  6
CONTINUOUS
 10
65.1063681076
 20
78.4737767914
 11
67.1063681076
 21
78.4737767914
  0
LINE
  5
27D
100
AcDbEntity
  8
0
100
AcDbLine
 62
7
  6
CONTINUOUS
 10
54.4227702277
 20
78.5680254323
 11
46.6063681076
 21
78.5680254323
  0
LINE
  5
27E
100
AcDbEntity
  8
0
100
AcDbLine
 62
7
  6
CONTINUOUS
 10
98.0063681076
 20
78.8637767914
 11
95.5463681076
 21
78.8637767914
  0
LINE
  5
27F
100
AcDbEntity
  8
0
100
AcDbLine
 62
7
  6
CONTINUOUS
 10
95.5963681076
 20
70.4237767914
 11
96.0563681076
 21
70.3737767914
  0
LINE
  5
280
100
AcDbEntity
  8
0
100
AcDbLine
 62
7
  6
CONTINUOUS
 10
97.8863681076
 20
68.7837767914
 11
97.4563681076
 21
68.8737767914
  0
LINE
  5
281
100
AcDbEntity
  8
0
100
AcDbLine
 62
7
  6
CONTINUOUS
 10
95.5463681076
 20
80.9810537473
 11
98.0063681076
 21
81.5834669965
  0
LINE
  5
282
100
AcDbEntity
  8
0
100
AcDbLine
 62
7
  6
CONTINUOUS
 10
97.3125192577
 20
81.9421360612
 11
95.5463681076
 21
81.5210537473
  0
LINE
  5
283
100
AcDbEntity
  8
0
100
AcDbLine
 62
7
  6
CONTINUOUS
 10
97.3063681076
 20
83.4777304213
 11
95.5463681076
 21
83.0594129923
  0
LINE
  5
284
100
AcDbEntity
  8
0
100
AcDbLine
 62
7
  6
CONTINUOUS
 10
96.1363681076
 20
82.7111188492
 11
98.0063681076
 21
83.1250030863
  0
LINE
  5
285
100
AcDbEntity
  8
A_RUNDUNGEN
100
AcDbLine
 62
7
  6
CONTINUOUS
 10
51.1067107826
 20
80.4737767914
 11
46.6063681076
 21
80.4737767914
  0
LINE
  5
286
100
AcDbEntity
  8
0
100
AcDbLine
 62
7
  6
CONTINUOUS
 10
95.5463681076
 20
84.6937767914
 11
98.0063681076
 21
84.6937767914
  0
LINE
  5
287
100
AcDbEntity
  8
0
100
AcDbLine
 62
7
  6
CONTINUOUS
 10
97.5163681076
 20
85.2537767914
 11
96.9763681076
 21
85.2537767914
  0
LINE
  5
288
100
AcDbEntity
  8
0
100
AcDbLine
 62
7
  6
CONTINUOUS
 10
96.4863681076
 20
85.2537767914
 11
96.0363681076
 21
85.2537767914
  0
LINE
  5
289
100
AcDbEntity
  8
0
100
AcDbLine
 62
7
  6
CONTINUOUS
 10
96.9763681076
 20
86.1637767914
 11
96.4863681076
 21
86.1637767914
  0
LINE
  5
28A
100
AcDbEntity
  8
0
100
AcDbLine
 62
7
  6
CONTINUOUS
 10
98.0063681076
 20
86.2437767914
 11
97.5163681076
 21
86.2437767914
  0
LINE
  5
28B
100
AcDbEntity
  8
0
100
AcDbLine
 62
7
  6
CONTINUOUS
 10
96.0363681076
 20
86.2437767914
 11
95.5463681076
 21
86.2437767914
  0
LINE
  5
28C
100
AcDbEntity
  8
0
100
AcDbLine
 62
7
  6
CONTINUOUS
 10
98.0063681076
 20
86.5937767914
 11
95.5463681076
 21
86.5937767914
  0
LINE
  5
28D
100
AcDbEntity
  8
0
100
AcDbLine
 62
7
  6
CONTINUOUS
 10
96.0363681076
 20
87.1537767914
 11
96.7563681076
 21
87.1537767914
  0
LINE
  5
28E
100
AcDbEntity
  8
0
100
AcDbLine
 62
7
  6
CONTINUOUS
 10
97.2363681076
 20
87.1537767914
 11
98.0063681076
 21
87.1537767914
  0
LINE
  5
28F
100
AcDbEntity
  8
0
100
AcDbLine
 62
7
  6
CONTINUOUS
 10
95.5963681076
 20
80.7637767914
 11
96.0563681076
 21
80.7037767914
  0
LINE
  5
290
100
AcDbEntity
  8
0
100
AcDbLine
 62
7
  6
CONTINUOUS
 10
98.0063681076
 20
82.2934669965
 11
96.1363681076
 21
82.7111188492
  0
LINE
  5
291
100
AcDbEntity
  8
0
100
AcDbLine
 62
7
  6
CONTINUOUS
 10
97.8863681076
 20
79.1137767914
 11
97.4563681076
 21
79.2137767914
  0
LINE
  5
292
100
AcDbEntity
  8
0
100
AcDbLine
 62
7
  6
CONTINUOUS
 10
95.5463681076
 20
82.3694129923
 11
97.3125192577
 21
81.9421360612
  0
LINE
  5
293
100
AcDbEntity
  8
0
100
AcDbLine
 62
7
  6
CONTINUOUS
 10
97.6863681076
 20
73.2584762979
 11
96.6363681076
 21
73.6737767914
  0
LINE
  5
294
100
AcDbEntity
  8
0
100
AcDbLine
 62
7
  6
CONTINUOUS
 10
95.5463681076
 20
73.6737767914
 11
97.1326965926
 21
73.0137767914
  0
LINE
  5
295
100
AcDbEntity
  8
A_ACHSEN
100
AcDbLine
 62
7
  6
CENTER
 10
37.1734702435
 20
88.4237767914
 11
54.0392659717
 21
88.4237767914
  0
LINE
  5
296
100
AcDbEntity
  8
0
100
AcDbLine
 62
7
  6
CONTINUOUS
 10
95.5463681076
 20
88.8337767914
 11
98.0063681076
 21
88.8337767914
  0
LINE
  5
297
100
AcDbEntity
  8
0
100
AcDbLine
 62
7
  6
CONTINUOUS
 10
98.0063681076
 20
89.3737767914
 11
95.5463681076
 21
89.3737767914
  0
LINE
  5
298
100
AcDbEntity
  8
A_RUNDUNGEN
100
AcDbLine
 62
7
  6
CONTINUOUS
 10
108.4063681076
 20
94.6237767914
 11
93.1063681076
 21
94.6237767914
  0
LINE
  5
299
100
AcDbEntity
  8
0
100
AcDbLine
 62
7
  6
CONTINUOUS
 10
104.1063681076
 20
95.7237767914
 11
101.1063681076
 21
95.7237767914
  0
LINE
  5
29A
100
AcDbEntity
  8
A_RUNDUNGEN
100
AcDbLine
 62
7
  6
CONTINUOUS
 10
38.7549607903
 20
96.4237767914
 11
38.6063681076
 21
96.4237767914
  0
LINE
  5
29B
100
AcDbEntity
  8
0
100
AcDbLine
 62
7
  6
CONTINUOUS
 10
37.3063681076
 20
96.4237767914
 11
38.6063681076
 21
96.4237767914
  0
LINE
  5
29C
100
AcDbEntity
  8
0
100
AcDbLine
 62
7
  6
CONTINUOUS
 10
95.5463681076
 20
83.8937767914
 11
97.3063681076
 21
83.4777304213
  0
LINE
  5
29D
100
AcDbEntity
  8
0
100
AcDbLine
 62
7
  6
CONTINUOUS
 10
98.0063681076
 20
83.8350030863
 11
95.5463681076
 21
84.4337767914
  0
LINE
  5
29E
100
AcDbEntity
  8
0
100
AcDbLine
 62
7
  6
CONTINUOUS
 10
36.7006167485
 20
208.3737767914
 11
36.7006167485
 21
88.4737767914
  0
LINE
  5
29F
100
AcDbEntity
  8
A_RUNDUNGEN
100
AcDbLine
 62
7
  6
CONTINUOUS
 10
66.1063300307
 20
97.3237767914
 11
77.1063681076
 21
97.3237767914
  0
LINE
  5
2A0
100
AcDbEntity
  8
0
100
AcDbLine
 62
7
  6
CONTINUOUS
 10
54.4229189409
 20
97.4237767914
 11
59.4617397103
 21
97.4237767914
  0
LINE
  5
2A1
100
AcDbEntity
  8
0
100
AcDbLine
 62
7
  6
CONTINUOUS
 10
59.4702051311
 20
97.4237767914
 11
65.1063681076
 21
97.4237767914
  0
LINE
  5
2A2
100
AcDbEntity
  8
0
100
AcDbLine
 62
7
  6
CONTINUOUS
 10
76.0642345858
 20
97.4237767914
 11
91.5373307031
 21
97.4237767914
  0
LINE
  5
2A3
100
AcDbEntity
  8
A_RUNDUNGEN
100
AcDbLine
 62
7
  6
CONTINUOUS
 10
53.1064823877
 20
97.4808604116
 11
55.1062538275
 21
97.4808604116
  0
LINE
  5
2A4
100
AcDbEntity
  8
A_RUNDUNGEN
100
AcDbLine
 62
7
  6
CONTINUOUS
 10
52.7134650518
 20
97.6118395838
 11
55.4992711634
 21
97.6118395838
  0
LINE
  5
2A5
100
AcDbEntity
  8
A_RUNDUNGEN
100
AcDbLine
 62
7
  6
CONTINUOUS
 10
65.8182672383
 20
97.6118395838
 11
66.1063681076
 21
97.6118395838
  0
LINE
  5
2A6
100
AcDbEntity
  8
0
100
AcDbLine
 62
7
  6
CONTINUOUS
 10
66.1063681076
 20
98.3237767914
 11
76.0632462754
 21
98.3237767914
  0
LINE
  5
2A7
100
AcDbEntity
  8
0
100
AcDbLine
 62
7
  6
CONTINUOUS
 10
66.6063681076
 20
98.4237767914
 11
106.1063681076
 21
98.4237767914
  0
LINE
  5
2A8
100
AcDbEntity
  8
A_ACHSEN
100
AcDbLine
 62
7
  6
CENTER
 10
46.4391215112
 20
104.4237767914
 11
66.773614704
 21
104.4237767914
  0
LINE
  5
2A9
100
AcDbEntity
  8
0
100
AcDbLine
 62
7
  6
CONTINUOUS
 10
95.5463681076
 20
90.1137767914
 11
96.7419560451
 21
89.4537767914
  0
LINE
  5
2AA
100
AcDbEntity
  8
0
100
AcDbLine
 62
7
  6
CONTINUOUS
 10
37.3063681076
 20
200.4237767914
 11
37.3063681076
 21
96.4237767914
  0
LINE
  5
2AB
100
AcDbEntity
  8
0
100
AcDbLine
 62
7
  6
CONTINUOUS
 10
38.6063681076
 20
88.4737767914
 11
38.6063681076
 21
96.4237767914
  0
LINE
  5
2AC
100
AcDbEntity
  8
0
100
AcDbLine
 62
7
  6
CONTINUOUS
 10
38.6063681076
 20
200.4237767914
 11
38.6063681076
 21
208.3737767914
  0
LINE
  5
2AD
100
AcDbEntity
  8
0
100
AcDbLine
 62
7
  6
CONTINUOUS
 10
40.6063681076
 20
156.4237767914
 11
40.6063681076
 21
140.4237767914
  0
LINE
  5
2AE
100
AcDbEntity
  8
0
100
AcDbLine
 62
7
  6
CONTINUOUS
 10
41.6063681076
 20
154.9237767914
 11
41.6063681076
 21
152.9237767914
  0
LINE
  5
2AF
100
AcDbEntity
  8
0
100
AcDbLine
 62
7
  6
CONTINUOUS
 10
41.6063681076
 20
150.9237767914
 11
41.6063681076
 21
150.2571098068
  0
LINE
  5
2B0
100
AcDbEntity
  8
0
100
AcDbLine
 62
7
  6
CONTINUOUS
 10
41.6063681076
 20
146.9237767914
 11
41.6063681076
 21
146.2571102836
  0
LINE
  5
2B1
100
AcDbEntity
  8
0
100
AcDbLine
 62
7
  6
CONTINUOUS
 10
41.6063681076
 20
142.9237767914
 11
41.6063681076
 21
140.9237767914
  0
LINE
  5
2B2
100
AcDbEntity
  8
0
100
AcDbLine
 62
7
  6
CONTINUOUS
 10
42.0318999718
 20
153.4237767914
 11
42.0318999718
 21
155.0071098068
  0
LINE
  5
2B3
100
AcDbEntity
  8
0
100
AcDbLine
 62
7
  6
CONTINUOUS
 10
42.1170063446
 20
141.4237767914
 11
42.1170063446
 21
142.9237767914
  0
LINE
  5
2B4
100
AcDbEntity
  8
0
100
AcDbLine
 62
7
  6
CONTINUOUS
 10
42.1170063446
 20
146.2571102836
 11
42.1170063446
 21
146.9237767914
  0
LINE
  5
2B5
100
AcDbEntity
  8
0
100
AcDbLine
 62
7
  6
CONTINUOUS
 10
42.1170063446
 20
150.2571098068
 11
42.1170063446
 21
150.9237767914
  0
LINE
  5
2B6
100
AcDbEntity
  8
0
100
AcDbLine
 62
7
  6
CONTINUOUS
 10
43.3084958027
 20
155.0071098068
 11
43.3084958027
 21
153.4237767914
  0
LINE
  5
2B7
100
AcDbEntity
  8
0
100
AcDbLine
 62
7
  6
CONTINUOUS
 10
43.8191340397
 20
153.4237767914
 11
43.8191340397
 21
154.8404437759
  0
LINE
  5
2B8
100
AcDbEntity
  8
0
100
AcDbLine
 62
7
  6
CONTINUOUS
 10
45.095729811
 20
150.9237767914
 11
45.095729811
 21
150.2571098068
  0
LINE
  5
2B9
100
AcDbEntity
  8
0
100
AcDbLine
 62
7
  6
CONTINUOUS
 10
45.095729811
 20
146.9237767914
 11
45.095729811
 21
146.2571102836
  0
LINE
  5
2BA
100
AcDbEntity
  8
0
100
AcDbLine
 62
7
  6
CONTINUOUS
 10
45.095729811
 20
142.9237767914
 11
45.095729811
 21
141.4237767914
  0
LINE
  5
2BB
100
AcDbEntity
  8
A_ACHSEN
100
AcDbLine
 62
7
  6
CENTER
 10
45.6063681076
 20
79.9908789273
 11
45.6063681076
 21
96.8566746554
  0
LINE
  5
2BC
100
AcDbEntity
  8
0
100
AcDbLine
 62
7
  6
CONTINUOUS
 10
45.6063681076
 20
140.9237767914
 11
45.6063681076
 21
142.9237767914
  0
LINE
  5
2BD
100
AcDbEntity
  8
0
100
AcDbLine
 62
7
  6
CONTINUOUS
 10
45.6063681076
 20
146.2571102836
 11
45.6063681076
 21
146.9237767914
  0
LINE
  5
2BE
100
AcDbEntity
  8
0
100
AcDbLine
 62
7
  6
CONTINUOUS
 10
45.6063681076
 20
150.2571098068
 11
45.6063681076
 21
150.9237767914
  0
LINE
  5
2BF
100
AcDbEntity
  8
0
100
AcDbLine
 62
7
  6
CONTINUOUS
 10
45.6063681076
 20
152.9237767914
 11
45.6063681076
 21
153.4237767914
  0
LINE
  5
2C0
100
AcDbEntity
  8
0
100
AcDbLine
 62
7
  6
CONTINUOUS
 10
45.6063681076
 20
155.5071098068
 11
45.6063681076
 21
156.0904437759
  0
LINE
  5
2C1
100
AcDbEntity
  8
A_ACHSEN
100
AcDbLine
 62
7
  6
CENTER
 10
45.6063681076
 20
200.5450735083
 11
45.6063681076
 21
216.3024800744
  0
LINE
  5
2C2
100
AcDbEntity
  8
0
100
AcDbLine
 62
7
  6
CONTINUOUS
 10
41.6914744804
 20
155.3404437759
 11
41.6063681076
 21
154.9237767914
  0
LINE
  5
2C3
100
AcDbEntity
  8
0
100
AcDbLine
 62
7
  6
CONTINUOUS
 10
41.6914744804
 20
151.3404437759
 11
41.6063681076
 21
150.9237767914
  0
LINE
  5
2C4
100
AcDbEntity
  8
0
100
AcDbLine
 62
7
  6
CONTINUOUS
 10
41.6914744804
 20
147.3404432991
 11
41.6063681076
 21
146.9237767914
  0
LINE
  5
2C5
100
AcDbEntity
  8
0
100
AcDbLine
 62
7
  6
CONTINUOUS
 10
41.6914744804
 20
143.3404435375
 11
41.6063681076
 21
142.9237767914
  0
LINE
  5
2C6
100
AcDbEntity
  8
0
100
AcDbLine
 62
7
  6
CONTINUOUS
 10
42.1170063446
 20
150.9237767914
 11
42.2021127174
 21
151.2571098068
  0
LINE
  5
2C7
100
AcDbEntity
  8
0
100
AcDbLine
 62
7
  6
CONTINUOUS
 10
42.1170063446
 20
146.9237767914
 11
42.2021127174
 21
147.2571102836
  0
LINE
  5
2C8
100
AcDbEntity
  8
0
100
AcDbLine
 62
7
  6
CONTINUOUS
 10
42.1170063446
 20
142.9237767914
 11
42.2021127174
 21
143.2571100452
  0
LINE
  5
2C9
100
AcDbEntity
  8
0
100
AcDbLine
 62
7
  6
CONTINUOUS
 10
45.095729811
 20
150.2571098068
 11
45.0106234382
 21
149.9237767914
  0
LINE
  5
2CA
100
AcDbEntity
  8
0
100
AcDbLine
 62
7
  6
CONTINUOUS
 10
42.0318999718
 20
155.0071098068
 11
42.1170063446
 21
155.2571098068
  0
LINE
  5
2CB
100
AcDbEntity
  8
0
100
AcDbLine
 62
7
  6
CONTINUOUS
 10
41.8616872261
 20
151.6737767914
 11
41.6914744804
 21
151.3404437759
  0
LINE
  5
2CC
100
AcDbEntity
  8
0
100
AcDbLine
 62
7
  6
CONTINUOUS
 10
41.9467935989
 20
155.6737767914
 11
41.6914744804
 21
155.3404437759
  0
LINE
  5
2CD
100
AcDbEntity
  8
0
100
AcDbLine
 62
7
  6
CONTINUOUS
 10
108.5063681076
 20
233.3237767914
 11
108.0215449062
 21
232.83895359
  0
LINE
  5
2CE
100
AcDbEntity
  8
0
100
AcDbLine
 62
7
  6
CONTINUOUS
 10
106.1063681076
 20
230.9237767914
 11
106.591191309
 21
231.4085999927
  0
LINE
  5
2CF
100
AcDbEntity
  8
0
100
AcDbLine
 62
7
  6
CONTINUOUS
 10
109.9063681076
 20
231.9237767914
 11
109.4215449062
 21
231.43895359
  0
LINE
  5
2D0
100
AcDbEntity
  8
0
100
AcDbLine
 62
7
  6
CONTINUOUS
 10
107.5063681076
 20
229.5237767914
 11
107.991191309
 21
230.0085999927
  0
LINE
  5
2D1
100
AcDbEntity
  8
0
100
AcDbLine
 62
7
  6
CONTINUOUS
 10
96.7423137131
 20
90.0580204531
 11
95.5463681076
 21
90.7437767914
  0
LINE
  5
2D2
100
AcDbEntity
  8
0
100
AcDbLine
 62
7
  6
CONTINUOUS
 10
108.5063681076
 20
63.5237767914
 11
108.0215449062
 21
64.0085999927
  0
LINE
  5
2D3
100
AcDbEntity
  8
0
100
AcDbLine
 62
7
  6
CONTINUOUS
 10
106.1063681076
 20
65.9237767914
 11
106.591191309
 21
65.43895359
  0
LINE
  5
2D4
100
AcDbEntity
  8
0
100
AcDbLine
 62
7
  6
CONTINUOUS
 10
109.9063681076
 20
64.9237767914
 11
109.4215449062
 21
65.4085999927
  0
LINE
  5
2D5
100
AcDbEntity
  8
0
100
AcDbLine
 62
7
  6
CONTINUOUS
 10
107.5063681076
 20
67.3237767914
 11
107.991191309
 21
66.83895359
  0
LINE
  5
2D6
100
AcDbEntity
  8
0
100
AcDbLine
 62
7
  6
CONTINUOUS
 10
41.6914744804
 20
145.8404432991
 11
41.8616872261
 21
145.5071102836
  0
LINE
  5
2D7
100
AcDbEntity
  8
0
100
AcDbLine
 62
7
  6
CONTINUOUS
 10
42.2021127174
 20
145.9237767914
 11
42.1170063446
 21
146.2571102836
  0
LINE
  5
2D8
100
AcDbEntity
  8
0
100
AcDbLine
 62
7
  6
CONTINUOUS
 10
42.2021127174
 20
149.9237767914
 11
42.1170063446
 21
150.2571098068
  0
LINE
  5
2D9
100
AcDbEntity
  8
0
100
AcDbLine
 62
7
  6
CONTINUOUS
 10
45.0106234382
 20
143.2571100452
 11
45.095729811
 21
142.9237767914
  0
LINE
  5
2DA
100
AcDbEntity
  8
0
100
AcDbLine
 62
7
  6
CONTINUOUS
 10
41.6063681076
 20
146.2571102836
 11
41.6914744804
 21
145.8404432991
  0
LINE
  5
2DB
100
AcDbEntity
  8
0
100
AcDbLine
 62
7
  6
CONTINUOUS
 10
41.6063681076
 20
150.2571098068
 11
41.6914744804
 21
149.8404437759
  0
LINE
  5
2DC
100
AcDbEntity
  8
0
100
AcDbLine
 62
7
  6
CONTINUOUS
 10
45.6063681076
 20
142.9237767914
 11
45.5212617273
 21
143.3404435375
  0
LINE
  5
2DD
100
AcDbEntity
  8
0
100
AcDbLine
 62
7
  6
CONTINUOUS
 10
46.1063681076
 20
140.4237767914
 11
46.1063681076
 21
156.4237767914
  0
LINE
  5
2DE
100
AcDbEntity
  8
A_RUNDUNGEN
100
AcDbLine
 62
7
  6
CONTINUOUS
 10
52.1063681076
 20
215.3741194664
 11
52.1063681076
 21
200.3665028068
  0
LINE
  5
2DF
100
AcDbEntity
  8
A_RUNDUNGEN
100
AcDbLine
 62
7
  6
CONTINUOUS
 10
52.1063681076
 20
96.481050776
 11
52.1063681076
 21
81.4734341163
  0
LINE
  5
2E0
100
AcDbEntity
  8
0
100
AcDbLine
 62
7
  6
CONTINUOUS
 10
54.4227702277
 20
78.4237767914
 11
54.4227702277
 21
97.4237767914
  0
LINE
  5
2E1
100
AcDbEntity
  8
0
100
AcDbLine
 62
7
  6
CONTINUOUS
 10
54.4227702277
 20
199.4237767914
 11
54.4227702277
 21
218.4237767914
  0
LINE
  5
2E2
100
AcDbEntity
  8
0
100
AcDbLine
 62
7
  6
CONTINUOUS
 10
45.5212617273
 20
149.8404437759
 11
45.6063681076
 21
150.2571098068
  0
LINE
  5
2E3
100
AcDbEntity
  8
0
100
AcDbLine
 62
7
  6
CONTINUOUS
 10
45.5212617273
 20
145.8404432991
 11
45.6063681076
 21
146.2571102836
  0
LINE
  5
2E4
100
AcDbEntity
  8
0
100
AcDbLine
 62
7
  6
CONTINUOUS
 10
45.095729811
 20
146.2571102836
 11
45.0106234382
 21
145.9237767914
  0
LINE
  5
2E5
100
AcDbEntity
  8
0
100
AcDbLine
 62
7
  6
CONTINUOUS
 10
41.8616872261
 20
147.6737767914
 11
41.6914744804
 21
147.3404432991
  0
LINE
  5
2E6
100
AcDbEntity
  8
0
100
AcDbLine
 62
7
  6
CONTINUOUS
 10
41.8616872261
 20
143.6737767914
 11
41.6914744804
 21
143.3404435375
  0
LINE
  5
2E7
100
AcDbEntity
  8
0
100
AcDbLine
 62
7
  6
CONTINUOUS
 10
45.3510489593
 20
149.5071098068
 11
45.5212617273
 21
149.8404437759
  0
LINE
  5
2E8
100
AcDbEntity
  8
0
100
AcDbLine
 62
7
  6
CONTINUOUS
 10
45.3510489593
 20
145.5071102836
 11
45.5212617273
 21
145.8404432991
  0
LINE
  5
2E9
100
AcDbEntity
  8
0
100
AcDbLine
 62
7
  6
CONTINUOUS
 10
42.2021127174
 20
151.2571098068
 11
42.3723254631
 21
151.5071098068
  0
LINE
  5
2EA
100
AcDbEntity
  8
0
100
AcDbLine
 62
7
  6
CONTINUOUS
 10
42.2021127174
 20
147.2571102836
 11
42.3723254631
 21
147.5071102836
  0
LINE
  5
2EB
100
AcDbEntity
  8
0
100
AcDbLine
 62
7
  6
CONTINUOUS
 10
45.0106234382
 20
149.9237767914
 11
44.8404106329
 21
149.6737767914
  0
LINE
  5
2EC
100
AcDbEntity
  8
0
100
AcDbLine
 62
7
  6
CONTINUOUS
 10
42.2021127174
 20
143.2571100452
 11
42.3723254631
 21
143.5071100452
  0
LINE
  5
2ED
100
AcDbEntity
  8
0
100
AcDbLine
 62
7
  6
CONTINUOUS
 10
45.0106234382
 20
145.9237767914
 11
44.8404106329
 21
145.6737767914
  0
LINE
  5
2EE
100
AcDbEntity
  8
0
100
AcDbLine
 62
7
  6
CONTINUOUS
 10
42.1170063446
 20
155.2571098068
 11
42.2872190903
 21
155.4237767914
  0
LINE
  5
2EF
100
AcDbEntity
  8
0
100
AcDbLine
 62
7
  6
CONTINUOUS
 10
42.2021127174
 20
152.0071098068
 11
41.8616872261
 21
151.6737767914
  0
LINE
  5
2F0
100
AcDbEntity
  8
0
100
AcDbLine
 62
7
  6
CONTINUOUS
 10
42.2021127174
 20
148.0071102836
 11
41.8616872261
 21
147.6737767914
  0
LINE
  5
2F1
100
AcDbEntity
  8
0
100
AcDbLine
 62
7
  6
CONTINUOUS
 10
42.2872190903
 20
155.9237767914
 11
41.9467935989
 21
155.6737767914
  0
LINE
  5
2F2
100
AcDbEntity
  8
0
100
AcDbLine
 62
7
  6
CONTINUOUS
 10
41.8616872261
 20
145.5071102836
 11
42.2021127174
 21
145.1737767914
  0
LINE
  5
2F3
100
AcDbEntity
  8
0
100
AcDbLine
 62
7
  6
CONTINUOUS
 10
45.3510489593
 20
143.6737767914
 11
45.0106234382
 21
144.0071100452
  0
LINE
  5
2F4
100
AcDbEntity
  8
0
100
AcDbLine
 62
7
  6
CONTINUOUS
 10
41.8616872261
 20
149.5071098068
 11
42.2021127174
 21
149.1737767914
  0
LINE
  5
2F5
100
AcDbEntity
  8
0
100
AcDbLine
 62
7
  6
CONTINUOUS
 10
42.3723254631
 20
145.6737767914
 11
42.2021127174
 21
145.9237767914
  0
LINE
  5
2F6
100
AcDbEntity
  8
0
100
AcDbLine
 62
7
  6
CONTINUOUS
 10
44.8404106329
 20
143.5071100452
 11
45.0106234382
 21
143.2571100452
  0
LINE
  5
2F7
100
AcDbEntity
  8
0
100
AcDbLine
 62
7
  6
CONTINUOUS
 10
42.3723254631
 20
149.6737767914
 11
42.2021127174
 21
149.9237767914
  0
LINE
  5
2F8
100
AcDbEntity
  8
0
100
AcDbLine
 62
7
  6
CONTINUOUS
 10
44.8404106329
 20
147.5071102836
 11
45.0106234382
 21
147.2571102836
  0
LINE
  5
2F9
100
AcDbEntity
  8
0
100
AcDbLine
 62
7
  6
CONTINUOUS
 10
44.8404106329
 20
151.5071098068
 11
45.0106234382
 21
151.2571098068
  0
LINE
  5
2FA
100
AcDbEntity
  8
0
100
AcDbLine
 62
7
  6
CONTINUOUS
 10
41.6914744804
 20
149.8404437759
 11
41.8616872261
 21
149.5071098068
  0
LINE
  5
2FB
100
AcDbEntity
  8
0
100
AcDbLine
 62
7
  6
CONTINUOUS
 10
45.5212617273
 20
143.3404435375
 11
45.3510489593
 21
143.6737767914
  0
LINE
  5
2FC
100
AcDbEntity
  8
0
100
AcDbLine
 62
7
  6
CONTINUOUS
 10
45.5212617273
 20
147.3404432991
 11
45.3510489593
 21
147.6737767914
  0
LINE
  5
2FD
100
AcDbEntity
  8
0
100
AcDbLine
 62
7
  6
CONTINUOUS
 10
45.5212617273
 20
151.3404437759
 11
45.3510489593
 21
151.6737767914
  0
LINE
  5
2FE
100
AcDbEntity
  8
0
100
AcDbLine
 62
7
  6
CONTINUOUS
 10
43.648921294
 20
155.3404437759
 11
43.4787085484
 21
155.6737767914
  0
LINE
  5
2FF
100
AcDbEntity
  8
0
100
AcDbLine
 62
7
  6
CONTINUOUS
 10
43.2233894299
 20
155.2571098068
 11
43.3084958027
 21
155.0071098068
  0
LINE
  5
300
100
AcDbEntity
  8
0
100
AcDbLine
 62
7
  6
CONTINUOUS
 10
45.0106234382
 20
147.2571102836
 11
45.095729811
 21
146.9237767914
  0
LINE
  5
301
100
AcDbEntity
  8
0
100
AcDbLine
 62
7
  6
CONTINUOUS
 10
45.0106234382
 20
151.2571098068
 11
45.095729811
 21
150.9237767914
  0
LINE
  5
302
100
AcDbEntity
  8
0
100
AcDbLine
 62
7
  6
CONTINUOUS
 10
45.6063681076
 20
146.9237767914
 11
45.5212617273
 21
147.3404432991
  0
LINE
  5
303
100
AcDbEntity
  8
0
100
AcDbLine
 62
7
  6
CONTINUOUS
 10
45.6063681076
 20
150.9237767914
 11
45.5212617273
 21
151.3404437759
  0
LINE
  5
304
100
AcDbEntity
  8
A_ACHSEN
100
AcDbLine
 62
7
  6
CENTER
 10
56.6063681076
 20
94.256530195
 11
56.6063681076
 21
114.5910233878
  0
LINE
  5
305
100
AcDbEntity
  8
A_ACHSEN
100
AcDbLine
 62
7
  6
CENTER
 10
56.6063681076
 20
183.8916403211
 11
56.6063681076
 21
200.9559132617
  0
LINE
  5
306
100
AcDbEntity
  8
0
100
AcDbLine
 62
7
  6
CONTINUOUS
 10
57.5523411388
 20
97.4237767914
 11
57.5523411388
 21
199.4237767914
  0
LINE
  5
307
100
AcDbEntity
  8
0
100
AcDbLine
 62
7
  6
CONTINUOUS
 10
59.4618945154
 20
78.4237767914
 11
59.4618945154
 21
97.4237767914
  0
LINE
  5
308
100
AcDbEntity
  8
0
100
AcDbLine
 62
7
  6
CONTINUOUS
 10
59.4618945154
 20
199.4237767914
 11
59.4618945154
 21
218.4237767914
  0
LINE
  5
309
100
AcDbEntity
  8
0
100
AcDbLine
 62
7
  6
CONTINUOUS
 10
60.6169990767
 20
78.4237767914
 11
60.6169990767
 21
97.4237767914
  0
LINE
  5
30A
100
AcDbEntity
  8
0
100
AcDbLine
 62
7
  6
CONTINUOUS
 10
60.6169990767
 20
199.4237767914
 11
60.6169990767
 21
218.4237767914
  0
LINE
  5
30B
100
AcDbEntity
  8
0
100
AcDbLine
 62
7
  6
CONTINUOUS
 10
45.0106234382
 20
149.1737767914
 11
45.3510489593
 21
149.5071098068
  0
LINE
  5
30C
100
AcDbEntity
  8
0
100
AcDbLine
 62
7
  6
CONTINUOUS
 10
42.2021127174
 20
144.0071100452
 11
41.8616872261
 21
143.6737767914
  0
LINE
  5
30D
100
AcDbEntity
  8
0
100
AcDbLine
 62
7
  6
CONTINUOUS
 10
45.0106234382
 20
145.1737767914
 11
45.3510489593
 21
145.5071102836
  0
LINE
  5
30E
100
AcDbEntity
  8
0
100
AcDbLine
 62
7
  6
CONTINUOUS
 10
42.3723254631
 20
151.5071098068
 11
42.62764482
 21
151.6737767914
  0
LINE
  5
30F
100
AcDbEntity
  8
0
100
AcDbLine
 62
7
  6
CONTINUOUS
 10
44.8404106329
 20
149.6737767914
 11
44.5850915144
 21
149.5071098068
  0
LINE
  5
310
100
AcDbEntity
  8
0
100
AcDbLine
 62
7
  6
CONTINUOUS
 10
42.3723254631
 20
147.5071102836
 11
42.62764482
 21
147.6737767914
  0
LINE
  5
311
100
AcDbEntity
  8
0
100
AcDbLine
 62
7
  6
CONTINUOUS
 10
44.8404106329
 20
145.6737767914
 11
44.5850915144
 21
145.5071102836
  0
LINE
  5
312
100
AcDbEntity
  8
0
100
AcDbLine
 62
7
  6
CONTINUOUS
 10
42.5425382088
 20
152.1737767914
 11
42.2021127174
 21
152.0071098068
  0
LINE
  5
313
100
AcDbEntity
  8
0
100
AcDbLine
 62
7
  6
CONTINUOUS
 10
45.6063681076
 20
156.0904437759
 11
43.648921294
 21
155.3404437759
  0
LINE
  5
314
100
AcDbEntity
  8
0
100
AcDbLine
 62
7
  6
CONTINUOUS
 10
43.8191340397
 20
154.8404437759
 11
45.6063681076
 21
155.5071098068
  0
LINE
  5
315
100
AcDbEntity
  8
0
100
AcDbLine
 62
7
  6
CONTINUOUS
 10
42.5425382088
 20
156.0071098068
 11
42.2872190903
 21
155.9237767914
  0
LINE
  5
316
100
AcDbEntity
  8
0
100
AcDbLine
 62
7
  6
CONTINUOUS
 10
42.2872190903
 20
155.4237767914
 11
42.5425382088
 21
155.5071098068
  0
LINE
  5
317
100
AcDbEntity
  8
0
100
AcDbLine
 62
7
  6
CONTINUOUS
 10
42.2021127174
 20
145.1737767914
 11
42.5425382088
 21
145.0071102836
  0
LINE
  5
318
100
AcDbEntity
  8
0
100
AcDbLine
 62
7
  6
CONTINUOUS
 10
45.0106234382
 20
144.0071100452
 11
44.6701978872
 21
144.1737767914
  0
LINE
  5
319
100
AcDbEntity
  8
0
100
AcDbLine
 62
7
  6
CONTINUOUS
 10
44.5850915144
 20
143.6737767914
 11
44.8404106329
 21
143.5071100452
  0
LINE
  5
31A
100
AcDbEntity
  8
0
100
AcDbLine
 62
7
  6
CONTINUOUS
 10
42.62764482
 20
145.5071102836
 11
42.3723254631
 21
145.6737767914
  0
LINE
  5
31B
100
AcDbEntity
  8
0
100
AcDbLine
 62
7
  6
CONTINUOUS
 10
44.5850915144
 20
147.6737767914
 11
44.8404106329
 21
147.5071102836
  0
LINE
  5
31C
100
AcDbEntity
  8
0
100
AcDbLine
 62
7
  6
CONTINUOUS
 10
42.62764482
 20
149.5071098068
 11
42.3723254631
 21
149.6737767914
  0
LINE
  5
31D
100
AcDbEntity
  8
0
100
AcDbLine
 62
7
  6
CONTINUOUS
 10
44.5850915144
 20
151.6737767914
 11
44.8404106329
 21
151.5071098068
  0
LINE
  5
31E
100
AcDbEntity
  8
0
100
AcDbLine
 62
7
  6
CONTINUOUS
 10
45.3510489593
 20
147.6737767914
 11
45.0106234382
 21
148.0071102836
  0
LINE
  5
31F
100
AcDbEntity
  8
0
100
AcDbLine
 62
7
  6
CONTINUOUS
 10
45.3510489593
 20
151.6737767914
 11
45.0106234382
 21
152.0071098068
  0
LINE
  5
320
100
AcDbEntity
  8
0
100
AcDbLine
 62
7
  6
CONTINUOUS
 10
43.0531766842
 20
155.4237767914
 11
43.2233894299
 21
155.2571098068
  0
LINE
  5
321
100
AcDbEntity
  8
0
100
AcDbLine
 62
7
  6
CONTINUOUS
 10
64.835164149
 20
97.4237767914
 11
64.835164149
 21
199.4237767914
  0
LINE
  5
322
100
AcDbEntity
  8
A_RUNDUNGEN
100
AcDbLine
 62
7
  6
CONTINUOUS
 10
65.1063681076
 20
218.3737767914
 11
65.1063681076
 21
200.5237387144
  0
LINE
  5
323
100
AcDbEntity
  8
A_RUNDUNGEN
100
AcDbLine
 62
7
  6
CONTINUOUS
 10
65.1063681076
 20
96.3238148683
 11
65.1063681076
 21
78.4737767914
  0
LINE
  5
324
100
AcDbEntity
  8
0
100
AcDbLine
 62
7
  6
CONTINUOUS
 10
65.1063681076
 20
78.4237767914
 11
65.1063681076
 21
78.4737767914
  0
LINE
  5
325
100
AcDbEntity
  8
0
100
AcDbLine
 62
7
  6
CONTINUOUS
 10
65.1063681076
 20
218.3737767914
 11
65.1063681076
 21
218.4237767914
  0
LINE
  5
326
100
AcDbEntity
  8
0
100
AcDbLine
 62
7
  6
CONTINUOUS
 10
66.1063681076
 20
98.3237767914
 11
66.1063681076
 21
97.3237767914
  0
LINE
  5
327
100
AcDbEntity
  8
0
100
AcDbLine
 62
7
  6
CONTINUOUS
 10
66.1063681076
 20
198.5237767914
 11
66.1063681076
 21
199.5237767914
  0
LINE
  5
328
100
AcDbEntity
  8
0
100
AcDbLine
 62
7
  6
CONTINUOUS
 10
66.6063681076
 20
98.4237767914
 11
66.6063681076
 21
198.4237767914
  0
LINE
  5
329
100
AcDbEntity
  8
A_ACHSEN
100
AcDbLine
 62
7
  6
CONTINUOUS
 10
68.6563681076
 20
198.5237767914
 11
68.6563681076
 21
198.4237767914
  0
LINE
  5
32A
100
AcDbEntity
  8
A_ACHSEN
100
AcDbLine
 62
7
  6
CONTINUOUS
 10
68.6563681076
 20
98.3237767914
 11
68.6563681076
 21
98.4237767914
  0
LINE
  5
32B
100
AcDbEntity
  8
A_ACHSEN
100
AcDbLine
 62
7
  6
CENTER
 10
71.6063681076
 20
68.6445496172
 11
71.6063681076
 21
216.7853102896
  0
LINE
  5
32C
100
AcDbEntity
  8
0
100
AcDbLine
 62
7
  6
CONTINUOUS
 10
42.3723254631
 20
143.5071100452
 11
42.62764482
 21
143.6737767914
  0
LINE
  5
32D
100
AcDbEntity
  8
0
100
AcDbLine
 62
7
  6
CONTINUOUS
 10
42.5425382088
 20
148.1737767914
 11
42.2021127174
 21
148.0071102836
  0
LINE
  5
32E
100
AcDbEntity
  8
0
100
AcDbLine
 62
7
  6
CONTINUOUS
 10
44.6701978872
 20
149.0071098068
 11
45.0106234382
 21
149.1737767914
  0
LINE
  5
32F
100
AcDbEntity
  8
0
100
AcDbLine
 62
7
  6
CONTINUOUS
 10
42.5425382088
 20
144.1737767914
 11
42.2021127174
 21
144.0071100452
  0
LINE
  5
330
100
AcDbEntity
  8
0
100
AcDbLine
 62
7
  6
CONTINUOUS
 10
44.6701978872
 20
145.0071102836
 11
45.0106234382
 21
145.1737767914
  0
LINE
  5
331
100
AcDbEntity
  8
0
100
AcDbLine
 62
7
  6
CONTINUOUS
 10
41.6063681076
 20
139.4237767914
 11
45.1063681076
 21
139.4237767914
  0
LINE
  5
332
100
AcDbEntity
  8
0
100
AcDbLine
 62
7
  6
CONTINUOUS
 10
44.6701978872
 20
144.1737767914
 11
44.2446660231
 21
144.2571100452
  0
LINE
  5
333
100
AcDbEntity
  8
0
100
AcDbLine
 62
7
  6
CONTINUOUS
 10
42.5425382088
 20
145.0071102836
 11
42.9680703114
 21
144.9237767914
  0
LINE
  5
334
100
AcDbEntity
  8
0
100
AcDbLine
 62
7
  6
CONTINUOUS
 10
44.2446660231
 20
143.7571100452
 11
44.5850915144
 21
143.6737767914
  0
LINE
  5
335
100
AcDbEntity
  8
0
100
AcDbLine
 62
7
  6
CONTINUOUS
 10
42.9680703114
 20
145.4237767914
 11
42.62764482
 21
145.5071102836
  0
LINE
  5
336
100
AcDbEntity
  8
0
100
AcDbLine
 62
7
  6
CONTINUOUS
 10
44.2446660231
 20
147.7571102836
 11
44.5850915144
 21
147.6737767914
  0
LINE
  5
337
100
AcDbEntity
  8
0
100
AcDbLine
 62
7
  6
CONTINUOUS
 10
42.9680703114
 20
149.4237767914
 11
42.62764482
 21
149.5071098068
  0
LINE
  5
338
100
AcDbEntity
  8
0
100
AcDbLine
 62
7
  6
CONTINUOUS
 10
42.2021127174
 20
149.1737767914
 11
42.5425382088
 21
149.0071098068
  0
LINE
  5
339
100
AcDbEntity
  8
0
100
AcDbLine
 62
7
  6
CONTINUOUS
 10
45.0106234382
 20
148.0071102836
 11
44.6701978872
 21
148.1737767914
  0
LINE
  5
33A
100
AcDbEntity
  8
0
100
AcDbLine
 62
7
  6
CONTINUOUS
 10
45.0106234382
 20
152.0071098068
 11
44.6701978872
 21
152.1737767914
  0
LINE
  5
33B
100
AcDbEntity
  8
0
100
AcDbLine
 62
7
  6
CONTINUOUS
 10
43.4787085484
 20
155.6737767914
 11
43.138283057
 21
155.9237767914
  0
LINE
  5
33C
100
AcDbEntity
  8
A_ACHSEN
100
AcDbLine
 62
7
  6
CONTINUOUS
 10
74.5563681076
 20
198.5237767914
 11
74.5563681076
 21
198.4237767914
  0
LINE
  5
33D
100
AcDbEntity
  8
A_ACHSEN
100
AcDbLine
 62
7
  6
CONTINUOUS
 10
74.5563681076
 20
98.3237767914
 11
74.5563681076
 21
98.4237767914
  0
LINE
  5
33E
100
AcDbEntity
  8
0
100
AcDbLine
 62
7
  6
CONTINUOUS
 10
76.0632462754
 20
97.4237767914
 11
76.0632462754
 21
98.4237767914
  0
LINE
  5
33F
100
AcDbEntity
  8
0
100
AcDbLine
 62
7
  6
CONTINUOUS
 10
76.0632462754
 20
198.4237767914
 11
76.0632462754
 21
199.4237767914
  0
LINE
  5
340
100
AcDbEntity
  8
0
100
AcDbLine
 62
7
  6
CONTINUOUS
 10
77.1063681076
 20
88.4737767914
 11
77.1063681076
 21
97.4237767914
  0
LINE
  5
341
100
AcDbEntity
  8
0
100
AcDbLine
 62
7
  6
CONTINUOUS
 10
77.1063681076
 20
199.4237767914
 11
77.1063681076
 21
208.3737767914
  0
LINE
  5
342
100
AcDbEntity
  8
0
100
AcDbLine
 62
7
  6
CONTINUOUS
 10
80.3470501673
 20
97.4237767914
 11
80.3470501673
 21
98.4237767914
  0
LINE
  5
343
100
AcDbEntity
  8
0
100
AcDbLine
 62
7
  6
CONTINUOUS
 10
80.3470501673
 20
198.4237767914
 11
80.3470501673
 21
199.4237767914
  0
LINE
  5
344
100
AcDbEntity
  8
0
100
AcDbLine
 62
7
  6
CONTINUOUS
 10
41.6063681076
 20
140.9237767914
 11
45.6063681076
 21
140.9237767914
  0
LINE
  5
345
100
AcDbEntity
  8
0
100
AcDbLine
 62
7
  6
CONTINUOUS
 10
45.095729811
 20
141.4237767914
 11
42.1170063446
 21
141.4237767914
  0
LINE
  5
346
100
AcDbEntity
  8
0
100
AcDbLine
 62
7
  6
CONTINUOUS
 10
42.9680703114
 20
143.7571100452
 11
44.2446660231
 21
143.7571100452
  0
LINE
  5
347
100
AcDbEntity
  8
0
100
AcDbLine
 62
7
  6
CONTINUOUS
 10
44.2446660231
 20
144.2571100452
 11
42.9680703114
 21
144.2571100452
  0
LINE
  5
348
100
AcDbEntity
  8
0
100
AcDbLine
 62
7
  6
CONTINUOUS
 10
42.9680703114
 20
144.9237767914
 11
44.2446660231
 21
144.9237767914
  0
LINE
  5
349
100
AcDbEntity
  8
0
100
AcDbLine
 62
7
  6
CONTINUOUS
 10
44.2446660231
 20
145.4237767914
 11
42.9680703114
 21
145.4237767914
  0
LINE
  5
34A
100
AcDbEntity
  8
0
100
AcDbLine
 62
7
  6
CONTINUOUS
 10
42.9680703114
 20
147.7571102836
 11
44.2446660231
 21
147.7571102836
  0
LINE
  5
34B
100
AcDbEntity
  8
0
100
AcDbLine
 62
7
  6
CONTINUOUS
 10
44.2446660231
 20
148.2571102836
 11
42.9680703114
 21
148.2571102836
  0
LINE
  5
34C
100
AcDbEntity
  8
0
100
AcDbLine
 62
7
  6
CONTINUOUS
 10
42.9680703114
 20
148.9237767914
 11
44.2446660231
 21
148.9237767914
  0
LINE
  5
34D
100
AcDbEntity
  8
0
100
AcDbLine
 62
7
  6
CONTINUOUS
 10
44.2446660231
 20
149.4237767914
 11
42.9680703114
 21
149.4237767914
  0
LINE
  5
34E
100
AcDbEntity
  8
0
100
AcDbLine
 62
7
  6
CONTINUOUS
 10
44.6701978872
 20
148.1737767914
 11
44.2446660231
 21
148.2571102836
  0
LINE
  5
34F
100
AcDbEntity
  8
0
100
AcDbLine
 62
7
  6
CONTINUOUS
 10
42.5425382088
 20
149.0071098068
 11
42.9680703114
 21
148.9237767914
  0
LINE
  5
350
100
AcDbEntity
  8
0
100
AcDbLine
 62
7
  6
CONTINUOUS
 10
44.6701978872
 20
152.1737767914
 11
44.2446660231
 21
152.2571098068
  0
LINE
  5
351
100
AcDbEntity
  8
0
100
AcDbLine
 62
7
  6
CONTINUOUS
 10
44.2446660231
 20
151.7571098068
 11
44.5850915144
 21
151.6737767914
  0
LINE
  5
352
100
AcDbEntity
  8
0
100
AcDbLine
 62
7
  6
CONTINUOUS
 10
42.7978575657
 20
155.5071098068
 11
43.0531766842
 21
155.4237767914
  0
LINE
  5
353
100
AcDbEntity
  8
0
100
AcDbLine
 62
7
  6
CONTINUOUS
 10
43.138283057
 20
155.9237767914
 11
42.8829639385
 21
156.0071098068
  0
LINE
  5
354
100
AcDbEntity
  8
0
100
AcDbLine
 62
7
  6
CONTINUOUS
 10
42.62764482
 20
143.6737767914
 11
42.9680703114
 21
143.7571100452
  0
LINE
  5
355
100
AcDbEntity
  8
0
100
AcDbLine
 62
7
  6
CONTINUOUS
 10
44.5850915144
 20
145.5071102836
 11
44.2446660231
 21
145.4237767914
  0
LINE
  5
356
100
AcDbEntity
  8
0
100
AcDbLine
 62
7
  6
CONTINUOUS
 10
42.62764482
 20
147.6737767914
 11
42.9680703114
 21
147.7571102836
  0
LINE
  5
357
100
AcDbEntity
  8
0
100
AcDbLine
 62
7
  6
CONTINUOUS
 10
44.5850915144
 20
149.5071098068
 11
44.2446660231
 21
149.4237767914
  0
LINE
  5
358
100
AcDbEntity
  8
0
100
AcDbLine
 62
7
  6
CONTINUOUS
 10
42.9680703114
 20
144.2571100452
 11
42.5425382088
 21
144.1737767914
  0
LINE
  5
359
100
AcDbEntity
  8
0
100
AcDbLine
 62
7
  6
CONTINUOUS
 10
44.2446660231
 20
144.9237767914
 11
44.6701978872
 21
145.0071102836
  0
LINE
  5
35A
100
AcDbEntity
  8
0
100
AcDbLine
 62
7
  6
CONTINUOUS
 10
42.9680703114
 20
148.2571102836
 11
42.5425382088
 21
148.1737767914
  0
LINE
  5
35B
100
AcDbEntity
  8
0
100
AcDbLine
 62
7
  6
CONTINUOUS
 10
44.2446660231
 20
148.9237767914
 11
44.6701978872
 21
149.0071098068
  0
LINE
  5
35C
100
AcDbEntity
  8
0
100
AcDbLine
 62
7
  6
CONTINUOUS
 10
42.9680703114
 20
151.7571098068
 11
44.2446660231
 21
151.7571098068
  0
LINE
  5
35D
100
AcDbEntity
  8
0
100
AcDbLine
 62
7
  6
CONTINUOUS
 10
44.2446660231
 20
152.2571098068
 11
42.9680703114
 21
152.2571098068
  0
LINE
  5
35E
100
AcDbEntity
  8
0
100
AcDbLine
 62
7
  6
CONTINUOUS
 10
41.6063681076
 20
152.9237767914
 11
45.6063681076
 21
152.9237767914
  0
LINE
  5
35F
100
AcDbEntity
  8
0
100
AcDbLine
 62
7
  6
CONTINUOUS
 10
45.6063681076
 20
153.4237767914
 11
43.8191340397
 21
153.4237767914
  0
LINE
  5
360
100
AcDbEntity
  8
0
100
AcDbLine
 62
7
  6
CONTINUOUS
 10
43.3084958027
 20
153.4237767914
 11
42.0318999718
 21
153.4237767914
  0
LINE
  5
361
100
AcDbEntity
  8
0
100
AcDbLine
 62
7
  6
CONTINUOUS
 10
42.5425382088
 20
155.5071098068
 11
42.7978575657
 21
155.5071098068
  0
LINE
  5
362
100
AcDbEntity
  8
0
100
AcDbLine
 62
7
  6
CONTINUOUS
 10
42.8829639385
 20
156.0071098068
 11
42.5425382088
 21
156.0071098068
  0
LINE
  5
363
100
AcDbEntity
  8
0
100
AcDbLine
 62
7
  6
CONTINUOUS
 10
45.1063681076
 20
157.4237767914
 11
41.6063681076
 21
157.4237767914
  0
LINE
  5
364
100
AcDbEntity
  8
0
100
AcDbLine
 62
7
  6
CONTINUOUS
 10
91.5373310258
 20
97.4237767914
 11
91.5373310258
 21
98.4237767914
  0
LINE
  5
365
100
AcDbEntity
  8
0
100
AcDbLine
 62
7
  6
CONTINUOUS
 10
91.5373310258
 20
198.4237767914
 11
91.5373310258
 21
199.4237767914
  0
LINE
  5
366
100
AcDbEntity
  8
0
100
AcDbLine
 62
7
  6
CONTINUOUS
 10
93.0563681076
 20
258.4237767914
 11
93.0563681076
 21
248.4237767914
  0
LINE
  5
367
100
AcDbEntity
  8
0
100
AcDbLine
 62
7
  6
CONTINUOUS
 10
93.0563681076
 20
48.4237767914
 11
93.0563681076
 21
38.4237767914
  0
LINE
  5
368
100
AcDbEntity
  8
0
100
AcDbLine
 62
7
  6
CONTINUOUS
 10
93.1063681076
 20
258.4237767914
 11
93.1063681076
 21
202.2237767914
  0
LINE
  5
369
100
AcDbEntity
  8
0
100
AcDbLine
 62
7
  6
CONTINUOUS
 10
93.1063681076
 20
94.6237767914
 11
93.1063681076
 21
38.4237767914
  0
LINE
  5
36A
100
AcDbEntity
  8
A_RUNDUNGEN
100
AcDbLine
 62
7
  6
CONTINUOUS
 10
93.1063681076
 20
94.6237767914
 11
93.1063681076
 21
98.4237767914
  0
LINE
  5
36B
100
AcDbEntity
  8
A_RUNDUNGEN
100
AcDbLine
 62
7
  6
CONTINUOUS
 10
93.1063681076
 20
198.4237767914
 11
93.1063681076
 21
202.2237767914
  0
LINE
  5
36C
100
AcDbEntity
  8
0
100
AcDbLine
 62
7
  6
CONTINUOUS
 10
94.5063681076
 20
202.2237767914
 11
94.5063681076
 21
198.4237767914
  0
LINE
  5
36D
100
AcDbEntity
  8
0
100
AcDbLine
 62
7
  6
CONTINUOUS
 10
94.5063681076
 20
98.4237767914
 11
94.5063681076
 21
94.6237767914
  0
LINE
  5
36E
100
AcDbEntity
  8
A_RUNDUNGEN
100
AcDbLine
 62
7
  6
CONTINUOUS
 10
94.7849099177
 20
202.2237767914
 11
94.7849099177
 21
198.4237767914
  0
LINE
  5
36F
100
AcDbEntity
  8
A_RUNDUNGEN
100
AcDbLine
 62
7
  6
CONTINUOUS
 10
94.7849099177
 20
98.4237767914
 11
94.7849099177
 21
94.6237767914
  0
LINE
  5
370
100
AcDbEntity
  8
DEFAULT_2
100
AcDbLine
 62
8
  6
HIDDEN
 10
95.0143623934
 20
236.4237767914
 11
95.0143623934
 21
230.4237767914
  0
LINE
  5
371
100
AcDbEntity
  8
DEFAULT_2
100
AcDbLine
 62
8
  6
HIDDEN
 10
95.0143623934
 20
66.4237767914
 11
95.0143623934
 21
60.4237767914
  0
LINE
  5
372
100
AcDbEntity
  8
0
100
AcDbLine
 62
7
  6
CONTINUOUS
 10
95.5063681076
 20
67.9237767914
 11
95.5063681076
 21
65.4237767914
  0
LINE
  5
373
100
AcDbEntity
  8
0
100
AcDbLine
 62
7
  6
CONTINUOUS
 10
95.5463681076
 20
90.7437767914
 11
95.5463681076
 21
90.1137767914
  0
LINE
  5
374
100
AcDbEntity
  8
0
100
AcDbLine
 62
7
  6
CONTINUOUS
 10
95.5463681076
 20
89.3737767914
 11
95.5463681076
 21
88.8337767914
  0
LINE
  5
375
100
AcDbEntity
  8
0
100
AcDbLine
 62
7
  6
CONTINUOUS
 10
95.5463681076
 20
86.2437767914
 11
95.5463681076
 21
84.6937767914
  0
LINE
  5
376
100
AcDbEntity
  8
0
100
AcDbLine
 62
7
  6
CONTINUOUS
 10
95.5463681076
 20
84.4337767914
 11
95.5463681076
 21
83.8937767914
  0
LINE
  5
377
100
AcDbEntity
  8
0
100
AcDbLine
 62
7
  6
CONTINUOUS
 10
95.5463681076
 20
83.0594129923
 11
95.5463681076
 21
82.3694129923
  0
LINE
  5
378
100
AcDbEntity
  8
0
100
AcDbLine
 62
7
  6
CONTINUOUS
 10
95.5463681076
 20
81.5210537473
 11
95.5463681076
 21
80.9810537473
  0
LINE
  5
379
100
AcDbEntity
  8
0
100
AcDbLine
 62
7
  6
CONTINUOUS
 10
95.5463681076
 20
78.8637767914
 11
95.5463681076
 21
78.3237767914
  0
LINE
  5
37A
100
AcDbEntity
  8
0
100
AcDbLine
 62
7
  6
CONTINUOUS
 10
95.5463681076
 20
77.5237767914
 11
95.5463681076
 21
76.8337767914
  0
LINE
  5
37B
100
AcDbEntity
  8
0
100
AcDbLine
 62
7
  6
CONTINUOUS
 10
95.5463681076
 20
74.2137767914
 11
95.5463681076
 21
73.6737767914
  0
LINE
  5
37C
100
AcDbEntity
  8
0
100
AcDbLine
 62
7
  6
CONTINUOUS
 10
95.5463681076
 20
72.3537767914
 11
95.5463681076
 21
71.8137767914
  0
LINE
  5
37D
100
AcDbEntity
  8
0
100
AcDbLine
 62
7
  6
CONTINUOUS
 10
95.5463681076
 20
71.3637767914
 11
95.5463681076
 21
70.8237767914
  0
LINE
  5
37E
100
AcDbEntity
  8
0
100
AcDbLine
 62
7
  6
CONTINUOUS
 10
96.0363681076
 20
87.5937767914
 11
96.0363681076
 21
87.1537767914
  0
LINE
  5
37F
100
AcDbEntity
  8
0
100
AcDbLine
 62
7
  6
CONTINUOUS
 10
96.0363681076
 20
85.2537767914
 11
96.0363681076
 21
86.2437767914
  0
LINE
  5
380
100
AcDbEntity
  8
A_RUNDUNGEN
100
AcDbLine
 62
7
  6
CONTINUOUS
 10
96.1063681076
 20
94.6237767914
 11
96.1063681076
 21
98.4237767914
  0
LINE
  5
381
100
AcDbEntity
  8
A_RUNDUNGEN
100
AcDbLine
 62
7
  6
CONTINUOUS
 10
96.1063681076
 20
198.4237767914
 11
96.1063681076
 21
202.2237767914
  0
LINE
  5
382
100
AcDbEntity
  8
0
100
AcDbLine
 62
7
  6
CONTINUOUS
 10
96.4163681076
 20
66.5337767914
 11
96.4163681076
 21
67.9237767914
  0
LINE
  5
383
100
AcDbEntity
  8
0
100
AcDbLine
 62
7
  6
CONTINUOUS
 10
96.4863681076
 20
86.1637767914
 11
96.4863681076
 21
85.2537767914
  0
LINE
  5
384
100
AcDbEntity
  8
0
100
AcDbLine
 62
7
  6
CONTINUOUS
 10
96.6863681076
 20
67.9237767914
 11
96.6863681076
 21
66.8137767914
  0
LINE
  5
385
100
AcDbEntity
  8
0
100
AcDbLine
 62
7
  6
CONTINUOUS
 10
96.8263681076
 20
65.4237767914
 11
96.8263681076
 21
66.5337767914
  0
LINE
  5
386
100
AcDbEntity
  8
A_ACHSEN
100
AcDbLine
 62
8
  6
HIDDEN
 10
96.9063681076
 20
236.4237767914
 11
96.9063681076
 21
230.4237767914
  0
LINE
  5
387
100
AcDbEntity
  8
A_ACHSEN
100
AcDbLine
 62
8
  6
HIDDEN
 10
96.9063681076
 20
66.4237767914
 11
96.9063681076
 21
60.4237767914
  0
LINE
  5
388
100
AcDbEntity
  8
0
100
AcDbLine
 62
7
  6
CONTINUOUS
 10
96.9763681076
 20
85.2537767914
 11
96.9763681076
 21
86.1637767914
  0
LINE
  5
389
100
AcDbEntity
  8
0
100
AcDbLine
 62
7
  6
CONTINUOUS
 10
97.0963681076
 20
66.8137767914
 11
97.0963681076
 21
65.4237767914
  0
LINE
  5
38A
100
AcDbEntity
  8
0
100
AcDbLine
 62
7
  6
CONTINUOUS
 10
97.2363681076
 20
87.4737767914
 11
97.2363681076
 21
87.1537767914
  0
LINE
  5
38B
100
AcDbEntity
  8
0
100
AcDbLine
 62
7
  6
CONTINUOUS
 10
97.5163681076
 20
86.2437767914
 11
97.5163681076
 21
85.2537767914
  0
LINE
  5
38C
100
AcDbEntity
  8
0
100
AcDbLine
 62
7
  6
CONTINUOUS
 10
97.6863681076
 20
72.7684762979
 11
97.6863681076
 21
73.2584762979
  0
LINE
  5
38D
100
AcDbEntity
  8
0
100
AcDbLine
 62
7
  6
CONTINUOUS
 10
98.0063681076
 20
88.6837767914
 11
98.0063681076
 21
88.0237767914
  0
LINE
  5
38E
100
AcDbEntity
  8
0
100
AcDbLine
 62
7
  6
CONTINUOUS
 10
98.0063681076
 20
87.1537767914
 11
98.0063681076
 21
86.5937767914
  0
LINE
  5
38F
100
AcDbEntity
  8
0
100
AcDbLine
 62
7
  6
CONTINUOUS
 10
98.0063681076
 20
65.4237767914
 11
98.0063681076
 21
67.9237767914
  0
LINE
  5
390
100
AcDbEntity
  8
0
100
AcDbLine
 62
7
  6
CONTINUOUS
 10
98.0063681076
 20
70.8237767914
 11
98.0063681076
 21
71.3637767914
  0
LINE
  5
391
100
AcDbEntity
  8
0
100
AcDbLine
 62
7
  6
CONTINUOUS
 10
98.0063681076
 20
71.8137767914
 11
98.0063681076
 21
72.3537767914
  0
LINE
  5
392
100
AcDbEntity
  8
0
100
AcDbLine
 62
7
  6
CONTINUOUS
 10
98.0063681076
 20
73.6737767914
 11
98.0063681076
 21
74.2137767914
  0
LINE
  5
393
100
AcDbEntity
  8
0
100
AcDbLine
 62
7
  6
CONTINUOUS
 10
98.0063681076
 20
76.8337767914
 11
98.0063681076
 21
77.3737767914
  0
LINE
  5
394
100
AcDbEntity
  8
0
100
AcDbLine
 62
7
  6
CONTINUOUS
 10
98.0063681076
 20
78.1737767914
 11
98.0063681076
 21
78.8637767914
  0
LINE
  5
395
100
AcDbEntity
  8
0
100
AcDbLine
 62
7
  6
CONTINUOUS
 10
98.0063681076
 20
81.5834669965
 11
98.0063681076
 21
82.2934669965
  0
LINE
  5
396
100
AcDbEntity
  8
0
100
AcDbLine
 62
7
  6
CONTINUOUS
 10
98.0063681076
 20
83.1250030863
 11
98.0063681076
 21
83.8350030863
  0
LINE
  5
397
100
AcDbEntity
  8
0
100
AcDbLine
 62
7
  6
CONTINUOUS
 10
98.0063681076
 20
84.6937767914
 11
98.0063681076
 21
86.2437767914
  0
LINE
  5
398
100
AcDbEntity
  8
0
100
AcDbLine
 62
7
  6
CONTINUOUS
 10
98.0063681076
 20
88.8337767914
 11
98.0063681076
 21
89.3737767914
  0
LINE
  5
399
100
AcDbEntity
  8
0
100
AcDbLine
 62
7
  6
CONTINUOUS
 10
98.0063681076
 20
90.1749846988
 11
98.0063681076
 21
90.8049846988
  0
LINE
  5
39A
100
AcDbEntity
  8
A_RUNDUNGEN
100
AcDbLine
 62
7
  6
CONTINUOUS
 10
122.9563681076
 20
248.4237767914
 11
122.9063681076
 21
248.2570947227
  0
LINE
  5
39B
100
AcDbEntity
  8
0
100
AcDbLine
 62
7
  6
CONTINUOUS
 10
42.62764482
 20
151.6737767914
 11
42.9680703114
 21
151.7571098068
  0
LINE
  5
39C
100
AcDbEntity
  8
0
100
AcDbLine
 62
7
  6
CONTINUOUS
 10
42.9680703114
 20
152.2571098068
 11
42.5425382088
 21
152.1737767914
  0
LINE
  5
39D
100
AcDbEntity
  8
A_RUNDUNGEN
100
AcDbLine
 62
7
  6
CONTINUOUS
 10
122.9563681076
 20
48.4237767914
 11
122.9063681076
 21
48.59045886
  0
LINE
  5
39E
100
AcDbEntity
  8
A_ACHSEN
100
AcDbLine
 62
7
  6
CENTER
 10
99.5063681076
 20
54.7015843448
 11
99.5063681076
 21
71.7625932845
  0
LINE
  5
39F
100
AcDbEntity
  8
A_ACHSEN
100
AcDbLine
 62
7
  6
CENTER
 10
99.5063681076
 20
224.5485024907
 11
99.5063681076
 21
241.6746896558
  0
LINE
  5
3A0
100
AcDbEntity
  8
A_ACHSEN
100
AcDbLine
 62
7
  6
CENTER
 10
101.0063681076
 20
24.8274662074
 11
101.0063681076
 21
40.0200873753
  0
LINE
  5
3A1
100
AcDbEntity
  8
A_ACHSEN
100
AcDbLine
 62
7
  6
CENTER
 10
101.0063681076
 20
255.9227695563
 11
101.0063681076
 21
272.9247840264
  0
LINE
  5
3A2
100
AcDbEntity
  8
A_ACHSEN
100
AcDbLine
 62
8
  6
HIDDEN
 10
102.1063681076
 20
60.4237767914
 11
102.1063681076
 21
66.4237767914
  0
LINE
  5
3A3
100
AcDbEntity
  8
A_ACHSEN
100
AcDbLine
 62
8
  6
HIDDEN
 10
102.1063681076
 20
230.4237767914
 11
102.1063681076
 21
236.4237767914
  0
LINE
  5
3A4
100
AcDbEntity
  8
DEFAULT_2
100
AcDbLine
 62
8
  6
HIDDEN
 10
103.9983738218
 20
60.4237767914
 11
103.9983738218
 21
66.4237767914
  0
LINE
  5
3A5
100
AcDbEntity
  8
DEFAULT_2
100
AcDbLine
 62
8
  6
HIDDEN
 10
103.9983738218
 20
230.4237767914
 11
103.9983738218
 21
236.4237767914
  0
LINE
  5
3A6
100
AcDbEntity
  8
0
100
AcDbLine
 62
7
  6
CONTINUOUS
 10
106.1063681076
 20
231.9237767914
 11
106.1063681076
 21
230.9237767914
  0
LINE
  5
3A7
100
AcDbEntity
  8
0
100
AcDbLine
 62
7
  6
CONTINUOUS
 10
106.1063681076
 20
65.9237767914
 11
106.1063681076
 21
64.9237767914
  0
LINE
  5
3A8
100
AcDbEntity
  8
0
100
AcDbLine
 62
7
  6
CONTINUOUS
 10
106.1063681076
 20
98.4237767914
 11
106.1063681076
 21
198.4237767914
  0
LINE
  5
3A9
100
AcDbEntity
  8
0
100
AcDbLine
 62
7
  6
CONTINUOUS
 10
106.591191309
 20
231.43895359
 11
106.591191309
 21
231.4085999927
  0
LINE
  5
3AA
100
AcDbEntity
  8
0
100
AcDbLine
 62
7
  6
CONTINUOUS
 10
106.591191309
 20
65.43895359
 11
106.591191309
 21
65.4085999927
  0
LINE
  5
3AB
100
AcDbEntity
  8
0
100
AcDbLine
 62
7
  6
CONTINUOUS
 10
107.5063681076
 20
233.3237767914
 11
107.5063681076
 21
232.2237767914
  0
LINE
  5
3AC
100
AcDbEntity
  8
0
100
AcDbLine
 62
7
  6
CONTINUOUS
 10
107.5063681076
 20
230.6237767914
 11
107.5063681076
 21
229.5237767914
  0
LINE
  5
3AD
100
AcDbEntity
  8
0
100
AcDbLine
 62
7
  6
CONTINUOUS
 10
107.5063681076
 20
67.3237767914
 11
107.5063681076
 21
66.2237767914
  0
LINE
  5
3AE
100
AcDbEntity
  8
0
100
AcDbLine
 62
7
  6
CONTINUOUS
 10
107.5063681076
 20
64.6237767914
 11
107.5063681076
 21
63.5237767914
  0
LINE
  5
3AF
100
AcDbEntity
  8
0
100
AcDbLine
 62
7
  6
CONTINUOUS
 10
107.991191309
 20
232.83895359
 11
107.991191309
 21
232.2237767914
  0
LINE
  5
3B0
100
AcDbEntity
  8
0
100
AcDbLine
 62
7
  6
CONTINUOUS
 10
107.991191309
 20
230.6237767914
 11
107.991191309
 21
230.0085999927
  0
LINE
  5
3B1
100
AcDbEntity
  8
0
100
AcDbLine
 62
7
  6
CONTINUOUS
 10
107.991191309
 20
66.83895359
 11
107.991191309
 21
66.2237767914
  0
LINE
  5
3B2
100
AcDbEntity
  8
0
100
AcDbLine
 62
7
  6
CONTINUOUS
 10
107.991191309
 20
64.6237767914
 11
107.991191309
 21
64.0085999927
  0
LINE
  5
3B3
100
AcDbEntity
  8
DEFAULT_1
100
AcDbLine
 62
7
  6
CENTER
 10
108.0063681076
 20
58.7979210264
 11
108.0063681076
 21
72.0496325563
  0
LINE
  5
3B4
100
AcDbEntity
  8
A_ACHSEN
100
AcDbLine
 62
7
  6
CENTER
 10
108.0063681076
 20
224.7231652937
 11
108.0063681076
 21
238.124388289
  0
LINE
  5
3B5
100
AcDbEntity
  8
0
100
AcDbLine
 62
7
  6
CONTINUOUS
 10
108.0215449062
 20
64.0085999927
 11
108.0215449062
 21
64.6237767914
  0
LINE
  5
3B6
100
AcDbEntity
  8
0
100
AcDbLine
 62
7
  6
CONTINUOUS
 10
108.0215449062
 20
66.2237767914
 11
108.0215449062
 21
66.83895359
  0
LINE
  5
3B7
100
AcDbEntity
  8
0
100
AcDbLine
 62
7
  6
CONTINUOUS
 10
108.0215449062
 20
230.0085999927
 11
108.0215449062
 21
230.6237767914
  0
LINE
  5
3B8
100
AcDbEntity
  8
0
100
AcDbLine
 62
7
  6
CONTINUOUS
 10
108.0215449062
 20
232.2237767914
 11
108.0215449062
 21
232.83895359
  0
LINE
  5
3B9
100
AcDbEntity
  8
0
100
AcDbLine
 62
7
  6
CONTINUOUS
 10
108.5063681076
 20
63.5237767914
 11
108.5063681076
 21
64.6237767914
  0
LINE
  5
3BA
100
AcDbEntity
  8
0
100
AcDbLine
 62
7
  6
CONTINUOUS
 10
108.5063681076
 20
66.2237767914
 11
108.5063681076
 21
67.3237767914
  0
LINE
  5
3BB
100
AcDbEntity
  8
0
100
AcDbLine
 62
7
  6
CONTINUOUS
 10
108.5063681076
 20
229.5237767914
 11
108.5063681076
 21
230.6237767914
  0
LINE
  5
3BC
100
AcDbEntity
  8
0
100
AcDbLine
 62
7
  6
CONTINUOUS
 10
108.5063681076
 20
232.2237767914
 11
108.5063681076
 21
233.3237767914
  0
LINE
  5
3BD
100
AcDbEntity
  8
A_RUNDUNGEN
100
AcDbLine
 62
7
  6
CONTINUOUS
 10
108.9063681076
 20
201.7237767914
 11
108.9063681076
 21
95.1237767914
  0
LINE
  5
3BE
100
AcDbEntity
  8
0
100
AcDbLine
 62
7
  6
CONTINUOUS
 10
109.4215449062
 20
65.4085999927
 11
109.4215449062
 21
65.43895359
  0
LINE
  5
3BF
100
AcDbEntity
  8
0
100
AcDbLine
 62
7
  6
CONTINUOUS
 10
109.4215449062
 20
231.4085999927
 11
109.4215449062
 21
231.43895359
  0
LINE
  5
3C0
100
AcDbEntity
  8
0
100
AcDbLine
 62
7
  6
CONTINUOUS
 10
109.9063681076
 20
64.9237767914
 11
109.9063681076
 21
65.9237767914
  0
LINE
  5
3C1
100
AcDbEntity
  8
0
100
AcDbLine
 62
7
  6
CONTINUOUS
 10
109.9063681076
 20
230.9237767914
 11
109.9063681076
 21
231.9237767914
  0
LINE
  5
3C2
100
AcDbEntity
  8
DEFAULT_2
100
AcDbLine
 62
8
  6
HIDDEN
 10
112.0143623934
 20
236.4237767914
 11
112.0143623934
 21
230.4237767914
  0
LINE
  5
3C3
100
AcDbEntity
  8
DEFAULT_2
100
AcDbLine
 62
8
  6
HIDDEN
 10
112.0143623934
 20
66.4237767914
 11
112.0143623934
 21
60.4237767914
  0
LINE
  5
3C4
100
AcDbEntity
  8
A_ACHSEN
100
AcDbLine
 62
8
  6
HIDDEN
 10
113.9063681076
 20
236.4237767914
 11
113.9063681076
 21
230.4237767914
  0
LINE
  5
3C5
100
AcDbEntity
  8
A_ACHSEN
100
AcDbLine
 62
8
  6
HIDDEN
 10
113.9063681076
 20
66.4237767914
 11
113.9063681076
 21
60.4237767914
  0
LINE
  5
3C6
100
AcDbEntity
  8
A_ACHSEN
100
AcDbLine
 62
7
  6
CENTER
 10
115.0063681076
 20
24.2379943801
 11
115.0063681076
 21
40.6095592026
  0
LINE
  5
3C7
100
AcDbEntity
  8
A_ACHSEN
100
AcDbLine
 62
7
  6
CENTER
 10
115.0063681076
 20
256.8127212034
 11
115.0063681076
 21
272.0348323794
  0
LINE
  5
3C8
100
AcDbEntity
  8
A_ACHSEN
100
AcDbLine
 62
7
  6
CENTER
 10
116.5063681076
 20
54.4717312745
 11
116.5063681076
 21
72.6076080534
  0
LINE
  5
3C9
100
AcDbEntity
  8
A_ACHSEN
100
AcDbLine
 62
7
  6
CENTER
 10
116.5063681076
 20
224.45829139
 11
116.5063681076
 21
242.337232073
  0
LINE
  5
3CA
100
AcDbEntity
  8
A_ACHSEN
100
AcDbLine
 62
8
  6
HIDDEN
 10
119.1063681076
 20
60.4237767914
 11
119.1063681076
 21
66.4237767914
  0
LINE
  5
3CB
100
AcDbEntity
  8
A_ACHSEN
100
AcDbLine
 62
8
  6
HIDDEN
 10
119.1063681076
 20
230.4237767914
 11
119.1063681076
 21
236.4237767914
  0
LINE
  5
3CC
100
AcDbEntity
  8
DEFAULT_2
100
AcDbLine
 62
8
  6
HIDDEN
 10
120.9983738218
 20
60.4237767914
 11
120.9983738218
 21
66.4237767914
  0
LINE
  5
3CD
100
AcDbEntity
  8
DEFAULT_2
100
AcDbLine
 62
8
  6
HIDDEN
 10
120.9983738218
 20
230.4237767914
 11
120.9983738218
 21
236.4237767914
  0
LINE
  5
3CE
100
AcDbEntity
  8
0
100
AcDbLine
 62
7
  6
CONTINUOUS
 10
122.9063681076
 20
38.4237767914
 11
122.9063681076
 21
258.4237767914
  0
LINE
  5
3CF
100
AcDbEntity
  8
0
100
AcDbLine
 62
7
  6
CONTINUOUS
 10
122.9563681076
 20
38.4237767914
 11
122.9563681076
 21
48.4237767914
  0
LINE
  5
3D0
100
AcDbEntity
  8
0
100
AcDbLine
 62
7
  6
CONTINUOUS
 10
122.9563681076
 20
248.4237767914
 11
122.9563681076
 21
258.4237767914
  0
LINE
  5
3D1
100
AcDbEntity
  8
A_RUNDUNGEN
100
AcDbLine
 62
7
  6
CONTINUOUS
 10
93.0563681076
 20
48.4237767914
 11
93.1063681076
 21
48.59045886
  0
LINE
  5
3D2
100
AcDbEntity
  8
A_ACHSEN
100
AcDbLine
 62
7
  6
CENTER
 10
48.0742316373
 20
192.4237767914
 11
65.1385045779
 21
192.4237767914
  0
LINE
  5
3D3
100
AcDbEntity
  8
A_RUNDUNGEN
100
AcDbLine
 62
7
  6
CONTINUOUS
 10
93.0563681076
 20
248.4237767914
 11
93.1063681076
 21
248.2570947227
  0
LINE
  5
3D4
100
AcDbEntity
  8
0
100
AcDbLine
 62
7
  6
CONTINUOUS
 10
66.6063681076
 20
198.4237767914
 11
106.1063681076
 21
198.4237767914
  0
LINE
  5
3D5
100
AcDbEntity
  8
0
100
AcDbLine
 62
7
  6
CONTINUOUS
 10
66.1063681076
 20
198.5237767914
 11
76.0632462754
 21
198.5237767914
  0
LINE
  5
3D6
100
AcDbEntity
  8
A_RUNDUNGEN
100
AcDbLine
 62
7
  6
CONTINUOUS
 10
66.1063681076
 20
199.2357139989
 11
65.8182672383
 21
199.2357139989
  0
LINE
  5
3D7
100
AcDbEntity
  8
A_RUNDUNGEN
100
AcDbLine
 62
7
  6
CONTINUOUS
 10
55.4992711634
 20
199.2357139989
 11
52.7134650518
 21
199.2357139989
  0
LINE
  5
3D8
100
AcDbEntity
  8
A_RUNDUNGEN
100
AcDbLine
 62
7
  6
CONTINUOUS
 10
53.1064823877
 20
199.3666931711
 11
55.1062538275
 21
199.3666931711
  0
LINE
  5
3D9
100
AcDbEntity
  8
0
100
AcDbLine
 62
7
  6
CONTINUOUS
 10
54.4229189409
 20
199.4237767914
 11
59.4617397103
 21
199.4237767914
  0
LINE
  5
3DA
100
AcDbEntity
  8
0
100
AcDbLine
 62
7
  6
CONTINUOUS
 10
59.4702051311
 20
199.4237767914
 11
65.1063681076
 21
199.4237767914
  0
LINE
  5
3DB
100
AcDbEntity
  8
0
100
AcDbLine
 62
7
  6
CONTINUOUS
 10
76.0642345858
 20
199.4237767914
 11
91.5373307031
 21
199.4237767914
  0
LINE
  5
3DC
100
AcDbEntity
  8
A_RUNDUNGEN
100
AcDbLine
 62
7
  6
CONTINUOUS
 10
66.1063300307
 20
199.5237767914
 11
77.1063681076
 21
199.5237767914
  0
LINE
  5
3DD
100
AcDbEntity
  8
0
100
AcDbLine
 62
7
  6
CONTINUOUS
 10
37.3063681076
 20
200.4237767914
 11
38.6063681076
 21
200.4237767914
  0
LINE
  5
3DE
100
AcDbEntity
  8
A_RUNDUNGEN
100
AcDbLine
 62
7
  6
CONTINUOUS
 10
38.6063681076
 20
200.4237767914
 11
38.7549607903
 21
200.4237767914
  0
LINE
  5
3DF
100
AcDbEntity
  8
0
100
AcDbLine
 62
7
  6
CONTINUOUS
 10
101.1063681076
 20
201.1237767914
 11
104.1063681076
 21
201.1237767914
  0
LINE
  5
3E0
100
AcDbEntity
  8
A_RUNDUNGEN
100
AcDbLine
 62
7
  6
CONTINUOUS
 10
93.1063681076
 20
202.2237767914
 11
108.4063681076
 21
202.2237767914
  0
LINE
  5
3E1
100
AcDbEntity
  8
0
100
AcDbLine
 62
7
  6
CONTINUOUS
 10
97.1663681076
 20
88.0837767914
 11
98.0063681076
 21
88.6837767914
  0
LINE
  5
3E2
100
AcDbEntity
  8
0
100
AcDbLine
 62
7
  6
CONTINUOUS
 10
98.0063681076
 20
88.0237767914
 11
97.2363681076
 21
87.4737767914
  0
LINE
  5
3E3
100
AcDbEntity
  8
0
100
AcDbLine
 62
7
  6
CONTINUOUS
 10
98.0063681076
 20
90.8049846988
 11
96.7423137131
 21
90.0580204531
  0
LINE
  5
3E4
100
AcDbEntity
  8
0
100
AcDbLine
 62
7
  6
CONTINUOUS
 10
96.7419560451
 20
89.4537767914
 11
98.0063681076
 21
90.1749846988
  0
LINE
  5
3E5
100
AcDbEntity
  8
A_ACHSEN
100
AcDbLine
 62
7
  6
CENTER
 10
37.7276648245
 20
208.4237767914
 11
53.4850713907
 21
208.4237767914
  0
LINE
  5
3E6
100
AcDbEntity
  8
0
100
AcDbLine
 62
7
  6
CONTINUOUS
 10
96.3863681076
 20
77.3737767914
 11
98.0063681076
 21
78.1737767914
  0
LINE
  5
3E7
100
AcDbEntity
  8
0
100
AcDbLine
 62
7
  6
CONTINUOUS
 10
97.2463681076
 20
78.3237767914
 11
95.5463681076
 21
77.5237767914
  0
LINE
  5
3E8
100
AcDbEntity
  8
A_RUNDUNGEN
100
AcDbLine
 62
7
  6
CONTINUOUS
 10
46.6063681076
 20
216.3737767914
 11
51.1067107826
 21
216.3737767914
  0
LINE
  5
3E9
100
AcDbEntity
  8
0
100
AcDbLine
 62
7
  6
CONTINUOUS
 10
46.6063681076
 20
218.2795281505
 11
54.4227702277
 21
218.2795281505
  0
LINE
  5
3EA
100
AcDbEntity
  8
0
100
AcDbLine
 62
7
  6
CONTINUOUS
 10
67.1063681076
 20
218.3737767914
 11
65.1063681076
 21
218.3737767914
  0
LINE
  5
3EB
100
AcDbEntity
  8
0
100
AcDbLine
 62
7
  6
CONTINUOUS
 10
54.4241800608
 20
218.4237767914
 11
59.461890272
 21
218.4237767914
  0
LINE
  5
3EC
100
AcDbEntity
  8
0
100
AcDbLine
 62
7
  6
CONTINUOUS
 10
59.4702051311
 20
218.4237767914
 11
65.1063681076
 21
218.4237767914
  0
LINE
  5
3ED
100
AcDbEntity
  8
0
100
AcDbLine
 62
7
  6
CONTINUOUS
 10
108.5063681076
 20
67.3237767914
 11
108.0215449062
 21
66.83895359
  0
LINE
  5
3EE
100
AcDbEntity
  8
0
100
AcDbLine
 62
7
  6
CONTINUOUS
 10
106.1063681076
 20
64.9237767914
 11
106.591191309
 21
65.4085999927
  0
LINE
  5
3EF
100
AcDbEntity
  8
0
100
AcDbLine
 62
7
  6
CONTINUOUS
 10
109.9063681076
 20
65.9237767914
 11
109.4215449062
 21
65.43895359
  0
LINE
  5
3F0
100
AcDbEntity
  8
0
100
AcDbLine
 62
7
  6
CONTINUOUS
 10
107.5063681076
 20
63.5237767914
 11
107.991191309
 21
64.0085999927
  0
LINE
  5
3F1
100
AcDbEntity
  8
0
100
AcDbLine
 62
7
  6
CONTINUOUS
 10
97.1326965926
 20
73.0137767914
 11
95.5463681076
 21
72.3537767914
  0
LINE
  5
3F2
100
AcDbEntity
  8
0
100
AcDbLine
 62
7
  6
CONTINUOUS
 10
96.6363681076
 20
72.3537767914
 11
97.6863681076
 21
72.7684762979
  0
LINE
  5
3F3
100
AcDbEntity
  8
0
100
AcDbLine
 62
7
  6
CONTINUOUS
 10
106.1063681076
 20
231.9237767914
 11
106.591191309
 21
231.43895359
  0
LINE
  5
3F4
100
AcDbEntity
  8
0
100
AcDbLine
 62
7
  6
CONTINUOUS
 10
108.5063681076
 20
229.5237767914
 11
108.0215449062
 21
230.0085999927
  0
LINE
  5
3F5
100
AcDbEntity
  8
0
100
AcDbLine
 62
7
  6
CONTINUOUS
 10
107.5063681076
 20
233.3237767914
 11
107.991191309
 21
232.83895359
  0
LINE
  5
3F6
100
AcDbEntity
  8
0
100
AcDbLine
 62
7
  6
CONTINUOUS
 10
109.9063681076
 20
230.9237767914
 11
109.4215449062
 21
231.4085999927
  0
LINE
  5
3F7
100
AcDbEntity
  8
0
100
AcDbLine
 62
7
  6
CONTINUOUS
 10
107.5063681076
 20
229.5237767914
 11
108.5063681076
 21
229.5237767914
  0
LINE
  5
3F8
100
AcDbEntity
  8
0
100
AcDbLine
 62
7
  6
CONTINUOUS
 10
107.991191309
 20
230.0085999927
 11
108.0215449062
 21
230.0085999927
  0
LINE
  5
3F9
100
AcDbEntity
  8
A_ACHSEN
100
AcDbLine
 62
7
  6
CENTER
 10
93.6310938069
 20
230.4237767914
 11
105.3816424083
 21
230.4237767914
  0
LINE
  5
3FA
100
AcDbEntity
  8
A_ACHSEN
100
AcDbLine
 62
7
  6
CENTER
 10
110.5408827063
 20
230.4237767914
 11
122.471853509
 21
230.4237767914
  0
LINE
  5
3FB
100
AcDbEntity
  8
0
100
AcDbLine
 62
7
  6
CONTINUOUS
 10
106.1063681076
 20
230.9237767914
 11
107.2063681076
 21
230.9237767914
  0
LINE
  5
3FC
100
AcDbEntity
  8
0
100
AcDbLine
 62
7
  6
CONTINUOUS
 10
108.8063681076
 20
230.9237767914
 11
109.9063681076
 21
230.9237767914
  0
LINE
  5
3FD
100
AcDbEntity
  8
0
100
AcDbLine
 62
7
  6
CONTINUOUS
 10
106.591191309
 20
231.4085999927
 11
107.2063681076
 21
231.4085999927
  0
LINE
  5
3FE
100
AcDbEntity
  8
0
100
AcDbLine
 62
7
  6
CONTINUOUS
 10
108.8063681076
 20
231.4085999927
 11
109.4215449062
 21
231.4085999927
  0
LINE
  5
3FF
100
AcDbEntity
  8
A_ACHSEN
100
AcDbLine
 62
7
  6
CENTER
 10
101.30575661
 20
231.4237767914
 11
114.7069796052
 21
231.4237767914
  0
LINE
  5
400
100
AcDbEntity
  8
0
100
AcDbLine
 62
7
  6
CONTINUOUS
 10
109.4215449062
 20
231.43895359
 11
108.8063681076
 21
231.43895359
  0
LINE
  5
401
100
AcDbEntity
  8
0
100
AcDbLine
 62
7
  6
CONTINUOUS
 10
107.2063681076
 20
231.43895359
 11
106.591191309
 21
231.43895359
  0
LINE
  5
402
100
AcDbEntity
  8
0
100
AcDbLine
 62
7
  6
CONTINUOUS
 10
109.9063681076
 20
231.9237767914
 11
108.8063681076
 21
231.9237767914
  0
LINE
  5
403
100
AcDbEntity
  8
0
100
AcDbLine
 62
7
  6
CONTINUOUS
 10
107.2063681076
 20
231.9237767914
 11
106.1063681076
 21
231.9237767914
  0
LINE
  5
404
100
AcDbEntity
  8
0
100
AcDbLine
 62
7
  6
CONTINUOUS
 10
108.0215449062
 20
232.83895359
 11
107.991191309
 21
232.83895359
  0
LINE
  5
405
100
AcDbEntity
  8
0
100
AcDbLine
 62
7
  6
CONTINUOUS
 10
108.5063681076
 20
233.3237767914
 11
107.5063681076
 21
233.3237767914
  0
LINE
  5
406
100
AcDbEntity
  8
A_ACHSEN
100
AcDbLine
 62
7
  6
CENTER
 10
94.2554552432
 20
236.4237767914
 11
104.757280972
 21
236.4237767914
  0
LINE
  5
407
100
AcDbEntity
  8
A_ACHSEN
100
AcDbLine
 62
7
  6
CENTER
 10
110.5929128259
 20
236.4237767914
 11
122.4198233893
 21
236.4237767914
  0
LINE
  5
408
100
AcDbEntity
  8
0
100
AcDbLine
 62
7
  6
CONTINUOUS
 10
122.9563681076
 20
248.4237767914
 11
122.9063681076
 21
248.4237767914
  0
LINE
  5
409
100
AcDbEntity
  8
0
100
AcDbLine
 62
7
  6
CONTINUOUS
 10
93.0563681076
 20
248.4237767914
 11
93.1063681076
 21
248.4237767914
  0
LINE
  5
40A
100
AcDbEntity
  8
A_ACHSEN
100
AcDbLine
 62
7
  6
CENTER
 10
92.5053608726
 20
264.4237767914
 11
122.6174236956
 21
264.4237767914
  0
ARC
  5
40B
100
AcDbEntity
  8
0
100
AcDbCircle
 62
7
  6
CONTINUOUS
 10
67.1063681076
 20
88.4737767914
 40
10.0
100
AcDbArc
 50
270.0
 51
360.0
  0
ARC
  5
40C
100
AcDbEntity
  8
0
100
AcDbCircle
 62
7
  6
CONTINUOUS
 10
46.6063681076
 20
88.4737767914
 40
9.9057513591
100
AcDbArc
 50
180.0
 51
270.0
  0
ARC
  5
40D
100
AcDbEntity
  8
0
100
AcDbCircle
 62
7
  6
CONTINUOUS
 10
46.6063681076
 20
88.4737767914
 40
8.0
100
AcDbArc
 50
180.0
 51
270.0
  0
ARC
  5
40E
100
AcDbEntity
  8
A_ACHSEN
100
AcDbCircle
 62
7
  6
CONTINUOUS
 10
56.6063681076
 20
104.4237767914
 40
5.25
100
AcDbArc
 50
79.6040251435
 51
280.3959748565
  0
CIRCLE
  5
40F
100
AcDbEntity
  8
A_RUNDUNGEN
100
AcDbCircle
 62
7
  6
CONTINUOUS
 10
45.6063681076
 20
88.4237767914
 40
5.25
  0
CIRCLE
  5
410
100
AcDbEntity
  8
A_ACHSEN
100
AcDbCircle
 62
7
  6
CONTINUOUS
 10
45.6063681076
 20
88.4237767914
 40
3.0
  0
ARC
  5
411
100
AcDbEntity
  8
A_ACHSEN
100
AcDbCircle
 62
7
  6
CONTINUOUS
 10
56.6063681076
 20
104.4237767914
 40
3.0
100
AcDbArc
 50
71.4848451985
 51
288.5151548015
  0
ARC
  5
412
100
AcDbEntity
  8
A_RUNDUNGEN
100
AcDbCircle
 62
7
  6
CONTINUOUS
 10
74.097461667
 20
98.5347387841
 40
1.008967652
100
AcDbArc
 50
347.7974148525
 51
353.6141853233
  0
ARC
  5
413
100
AcDbEntity
  8
0
100
AcDbCircle
 62
7
  6
CONTINUOUS
 10
41.6063681076
 20
140.4237767914
 40
1.0
100
AcDbArc
 50
180.0
 51
270.0
  0
ARC
  5
414
100
AcDbEntity
  8
0
100
AcDbCircle
 62
7
  6
CONTINUOUS
 10
45.1063681076
 20
140.4237767914
 40
1.0
100
AcDbArc
 50
270.0
 51
360.0
  0
ARC
  5
415
100
AcDbEntity
  8
0
100
AcDbCircle
 62
7
  6
CONTINUOUS
 10
67.1063681076
 20
208.3737767914
 40
10.0
100
AcDbArc
 50
0.0
 51
90.0
  0
ARC
  5
416
100
AcDbEntity
  8
0
100
AcDbCircle
 62
7
  6
CONTINUOUS
 10
46.6063681076
 20
208.3737767914
 40
9.9057513591
100
AcDbArc
 50
90.0
 51
180.0
  0
ARC
  5
417
100
AcDbEntity
  8
0
100
AcDbCircle
 62
7
  6
CONTINUOUS
 10
46.6063681076
 20
208.3737767914
 40
8.0
100
AcDbArc
 50
90.0
 51
180.0
  0
ARC
  5
418
100
AcDbEntity
  8
A_ACHSEN
100
AcDbCircle
 62
7
  6
CONTINUOUS
 10
56.6063681076
 20
192.4237767914
 40
5.25
100
AcDbArc
 50
79.6040251435
 51
280.3959748565
  0
CIRCLE
  5
419
100
AcDbEntity
  8
A_RUNDUNGEN
100
AcDbCircle
 62
7
  6
CONTINUOUS
 10
45.6063681076
 20
208.4237767914
 40
5.25
  0
CIRCLE
  5
41A
100
AcDbEntity
  8
A_ACHSEN
100
AcDbCircle
 62
7
  6
CONTINUOUS
 10
45.6063681076
 20
208.4237767914
 40
3.0
  0
ARC
  5
41B
100
AcDbEntity
  8
A_ACHSEN
100
AcDbCircle
 62
7
  6
CONTINUOUS
 10
56.6063681076
 20
192.4237767914
 40
3.0
100
AcDbArc
 50
71.4848451985
 51
288.5151548015
  0
ARC
  5
41C
100
AcDbEntity
  8
A_RUNDUNGEN
100
AcDbCircle
 62
7
  6
CONTINUOUS
 10
74.1045742977
 20
198.3136293431
 40
1.0019077175
100
AcDbArc
 50
6.3836179002
 51
12.2427644591
  0
ARC
  5
41D
100
AcDbEntity
  8
0
100
AcDbCircle
 62
7
  6
CONTINUOUS
 10
45.1063681076
 20
156.4237767914
 40
1.0
100
AcDbArc
 50
0.0
 51
90.0
  0
ARC
  5
41E
100
AcDbEntity
  8
0
100
AcDbCircle
 62
7
  6
CONTINUOUS
 10
41.6063681076
 20
156.4237767914
 40
1.0
100
AcDbArc
 50
90.0
 51
180.0
  0
CIRCLE
  5
41F
100
AcDbEntity
  8
DEFAULT_2
100
AcDbCircle
 62
8
  6
HIDDEN
 10
101.0063681076
 20
32.4237767914
 40
5.3
  0
CIRCLE
  5
420
100
AcDbEntity
  8
DEFAULT_2
100
AcDbCircle
 62
8
  6
HIDDEN
 10
101.0063681076
 20
32.4237767914
 40
5.2473640402
  0
ARC
  5
421
100
AcDbEntity
  8
DEFAULT_2
100
AcDbCircle
 62
8
  6
HIDDEN
 10
99.5063681076
 20
60.4237767914
 40
4.4920057142
100
AcDbArc
 50
180.0
 51
360.0
  0
CIRCLE
  5
422
100
AcDbEntity
  8
A_ACHSEN
100
AcDbCircle
 62
8
  6
HIDDEN
 10
101.0063681076
 20
32.4237767914
 40
3.0
  0
ARC
  5
423
100
AcDbEntity
  8
A_ACHSEN
100
AcDbCircle
 62
8
  6
HIDDEN
 10
99.5063681076
 20
60.4237767914
 40
2.6
100
AcDbArc
 50
180.0
 51
360.0
  0
ARC
  5
424
100
AcDbEntity
  8
DEFAULT_2
100
AcDbCircle
 62
8
  6
HIDDEN
 10
99.5063681076
 20
66.4237767914
 40
4.4920057142
100
AcDbArc
 50
0.0
 51
180.0
  0
ARC
  5
425
100
AcDbEntity
  8
0
100
AcDbCircle
 62
7
  6
CONTINUOUS
 10
104.1063681076
 20
91.4237767914
 40
4.3
100
AcDbArc
 50
48.4401498934
 51
90.0
  0
ARC
  5
426
100
AcDbEntity
  8
0
100
AcDbCircle
 62
7
  6
CONTINUOUS
 10
101.1063681076
 20
91.4237767914
 40
4.3
100
AcDbArc
 50
90.0
 51
131.5598501066
  0
ARC
  5
427
100
AcDbEntity
  8
A_RUNDUNGEN
100
AcDbCircle
 62
7
  6
CONTINUOUS
 10
102.6063681076
 20
91.4237767914
 40
4.25
100
AcDbArc
 50
49.4375230493
 51
130.5624769556
  0
ARC
  5
428
100
AcDbEntity
  8
A_ACHSEN
100
AcDbCircle
 62
8
  6
HIDDEN
 10
99.5063681076
 20
66.4237767914
 40
2.6
100
AcDbArc
 50
0.0
 51
180.0
  0
ARC
  5
429
100
AcDbEntity
  8
0
100
AcDbCircle
 62
7
  6
CONTINUOUS
 10
107.2063681076
 20
66.2237767914
 40
0.7848232014
100
AcDbArc
 50
270.0
 51
360.0
  0
ARC
  5
42A
100
AcDbEntity
  8
0
100
AcDbCircle
 62
7
  6
CONTINUOUS
 10
107.2063681076
 20
64.6237767914
 40
0.7848232014
100
AcDbArc
 50
0.0
 51
90.0
  0
ARC
  5
42B
100
AcDbEntity
  8
0
100
AcDbCircle
 62
7
  6
CONTINUOUS
 10
107.2063681076
 20
66.2237767914
 40
0.3
100
AcDbArc
 50
270.0
 51
360.0
  0
ARC
  5
42C
100
AcDbEntity
  8
0
100
AcDbCircle
 62
7
  6
CONTINUOUS
 10
107.2063681076
 20
64.6237767914
 40
0.3
100
AcDbArc
 50
0.0
 51
90.0
  0
ARC
  5
42D
100
AcDbEntity
  8
0
100
AcDbCircle
 62
7
  6
CONTINUOUS
 10
108.0063681076
 20
38.4237767914
 40
14.95
100
AcDbArc
 50
180.0
 51
360.0
  0
ARC
  5
42E
100
AcDbEntity
  8
0
100
AcDbCircle
 62
7
  6
CONTINUOUS
 10
108.0063681076
 20
38.4237767914
 40
14.9
100
AcDbArc
 50
180.0
 51
360.0
  0
CIRCLE
  5
42F
100
AcDbEntity
  8
DEFAULT_2
100
AcDbCircle
 62
8
  6
HIDDEN
 10
115.0063681076
 20
32.4237767914
 40
5.3
  0
CIRCLE
  5
430
100
AcDbEntity
  8
DEFAULT_2
100
AcDbCircle
 62
8
  6
HIDDEN
 10
115.0063681076
 20
32.4237767914
 40
5.2473640402
  0
ARC
  5
431
100
AcDbEntity
  8
A_RUNDUNGEN
100
AcDbCircle
 62
8
  6
HIDDEN
 10
116.5040000598
 20
59.9238654517
 40
4.5023659153
100
AcDbArc
 50
354.7139404611
 51
359.9988717351
  0
ARC
  5
432
100
AcDbEntity
  8
DEFAULT_2
100
AcDbCircle
 62
8
  6
HIDDEN
 10
116.5063681076
 20
60.4237767914
 40
4.4920057142
100
AcDbArc
 50
180.0
 51
360.0
  0
CIRCLE
  5
433
100
AcDbEntity
  8
A_ACHSEN
100
AcDbCircle
 62
8
  6
HIDDEN
 10
115.0063681076
 20
32.4237767914
 40
3.0
  0
ARC
  5
434
100
AcDbEntity
  8
A_ACHSEN
100
AcDbCircle
 62
8
  6
HIDDEN
 10
116.5063681076
 20
60.4237767914
 40
2.6
100
AcDbArc
 50
180.0
 51
360.0
  0
ARC
  5
435
100
AcDbEntity
  8
DEFAULT_2
100
AcDbCircle
 62
8
  6
HIDDEN
 10
116.5063681076
 20
66.4237767914
 40
4.4920057142
100
AcDbArc
 50
0.0
 51
180.0
  0
CIRCLE
  5
436
100
AcDbEntity
  8
0
100
AcDbCircle
 62
7
  6
CONTINUOUS
 10
108.0063681076
 20
65.4237767914
 40
4.0
  0
CIRCLE
  5
437
100
AcDbEntity
  8
0
100
AcDbCircle
 62
7
  6
CONTINUOUS
 10
108.0063681076
 20
65.4237767914
 40
3.75
  0
ARC
  5
438
100
AcDbEntity
  8
A_ACHSEN
100
AcDbCircle
 62
8
  6
HIDDEN
 10
116.5063681076
 20
66.4237767914
 40
2.6
100
AcDbArc
 50
0.0
 51
180.0
  0
ARC
  5
439
100
AcDbEntity
  8
0
100
AcDbCircle
 62
7
  6
CONTINUOUS
 10
108.8063681076
 20
66.2237767914
 40
0.7848232014
100
AcDbArc
 50
180.0
 51
270.0
  0
ARC
  5
43A
100
AcDbEntity
  8
0
100
AcDbCircle
 62
7
  6
CONTINUOUS
 10
108.8063681076
 20
64.6237767914
 40
0.7848232014
100
AcDbArc
 50
90.0
 51
180.0
  0
ARC
  5
43B
100
AcDbEntity
  8
A_RUNDUNGEN
100
AcDbCircle
 62
7
  6
CONTINUOUS
 10
108.4063681076
 20
95.1237767914
 40
0.5
100
AcDbArc
 50
270.0
 51
360.0
  0
ARC
  5
43C
100
AcDbEntity
  8
0
100
AcDbCircle
 62
7
  6
CONTINUOUS
 10
108.8063681076
 20
64.6237767914
 40
0.3
100
AcDbArc
 50
90.0
 51
180.0
  0
ARC
  5
43D
100
AcDbEntity
  8
0
100
AcDbCircle
 62
7
  6
CONTINUOUS
 10
108.8063681076
 20
66.2237767914
 40
0.3
100
AcDbArc
 50
180.0
 51
270.0
  0
ARC
  5
43E
100
AcDbEntity
  8
0
100
AcDbCircle
 62
7
  6
CONTINUOUS
 10
104.1063681076
 20
205.4237767914
 40
4.3
100
AcDbArc
 50
270.0
 51
311.5598501066
  0
ARC
  5
43F
100
AcDbEntity
  8
0
100
AcDbCircle
 62
7
  6
CONTINUOUS
 10
101.1063681076
 20
205.4237767914
 40
4.3
100
AcDbArc
 50
228.4401498934
 51
270.0
  0
ARC
  5
440
100
AcDbEntity
  8
A_RUNDUNGEN
100
AcDbCircle
 62
7
  6
CONTINUOUS
 10
102.6063681076
 20
205.4237767914
 40
4.25
100
AcDbArc
 50
229.4375230493
 51
310.5624769556
  0
CIRCLE
  5
441
100
AcDbEntity
  8
DEFAULT_2
100
AcDbCircle
 62
8
  6
HIDDEN
 10
101.0063681076
 20
264.4237767914
 40
5.3
  0
CIRCLE
  5
442
100
AcDbEntity
  8
DEFAULT_2
100
AcDbCircle
 62
8
  6
HIDDEN
 10
101.0063681076
 20
264.4237767914
 40
5.2473640402
  0
ARC
  5
443
100
AcDbEntity
  8
DEFAULT_2
100
AcDbCircle
 62
8
  6
HIDDEN
 10
99.5063681076
 20
230.4237767914
 40
4.4920057142
100
AcDbArc
 50
180.0
 51
360.0
  0
ARC
  5
444
100
AcDbEntity
  8
DEFAULT_2
100
AcDbCircle
 62
8
  6
HIDDEN
 10
99.5063681076
 20
236.4237767914
 40
4.4920057142
100
AcDbArc
 50
0.0
 51
180.0
  0
CIRCLE
  5
445
100
AcDbEntity
  8
A_ACHSEN
100
AcDbCircle
 62
8
  6
HIDDEN
 10
101.0063681076
 20
264.4237767914
 40
3.0
  0
ARC
  5
446
100
AcDbEntity
  8
A_ACHSEN
100
AcDbCircle
 62
8
  6
HIDDEN
 10
99.5063681076
 20
230.4237767914
 40
2.6
100
AcDbArc
 50
180.0
 51
360.0
  0
ARC
  5
447
100
AcDbEntity
  8
A_ACHSEN
100
AcDbCircle
 62
8
  6
HIDDEN
 10
99.5063681076
 20
236.4237767914
 40
2.6
100
AcDbArc
 50
0.0
 51
180.0
  0
ARC
  5
448
100
AcDbEntity
  8
0
100
AcDbCircle
 62
7
  6
CONTINUOUS
 10
107.2063681076
 20
232.2237767914
 40
0.7848232014
100
AcDbArc
 50
270.0
 51
360.0
  0
ARC
  5
449
100
AcDbEntity
  8
0
100
AcDbCircle
 62
7
  6
CONTINUOUS
 10
107.2063681076
 20
230.6237767914
 40
0.7848232014
100
AcDbArc
 50
0.0
 51
90.0
  0
ARC
  5
44A
100
AcDbEntity
  8
0
100
AcDbCircle
 62
7
  6
CONTINUOUS
 10
107.2063681076
 20
232.2237767914
 40
0.3
100
AcDbArc
 50
270.0
 51
360.0
  0
ARC
  5
44B
100
AcDbEntity
  8
0
100
AcDbCircle
 62
7
  6
CONTINUOUS
 10
107.2063681076
 20
230.6237767914
 40
0.3
100
AcDbArc
 50
0.0
 51
90.0
  0
ARC
  5
44C
100
AcDbEntity
  8
A_RUNDUNGEN
100
AcDbCircle
 62
7
  6
CONTINUOUS
 10
111.6063681076
 20
148.4237767914
 40
4.3
100
AcDbArc
 50
129.1216769707
 51
230.8783230293
  0
ARC
  5
44D
100
AcDbEntity
  8
A_RUNDUNGEN
100
AcDbCircle
 62
7
  6
CONTINUOUS
 10
113.1063681076
 20
148.4237767914
 40
4.25
100
AcDbArc
 50
175.6525698308
 51
184.345069866
  0
ARC
  5
44E
100
AcDbEntity
  8
A_RUNDUNGEN
100
AcDbCircle
 62
7
  6
CONTINUOUS
 10
108.4063681076
 20
201.7237767914
 40
0.5
100
AcDbArc
 50
0.0
 51
90.0
  0
ARC
  5
44F
100
AcDbEntity
  8
0
100
AcDbCircle
 62
7
  6
CONTINUOUS
 10
108.0063681076
 20
258.4237767914
 40
14.95
100
AcDbArc
 50
0.0
 51
180.0
  0
ARC
  5
450
100
AcDbEntity
  8
0
100
AcDbCircle
 62
7
  6
CONTINUOUS
 10
108.0063681076
 20
258.4237767914
 40
14.9
100
AcDbArc
 50
0.0
 51
180.0
  0
CIRCLE
  5
451
100
AcDbEntity
  8
DEFAULT_2
100
AcDbCircle
 62
8
  6
HIDDEN
 10
115.0063681076
 20
264.4237767914
 40
5.3
  0
CIRCLE
  5
452
100
AcDbEntity
  8
DEFAULT_2
100
AcDbCircle
 62
8
  6
HIDDEN
 10
115.0063681076
 20
264.4237767914
 40
5.2473640402
  0
ARC
  5
453
100
AcDbEntity
  8
DEFAULT_2
100
AcDbCircle
 62
8
  6
HIDDEN
 10
116.5063681076
 20
230.4237767914
 40
4.4920057142
100
AcDbArc
 50
180.0
 51
360.0
  0
ARC
  5
454
100
AcDbEntity
  8
DEFAULT_2
100
AcDbCircle
 62
8
  6
HIDDEN
 10
116.5063681076
 20
236.4237767914
 40
4.4920057142
100
AcDbArc
 50
0.0
 51
180.0
  0
CIRCLE
  5
455
100
AcDbEntity
  8
A_ACHSEN
100
AcDbCircle
 62
7
  6
CONTINUOUS
 10
108.0063681076
 20
231.4237767914
 40
4.0
  0
CIRCLE
  5
456
100
AcDbEntity
  8
0
100
AcDbCircle
 62
7
  6
CONTINUOUS
 10
108.0063681076
 20
231.4237767914
 40
3.75
  0
CIRCLE
  5
457
100
AcDbEntity
  8
A_ACHSEN
100
AcDbCircle
 62
8
  6
HIDDEN
 10
115.0063681076
 20
264.4237767914
 40
3.0
  0
ARC
  5
458
100
AcDbEntity
  8
A_ACHSEN
100
AcDbCircle
 62
8
  6
HIDDEN
 10
116.5063681076
 20
230.4237767914
 40
2.6
100
AcDbArc
 50
180.0
 51
360.0
  0
ARC
  5
459
100
AcDbEntity
  8
A_ACHSEN
100
AcDbCircle
 62
8
  6
HIDDEN
 10
116.5063681076
 20
236.4237767914
 40
2.6
100
AcDbArc
 50
0.0
 51
180.0
  0
ARC
  5
45A
100
AcDbEntity
  8
0
100
AcDbCircle
 62
7
  6
CONTINUOUS
 10
108.8063681076
 20
232.2237767914
 40
0.7848232014
100
AcDbArc
 50
180.0
 51
270.0
  0
ARC
  5
45B
100
AcDbEntity
  8
0
100
AcDbCircle
 62
7
  6
CONTINUOUS
 10
108.8063681076
 20
230.6237767914
 40
0.7848232014
100
AcDbArc
 50
90.0
 51
180.0
  0
ARC
  5
45C
100
AcDbEntity
  8
0
100
AcDbCircle
 62
7
  6
CONTINUOUS
 10
108.8063681076
 20
230.6237767914
 40
0.3
100
AcDbArc
 50
90.0
 51
180.0
  0
ARC
  5
45D
100
AcDbEntity
  8
0
100
AcDbCircle
 62
7
  6
CONTINUOUS
 10
108.8063681076
 20
232.2237767914
 40
0.3
100
AcDbArc
 50
180.0
 51
270.0
  0
LINE
  5
45E
100
AcDbEntity
  8
0
100
AcDbLine
 62
7
  6
CONTINUOUS
 10
96.3163681076
 20
75.9337767914
 11
97.2363681076
 21
75.9337767914
  0
SPLINE
  5
45F
100
AcDbEntity
  8
0
100
AcDbSpline
 62
7
  6
CONTINUOUS
 70
0
 71
3
 72
8
 73
4
 74
0
 42
0.0000001
 43
0.0000001
 44
0.0000000001
 40
0.0
 40
0.0
 40
0.0
 40
0.0
 40
1.0
 40
1.0
 40
1.0
 40
1.0
 10
96.0063681076
 20
75.5337767914
 30
0.0
 10
96.0068522637
 20
75.8111775172
 30
0.0
 10
96.1240190669
 20
75.933445394
 30
0.0
 10
96.3163681076
 20
75.9337767914
 30
0.0
  0
SPLINE
  5
460
100
AcDbEntity
  8
0
100
AcDbSpline
 62
7
  6
CONTINUOUS
 70
0
 71
3
 72
8
 73
4
 74
0
 42
0.0000001
 43
0.0000001
 44
0.0000000001
 40
0.0
 40
0.0
 40
0.0
 40
0.0
 40
1.0
 40
1.0
 40
1.0
 40
1.0
 10
96.3163681076
 20
75.1337767914
 30
0.0
 10
96.1240190669
 20
75.1341081888
 30
0.0
 10
96.0058839515
 20
75.2563760655
 30
0.0
 10
96.0063681076
 20
75.5337767914
 30
0.0
  0
LINE
  5
461
100
AcDbEntity
  8
0
100
AcDbLine
 62
7
  6
CONTINUOUS
 10
97.2363681076
 20
75.1337767914
 11
96.3163681076
 21
75.1337767914
  0
SPLINE
  5
462
100
AcDbEntity
  8
0
100
AcDbSpline
 62
7
  6
CONTINUOUS
 70
0
 71
3
 72
8
 73
4
 74
0
 42
0.0000001
 43
0.0000001
 44
0.0000000001
 40
0.0
 40
0.0
 40
0.0
 40
0.0
 40
1.0
 40
1.0
 40
1.0
 40
1.0
 10
97.5463681076
 20
75.5337767914
 30
0.0
 10
97.5458839515
 20
75.2563760655
 30
0.0
 10
97.4287171483
 20
75.1341081888
 30
0.0
 10
97.2363681076
 20
75.1337767914
 30
0.0
  0
SPLINE
  5
463
100
AcDbEntity
  8
0
100
AcDbSpline
 62
7
  6
CONTINUOUS
 70
0
 71
3
 72
8
 73
4
 74
0
 42
0.0000001
 43
0.0000001
 44
0.0000000001
 40
0.0
 40
0.0
 40
0.0
 40
0.0
 40
1.0
 40
1.0
 40
1.0
 40
1.0
 10
97.2363681076
 20
75.9337767914
 30
0.0
 10
97.4287171483
 20
75.933445394
 30
0.0
 10
97.5468522637
 20
75.8111775172
 30
0.0
 10
97.5463681076
 20
75.5337767914
 30
0.0
  0
LINE
  5
464
100
AcDbEntity
  8
0
100
AcDbLine
 62
7
  6
CONTINUOUS
 10
96.2963681076
 20
87.8837767914
 11
96.4963681076
 21
87.8837767914
  0
SPLINE
  5
465
100
AcDbEntity
  8
0
100
AcDbSpline
 62
7
  6
CONTINUOUS
 70
0
 71
3
 72
8
 73
4
 74
0
 42
0.0000001
 43
0.0000001
 44
0.0000000001
 40
0.0
 40
0.0
 40
0.0
 40
0.0
 40
1.0
 40
1.0
 40
1.0
 40
1.0
 10
96.0363681076
 20
87.5937767914
 30
0.0
 10
96.0363681076
 20
87.8172679041
 30
0.0
 10
96.1131962574
 20
87.8859827948
 30
0.0
 10
96.2963681076
 20
87.8837767914
 30
0.0
  0
LINE
  5
466
100
AcDbEntity
  8
0
100
AcDbLine
 62
7
  6
CONTINUOUS
 10
96.7563681076
 20
87.5937767914
 11
96.7563681076
 21
87.1537767914
  0
SPLINE
  5
467
100
AcDbEntity
  8
0
100
AcDbSpline
 62
7
  6
CONTINUOUS
 70
0
 71
3
 72
8
 73
4
 74
0
 42
0.0000001
 43
0.0000001
 44
0.0000000001
 40
0.0
 40
0.0
 40
0.0
 40
0.0
 40
1.0
 40
1.0
 40
1.0
 40
1.0
 10
96.4963681076
 20
87.8837767914
 30
0.0
 10
96.6761817692
 20
87.8822075813
 30
0.0
 10
96.7583762768
 20
87.8238901829
 30
0.0
 10
96.7563681076
 20
87.5937767914
 30
0.0
  0
SPLINE
  5
468
100
AcDbEntity
  8
0
100
AcDbSpline
 62
7
  6
CONTINUOUS
 70
0
 71
3
 72
8
 73
4
 74
0
 42
0.0000001
 43
0.0000001
 44
0.0000000001
 40
0.0
 40
0.0
 40
0.0
 40
0.0
 40
1.0
 40
1.0
 40
1.0
 40
1.0
 10
98.0463681076
 20
69.5837767914
 30
0.0
 10
98.0463681076
 20
70.3265497108
 30
0.0
 10
97.8041742917
 20
70.4850538679
 30
0.0
 10
97.3163681076
 20
70.4837767914
 30
0.0
  0
SPLINE
  5
469
100
AcDbEntity
  8
0
100
AcDbSpline
 62
7
  6
CONTINUOUS
 70
0
 71
3
 72
8
 73
4
 74
0
 42
0.0000001
 43
0.0000001
 44
0.0000000001
 40
0.0
 40
0.0
 40
0.0
 40
0.0
 40
1.0
 40
1.0
 40
1.0
 40
1.0
 10
97.8863681076
 20
68.7837767914
 30
0.0
 10
97.9831050343
 20
68.9958789027
 30
0.0
 10
98.0463681076
 20
69.2972765566
 30
0.0
 10
98.0463681076
 20
69.5837767914
 30
0.0
  0
SPLINE
  5
46A
100
AcDbEntity
  8
0
100
AcDbSpline
 62
7
  6
CONTINUOUS
 70
0
 71
3
 72
8
 73
4
 74
0
 42
0.0000001
 43
0.0000001
 44
0.0000000001
 40
0.0
 40
0.0
 40
0.0
 40
0.0
 40
1.0
 40
1.0
 40
1.0
 40
1.0
 10
97.5763681076
 20
69.5937767914
 30
0.0
 10
97.5799812434
 20
69.3350218214
 30
0.0
 10
97.5275956275
 20
69.1025053973
 30
0.0
 10
97.4563681076
 20
68.8737767914
 30
0.0
  0
SPLINE
  5
46B
100
AcDbEntity
  8
0
100
AcDbSpline
 62
7
  6
CONTINUOUS
 70
0
 71
3
 72
8
 73
4
 74
0
 42
0.0000001
 43
0.0000001
 44
0.0000000001
 40
0.0
 40
0.0
 40
0.0
 40
0.0
 40
1.0
 40
1.0
 40
1.0
 40
1.0
 10
97.3063681076
 20
69.9337767914
 30
0.0
 10
97.5155754287
 20
69.9371728512
 30
0.0
 10
97.5723511389
 20
69.881452288
 30
0.0
 10
97.5763681076
 20
69.5937767914
 30
0.0
  0
SPLINE
  5
46C
100
AcDbEntity
  8
0
100
AcDbSpline
 62
7
  6
CONTINUOUS
 70
0
 71
3
 72
8
 73
4
 74
0
 42
0.0000001
 43
0.0000001
 44
0.0000000001
 40
0.0
 40
0.0
 40
0.0
 40
0.0
 40
1.0
 40
1.0
 40
1.0
 40
1.0
 10
96.9763681076
 20
69.5137767914
 30
0.0
 10
97.0585919383
 20
69.9186121304
 30
0.0
 10
97.0843374719
 20
69.9301725708
 30
0.0
 10
97.3063681076
 20
69.9337767914
 30
0.0
  0
SPLINE
  5
46D
100
AcDbEntity
  8
0
100
AcDbSpline
 62
7
  6
CONTINUOUS
 70
0
 71
3
 72
8
 73
4
 74
0
 42
0.0000001
 43
0.0000001
 44
0.0000000001
 40
0.0
 40
0.0
 40
0.0
 40
0.0
 40
1.0
 40
1.0
 40
1.0
 40
1.0
 10
96.1963681076
 20
68.8237767914
 30
0.0
 10
96.7308123326
 20
68.8217246628
 30
0.0
 10
96.849150384
 20
68.9156869095
 30
0.0
 10
96.9763681076
 20
69.5137767914
 30
0.0
  0
SPLINE
  5
46E
100
AcDbEntity
  8
0
100
AcDbSpline
 62
7
  6
CONTINUOUS
 70
0
 71
3
 72
8
 73
4
 74
0
 42
0.0000001
 43
0.0000001
 44
0.0000000001
 40
0.0
 40
0.0
 40
0.0
 40
0.0
 40
1.0
 40
1.0
 40
1.0
 40
1.0
 10
95.5063681076
 20
69.6837767914
 30
0.0
 10
95.4977960709
 20
69.0016716891
 30
0.0
 10
95.7006324885
 20
68.8256802889
 30
0.0
 10
96.1963681076
 20
68.8237767914
 30
0.0
  0
SPLINE
  5
46F
100
AcDbEntity
  8
0
100
AcDbSpline
 62
7
  6
CONTINUOUS
 70
0
 71
3
 72
8
 73
4
 74
0
 42
0.0000001
 43
0.0000001
 44
0.0000000001
 40
0.0
 40
0.0
 40
0.0
 40
0.0
 40
1.0
 40
1.0
 40
1.0
 40
1.0
 10
95.5963681076
 20
70.4237767914
 30
0.0
 10
95.5342906489
 20
70.1530231482
 30
0.0
 10
95.5090419221
 20
69.8965409901
 30
0.0
 10
95.5063681076
 20
69.6837767914
 30
0.0
  0
SPLINE
  5
470
100
AcDbEntity
  8
0
100
AcDbSpline
 62
7
  6
CONTINUOUS
 70
0
 71
3
 72
8
 73
4
 74
0
 42
0.0000001
 43
0.0000001
 44
0.0000000001
 40
0.0
 40
0.0
 40
0.0
 40
0.0
 40
1.0
 40
1.0
 40
1.0
 40
1.0
 10
95.9863681076
 20
69.6937767914
 30
0.0
 10
95.9866375576
 20
69.9143244743
 30
0.0
 10
96.0085321966
 20
70.0944260204
 30
0.0
 10
96.0563681076
 20
70.3737767914
 30
0.0
  0
SPLINE
  5
471
100
AcDbEntity
  8
0
100
AcDbSpline
 62
7
  6
CONTINUOUS
 70
0
 71
3
 72
8
 73
4
 74
0
 42
0.0000001
 43
0.0000001
 44
0.0000000001
 40
0.0
 40
0.0
 40
0.0
 40
0.0
 40
1.0
 40
1.0
 40
1.0
 40
1.0
 10
96.2163681076
 20
69.3837767914
 30
0.0
 10
96.0312797329
 20
69.3828722717
 30
0.0
 10
95.9860589227
 20
69.4407055941
 30
0.0
 10
95.9863681076
 20
69.6937767914
 30
0.0
  0
SPLINE
  5
472
100
AcDbEntity
  8
0
100
AcDbSpline
 62
7
  6
CONTINUOUS
 70
0
 71
3
 72
8
 73
4
 74
0
 42
0.0000001
 43
0.0000001
 44
0.0000000001
 40
0.0
 40
0.0
 40
0.0
 40
0.0
 40
1.0
 40
1.0
 40
1.0
 40
1.0
 10
96.5463681076
 20
69.7837767914
 30
0.0
 10
96.4560165121
 20
69.3960360616
 30
0.0
 10
96.4523855754
 20
69.3849301995
 30
0.0
 10
96.2163681076
 20
69.3837767914
 30
0.0
  0
SPLINE
  5
473
100
AcDbEntity
  8
0
100
AcDbSpline
 62
7
  6
CONTINUOUS
 70
0
 71
3
 72
8
 73
4
 74
0
 42
0.0000001
 43
0.0000001
 44
0.0000000001
 40
0.0
 40
0.0
 40
0.0
 40
0.0
 40
1.0
 40
1.0
 40
1.0
 40
1.0
 10
97.3163681076
 20
70.4837767914
 30
0.0
 10
96.8326160101
 20
70.4825103284
 30
0.0
 10
96.7034294952
 20
70.4489301357
 30
0.0
 10
96.5463681076
 20
69.7837767914
 30
0.0
  0
SPLINE
  5
474
100
AcDbEntity
  8
0
100
AcDbSpline
 62
7
  6
CONTINUOUS
 70
0
 71
3
 72
11
 73
7
 74
0
 42
0.0000001
 43
0.0000001
 44
0.0000000001
 40
0.0
 40
0.0
 40
0.0
 40
0.0
 40
0.0520833333
 40
0.15625
 40
0.71875
 40
1.0
 40
1.0
 40
1.0
 40
1.0
 10
97.2863681076
 20
76.4837767914
 30
0.0
 10
97.268660068
 20
76.4836747993
 30
0.0
 10
97.2155345073
 20
76.483872409
 30
0.0
 10
96.9711602442
 20
76.4835498589
 30
0.0
 10
96.6488695495
 20
76.4843619711
 30
0.0
 10
96.3619915215
 20
76.4832260339
 30
0.0
 10
96.2663681076
 20
76.4837767914
 30
0.0
  0
SPLINE
  5
475
100
AcDbEntity
  8
0
100
AcDbSpline
 62
7
  6
CONTINUOUS
 70
0
 71
3
 72
8
 73
4
 74
0
 42
0.0000001
 43
0.0000001
 44
0.0000000001
 40
0.0
 40
0.0
 40
0.0
 40
0.0
 40
1.0
 40
1.0
 40
1.0
 40
1.0
 10
98.0463681076
 20
75.5337767914
 30
0.0
 10
98.050373445
 20
76.2291900903
 30
0.0
 10
97.6598995142
 20
76.4859282016
 30
0.0
 10
97.2863681076
 20
76.4837767914
 30
0.0
  0
SPLINE
  5
476
100
AcDbEntity
  8
0
100
AcDbSpline
 62
7
  6
CONTINUOUS
 70
0
 71
3
 72
8
 73
4
 74
0
 42
0.0000001
 43
0.0000001
 44
0.0000000001
 40
0.0
 40
0.0
 40
0.0
 40
0.0
 40
1.0
 40
1.0
 40
1.0
 40
1.0
 10
97.2863681076
 20
74.5837767914
 30
0.0
 10
97.6598995356
 20
74.5816291096
 30
0.0
 10
98.0423626006
 20
74.8383340457
 30
0.0
 10
98.0463681076
 20
75.5337767914
 30
0.0
  0
LINE
  5
477
100
AcDbEntity
  8
0
100
AcDbLine
 62
7
  6
CONTINUOUS
 10
96.2663681076
 20
74.5837767914
 11
97.2863681076
 21
74.5837767914
  0
SPLINE
  5
478
100
AcDbEntity
  8
0
100
AcDbSpline
 62
7
  6
CONTINUOUS
 70
0
 71
3
 72
8
 73
4
 74
0
 42
0.0000001
 43
0.0000001
 44
0.0000000001
 40
0.0
 40
0.0
 40
0.0
 40
0.0
 40
1.0
 40
1.0
 40
1.0
 40
1.0
 10
95.5063681076
 20
75.5337767914
 30
0.0
 10
95.5023626307
 20
74.8383392655
 30
0.0
 10
95.8927806117
 20
74.5816250581
 30
0.0
 10
96.2663681076
 20
74.5837767914
 30
0.0
  0
SPLINE
  5
479
100
AcDbEntity
  8
0
100
AcDbSpline
 62
7
  6
CONTINUOUS
 70
0
 71
3
 72
8
 73
4
 74
0
 42
0.0000001
 43
0.0000001
 44
0.0000000001
 40
0.0
 40
0.0
 40
0.0
 40
0.0
 40
1.0
 40
1.0
 40
1.0
 40
1.0
 10
96.2663681076
 20
76.4837767914
 30
0.0
 10
95.8927806117
 20
76.4859285247
 30
0.0
 10
95.5103734149
 20
76.2291848707
 30
0.0
 10
95.5063681076
 20
75.5337767914
 30
0.0
  0
SPLINE
  5
47A
100
AcDbEntity
  8
0
100
AcDbSpline
 62
7
  6
CONTINUOUS
 70
0
 71
3
 72
8
 73
4
 74
0
 42
0.0000001
 43
0.0000001
 44
0.0000000001
 40
0.0
 40
0.0
 40
0.0
 40
0.0
 40
1.0
 40
1.0
 40
1.0
 40
1.0
 10
98.0463681076
 20
79.9137767914
 30
0.0
 10
98.0463681076
 20
80.6565423751
 30
0.0
 10
97.8041694741
 20
80.8150538553
 30
0.0
 10
97.3163681076
 20
80.8137767914
 30
0.0
  0
SPLINE
  5
47B
100
AcDbEntity
  8
0
100
AcDbSpline
 62
7
  6
CONTINUOUS
 70
0
 71
3
 72
8
 73
4
 74
0
 42
0.0000001
 43
0.0000001
 44
0.0000000001
 40
0.0
 40
0.0
 40
0.0
 40
0.0
 40
1.0
 40
1.0
 40
1.0
 40
1.0
 10
97.8863681076
 20
79.1137767914
 30
0.0
 10
97.9831060018
 20
79.325897834
 30
0.0
 10
98.0463681076
 20
79.6272714563
 30
0.0
 10
98.0463681076
 20
79.9137767914
 30
0.0
  0
SPLINE
  5
47C
100
AcDbEntity
  8
0
100
AcDbSpline
 62
7
  6
CONTINUOUS
 70
0
 71
3
 72
8
 73
4
 74
0
 42
0.0000001
 43
0.0000001
 44
0.0000000001
 40
0.0
 40
0.0
 40
0.0
 40
0.0
 40
1.0
 40
1.0
 40
1.0
 40
1.0
 10
97.5763681076
 20
79.9237767914
 30
0.0
 10
97.5799320153
 20
79.6685472933
 30
0.0
 10
97.5271482137
 20
79.4392393222
 30
0.0
 10
97.4563681076
 20
79.2137767914
 30
0.0
  0
SPLINE
  5
47D
100
AcDbEntity
  8
0
100
AcDbSpline
 62
7
  6
CONTINUOUS
 70
0
 71
3
 72
8
 73
4
 74
0
 42
0.0000001
 43
0.0000001
 44
0.0000000001
 40
0.0
 40
0.0
 40
0.0
 40
0.0
 40
1.0
 40
1.0
 40
1.0
 40
1.0
 10
97.3063681076
 20
80.2637767914
 30
0.0
 10
97.5155697562
 20
80.2671727591
 30
0.0
 10
97.5723512478
 20
80.211444488
 30
0.0
 10
97.5763681076
 20
79.9237767914
 30
0.0
  0
SPLINE
  5
47E
100
AcDbEntity
  8
0
100
AcDbSpline
 62
7
  6
CONTINUOUS
 70
0
 71
3
 72
8
 73
4
 74
0
 42
0.0000001
 43
0.0000001
 44
0.0000000001
 40
0.0
 40
0.0
 40
0.0
 40
0.0
 40
1.0
 40
1.0
 40
1.0
 40
1.0
 10
96.9763681076
 20
79.8437767914
 30
0.0
 10
97.0585916982
 20
80.2486268617
 30
0.0
 10
97.0843374719
 20
80.2601725708
 30
0.0
 10
97.3063681076
 20
80.2637767914
 30
0.0
  0
SPLINE
  5
47F
100
AcDbEntity
  8
0
100
AcDbSpline
 62
7
  6
CONTINUOUS
 70
0
 71
3
 72
8
 73
4
 74
0
 42
0.0000001
 43
0.0000001
 44
0.0000000001
 40
0.0
 40
0.0
 40
0.0
 40
0.0
 40
1.0
 40
1.0
 40
1.0
 40
1.0
 10
96.1963681076
 20
79.1637767914
 30
0.0
 10
96.7274288433
 20
79.164796356
 30
0.0
 10
96.8456581352
 20
79.2503924883
 30
0.0
 10
96.9763681076
 20
79.8437767914
 30
0.0
  0
SPLINE
  5
480
100
AcDbEntity
  8
0
100
AcDbSpline
 62
7
  6
CONTINUOUS
 70
0
 71
3
 72
8
 73
4
 74
0
 42
0.0000001
 43
0.0000001
 44
0.0000000001
 40
0.0
 40
0.0
 40
0.0
 40
0.0
 40
1.0
 40
1.0
 40
1.0
 40
1.0
 10
95.5063681076
 20
80.0137767914
 30
0.0
 10
95.4989203055
 20
79.3364586469
 30
0.0
 10
95.7041286155
 20
79.1628317582
 30
0.0
 10
96.1963681076
 20
79.1637767914
 30
0.0
  0
SPLINE
  5
481
100
AcDbEntity
  8
0
100
AcDbSpline
 62
7
  6
CONTINUOUS
 70
0
 71
3
 72
8
 73
4
 74
0
 42
0.0000001
 43
0.0000001
 44
0.0000000001
 40
0.0
 40
0.0
 40
0.0
 40
0.0
 40
1.0
 40
1.0
 40
1.0
 40
1.0
 10
95.5963681076
 20
80.7637767914
 30
0.0
 10
95.5339023361
 20
80.4893023112
 30
0.0
 10
95.5087387055
 20
80.2293637413
 30
0.0
 10
95.5063681076
 20
80.0137767914
 30
0.0
  0
SPLINE
  5
482
100
AcDbEntity
  8
0
100
AcDbSpline
 62
7
  6
CONTINUOUS
 70
0
 71
3
 72
8
 73
4
 74
0
 42
0.0000001
 43
0.0000001
 44
0.0000000001
 40
0.0
 40
0.0
 40
0.0
 40
0.0
 40
1.0
 40
1.0
 40
1.0
 40
1.0
 10
95.9863681076
 20
80.0237767914
 30
0.0
 10
95.9866760504
 20
80.244324424
 30
0.0
 10
96.0085321966
 20
80.4244260204
 30
0.0
 10
96.0563681076
 20
80.7037767914
 30
0.0
  0
SPLINE
  5
483
100
AcDbEntity
  8
0
100
AcDbSpline
 62
7
  6
CONTINUOUS
 70
0
 71
3
 72
8
 73
4
 74
0
 42
0.0000001
 43
0.0000001
 44
0.0000000001
 40
0.0
 40
0.0
 40
0.0
 40
0.0
 40
1.0
 40
1.0
 40
1.0
 40
1.0
 10
96.2163681076
 20
79.7137767914
 30
0.0
 10
96.0312739492
 20
79.7128722435
 30
0.0
 10
95.9860147843
 20
79.7707278116
 30
0.0
 10
95.9863681076
 20
80.0237767914
 30
0.0
  0
SPLINE
  5
484
100
AcDbEntity
  8
0
100
AcDbSpline
 62
7
  6
CONTINUOUS
 70
0
 71
3
 72
8
 73
4
 74
0
 42
0.0000001
 43
0.0000001
 44
0.0000000001
 40
0.0
 40
0.0
 40
0.0
 40
0.0
 40
1.0
 40
1.0
 40
1.0
 40
1.0
 10
96.5463681076
 20
80.1137767914
 30
0.0
 10
96.4560115931
 20
79.7260167694
 30
0.0
 10
96.4523804415
 20
79.7149301744
 30
0.0
 10
96.2163681076
 20
79.7137767914
 30
0.0
  0
SPLINE
  5
485
100
AcDbEntity
  8
0
100
AcDbSpline
 62
7
  6
CONTINUOUS
 70
0
 71
3
 72
8
 73
4
 74
0
 42
0.0000001
 43
0.0000001
 44
0.0000000001
 40
0.0
 40
0.0
 40
0.0
 40
0.0
 40
1.0
 40
1.0
 40
1.0
 40
1.0
 10
97.3163681076
 20
80.8137767914
 30
0.0
 10
96.8326160101
 20
80.8125103284
 30
0.0
 10
96.7034294952
 20
80.7789301357
 30
0.0
 10
96.5463681076
 20
80.1137767914
 30
0.0
  0
LINE
  5
486
100
AcDbEntity
  8
0
100
AcDbLine
 62
7
  6
CONTINUOUS
 10
95.5463681076
 20
86.5937767914
 11
95.5463680333
 21
87.6237758319
  0
SPLINE
  5
487
100
AcDbEntity
  8
0
100
AcDbSpline
 62
7
  6
CONTINUOUS
 70
0
 71
3
 72
8
 73
4
 74
0
 42
0.0000001
 43
0.0000001
 44
0.0000000001
 40
0.0
 40
0.0
 40
0.0
 40
0.0
 40
1.0
 40
1.0
 40
1.0
 40
1.0
 10
96.2463681072
 20
88.4437767914
 30
0.0
 10
95.7841210993
 20
88.4444101291
 30
0.0
 10
95.5472043668
 20
88.2228838977
 30
0.0
 10
95.5463681063
 20
87.6237758318
 30
0.0
  0
LINE
  5
488
100
AcDbEntity
  8
0
100
AcDbLine
 62
7
  6
CONTINUOUS
 10
96.2463681072
 20
88.4437767913
 11
96.5463680967
 21
88.4437767928
  0
SPLINE
  5
489
100
AcDbEntity
  8
0
100
AcDbSpline
 62
7
  6
CONTINUOUS
 70
0
 71
3
 72
8
 73
4
 74
0
 42
0.0000001
 43
0.0000001
 44
0.0000000001
 40
0.0
 40
0.0
 40
0.0
 40
0.0
 40
1.0
 40
1.0
 40
1.0
 40
1.0
 10
97.1663681076
 20
88.0837767914
 30
0.0
 10
97.062387536
 20
88.3325107409
 30
0.0
 10
96.8545003476
 20
88.4438305732
 30
0.0
 10
96.5463680967
 20
88.4437767914
 30
0.0
  0
LINE
  5
48A
100
AcDbEntity
  8
A_RUNDUNGEN
100
AcDbLine
 62
7
  6
CONTINUOUS
 10
107.6063681076
 20
96.9237767914
 11
106.1063681076
 21
98.4237767914
  0
LINE
  5
48B
100
AcDbEntity
  8
A_RUNDUNGEN
100
AcDbLine
 62
7
  6
CONTINUOUS
 10
107.6063681076
 20
199.9237767914
 11
106.1063681076
 21
198.4237767914
  0
ELLIPSE
  5
48C
100
AcDbEntity
  8
A_RUNDUNGEN
100
AcDbEllipse
 62
7
  6
CONTINUOUS
 10
51.1060253151
 20
215.3734339989
 30
0.0
 11
0.7075914799
 21
0.7075914799
 31
0.0
 40
0.999315002
 41
-0.7850555471
 42
0.7850555471
  0
ELLIPSE
  5
48D
100
AcDbEntity
  8
A_RUNDUNGEN
100
AcDbEllipse
 62
7
  6
CONTINUOUS
 10
66.106406186
 20
96.323738713
 30
0.0
 11
0.7071606311
 21
-0.7071606311
 31
0.0
 40
0.9999238505
 41
2.3562325664
 42
3.9269527408
  0
ELLIPSE
  5
48E
100
AcDbEntity
  8
A_RUNDUNGEN
100
AcDbEllipse
 62
7
  6
CONTINUOUS
 10
53.1067109001
 20
96.4808223332
 30
0.0
 11
-0.9490638846
 21
0.3162903786
 31
0.0
 40
0.9996192872
 41
-1.2489924673
 42
0.3215754254
  0
ELLIPSE
  5
48F
100
AcDbEntity
  8
A_RUNDUNGEN
100
AcDbEllipse
 62
7
  6
CONTINUOUS
 10
55.1060253151
 20
96.4808223332
 30
0.0
 11
0.9490638846
 21
0.3162903786
 31
0.0
 40
0.9996192872
 41
0.9271852243
 42
1.2489924673
  0
ELLIPSE
  5
490
100
AcDbEntity
  8
A_RUNDUNGEN
100
AcDbEllipse
 62
7
  6
CONTINUOUS
 10
66.106406186
 20
200.5238148698
 30
0.0
 11
-0.7071606311
 21
-0.7071606311
 31
0.0
 40
0.9999238505
 41
-0.7853600872
 42
0.7853600872
  0
ELLIPSE
  5
491
100
AcDbEntity
  8
A_RUNDUNGEN
100
AcDbEllipse
 62
7
  6
CONTINUOUS
 10
55.1060253151
 20
200.3667312495
 30
0.0
 11
-0.9490638846
 21
0.3162903786
 31
0.0
 40
0.9996192872
 41
1.8926001863
 42
2.2144074293
  0
ELLIPSE
  5
492
100
AcDbEntity
  8
A_RUNDUNGEN
100
AcDbEllipse
 62
7
  6
CONTINUOUS
 10
53.1067109001
 20
200.3667312495
 30
0.0
 11
0.9490638846
 21
0.3162903786
 31
0.0
 40
0.9996192872
 41
2.8200172282
 42
4.3905851209
  0
ELLIPSE
  5
493
100
AcDbEntity
  8
A_RUNDUNGEN
100
AcDbEllipse
 62
7
  6
CONTINUOUS
 10
51.1060253151
 20
81.4741195839
 30
0.0
 11
0.7075914799
 21
-0.7075914799
 31
0.0
 40
0.999315002
 41
-0.7850555471
 42
0.7850555471
  0
ENDSEC
  0
SECTION
  2
OBJECTS
  0
DICTIONARY
  5
494
100
AcDbDictionary
  3
ACAD_GROUP
350
495
  3
ACAD_MLINESTYLE
350
496
  0
DICTIONARY
  5
495
102
{ACAD_REACTORS
330
494
102
}
100
AcDbDictionary
  0
DICTIONARY
  5
496
102
{ACAD_REACTORS
330
494
102
}
100
AcDbDictionary
  3
STANDARD
350
497
  0
MLINESTYLE
  5
497
102
{ACAD_REACTORS
330
496
102
}
100
AcDbMlineStyle
  2
STANDARD
 70
0
  3

 62
256
 51
90.0
 52
90.0
 71
2
 49
0.5
 62
256
  6
BYLAYER
 49
-0.5
 62
256
  6
BYLAYER
  0
ENDSEC
  0
EOF
