  0
SECTION
  2
HEADER
  9
$ACADVER
  1
AC1018
  9
$ACADMAINTVER
 70
     0
  9
$DWGCODEPAGE
  3
ANSI_1252
  9
$INSBASE
 10
0.0
 20
0.0
 30
0.0
  9
$EXTMIN
 10
73.8642400901802
 20
83.7767498315
 30
0.0
  9
$EXTMAX
 10
215.436559032575
 20
279.7767498315
 30
0.0
  9
$LIMMIN
 10
0.0
 20
0.0
  9
$LIMMAX
 10
12.0
 20
9.0
  9
$ORTHOMODE
 70
     0
  9
$REGENMODE
 70
     1
  9
$FILLMODE
 70
     1
  9
$QTEXTMODE
 70
     0
  9
$MIRRTEXT
 70
     1
  9
$LTSCALE
 40
1.0
  9
$ATTMODE
 70
     1
  9
$TEXTSIZE
 40
0.2
  9
$TRACEWID
 40
0.05
  9
$TEXTSTYLE
  7
Standard
  9
$CLAYER
  8
0
  9
$CELTYPE
  6
ByLayer
  9
$CECOLOR
 62
   256
  9
$CELTSCALE
 40
1.0
  9
$DISPSILH
 70
     0
  9
$DIMSCALE
 40
1.0
  9
$DIMASZ
 40
0.18
  9
$DIMEXO
 40
0.0625
  9
$DIMDLI
 40
0.38
  9
$DIMRND
 40
0.0
  9
$DIMDLE
 40
0.0
  9
$DIMEXE
 40
0.18
  9
$DIMTP
 40
0.0
  9
$DIMTM
 40
0.0
  9
$DIMTXT
 40
0.18
  9
$DIMCEN
 40
0.09
  9
$DIMTSZ
 40
0.0
  9
$DIMTOL
 70
     0
  9
$DIMLIM
 70
     0
  9
$DIMTIH
 70
     1
  9
$DIMTOH
 70
     1
  9
$DIMSE1
 70
     0
  9
$DIMSE2
 70
     0
  9
$DIMTAD
 70
     0
  9
$DIMZIN
 70
     0
  9
$DIMBLK
  1

  9
$DIMASO
 70
     1
  9
$DIMSHO
 70
     1
  9
$DIMPOST
  1

  9
$DIMAPOST
  1

  9
$DIMALT
 70
     0
  9
$DIMALTD
 70
     2
  9
$DIMALTF
 40
25.4
  9
$DIMLFAC
 40
1.0
  9
$DIMTOFL
 70
     0
  9
$DIMTVP
 40
0.0
  9
$DIMTIX
 70
     0
  9
$DIMSOXD
 70
     0
  9
$DIMSAH
 70
     0
  9
$DIMBLK1
  1

  9
$DIMBLK2
  1

  9
$DIMSTYLE
  2
Standard
  9
$DIMCLRD
 70
     0
  9
$DIMCLRE
 70
     0
  9
$DIMCLRT
 70
     0
  9
$DIMTFAC
 40
1.0
  9
$DIMGAP
 40
0.09
  9
$DIMJUST
 70
     0
  9
$DIMSD1
 70
     0
  9
$DIMSD2
 70
     0
  9
$DIMTOLJ
 70
     1
  9
$DIMTZIN
 70
     0
  9
$DIMALTZ
 70
     0
  9
$DIMALTTZ
 70
     0
  9
$DIMUPT
 70
     0
  9
$DIMDEC
 70
     4
  9
$DIMTDEC
 70
     4
  9
$DIMALTU
 70
     2
  9
$DIMALTTD
 70
     2
  9
$DIMTXSTY
  7
Standard
  9
$DIMAUNIT
 70
     0
  9
$DIMADEC
 70
     0
  9
$DIMALTRND
 40
0.0
  9
$DIMAZIN
 70
     0
  9
$DIMDSEP
 70
    46
  9
$DIMATFIT
 70
     3
  9
$DIMFRAC
 70
     0
  9
$DIMLDRBLK
  1

  9
$DIMLUNIT
 70
     2
  9
$DIMLWD
 70
    -2
  9
$DIMLWE
 70
    -2
  9
$DIMTMOVE
 70
     0
  9
$LUNITS
 70
     2
  9
$LUPREC
 70
     4
  9
$SKETCHINC
 40
0.1
  9
$FILLETRAD
 40
0.5
  9
$AUNITS
 70
     0
  9
$AUPREC
 70
     0
  9
$MENU
  1
.
  9
$ELEVATION
 40
0.0
  9
$PELEVATION
 40
0.0
  9
$THICKNESS
 40
0.0
  9
$LIMCHECK
 70
     0
  9
$CHAMFERA
 40
0.5
  9
$CHAMFERB
 40
0.5
  9
$CHAMFERC
 40
1.0
  9
$CHAMFERD
 40
0.0
  9
$SKPOLY
 70
     0
  9
$TDCREATE
 40
2456162.509249051
  9
$TDUCREATE
 40
2456162.425915718
  9
$TDUPDATE
 40
2456162.509249062
  9
$TDUUPDATE
 40
2456162.425915729
  9
$TDINDWG
 40
0.0000000116
  9
$TDUSRTIMER
 40
0.0000000116
  9
$USRTIMER
 70
     1
  9
$ANGBASE
 50
0.0
  9
$ANGDIR
 70
     0
  9
$PDMODE
 70
     0
  9
$PDSIZE
 40
0.0
  9
$PLINEWID
 40
0.0
  9
$SPLFRAME
 70
     0
  9
$SPLINETYPE
 70
     6
  9
$SPLINESEGS
 70
     8
  9
$HANDSEED
  5
11F
  9
$SURFTAB1
 70
     6
  9
$SURFTAB2
 70
     6
  9
$SURFTYPE
 70
     6
  9
$SURFU
 70
     6
  9
$SURFV
 70
     6
  9
$UCSBASE
  2

  9
$UCSNAME
  2

  9
$UCSORG
 10
0.0
 20
0.0
 30
0.0
  9
$UCSXDIR
 10
1.0
 20
0.0
 30
0.0
  9
$UCSYDIR
 10
0.0
 20
1.0
 30
0.0
  9
$UCSORTHOREF
  2

  9
$UCSORTHOVIEW
 70
     0
  9
$UCSORGTOP
 10
0.0
 20
0.0
 30
0.0
  9
$UCSORGBOTTOM
 10
0.0
 20
0.0
 30
0.0
  9
$UCSORGLEFT
 10
0.0
 20
0.0
 30
0.0
  9
$UCSORGRIGHT
 10
0.0
 20
0.0
 30
0.0
  9
$UCSORGFRONT
 10
0.0
 20
0.0
 30
0.0
  9
$UCSORGBACK
 10
0.0
 20
0.0
 30
0.0
  9
$PUCSBASE
  2

  9
$PUCSNAME
  2

  9
$PUCSORG
 10
0.0
 20
0.0
 30
0.0
  9
$PUCSXDIR
 10
1.0
 20
0.0
 30
0.0
  9
$PUCSYDIR
 10
0.0
 20
1.0
 30
0.0
  9
$PUCSORTHOREF
  2

  9
$PUCSORTHOVIEW
 70
     0
  9
$PUCSORGTOP
 10
0.0
 20
0.0
 30
0.0
  9
$PUCSORGBOTTOM
 10
0.0
 20
0.0
 30
0.0
  9
$PUCSORGLEFT
 10
0.0
 20
0.0
 30
0.0
  9
$PUCSORGRIGHT
 10
0.0
 20
0.0
 30
0.0
  9
$PUCSORGFRONT
 10
0.0
 20
0.0
 30
0.0
  9
$PUCSORGBACK
 10
0.0
 20
0.0
 30
0.0
  9
$USERI1
 70
     0
  9
$USERI2
 70
     0
  9
$USERI3
 70
     0
  9
$USERI4
 70
     0
  9
$USERI5
 70
     0
  9
$USERR1
 40
14.5
  9
$USERR2
 40
0.0
  9
$USERR3
 40
0.0
  9
$USERR4
 40
0.0
  9
$USERR5
 40
0.0
  9
$WORLDVIEW
 70
     1
  9
$SHADEDGE
 70
     3
  9
$SHADEDIF
 70
    70
  9
$TILEMODE
 70
     1
  9
$MAXACTVP
 70
    64
  9
$PINSBASE
 10
0.0
 20
0.0
 30
0.0
  9
$PLIMCHECK
 70
     0
  9
$PEXTMIN
 10
1.00000000000000E+20
 20
1.00000000000000E+20
 30
1.00000000000000E+20
  9
$PEXTMAX
 10
-1.00000000000000E+20
 20
-1.00000000000000E+20
 30
-1.00000000000000E+20
  9
$PLIMMIN
 10
0.0
 20
0.0
  9
$PLIMMAX
 10
12.0
 20
9.0
  9
$UNITMODE
 70
     0
  9
$VISRETAIN
 70
     1
  9
$PLINEGEN
 70
     0
  9
$PSLTSCALE
 70
     1
  9
$TREEDEPTH
 70
  3020
  9
$CMLSTYLE
  2
Standard
  9
$CMLJUST
 70
     0
  9
$CMLSCALE
 40
1.0
  9
$PROXYGRAPHICS
 70
     1
  9
$MEASUREMENT
 70
     1
  9
$CELWEIGHT
370
    -1
  9
$ENDCAPS
280
     0
  9
$JOINSTYLE
280
     0
  9
$LWDISPLAY
290
     0
  9
$INSUNITS
 70
     1
  9
$HYPERLINKBASE
  1

  9
$STYLESHEET
  1

  9
$XEDIT
290
     1
  9
$CEPSNTYPE
380
     0
  9
$PSTYLEMODE
290
     1
  9
$FINGERPRINTGUID
  2
{50349C24-455F-48BC-90C8-E9362602DC9E}
  9
$VERSIONGUID
  2
{FAEB1C32-E019-11D5-929B-00C0DF256EC4}
  9
$EXTNAMES
290
     1
  9
$PSVPSCALE
 40
0.0
  9
$OLESTARTUP
290
     0
  9
$SORTENTS
280
   127
  9
$INDEXCTL
280
     0
  9
$HIDETEXT
280
     1
  9
$XCLIPFRAME
290
     0
  9
$HALOGAP
280
     0
  9
$OBSCOLOR
 70
   257
  9
$OBSLTYPE
280
     0
  9
$INTERSECTIONDISPLAY
280
     0
  9
$INTERSECTIONCOLOR
 70
   257
  9
$DIMASSOC
280
     2
  9
$PROJECTNAME
  1

  0
ENDSEC
  0
SECTION
  2
CLASSES
  0
CLASS
  1
ACDBDICTIONARYWDFLT
  2
AcDbDictionaryWithDefault
  3
ObjectDBX Classes
 90
        0
 91
        3
280
     0
281
     0
  0
CLASS
  1

  2
exOdDbCircle
  3

 90
        0
 91
        3
280
     0
281
     1
  0
ENDSEC
  0
SECTION
  2
TABLES
  0
TABLE
  2
VPORT
  5
8
330
0
100
AcDbSymbolTable
 70
     1
  0
VPORT
  5
29
330
8
100
AcDbSymbolTableRecord
100
AcDbViewportTableRecord
  2
*Active
 70
     0
 10
0.0
 20
0.0
 11
1.0
 21
1.0
 12
144.6503995613776
 22
181.7767498315
 13
0.0
 23
0.0
 14
0.5
 24
0.5
 15
0.5
 25
0.5
 16
0.0
 26
0.0
 36
1.0
 17
0.0
 27
0.0
 37
0.0
 40
215.6
 41
1.60267857142857
 42
50.0
 43
0.0
 44
0.0
 50
0.0
 51
0.0
 71
     0
 72
   100
 73
     1
 74
     3
 75
     0
 76
     0
 77
     0
 78
     0
281
     0
 65
     1
110
0.0
120
0.0
130
0.0
111
1.0
121
0.0
131
0.0
112
0.0
122
1.0
132
0.0
 79
     0
146
0.0
  0
ENDTAB
  0
TABLE
  2
LTYPE
  5
5
330
0
100
AcDbSymbolTable
 70
     9
  0
LTYPE
  5
14
330
5
100
AcDbSymbolTableRecord
100
AcDbLinetypeTableRecord
  2
ByBlock
 70
     0
  3

 72
    65
 73
     0
 40
0.0
  0
LTYPE
  5
15
330
5
100
AcDbSymbolTableRecord
100
AcDbLinetypeTableRecord
  2
ByLayer
 70
     0
  3

 72
    65
 73
     0
 40
0.0
  0
LTYPE
  5
16
330
5
100
AcDbSymbolTableRecord
100
AcDbLinetypeTableRecord
  2
Continuous
 70
     0
  3
Solid line
 72
    65
 73
     0
 40
0.0
  0
LTYPE
  5
2A
330
5
100
AcDbSymbolTableRecord
100
AcDbLinetypeTableRecord
  2
DASHED
 70
     0
  3
Dashed
 72
    65
 73
     2
 40
15.0
 49
7.0
 74
     0
 49
-8.0
 74
     0
  0
LTYPE
  5
2B
330
5
100
AcDbSymbolTableRecord
100
AcDbLinetypeTableRecord
  2
DOTTED
 70
     0
  3
Dotted
 72
    65
 73
     2
 40
1.0
 49
0.0
 74
     0
 49
-1.0
 74
     0
  0
LTYPE
  5
2C
330
5
100
AcDbSymbolTableRecord
100
AcDbLinetypeTableRecord
  2
DOT_CENTER
 70
     0
  3
Dot_Center
 72
    65
 73
     4
 40
14.0
 49
12.0
 74
     0
 49
-1.0
 74
     0
 49
0.0
 74
     0
 49
-1.0
 74
     0
  0
LTYPE
  5
2D
330
5
100
AcDbSymbolTableRecord
100
AcDbLinetypeTableRecord
  2
LONG_DASHED
 70
     0
  3
Long_Dashed
 72
    65
 73
     2
 40
15.0
 49
10.0
 74
     0
 49
-5.0
 74
     0
  0
LTYPE
  5
2E
330
5
100
AcDbSymbolTableRecord
100
AcDbLinetypeTableRecord
  2
DASH_CENTER
 70
     0
  3
Dash_Center
 72
    65
 73
     4
 40
14.0
 49
11.0
 74
     0
 49
-1.0
 74
     0
 49
1.0
 74
     0
 49
-1.0
 74
     0
  0
LTYPE
  5
2F
330
5
100
AcDbSymbolTableRecord
100
AcDbLinetypeTableRecord
  2
PHANTOM
 70
     0
  3
Phantom
 72
    65
 73
     6
 40
13.0
 49
10.0
 74
     0
 49
-1.0
 74
     0
 49
0.0
 74
     0
 49
-1.0
 74
     0
 49
0.0
 74
     0
 49
-1.0
 74
     0
  0
LTYPE
  5
30
330
5
100
AcDbSymbolTableRecord
100
AcDbLinetypeTableRecord
  2
CENTER_DASH_DASH
 70
     0
  3
Center_Dash_Dash
 72
    65
 73
     6
 40
14.0
 49
9.0
 74
     0
 49
-1.0
 74
     0
 49
1.0
 74
     0
 49
-1.0
 74
     0
 49
1.0
 74
     0
 49
-1.0
 74
     0
  0
LTYPE
  5
31
330
5
100
AcDbSymbolTableRecord
100
AcDbLinetypeTableRecord
  2
HIDDEN_1
 70
     0
  3
HIDDEN_1
 72
    65
 73
     2
 40
6.0
 49
3.0
 74
     0
 49
-3.0
 74
     0
  0
ENDTAB
  0
TABLE
  2
LAYER
  5
2
330
0
100
AcDbSymbolTable
 70
     6
  0
LAYER
  5
10
330
2
100
AcDbSymbolTableRecord
100
AcDbLayerTableRecord
  2
0
 70
     0
 62
     7
  6
Continuous
370
    -3
390
F
  0
LAYER
  5
32
330
2
100
AcDbSymbolTableRecord
100
AcDbLayerTableRecord
  2
1
 70
     0
 62
     7
  6
Continuous
370
    -3
390
F
  0
LAYER
  5
33
330
2
100
AcDbSymbolTableRecord
100
AcDbLayerTableRecord
  2
A_ACHSEN
 70
     0
 62
     7
  6
Continuous
370
    -3
390
F
  0
LAYER
  5
34
330
2
100
AcDbSymbolTableRecord
100
AcDbLayerTableRecord
  2
A_BEMASSUNGEN
 70
     0
 62
     7
  6
Continuous
370
    -3
390
F
  0
LAYER
  5
35
330
2
100
AcDbSymbolTableRecord
100
AcDbLayerTableRecord
  2
DEFAULT_1
 70
     0
 62
     7
  6
Continuous
370
    -3
390
F
  0
LAYER
  5
36
330
2
100
AcDbSymbolTableRecord
100
AcDbLayerTableRecord
  2
DEFAULT_2
 70
     0
 62
     7
  6
Continuous
370
    -3
390
F
  0
ENDTAB
  0
TABLE
  2
STYLE
  5
3
330
0
100
AcDbSymbolTable
 70
     2
  0
STYLE
  5
11
330
3
100
AcDbSymbolTableRecord
100
AcDbTextStyleTableRecord
  2
Standard
 70
     0
 40
0.0
 41
1.0
 50
0.0
 71
     0
 42
0.2
  3
txt
  4

  0
STYLE
  5
D8
330
3
100
AcDbSymbolTableRecord
100
AcDbTextStyleTableRecord
  2
CONVERTER_11
 70
     0
 40
0.0
 41
0.9
 50
0.0
 71
     0
 42
0.2
  3
txt.shx
  4

  0
ENDTAB
  0
TABLE
  2
VIEW
  5
6
330
0
100
AcDbSymbolTable
 70
     0
  0
ENDTAB
  0
TABLE
  2
UCS
  5
7
330
0
100
AcDbSymbolTable
 70
     0
  0
ENDTAB
  0
TABLE
  2
APPID
  5
9
330
0
100
AcDbSymbolTable
 70
     1
  0
APPID
  5
12
330
9
100
AcDbSymbolTableRecord
100
AcDbRegAppTableRecord
  2
ACAD
 70
     0
  0
ENDTAB
  0
TABLE
  2
DIMSTYLE
  5
A
330
0
100
AcDbSymbolTable
 70
     7
100
AcDbDimStyleTable
  0
DIMSTYLE
105
27
330
A
100
AcDbSymbolTableRecord
100
AcDbDimStyleTableRecord
  2
Standard
 70
     0
340
11
  0
DIMSTYLE
105
E3
102
{ACAD_REACTORS
330
E4
102
}
330
A
100
AcDbSymbolTableRecord
100
AcDbDimStyleTableRecord
  2
ME10_DIM_10
 70
     0
 41
3.5
 42
0.0
 44
2.0
 73
     0
 74
     0
 77
     1
 78
     8
140
3.5
147
2.0
172
     1
173
     1
176
     2
177
     2
178
     2
271
     3
340
D8
  0
DIMSTYLE
105
EE
102
{ACAD_REACTORS
330
EF
102
}
330
A
100
AcDbSymbolTableRecord
100
AcDbDimStyleTableRecord
  2
ME10_DIM_11
 70
     0
 41
3.5
 42
0.0
 44
2.0
 73
     0
 74
     0
 77
     1
 78
     8
140
3.5
147
2.0
172
     1
173
     1
176
     2
177
     2
178
     2
271
     3
340
D8
  0
DIMSTYLE
105
F9
102
{ACAD_REACTORS
330
FA
102
}
330
A
100
AcDbSymbolTableRecord
100
AcDbDimStyleTableRecord
  2
ME10_DIM_12
 70
     0
 41
3.5
 42
0.0
 44
2.0
 73
     0
 74
     0
 77
     1
 78
     8
140
3.5
147
2.0
172
     1
173
     1
176
     2
177
     2
178
     2
271
     3
340
D8
  0
DIMSTYLE
105
104
102
{ACAD_REACTORS
330
105
102
}
330
A
100
AcDbSymbolTableRecord
100
AcDbDimStyleTableRecord
  2
ME10_DIM_13
 70
     0
 41
3.5
 42
0.0
 44
2.0
 73
     0
 74
     0
 77
     1
 78
     8
140
3.5
147
2.0
172
     1
173
     1
176
     2
177
     2
178
     2
271
     3
340
D8
  0
DIMSTYLE
105
111
102
{ACAD_REACTORS
330
112
102
}
330
A
100
AcDbSymbolTableRecord
100
AcDbDimStyleTableRecord
  2
ME10_DIM_14
 70
     0
 41
3.5
 42
0.0
 44
2.0
 73
     0
 74
     0
 77
     1
 78
     8
140
3.5
147
2.0
172
     1
173
     1
176
     2
177
     2
178
     2
271
     3
340
D8
  0
DIMSTYLE
105
11D
102
{ACAD_REACTORS
330
11E
102
}
330
A
100
AcDbSymbolTableRecord
100
AcDbDimStyleTableRecord
  2
ME10_DIM_15
 70
     0
  3
ø<>
 41
3.5
 42
0.0
 44
2.0
 73
     0
 74
     0
 77
     1
 78
     8
140
3.5
147
2.0
172
     1
173
     1
176
     2
177
     2
178
     2
271
     3
340
D8
  0
ENDTAB
  0
TABLE
  2
BLOCK_RECORD
  5
1
330
0
100
AcDbSymbolTable
 70
     7
  0
BLOCK_RECORD
  5
1F
330
1
100
AcDbSymbolTableRecord
100
AcDbBlockTableRecord
  2
*Model_Space
340
22
  0
BLOCK_RECORD
  5
1B
330
1
100
AcDbSymbolTableRecord
100
AcDbBlockTableRecord
  2
*Paper_Space
340
1E
  0
BLOCK_RECORD
  5
23
330
1
100
AcDbSymbolTableRecord
100
AcDbBlockTableRecord
  2
*Paper_Space0
340
26
  0
BLOCK_RECORD
  5
DA
330
1
100
AcDbSymbolTableRecord
100
AcDbBlockTableRecord
  2
*D1
340
0
  0
BLOCK_RECORD
  5
E5
330
1
100
AcDbSymbolTableRecord
100
AcDbBlockTableRecord
  2
*D2
340
0
  0
BLOCK_RECORD
  5
F0
330
1
100
AcDbSymbolTableRecord
100
AcDbBlockTableRecord
  2
*D3
340
0
  0
BLOCK_RECORD
  5
FB
330
1
100
AcDbSymbolTableRecord
100
AcDbBlockTableRecord
  2
*D4
340
0
  0
BLOCK_RECORD
  5
106
330
1
100
AcDbSymbolTableRecord
100
AcDbBlockTableRecord
  2
*D5
340
0
  0
BLOCK_RECORD
  5
113
330
1
100
AcDbSymbolTableRecord
100
AcDbBlockTableRecord
  2
*D6
340
0
  0
ENDTAB
  0
ENDSEC
  0
SECTION
  2
BLOCKS
  0
BLOCK
  5
20
330
1F
100
AcDbEntity
  8
0
100
AcDbBlockBegin
  2
*Model_Space
 70
     0
 71
     0
 10
0.0
 20
0.0
 30
0.0
  3
*Model_Space
  1

  0
ENDBLK
  5
21
330
1F
100
AcDbEntity
  8
0
100
AcDbBlockEnd
  0
BLOCK
  5
1C
330
1B
100
AcDbEntity
 67
     1
  8
0
100
AcDbBlockBegin
  2
*Paper_Space
 70
     0
 71
     0
 10
0.0
 20
0.0
 30
0.0
  3
*Paper_Space
  1

  0
ENDBLK
  5
1D
330
1B
100
AcDbEntity
 67
     1
  8
0
100
AcDbBlockEnd
  0
BLOCK
  5
24
330
23
100
AcDbEntity
  8
0
100
AcDbBlockBegin
  2
*Paper_Space0
 70
     0
 71
     0
 10
0.0
 20
0.0
 30
0.0
  3
*Paper_Space0
  1

  0
ENDBLK
  5
25
330
23
100
AcDbEntity
  8
0
100
AcDbBlockEnd
  0
BLOCK
  5
E1
330
DA
100
AcDbEntity
  8
0
100
AcDbBlockBegin
  2
*D1
 70
     1
 71
     0
 10
0.0
 20
0.0
 30
0.0
  3
*D1
  1

  0
LINE
  5
DB
330
DA
100
AcDbEntity
  8
1
  6
Continuous
 62
     2
100
AcDbLine
 10
79.3642400901802
 20
279.7767498315
 30
0.0
 11
79.3642400901802
 21
83.7767498315
 31
0.0
  0
LINE
  5
DC
330
DA
100
AcDbEntity
  8
1
  6
Continuous
 62
     2
100
AcDbLine
 10
112.5793598627
 20
83.7767498315
 30
0.0
 11
77.3642400901802
 21
83.7767498315
 31
0.0
  0
LINE
  5
DD
330
DA
100
AcDbEntity
  8
1
  6
Continuous
 62
     2
100
AcDbLine
 10
112.5793598627
 20
279.7767498315
 30
0.0
 11
77.3642400901802
 21
279.7767498315
 31
0.0
  0
SOLID
  5
DE
330
DA
100
AcDbEntity
  8
1
 62
     2
100
AcDbTrace
 10
79.82502383173609
 20
276.2767498315
 30
0.0
 11
78.90345634862432
 21
276.2767498315
 31
0.0
 12
79.3642400901802
 22
279.7767498315
 32
0.0
 13
79.3642400901802
 23
279.7767498315
 33
0.0
  0
SOLID
  5
DF
330
DA
100
AcDbEntity
  8
1
 62
     2
100
AcDbTrace
 10
78.90345634862432
 20
87.2767498315
 30
0.0
 11
79.82502383173609
 21
87.2767498315
 31
0.0
 12
79.3642400901802
 22
83.7767498315
 32
0.0
 13
79.3642400901802
 23
83.7767498315
 33
0.0
  0
MTEXT
  5
E0
330
DA
100
AcDbEntity
  8
1
 62
     2
100
AcDbMText
 10
77.3642400901802
 20
177.460964904422
 30
0.0
 40
3.5
 41
0.0
 71
     7
 72
     1
  1
196
  7
CONVERTER_11
 11
0.0
 21
1.0
 31
0.0
 73
     1
 44
0.60024009603842
  0
ENDBLK
  5
E2
330
DA
100
AcDbEntity
  8
0
100
AcDbBlockEnd
  0
BLOCK
  5
EC
330
E5
100
AcDbEntity
  8
0
100
AcDbBlockBegin
  2
*D2
 70
     1
 71
     0
 10
0.0
 20
0.0
 30
0.0
  3
*D2
  1

  0
LINE
  5
E6
330
E5
100
AcDbEntity
  8
1
  6
Continuous
 62
     2
100
AcDbLine
 10
213.436559032575
 20
261.7767498315001
 30
0.0
 11
213.436559032575
 21
101.7767498315
 31
0.0
  0
LINE
  5
E7
330
E5
100
AcDbEntity
  8
1
  6
Continuous
 62
     2
100
AcDbLine
 10
158.8293598627
 20
101.7767498315
 30
0.0
 11
215.436559032575
 21
101.7767498315
 31
0.0
  0
LINE
  5
E8
330
E5
100
AcDbEntity
  8
1
  6
Continuous
 62
     2
100
AcDbLine
 10
158.8293598627
 20
261.7767498315001
 30
0.0
 11
215.436559032575
 21
261.7767498315001
 31
0.0
  0
SOLID
  5
E9
330
E5
100
AcDbEntity
  8
1
 62
     2
100
AcDbTrace
 10
213.8973427741309
 20
258.2767498315001
 30
0.0
 11
212.9757752910191
 21
258.2767498315001
 31
0.0
 12
213.436559032575
 22
261.7767498315001
 32
0.0
 13
213.436559032575
 23
261.7767498315001
 33
0.0
  0
SOLID
  5
EA
330
E5
100
AcDbEntity
  8
1
 62
     2
100
AcDbTrace
 10
212.9757752910191
 20
105.2767498315
 30
0.0
 11
213.8973427741309
 21
105.2767498315
 31
0.0
 12
213.436559032575
 22
101.7767498315
 32
0.0
 13
213.436559032575
 23
101.7767498315
 33
0.0
  0
MTEXT
  5
EB
330
E5
100
AcDbEntity
  8
1
 62
     2
100
AcDbMText
 10
211.436559032575
 20
175.573598667272
 30
0.0
 40
3.5
 41
0.0
 71
     7
 72
     1
  1
160
  7
CONVERTER_11
 11
0.0
 21
1.0
 31
0.0
 73
     1
 44
0.60024009603842
  0
ENDBLK
  5
ED
330
E5
100
AcDbEntity
  8
0
100
AcDbBlockEnd
  0
BLOCK
  5
F7
330
F0
100
AcDbEntity
  8
0
100
AcDbBlockBegin
  2
*D3
 70
     1
 71
     0
 10
0.0
 20
0.0
 30
0.0
  3
*D3
  1

  0
LINE
  5
F1
330
F0
100
AcDbEntity
  8
1
  6
Continuous
 62
     2
100
AcDbLine
 10
203.607539186365
 20
241.7767498315
 30
0.0
 11
203.607539186365
 21
121.7767498315
 31
0.0
  0
LINE
  5
F2
330
F0
100
AcDbEntity
  8
1
  6
Continuous
 62
     2
100
AcDbLine
 10
185.7293598627
 20
121.7767498315
 30
0.0
 11
205.607539186365
 21
121.7767498315
 31
0.0
  0
LINE
  5
F3
330
F0
100
AcDbEntity
  8
1
  6
Continuous
 62
     2
100
AcDbLine
 10
185.7293598627
 20
241.7767498315
 30
0.0
 11
205.607539186365
 21
241.7767498315
 31
0.0
  0
SOLID
  5
F4
330
F0
100
AcDbEntity
  8
1
 62
     2
100
AcDbTrace
 10
204.0683229279209
 20
238.2767498315
 30
0.0
 11
203.1467554448091
 21
238.2767498315
 31
0.0
 12
203.607539186365
 22
241.7767498315
 32
0.0
 13
203.607539186365
 23
241.7767498315
 33
0.0
  0
SOLID
  5
F5
330
F0
100
AcDbEntity
  8
1
 62
     2
100
AcDbTrace
 10
203.1467554448091
 20
125.2767498315
 30
0.0
 11
204.0683229279209
 21
125.2767498315
 31
0.0
 12
203.607539186365
 22
121.7767498315
 32
0.0
 13
203.607539186365
 23
121.7767498315
 33
0.0
  0
MTEXT
  5
F6
330
F0
100
AcDbEntity
  8
1
 62
     2
100
AcDbMText
 10
201.607539186365
 20
175.871440845245
 30
0.0
 40
3.5
 41
0.0
 71
     7
 72
     1
  1
120
  7
CONVERTER_11
 11
0.0
 21
1.0
 31
0.0
 73
     1
 44
0.60024009603842
  0
ENDBLK
  5
F8
330
F0
100
AcDbEntity
  8
0
100
AcDbBlockEnd
  0
BLOCK
  5
102
330
FB
100
AcDbEntity
  8
0
100
AcDbBlockBegin
  2
*D4
 70
     1
 71
     0
 10
0.0
 20
0.0
 30
0.0
  3
*D4
  1

  0
LINE
  5
FC
330
FB
100
AcDbEntity
  8
1
  6
Continuous
 62
     2
100
AcDbLine
 10
203.607539186365
 20
259.2767498315
 30
0.0
 11
203.607539186365
 21
241.7767498315
 31
0.0
  0
LINE
  5
FD
330
FB
100
AcDbEntity
  8
1
  6
Continuous
 62
     2
100
AcDbLine
 10
185.7293598627
 20
241.7767498315
 30
0.0
 11
205.607539186365
 21
241.7767498315
 31
0.0
  0
LINE
  5
FE
330
FB
100
AcDbEntity
  8
1
  6
Continuous
 62
     2
100
AcDbLine
 10
177.6450332563989
 20
259.2767498315
 30
0.0
 11
205.607539186365
 21
259.2767498315
 31
0.0
  0
SOLID
  5
FF
330
FB
100
AcDbEntity
  8
1
 62
     2
100
AcDbTrace
 10
204.0683229279209
 20
255.7767498315
 30
0.0
 11
203.1467554448091
 21
255.7767498315
 31
0.0
 12
203.607539186365
 22
259.2767498315
 32
0.0
 13
203.607539186365
 23
259.2767498315
 33
0.0
  0
SOLID
  5
100
330
FB
100
AcDbEntity
  8
1
 62
     2
100
AcDbTrace
 10
203.1467554448091
 20
245.2767498315
 30
0.0
 11
204.0683229279209
 21
245.2767498315
 31
0.0
 12
203.607539186365
 22
241.7767498315
 32
0.0
 13
203.607539186365
 23
241.7767498315
 33
0.0
  0
MTEXT
  5
101
330
FB
100
AcDbEntity
  8
1
 62
     2
100
AcDbMText
 10
201.607539186365
 20
245.668066946261
 30
0.0
 40
3.5
 41
0.0
 71
     7
 72
     1
  1
17.5
  7
CONVERTER_11
 11
0.0
 21
1.0
 31
0.0
 73
     1
 44
0.60024009603842
  0
ENDBLK
  5
103
330
FB
100
AcDbEntity
  8
0
100
AcDbBlockEnd
  0
BLOCK
  5
10F
330
106
100
AcDbEntity
  8
0
100
AcDbBlockBegin
  2
*D5
 70
     1
 71
     0
 10
0.0
 20
0.0
 30
0.0
  3
*D5
  1

  0
LINE
  5
107
330
106
100
AcDbEntity
  8
1
  6
Continuous
 62
     2
100
AcDbLine
 10
193.782939504337
 20
259.2767498315
 30
0.0
 11
193.782939504337
 21
248.842304715348
 31
0.0
  0
LINE
  5
108
330
106
100
AcDbEntity
  8
1
  6
Continuous
 62
     2
100
AcDbLine
 10
193.782939504337
 20
261.7767498315001
 30
0.0
 11
193.782939504337
 21
259.2767498315
 31
0.0
  0
LINE
  5
109
330
106
100
AcDbEntity
  8
1
  6
Continuous
 62
     2
100
AcDbLine
 10
193.782939504337
 20
268.7767498315001
 30
0.0
 11
193.782939504337
 21
261.7767498315001
 31
0.0
  0
LINE
  5
10A
330
106
100
AcDbEntity
  8
1
  6
Continuous
 62
     2
100
AcDbLine
 10
177.6450332563989
 20
259.2767498315
 30
0.0
 11
195.782939504337
 21
259.2767498315
 31
0.0
  0
LINE
  5
10B
330
106
100
AcDbEntity
  8
1
  6
Continuous
 62
     2
100
AcDbLine
 10
158.8293598627
 20
261.7767498315001
 30
0.0
 11
195.782939504337
 21
261.7767498315001
 31
0.0
  0
SOLID
  5
10C
330
106
100
AcDbEntity
  8
1
 62
     2
100
AcDbTrace
 10
193.3221557627811
 20
265.2767498315001
 30
0.0
 11
194.2437232458929
 21
265.2767498315001
 31
0.0
 12
193.782939504337
 22
261.7767498315001
 32
0.0
 13
193.782939504337
 23
261.7767498315001
 33
0.0
  0
SOLID
  5
10D
330
106
100
AcDbEntity
  8
1
 62
     2
100
AcDbTrace
 10
194.2437232458929
 20
255.7767498315
 30
0.0
 11
193.3221557627811
 21
255.7767498315
 31
0.0
 12
193.782939504337
 22
259.2767498315
 32
0.0
 13
193.782939504337
 23
259.2767498315
 33
0.0
  0
MTEXT
  5
10E
330
106
100
AcDbEntity
  8
1
 62
     2
100
AcDbMText
 10
191.782939504337
 20
248.842304715348
 30
0.0
 40
3.5
 41
0.0
 71
     7
 72
     1
  1
2.5
  7
CONVERTER_11
 11
0.0
 21
1.0
 31
0.0
 73
     1
 44
0.60024009603842
  0
ENDBLK
  5
110
330
106
100
AcDbEntity
  8
0
100
AcDbBlockEnd
  0
BLOCK
  5
11B
330
113
100
AcDbEntity
  8
0
100
AcDbBlockBegin
  2
*D6
 70
     1
 71
     0
 10
0.0
 20
0.0
 30
0.0
  3
*D6
  1

  0
LINE
  5
114
330
113
100
AcDbEntity
  8
1
  6
Continuous
 62
     2
100
AcDbLine
 10
158.8293598627
 20
195.491595055049
 30
0.0
 11
175.213090619348
 21
195.491595055049
 31
0.0
  0
LINE
  5
115
330
113
100
AcDbEntity
  8
1
  6
Continuous
 62
     2
100
AcDbLine
 10
136.3293598627
 20
195.491595055049
 30
0.0
 11
158.8293598627
 21
195.491595055049
 31
0.0
  0
LINE
  5
116
330
113
100
AcDbEntity
  8
1
  6
Continuous
 62
     2
100
AcDbLine
 10
136.3293598627
 20
223.7767498315
 30
0.0
 11
136.3293598627
 21
193.491595055049
 31
0.0
  0
LINE
  5
117
330
113
100
AcDbEntity
  8
1
  6
Continuous
 62
     2
100
AcDbLine
 10
158.8293598627
 20
223.7767498315
 30
0.0
 11
158.8293598627
 21
193.491595055049
 31
0.0
  0
SOLID
  5
118
330
113
100
AcDbEntity
  8
1
 62
     2
100
AcDbTrace
 10
139.8293598627
 20
195.9523787966049
 30
0.0
 11
139.8293598627
 21
195.0308113134931
 31
0.0
 12
136.3293598627
 22
195.491595055049
 32
0.0
 13
136.3293598627
 23
195.491595055049
 33
0.0
  0
SOLID
  5
119
330
113
100
AcDbEntity
  8
1
 62
     2
100
AcDbTrace
 10
155.3293598627
 20
195.0308113134931
 30
0.0
 11
155.3293598627
 21
195.9523787966049
 31
0.0
 12
158.8293598627
 22
195.491595055049
 32
0.0
 13
158.8293598627
 23
195.491595055049
 33
0.0
  0
MTEXT
  5
11A
330
113
100
AcDbEntity
  8
1
 62
     2
100
AcDbMText
 10
162.8055906193565
 20
197.4915880979727
 30
0.0
 40
3.5
 41
0.0
 71
     7
 72
     1
  1
\C2;ø\C2;22.5
  7
CONVERTER_11
 11
0.9999999999970621
 21
2.424068405545307E-6
 31
0.0
 73
     1
 44
0.60024009603842
  0
ENDBLK
  5
11C
330
113
100
AcDbEntity
  8
0
100
AcDbBlockEnd
  0
ENDSEC
  0
SECTION
  2
ENTITIES
  0
POINT
  5
37
330
1F
100
AcDbEntity
  8
1
 62
     3
 60
     1
100
AcDbPoint
 10
158.8293598627
 20
223.7767498315
 30
0.0
  0
POINT
  5
38
330
1F
100
AcDbEntity
  8
A_BEMASSUNGEN
 62
     7
100
AcDbPoint
 10
185.7293598627
 20
241.7767498315
 30
0.0
  0
POINT
  5
39
330
1F
100
AcDbEntity
  8
A_BEMASSUNGEN
 62
     7
100
AcDbPoint
 10
185.7293598627
 20
121.7767498315
 30
0.0
  0
POINT
  5
3A
330
1F
100
AcDbEntity
  8
1
 62
     3
 60
     1
100
AcDbPoint
 10
136.3293598627
 20
139.7767498315
 30
0.0
  0
POINT
  5
3B
330
1F
100
AcDbEntity
  8
1
 62
     3
 60
     1
100
AcDbPoint
 10
147.5793598627
 20
139.7767498315
 30
0.0
  0
LINE
  5
3C
330
1F
100
AcDbEntity
  8
DEFAULT_1
  6
DOT_CENTER
 62
     2
100
AcDbLine
 10
118.0793598627
 20
97.77674983150001
 30
0.0
 11
118.0793598627
 21
89.52674983150001
 31
0.0
  0
LINE
  5
3D
330
1F
100
AcDbEntity
  8
DEFAULT_1
  6
DOT_CENTER
 62
     2
100
AcDbLine
 10
118.0793598627
 20
97.77674983150001
 30
0.0
 11
126.3293598627
 21
97.77674983150001
 31
0.0
  0
LINE
  5
3E
330
1F
100
AcDbEntity
  8
DEFAULT_1
  6
DOT_CENTER
 62
     2
100
AcDbLine
 10
118.0793598627
 20
97.77674983150001
 30
0.0
 11
118.0793598627
 21
106.0267498315
 31
0.0
  0
LINE
  5
3F
330
1F
100
AcDbEntity
  8
DEFAULT_1
  6
DOT_CENTER
 62
     2
100
AcDbLine
 10
118.0793598627
 20
97.77674983150001
 30
0.0
 11
109.8293598627
 21
97.77674983150001
 31
0.0
  0
LINE
  5
40
330
1F
100
AcDbEntity
  8
DEFAULT_1
  6
DOT_CENTER
 62
     2
100
AcDbLine
 10
107.0793598627
 20
93.27674983150001
 30
0.0
 11
107.0793598627
 21
85.02674983150001
 31
0.0
  0
LINE
  5
41
330
1F
100
AcDbEntity
  8
DEFAULT_1
  6
DOT_CENTER
 62
     2
100
AcDbLine
 10
107.0793598627
 20
93.27674983150001
 30
0.0
 11
98.82935986270002
 21
93.27674983150001
 31
0.0
  0
LINE
  5
42
330
1F
100
AcDbEntity
  8
DEFAULT_1
  6
DOT_CENTER
 62
     2
100
AcDbLine
 10
107.0793598627
 20
93.27674983150001
 30
0.0
 11
107.0793598627
 21
101.5267498315
 31
0.0
  0
LINE
  5
43
330
1F
100
AcDbEntity
  8
DEFAULT_1
  6
DOT_CENTER
 62
     2
100
AcDbLine
 10
107.0793598627
 20
93.27674983150001
 30
0.0
 11
115.3293598627
 21
93.27674983150001
 31
0.0
  0
LINE
  5
44
330
1F
100
AcDbEntity
  8
DEFAULT_1
  6
DOT_CENTER
 62
     2
100
AcDbLine
 10
112.5793598627
 20
109.9765561036851
 30
0.0
 11
112.5793598627
 21
98.5267498314999
 31
0.0
  0
LINE
  5
45
330
1F
100
AcDbEntity
  8
1
  6
Continuous
 62
     7
100
AcDbLine
 10
113.0793598627
 20
105.2767498315
 30
0.0
 11
113.3293598627
 21
105.0267498315
 31
0.0
  0
LINE
  5
46
330
1F
100
AcDbEntity
  8
1
  6
Continuous
 62
     2
100
AcDbLine
 10
114.1703501203697
 20
105.8677400891698
 30
0.0
 11
113.3293598627
 21
105.0267498315
 31
0.0
  0
LINE
  5
47
330
1F
100
AcDbEntity
  8
1
  6
Continuous
 62
     7
100
AcDbLine
 10
111.5793598627
 20
104.7767498315
 30
0.0
 11
111.8293598627
 21
105.0267498315
 31
0.0
  0
LINE
  5
48
330
1F
100
AcDbEntity
  8
1
  6
Continuous
 62
     2
100
AcDbLine
 10
110.9883696050303
 20
105.8677400891698
 30
0.0
 11
111.8293598627
 21
105.0267498315
 31
0.0
  0
LINE
  5
49
330
1F
100
AcDbEntity
  8
1
  6
Continuous
 62
     7
100
AcDbLine
 10
111.5793598627
 20
103.7767498314999
 30
0.0
 11
111.8293598627
 21
103.5267498314999
 31
0.0
  0
LINE
  5
4A
330
1F
100
AcDbEntity
  8
1
  6
Continuous
 62
     2
100
AcDbLine
 10
110.9883696050303
 20
102.6857595738304
 30
0.0
 11
111.8293598627
 21
103.5267498314999
 31
0.0
  0
LINE
  5
4B
330
1F
100
AcDbEntity
  8
1
  6
Continuous
 62
     7
100
AcDbLine
 10
113.5793598627
 20
103.7767498314999
 30
0.0
 11
113.3293598627
 21
103.5267498314999
 31
0.0
  0
LINE
  5
4C
330
1F
100
AcDbEntity
  8
1
  6
Continuous
 62
     2
100
AcDbLine
 10
114.1703501203697
 20
102.6857595738304
 30
0.0
 11
113.3293598627
 21
103.5267498314999
 31
0.0
  0
LINE
  5
4D
330
1F
100
AcDbEntity
  8
1
  6
Continuous
 62
     7
100
AcDbLine
 10
111.8293598627
 20
105.0267498315
 30
0.0
 11
112.0793598627
 21
105.2767498315
 31
0.0
  0
LINE
  5
4E
330
1F
100
AcDbEntity
  8
1
  6
Continuous
 62
     7
100
AcDbLine
 10
113.3293598627
 20
105.0267498315
 30
0.0
 11
113.5793598627
 21
104.7767498315
 31
0.0
  0
LINE
  5
4F
330
1F
100
AcDbEntity
  8
1
  6
Continuous
 62
     7
100
AcDbLine
 10
113.3293598627
 20
103.5267498314999
 30
0.0
 11
113.0793598627
 21
103.2767498314999
 31
0.0
  0
LINE
  5
50
330
1F
100
AcDbEntity
  8
1
  6
Continuous
 62
     7
100
AcDbLine
 10
111.8293598627
 20
103.5267498314999
 30
0.0
 11
112.0793598627
 21
103.2767498314999
 31
0.0
  0
LINE
  5
51
330
1F
100
AcDbEntity
  8
1
  6
Continuous
 62
     7
100
AcDbLine
 10
112.0793598627
 20
102.0267498314999
 30
0.0
 11
112.0793598627
 21
103.2767498314999
 31
0.0
  0
LINE
  5
52
330
1F
100
AcDbEntity
  8
1
  6
Continuous
 62
     7
100
AcDbLine
 10
111.5793598627
 20
103.7767498314999
 30
0.0
 11
110.3293598627
 21
103.7767498314999
 31
0.0
  0
LINE
  5
53
330
1F
100
AcDbEntity
  8
1
  6
Continuous
 62
     7
100
AcDbLine
 10
110.3293598627
 20
103.7767498314999
 30
0.0
 11
110.3293598627
 21
104.7767498315
 31
0.0
  0
LINE
  5
54
330
1F
100
AcDbEntity
  8
1
  6
Continuous
 62
     7
100
AcDbLine
 10
110.3293598627
 20
104.7767498315
 30
0.0
 11
111.5793598627
 21
104.7767498315
 31
0.0
  0
LINE
  5
55
330
1F
100
AcDbEntity
  8
1
  6
Continuous
 62
     7
100
AcDbLine
 10
112.0793598627
 20
105.2767498315
 30
0.0
 11
112.0793598627
 21
106.5267498315
 31
0.0
  0
LINE
  5
56
330
1F
100
AcDbEntity
  8
1
  6
Continuous
 62
     7
100
AcDbLine
 10
112.0793598627
 20
106.5267498315
 30
0.0
 11
113.0793598627
 21
106.5267498315
 31
0.0
  0
LINE
  5
57
330
1F
100
AcDbEntity
  8
1
  6
Continuous
 62
     7
100
AcDbLine
 10
113.0793598627
 20
106.5267498315
 30
0.0
 11
113.0793598627
 21
105.2767498315
 31
0.0
  0
LINE
  5
58
330
1F
100
AcDbEntity
  8
1
  6
Continuous
 62
     7
100
AcDbLine
 10
113.5793598627
 20
104.7767498315
 30
0.0
 11
114.8293598627
 21
104.7767498315
 31
0.0
  0
LINE
  5
59
330
1F
100
AcDbEntity
  8
1
  6
Continuous
 62
     7
100
AcDbLine
 10
114.8293598627
 20
104.7767498315
 30
0.0
 11
114.8293598627
 21
103.7767498314999
 31
0.0
  0
LINE
  5
5A
330
1F
100
AcDbEntity
  8
1
  6
Continuous
 62
     7
100
AcDbLine
 10
114.8293598627
 20
103.7767498314999
 30
0.0
 11
113.5793598627
 21
103.7767498314999
 31
0.0
  0
LINE
  5
5B
330
1F
100
AcDbEntity
  8
1
  6
Continuous
 62
     7
100
AcDbLine
 10
113.0793598627
 20
103.2767498314999
 30
0.0
 11
113.0793598627
 21
102.0267498314999
 31
0.0
  0
LINE
  5
5C
330
1F
100
AcDbEntity
  8
1
  6
Continuous
 62
     7
100
AcDbLine
 10
113.0793598627
 20
102.0267498314999
 30
0.0
 11
112.0793598627
 21
102.0267498314999
 31
0.0
  0
LINE
  5
5D
330
1F
100
AcDbEntity
  8
1
  6
DOT_CENTER
 62
     7
100
AcDbLine
 10
88.64503325639893
 20
259.2767498315
 30
0.0
 11
177.6450332563989
 21
259.2767498315
 31
0.0
  0
LINE
  5
5E
330
1F
100
AcDbEntity
  8
1
  6
Continuous
 62
     7
100
AcDbLine
 10
136.3293598627
 20
223.7767498315
 30
0.0
 11
158.8293598627
 21
223.7767498315
 31
0.0
  0
LINE
  5
5F
330
1F
100
AcDbEntity
  8
1
  6
Continuous
 62
     7
100
AcDbLine
 10
137.5793598627
 20
139.7767498315
 30
0.0
 11
137.5793598627
 21
138.7767498315
 31
0.0
  0
LINE
  5
60
330
1F
100
AcDbEntity
  8
1
  6
Continuous
 62
     7
100
AcDbLine
 10
157.5793598627
 20
138.7767498315
 30
0.0
 11
157.5793598627
 21
139.7767498315
 31
0.0
  0
LINE
  5
61
330
1F
100
AcDbEntity
  8
A_ACHSEN
  6
Continuous
 62
     7
100
AcDbLine
 10
136.3293598627
 20
261.7767498315001
 30
0.0
 11
136.3293598627
 21
224.7767498315
 31
0.0
  0
LINE
  5
62
330
1F
100
AcDbEntity
  8
A_ACHSEN
  6
Continuous
 62
     7
100
AcDbLine
 10
136.3293598627
 20
101.7767498315
 30
0.0
 11
136.3293598627
 21
138.7767498315
 31
0.0
  0
LINE
  5
63
330
1F
100
AcDbEntity
  8
A_ACHSEN
  6
DOT_CENTER
 62
     2
100
AcDbLine
 10
147.5793598627
 20
264.5894405243
 30
0.0
 11
147.5793598627
 21
99.57674983150002
 31
0.0
  0
LINE
  5
64
330
1F
100
AcDbEntity
  8
A_ACHSEN
  6
Continuous
 62
     7
100
AcDbLine
 10
158.8293598627
 20
101.7767498315
 30
0.0
 11
158.8293598627
 21
138.7767498315
 31
0.0
  0
LINE
  5
65
330
1F
100
AcDbEntity
  8
A_ACHSEN
  6
Continuous
 62
     7
100
AcDbLine
 10
158.8293598627
 20
224.7767498315
 30
0.0
 11
158.8293598627
 21
236.7767498315
 31
0.0
  0
LINE
  5
66
330
1F
100
AcDbEntity
  8
0
  6
Continuous
 62
     7
100
AcDbLine
 10
179.5044861286
 20
236.7767498315
 30
0.0
 11
179.5044861286
 21
246.7767498315
 31
0.0
  0
LINE
  5
67
330
1F
100
AcDbEntity
  8
A_ACHSEN
  6
Continuous
 62
     7
100
AcDbLine
 10
179.5044861286
 20
236.7767498315
 30
0.0
 11
183.7293598627
 21
238.5267498315
 31
0.0
  0
LINE
  5
68
330
1F
100
AcDbEntity
  8
A_ACHSEN
  6
Continuous
 62
     7
100
AcDbLine
 10
183.7293598627
 20
238.5268384169
 30
0.0
 11
183.7293598627
 21
245.0266612460001
 31
0.0
  0
LINE
  5
69
330
1F
100
AcDbEntity
  8
A_ACHSEN
  6
Continuous
 62
     7
100
AcDbLine
 10
158.8293598627
 20
101.7767498315
 30
0.0
 11
136.3293598627
 21
101.7767498315
 31
0.0
  0
LINE
  5
6A
330
1F
100
AcDbEntity
  8
DEFAULT_2
  6
HIDDEN_1
 62
   252
420
  8685188
100
AcDbLine
 10
136.3293598627
 20
138.7767498315
 30
0.0
 11
137.5793598627
 21
138.7767498315
 31
0.0
  0
LINE
  5
6B
330
1F
100
AcDbEntity
  8
A_ACHSEN
  6
Continuous
 62
     7
100
AcDbLine
 10
179.5044861286
 20
246.7767498315
 30
0.0
 11
183.7293598627
 21
245.0267498315
 31
0.0
  0
LINE
  5
6C
330
1F
100
AcDbEntity
  8
DEFAULT_2
  6
HIDDEN_1
 62
   252
420
  8685188
100
AcDbLine
 10
136.3293598627
 20
224.7767498315
 30
0.0
 11
137.5794600442
 21
224.7767498315
 31
0.0
  0
LINE
  5
6D
330
1F
100
AcDbEntity
  8
A_ACHSEN
  6
Continuous
 62
     7
100
AcDbLine
 10
136.3293598627
 20
224.7767498315
 30
0.0
 11
137.5794600442
 21
224.7767498315
 31
0.0
  0
LINE
  5
6E
330
1F
100
AcDbEntity
  8
0
  6
Continuous
 62
     7
100
AcDbLine
 10
158.8293598627
 20
236.7767498315
 30
0.0
 11
165.7293598627
 21
236.7767498315
 31
0.0
  0
LINE
  5
6F
330
1F
100
AcDbEntity
  8
DEFAULT_2
  6
Continuous
 62
     7
100
AcDbLine
 10
165.7293598627
 20
236.7767498315
 30
0.0
 11
175.7293598627
 21
236.7767498315
 31
0.0
  0
LINE
  5
70
330
1F
100
AcDbEntity
  8
0
  6
Continuous
 62
     7
100
AcDbLine
 10
175.7293598627
 20
236.7767498315
 30
0.0
 11
179.5044861286
 21
236.7767498315
 31
0.0
  0
LINE
  5
71
330
1F
100
AcDbEntity
  8
0
  6
Continuous
 62
     2
100
AcDbLine
 10
165.7293598627
 20
237.7767498315
 30
0.0
 11
179.5044861286
 21
237.7767498315
 31
0.0
  0
LINE
  5
72
330
1F
100
AcDbEntity
  8
A_ACHSEN
  6
DOT_CENTER
 62
     2
100
AcDbLine
 10
185.7293598627
 20
241.7767498315
 30
0.0
 11
156.8293598627
 21
241.7767498315
 31
0.0
  0
LINE
  5
73
330
1F
100
AcDbEntity
  8
0
  6
Continuous
 62
     2
100
AcDbLine
 10
158.8293598627
 20
245.7767498315
 30
0.0
 11
165.7293598627
 21
245.7767498315
 31
0.0
  0
LINE
  5
74
330
1F
100
AcDbEntity
  8
DEFAULT_2
  6
Continuous
 62
     2
100
AcDbLine
 10
165.7293598627
 20
245.7767498315
 30
0.0
 11
175.7293598627
 21
245.7767498315
 31
0.0
  0
LINE
  5
75
330
1F
100
AcDbEntity
  8
0
  6
Continuous
 62
     2
100
AcDbLine
 10
175.7293598627
 20
245.7767498315
 30
0.0
 11
179.5044861286
 21
245.7767498315
 31
0.0
  0
LINE
  5
76
330
1F
100
AcDbEntity
  8
0
  6
Continuous
 62
     7
100
AcDbLine
 10
158.8293598627
 20
246.7767498315
 30
0.0
 11
165.7293598627
 21
246.7767498315
 31
0.0
  0
LINE
  5
77
330
1F
100
AcDbEntity
  8
A_ACHSEN
  6
Continuous
 62
     7
100
AcDbLine
 10
165.7293598627
 20
246.7767498315
 30
0.0
 11
175.7293598627
 21
246.7767498315
 31
0.0
  0
LINE
  5
78
330
1F
100
AcDbEntity
  8
DEFAULT_2
  6
HIDDEN_1
 62
   252
420
  8685188
100
AcDbLine
 10
165.7293598627
 20
246.7767498315
 30
0.0
 11
175.7293598627
 21
246.7767498315
 31
0.0
  0
LINE
  5
79
330
1F
100
AcDbEntity
  8
0
  6
Continuous
 62
     7
100
AcDbLine
 10
175.7293598627
 20
246.7767498315
 30
0.0
 11
179.5044861286
 21
246.7767498315
 31
0.0
  0
LINE
  5
7A
330
1F
100
AcDbEntity
  8
A_ACHSEN
  6
Continuous
 62
     7
100
AcDbLine
 10
136.3293598627
 20
261.7767498315001
 30
0.0
 11
158.8293598627
 21
261.7767498315001
 31
0.0
  0
LINE
  5
7B
330
1F
100
AcDbEntity
  8
A_ACHSEN
  6
Continuous
 62
     7
100
AcDbLine
 10
158.8293598627
 20
246.7767498315
 30
0.0
 11
158.8293598627
 21
261.7767498315001
 31
0.0
  0
LINE
  5
7C
330
1F
100
AcDbEntity
  8
0
  6
Continuous
 62
     2
100
AcDbLine
 10
158.8293598627
 20
237.7767498315
 30
0.0
 11
165.7293598627
 21
237.7767498315
 31
0.0
  0
LINE
  5
7D
330
1F
100
AcDbEntity
  8
1
  6
Continuous
 62
     7
100
AcDbLine
 10
137.5794600442
 20
223.7767498315
 30
0.0
 11
137.5794600442
 21
224.7767498315
 31
0.0
  0
LINE
  5
7E
330
1F
100
AcDbEntity
  8
DEFAULT_2
  6
HIDDEN_1
 62
   252
420
  8685188
100
AcDbLine
 10
137.5794600442
 20
224.7767498315
 30
0.0
 11
138.5793598627
 21
224.7767498315
 31
0.0
  0
LINE
  5
7F
330
1F
100
AcDbEntity
  8
A_ACHSEN
  6
Continuous
 62
     7
100
AcDbLine
 10
137.5794600442
 20
224.7767498315
 30
0.0
 11
158.8293598627
 21
224.7767498315
 31
0.0
  0
LINE
  5
80
330
1F
100
AcDbEntity
  8
1
  6
Continuous
 62
     7
100
AcDbLine
 10
157.5792596812
 20
224.7767498315
 30
0.0
 11
157.5792596812
 21
223.7767498315
 31
0.0
  0
LINE
  5
81
330
1F
100
AcDbEntity
  8
A_ACHSEN
  6
Continuous
 62
     7
100
AcDbLine
 10
137.5793598627
 20
138.7767498315
 30
0.0
 11
136.3293598627
 21
138.7767498315
 31
0.0
  0
LINE
  5
82
330
1F
100
AcDbEntity
  8
A_ACHSEN
  6
Continuous
 62
     7
100
AcDbLine
 10
158.8293598627
 20
138.7767498315
 30
0.0
 11
137.5793598627
 21
138.7767498315
 31
0.0
  0
LINE
  5
83
330
1F
100
AcDbEntity
  8
0
  6
Continuous
 62
     2
100
AcDbLine
 10
165.7293598627
 20
125.7767498315
 30
0.0
 11
158.8293598627
 21
125.7767498315
 31
0.0
  0
LINE
  5
84
330
1F
100
AcDbEntity
  8
0
  6
Continuous
 62
     7
100
AcDbLine
 10
179.5044861286
 20
116.7767498315
 30
0.0
 11
175.7293598627
 21
116.7767498315
 31
0.0
  0
LINE
  5
85
330
1F
100
AcDbEntity
  8
DEFAULT_2
  6
HIDDEN_1
 62
   252
420
  8685188
100
AcDbLine
 10
175.7293598627
 20
116.7767498315
 30
0.0
 11
165.7293598627
 21
116.7767498315
 31
0.0
  0
LINE
  5
86
330
1F
100
AcDbEntity
  8
A_ACHSEN
  6
Continuous
 62
     7
100
AcDbLine
 10
175.7293598627
 20
116.7767498315
 30
0.0
 11
165.7293598627
 21
116.7767498315
 31
0.0
  0
LINE
  5
87
330
1F
100
AcDbEntity
  8
0
  6
Continuous
 62
     7
100
AcDbLine
 10
165.7293598627
 20
116.7767498315
 30
0.0
 11
158.8293598627
 21
116.7767498315
 31
0.0
  0
LINE
  5
88
330
1F
100
AcDbEntity
  8
0
  6
Continuous
 62
     2
100
AcDbLine
 10
179.5044861286
 20
117.7767498315
 30
0.0
 11
175.7293598627
 21
117.7767498315
 31
0.0
  0
LINE
  5
89
330
1F
100
AcDbEntity
  8
DEFAULT_2
  6
Continuous
 62
     2
100
AcDbLine
 10
175.7293598627
 20
117.7767498315
 30
0.0
 11
165.7293598627
 21
117.7767498315
 31
0.0
  0
LINE
  5
8A
330
1F
100
AcDbEntity
  8
0
  6
Continuous
 62
     2
100
AcDbLine
 10
165.7293598627
 20
117.7767498315
 30
0.0
 11
158.8293598627
 21
117.7767498315
 31
0.0
  0
LINE
  5
8B
330
1F
100
AcDbEntity
  8
A_ACHSEN
  6
DOT_CENTER
 62
     2
100
AcDbLine
 10
156.7293598627
 20
121.7767498315
 30
0.0
 11
185.7293598627
 21
121.7767498315
 31
0.0
  0
LINE
  5
8C
330
1F
100
AcDbEntity
  8
0
  6
Continuous
 62
     2
100
AcDbLine
 10
179.5044861286
 20
125.7767498315
 30
0.0
 11
165.7293598627
 21
125.7767498315
 31
0.0
  0
LINE
  5
8D
330
1F
100
AcDbEntity
  8
0
  6
Continuous
 62
     7
100
AcDbLine
 10
179.5044861286
 20
126.7767498315
 30
0.0
 11
175.7293598627
 21
126.7767498315
 31
0.0
  0
LINE
  5
8E
330
1F
100
AcDbEntity
  8
DEFAULT_2
  6
Continuous
 62
     7
100
AcDbLine
 10
175.7293598627
 20
126.7767498315
 30
0.0
 11
165.7293598627
 21
126.7767498315
 31
0.0
  0
LINE
  5
8F
330
1F
100
AcDbEntity
  8
0
  6
Continuous
 62
     7
100
AcDbLine
 10
165.7293598627
 20
126.7767498315
 30
0.0
 11
158.8293598627
 21
126.7767498315
 31
0.0
  0
LINE
  5
90
330
1F
100
AcDbEntity
  8
A_ACHSEN
  6
Continuous
 62
     7
100
AcDbLine
 10
183.7293598627
 20
118.5267498315
 30
0.0
 11
179.5044861286
 21
116.7767498315
 31
0.0
  0
LINE
  5
91
330
1F
100
AcDbEntity
  8
A_ACHSEN
  6
Continuous
 62
     7
100
AcDbLine
 10
183.7293598627
 20
118.526838417
 30
0.0
 11
183.7293598627
 21
125.0266612461001
 31
0.0
  0
LINE
  5
92
330
1F
100
AcDbEntity
  8
A_ACHSEN
  6
Continuous
 62
     7
100
AcDbLine
 10
183.7293598627
 20
125.0267498315
 30
0.0
 11
179.5044861286
 21
126.7767498315
 31
0.0
  0
LINE
  5
93
330
1F
100
AcDbEntity
  8
0
  6
Continuous
 62
     7
100
AcDbLine
 10
179.5044861286
 20
116.7767498315
 30
0.0
 11
179.5044861286
 21
126.7767498315
 31
0.0
  0
LINE
  5
94
330
1F
100
AcDbEntity
  8
A_ACHSEN
  6
Continuous
 62
     7
100
AcDbLine
 10
158.8293598627
 20
245.7767498315
 30
0.0
 11
158.8293598627
 21
246.7767498315
 31
0.0
  0
LINE
  5
95
330
1F
100
AcDbEntity
  8
A_ACHSEN
  6
Continuous
 62
     7
100
AcDbLine
 10
158.8293598627
 20
236.7767498315
 30
0.0
 11
158.8293598627
 21
237.7767498315
 31
0.0
  0
LINE
  5
96
330
1F
100
AcDbEntity
  8
A_ACHSEN
  6
Continuous
 62
     7
100
AcDbLine
 10
158.8293598627
 20
237.7767498315
 30
0.0
 11
158.8293598627
 21
245.7767498315
 31
0.0
  0
LINE
  5
97
330
1F
100
AcDbEntity
  8
1
  6
Continuous
 62
     7
100
AcDbLine
 10
112.0793598627
 20
261.5267498315001
 30
0.0
 11
113.0793598627
 21
261.5267498315001
 31
0.0
  0
LINE
  5
98
330
1F
100
AcDbEntity
  8
1
  6
Continuous
 62
     7
100
AcDbLine
 10
113.0793598627
 20
261.5267498315001
 30
0.0
 11
113.0793598627
 21
260.2767498315001
 31
0.0
  0
LINE
  5
99
330
1F
100
AcDbEntity
  8
1
  6
Continuous
 62
     7
100
AcDbLine
 10
113.5793598627
 20
259.7767498315001
 30
0.0
 11
114.8293598627
 21
259.7767498315001
 31
0.0
  0
LINE
  5
9A
330
1F
100
AcDbEntity
  8
1
  6
Continuous
 62
     7
100
AcDbLine
 10
114.8293598627
 20
259.7767498315001
 30
0.0
 11
114.8293598627
 21
258.7767498315
 31
0.0
  0
LINE
  5
9B
330
1F
100
AcDbEntity
  8
1
  6
Continuous
 62
     7
100
AcDbLine
 10
114.8293598627
 20
258.7767498315
 30
0.0
 11
113.5793598627
 21
258.7767498315
 31
0.0
  0
LINE
  5
9C
330
1F
100
AcDbEntity
  8
1
  6
Continuous
 62
     7
100
AcDbLine
 10
113.0793598627
 20
258.2767498315
 30
0.0
 11
113.0793598627
 21
257.0267498315
 31
0.0
  0
LINE
  5
9D
330
1F
100
AcDbEntity
  8
1
  6
Continuous
 62
     7
100
AcDbLine
 10
113.0793598627
 20
257.0267498315
 30
0.0
 11
112.0793598627
 21
257.0267498315
 31
0.0
  0
LINE
  5
9E
330
1F
100
AcDbEntity
  8
1
  6
Continuous
 62
     7
100
AcDbLine
 10
112.0793598627
 20
257.0267498315
 30
0.0
 11
112.0793598627
 21
258.2767498315
 31
0.0
  0
LINE
  5
9F
330
1F
100
AcDbEntity
  8
1
  6
Continuous
 62
     7
100
AcDbLine
 10
111.5793598627
 20
258.7767498315
 30
0.0
 11
110.3293598627
 21
258.7767498315
 31
0.0
  0
LINE
  5
A0
330
1F
100
AcDbEntity
  8
1
  6
Continuous
 62
     7
100
AcDbLine
 10
110.3293598627
 20
258.7767498315
 30
0.0
 11
110.3293598627
 21
259.7767498315001
 31
0.0
  0
LINE
  5
A1
330
1F
100
AcDbEntity
  8
1
  6
Continuous
 62
     7
100
AcDbLine
 10
110.3293598627
 20
259.7767498315001
 30
0.0
 11
111.5793598627
 21
259.7767498315001
 31
0.0
  0
LINE
  5
A2
330
1F
100
AcDbEntity
  8
1
  6
Continuous
 62
     7
100
AcDbLine
 10
112.0793598627
 20
260.2767498315001
 30
0.0
 11
112.0793598627
 21
261.5267498315001
 31
0.0
  0
LINE
  5
A3
330
1F
100
AcDbEntity
  8
1
  6
Continuous
 62
     7
100
AcDbLine
 10
112.0793598627
 20
260.2767498315001
 30
0.0
 11
111.8293598627
 21
260.0267498315001
 31
0.0
  0
LINE
  5
A4
330
1F
100
AcDbEntity
  8
1
  6
Continuous
 62
     7
100
AcDbLine
 10
113.0793598627
 20
260.2767498315001
 30
0.0
 11
113.3293598627
 21
260.0267498315001
 31
0.0
  0
LINE
  5
A5
330
1F
100
AcDbEntity
  8
1
  6
Continuous
 62
     7
100
AcDbLine
 10
113.5793598627
 20
258.7767498315
 30
0.0
 11
113.3293598627
 21
258.5267498315
 31
0.0
  0
LINE
  5
A6
330
1F
100
AcDbEntity
  8
1
  6
Continuous
 62
     7
100
AcDbLine
 10
112.0793598627
 20
258.2767498315
 30
0.0
 11
111.8293598627
 21
258.5267498315
 31
0.0
  0
LINE
  5
A7
330
1F
100
AcDbEntity
  8
1
  6
Continuous
 62
     2
100
AcDbLine
 10
113.3293598627
 20
260.0267498315001
 30
0.0
 11
114.1703501203697
 21
260.8677400891696
 31
0.0
  0
LINE
  5
A8
330
1F
100
AcDbEntity
  8
1
  6
Continuous
 62
     7
100
AcDbLine
 10
113.3293598627
 20
260.0267498315001
 30
0.0
 11
113.5793598627
 21
259.7767498315001
 31
0.0
  0
LINE
  5
A9
330
1F
100
AcDbEntity
  8
1
  6
Continuous
 62
     2
100
AcDbLine
 10
111.8293598627
 20
260.0267498315001
 30
0.0
 11
110.9883696050303
 21
260.8677400891696
 31
0.0
  0
LINE
  5
AA
330
1F
100
AcDbEntity
  8
1
  6
Continuous
 62
     7
100
AcDbLine
 10
111.8293598627
 20
260.0267498315001
 30
0.0
 11
111.5793598627
 21
259.7767498315001
 31
0.0
  0
LINE
  5
AB
330
1F
100
AcDbEntity
  8
1
  6
Continuous
 62
     2
100
AcDbLine
 10
111.8293598627
 20
258.5267498315
 30
0.0
 11
110.9883696050303
 21
257.6857595738302
 31
0.0
  0
LINE
  5
AC
330
1F
100
AcDbEntity
  8
1
  6
Continuous
 62
     7
100
AcDbLine
 10
111.8293598627
 20
258.5267498315
 30
0.0
 11
111.5793598627
 21
258.7767498315
 31
0.0
  0
LINE
  5
AD
330
1F
100
AcDbEntity
  8
1
  6
Continuous
 62
     2
100
AcDbLine
 10
113.3293598627
 20
258.5267498315
 30
0.0
 11
114.1703501203697
 21
257.6857595738302
 31
0.0
  0
LINE
  5
AE
330
1F
100
AcDbEntity
  8
1
  6
Continuous
 62
     7
100
AcDbLine
 10
113.3293598627
 20
258.5267498315
 30
0.0
 11
113.0793598627
 21
258.2767498315
 31
0.0
  0
LINE
  5
AF
330
1F
100
AcDbEntity
  8
DEFAULT_1
  6
DOT_CENTER
 62
     2
100
AcDbLine
 10
112.5793598627
 20
265.0267498315001
 30
0.0
 11
112.5793598627
 21
253.5769435593149
 31
0.0
  0
LINE
  5
B0
330
1F
100
AcDbEntity
  8
0
  6
Continuous
 62
     7
100
AcDbLine
 10
100.5793598627
 20
95.7767498315
 30
0.0
 11
100.5793598627
 21
267.7767498315
 31
0.0
  0
LINE
  5
B1
330
1F
100
AcDbEntity
  8
0
  6
Continuous
 62
     7
100
AcDbLine
 10
124.5793598627
 20
95.7767498315
 30
0.0
 11
124.5793598627
 21
139.7767498315
 31
0.0
  0
LINE
  5
B2
330
1F
100
AcDbEntity
  8
0
  6
Continuous
 62
     7
100
AcDbLine
 10
124.5793598627
 20
223.7767498315
 30
0.0
 11
124.5793598627
 21
267.7767498315
 31
0.0
  0
LINE
  5
B3
330
1F
100
AcDbEntity
  8
A_ACHSEN
  6
Continuous
 62
     7
100
AcDbLine
 10
158.8293598627
 20
223.7767498315
 30
0.0
 11
158.8293598627
 21
139.7767498315
 31
0.0
  0
LINE
  5
B4
330
1F
100
AcDbEntity
  8
A_ACHSEN
  6
Continuous
 62
     7
100
AcDbLine
 10
158.829136196
 20
139.7767498315
 30
0.0
 11
147.5793598627
 21
139.7767498315
 31
0.0
  0
LINE
  5
B5
330
1F
100
AcDbEntity
  8
A_ACHSEN
  6
Continuous
 62
     7
100
AcDbLine
 10
118.5793598627
 20
139.7767498315
 30
0.0
 11
136.3293598627
 21
139.7767498315
 31
0.0
  0
LINE
  5
B6
330
1F
100
AcDbEntity
  8
DEFAULT_2
  6
HIDDEN_1
 62
   252
420
  8685188
100
AcDbLine
 10
136.3293598627
 20
139.7767498315
 30
0.0
 11
147.5793598627
 21
139.7767498315
 31
0.0
  0
LINE
  5
B7
330
1F
100
AcDbEntity
  8
A_ACHSEN
  6
DOT_CENTER
 62
     2
100
AcDbLine
 10
98.5797153687
 20
181.7767498315
 30
0.0
 11
164.3218037959
 21
181.7767498315
 31
0.0
  0
LINE
  5
B8
330
1F
100
AcDbEntity
  8
A_ACHSEN
  6
Continuous
 62
     7
100
AcDbLine
 10
118.5793598627
 20
223.7767498315
 30
0.0
 11
136.3293598627
 21
223.7767498315
 31
0.0
  0
LINE
  5
B9
330
1F
100
AcDbEntity
  8
1
  6
Continuous
 62
     7
100
AcDbLine
 10
136.3293598627
 20
223.7767498315
 30
0.0
 11
136.3293598627
 21
139.7767498315
 31
0.0
  0
LINE
  5
BA
330
1F
100
AcDbEntity
  8
A_ACHSEN
  6
Continuous
 62
     7
100
AcDbLine
 10
147.5793598627
 20
139.7767498315
 30
0.0
 11
136.3293598627
 21
139.7767498315
 31
0.0
  0
LINE
  5
BB
330
1F
100
AcDbEntity
  8
DEFAULT_2
  6
HIDDEN_1
 62
   252
420
  8685188
100
AcDbLine
 10
147.5793598627
 20
139.7767498315
 30
0.0
 11
157.5791235446
 21
139.7767498315
 31
0.0
  0
LINE
  5
BC
330
1F
100
AcDbEntity
  8
0
  6
Continuous
 62
     7
100
AcDbLine
 10
124.5793598627
 20
226.7767498315
 30
0.0
 11
118.5793598627
 21
226.7767498315
 31
0.0
  0
LINE
  5
BD
330
1F
100
AcDbEntity
  8
0
  6
Continuous
 62
     7
100
AcDbLine
 10
118.5793598627
 20
136.7767498315
 30
0.0
 11
118.5793598627
 21
139.7767498315
 31
0.0
  0
LINE
  5
BE
330
1F
100
AcDbEntity
  8
0
  6
Continuous
 62
     7
100
AcDbLine
 10
118.5793598627
 20
223.7767498315
 30
0.0
 11
118.5793598627
 21
226.7767498315
 31
0.0
  0
LINE
  5
BF
330
1F
100
AcDbEntity
  8
0
  6
Continuous
 62
     7
100
AcDbLine
 10
118.5793598627
 20
139.7767498315
 30
0.0
 11
118.5793598627
 21
223.7767498315
 31
0.0
  0
LINE
  5
C0
330
1F
100
AcDbEntity
  8
0
  6
Continuous
 62
     7
100
AcDbLine
 10
124.5793598627
 20
136.7767498315
 30
0.0
 11
118.5793598627
 21
136.7767498315
 31
0.0
  0
LINE
  5
C1
330
1F
100
AcDbEntity
  8
DEFAULT_1
  6
DOT_CENTER
 62
     2
100
AcDbLine
 10
115.3293598627
 20
270.2767498315
 30
0.0
 11
107.0793598627
 21
270.2767498315
 31
0.0
  0
LINE
  5
C2
330
1F
100
AcDbEntity
  8
DEFAULT_1
  6
DOT_CENTER
 62
     2
100
AcDbLine
 10
107.0793598627
 20
262.0267498315
 30
0.0
 11
107.0793598627
 21
270.2767498315
 31
0.0
  0
LINE
  5
C3
330
1F
100
AcDbEntity
  8
DEFAULT_1
  6
DOT_CENTER
 62
     2
100
AcDbLine
 10
98.82935986270002
 20
270.2767498315
 30
0.0
 11
107.0793598627
 21
270.2767498315
 31
0.0
  0
LINE
  5
C4
330
1F
100
AcDbEntity
  8
DEFAULT_1
  6
DOT_CENTER
 62
     2
100
AcDbLine
 10
107.0793598627
 20
278.5267498315
 30
0.0
 11
107.0793598627
 21
270.2767498315
 31
0.0
  0
LINE
  5
C5
330
1F
100
AcDbEntity
  8
DEFAULT_1
  6
DOT_CENTER
 62
     2
100
AcDbLine
 10
109.8293598627
 20
265.7767498315
 30
0.0
 11
118.0793598627
 21
265.7767498315
 31
0.0
  0
LINE
  5
C6
330
1F
100
AcDbEntity
  8
DEFAULT_1
  6
DOT_CENTER
 62
     2
100
AcDbLine
 10
118.0793598627
 20
257.5267498315
 30
0.0
 11
118.0793598627
 21
265.7767498315
 31
0.0
  0
LINE
  5
C7
330
1F
100
AcDbEntity
  8
DEFAULT_1
  6
DOT_CENTER
 62
     2
100
AcDbLine
 10
126.3293598627
 20
265.7767498315
 30
0.0
 11
118.0793598627
 21
265.7767498315
 31
0.0
  0
LINE
  5
C8
330
1F
100
AcDbEntity
  8
DEFAULT_1
  6
DOT_CENTER
 62
     2
100
AcDbLine
 10
118.0793598627
 20
274.0267498315
 30
0.0
 11
118.0793598627
 21
265.7767498315
 31
0.0
  0
ARC
  5
C9
330
1F
100
AcDbEntity
  8
0
  6
Continuous
 62
     7
100
AcDbCircle
 10
112.5793598627
 20
95.7767498315
 30
0.0
 40
12.0
100
AcDbArc
 50
180.0
 51
-90.0
  0
ARC
  5
CA
330
1F
100
AcDbEntity
  8
0
  6
Continuous
 62
     7
100
AcDbCircle
 10
112.5793598627
 20
267.7767498315
 30
0.0
 40
12.0
100
AcDbArc
 50
0.0
 51
90.0
  0
ARC
  5
CB
330
1F
100
AcDbEntity
  8
0
  6
Continuous
 62
     7
100
AcDbCircle
 10
112.5793598627
 20
95.7767498315
 30
0.0
 40
12.0
100
AcDbArc
 50
-90.0
 51
0.0
  0
ARC
  5
CC
330
1F
100
AcDbEntity
  8
0
  6
Continuous
 62
     7
100
AcDbCircle
 10
112.5793598627
 20
267.7767498315
 30
0.0
 40
12.0
100
AcDbArc
 50
90.0
 51
180.0
  0
CIRCLE
  5
CD
330
1F
100
AcDbEntity
  8
0
  6
DASHED
 62
     2
100
AcDbCircle
 10
118.0793598627
 20
97.77674983150001
 30
0.0
 40
5.25
  0
CIRCLE
  5
CE
330
1F
100
AcDbEntity
  8
0
  6
DASHED
 62
     2
100
AcDbCircle
 10
118.0793598627
 20
97.77674983150001
 30
0.0
 40
2.75
  0
CIRCLE
  5
CF
330
1F
100
AcDbEntity
  8
0
  6
DASHED
 62
     2
100
AcDbCircle
 10
107.0793598627
 20
93.27674983150001
 30
0.0
 40
2.75
  0
CIRCLE
  5
D0
330
1F
100
AcDbEntity
  8
0
  6
DASHED
 62
     2
100
AcDbCircle
 10
107.0793598627
 20
93.27674983150001
 30
0.0
 40
5.25
  0
CIRCLE
  5
D1
330
1F
100
AcDbEntity
  8
1
  6
Continuous
 62
     7
100
AcDbCircle
 10
112.5793598627
 20
104.2767498315
 30
0.0
 40
4.000000000000099
  0
CIRCLE
  5
D2
330
1F
100
AcDbEntity
  8
1
  6
Continuous
 62
     7
100
AcDbCircle
 10
112.5793598627
 20
259.2767498315
 30
0.0
 40
4.000000000000114
  0
CIRCLE
  5
D3
330
1F
100
AcDbEntity
  8
0
  6
DASHED
 62
     2
100
AcDbCircle
 10
107.0793598627
 20
270.2767498315
 30
0.0
 40
5.25
  0
CIRCLE
  5
D4
330
1F
100
AcDbEntity
  8
0
  6
DASHED
 62
     2
100
AcDbCircle
 10
107.0793598627
 20
270.2767498315
 30
0.0
 40
2.75
  0
CIRCLE
  5
D5
330
1F
100
AcDbEntity
  8
0
  6
DASHED
 62
     2
100
AcDbCircle
 10
118.0793598627
 20
265.7767498315
 30
0.0
 40
2.75
  0
CIRCLE
  5
D6
330
1F
100
AcDbEntity
  8
0
  6
DASHED
 62
     2
100
AcDbCircle
 10
118.0793598627
 20
265.7767498315
 30
0.0
 40
5.25
  0
XLINE
  5
D7
330
1F
100
AcDbEntity
  8
1
  6
DOT_CENTER
 62
     3
 60
     1
100
AcDbXline
 10
98.5797153687
 20
181.7767498315
 30
0.0
 11
1.0
 21
0.0
 31
0.0
  0
MTEXT
  5
D9
330
1F
100
AcDbEntity
  8
1
 62
     2
100
AcDbMText
 10
93.85721076079562
 20
261.7767498315001
 30
0.0
 40
2.5
 41
0.0
 71
     5
 72
     1
  1
BBL
  7
CONVERTER_11
 73
     1
 44
1.32052821128451
  0
DIMENSION
  5
E4
330
1F
100
AcDbEntity
  8
1
100
AcDbDimension
  2
*D1
 10
79.3642400901802
 20
279.7767498315
 30
0.0
 11
75.6142400901802
 21
181.135964904422
 31
0.0
 70
    32
  1
<>
 71
     5
 42
-1.0
 53
90.0
  3
ME10_DIM_10
100
AcDbAlignedDimension
 13
112.5793598627
 23
83.7767498315
 33
0.0
 14
112.5793598627
 24
279.7767498315
 34
0.0
 50
90.0
100
AcDbRotatedDimension
  0
DIMENSION
  5
EF
330
1F
100
AcDbEntity
  8
1
100
AcDbDimension
  2
*D2
 10
213.436559032575
 20
261.7767498315001
 30
0.0
 11
209.686559032575
 21
179.248598667272
 31
0.0
 70
    32
  1
<>
 71
     5
 42
-1.0
 53
90.0
  3
ME10_DIM_11
100
AcDbAlignedDimension
 13
158.8293598627
 23
101.7767498315
 33
0.0
 14
158.8293598627
 24
261.7767498315001
 34
0.0
 50
90.0
100
AcDbRotatedDimension
  0
DIMENSION
  5
FA
330
1F
100
AcDbEntity
  8
1
100
AcDbDimension
  2
*D3
 10
203.607539186365
 20
241.7767498315
 30
0.0
 11
199.857539186365
 21
179.546440845245
 31
0.0
 70
    32
  1
<>
 71
     5
 42
-1.0
 53
90.0
  3
ME10_DIM_12
100
AcDbAlignedDimension
 13
185.7293598627
 23
121.7767498315
 33
0.0
 14
185.7293598627
 24
241.7767498315
 34
0.0
 50
90.0
100
AcDbRotatedDimension
  0
DIMENSION
  5
105
330
1F
100
AcDbEntity
  8
1
100
AcDbDimension
  2
*D4
 10
203.607539186365
 20
259.2767498315
 30
0.0
 11
199.857539186365
 21
249.911816946261
 31
0.0
 70
    32
  1
<>
 71
     5
 42
-1.0
 53
90.0
  3
ME10_DIM_13
100
AcDbAlignedDimension
 13
185.7293598627
 23
241.7767498315
 33
0.0
 14
177.6450332563989
 24
259.2767498315
 34
0.0
 50
90.0
100
AcDbRotatedDimension
  0
DIMENSION
  5
112
330
1F
100
AcDbEntity
  8
1
100
AcDbDimension
  2
*D5
 10
193.782939504337
 20
261.7767498315001
 30
0.0
 11
190.032939504337
 21
252.036054715348
 31
0.0
 70
    32
  1
<>
 71
     5
 42
-1.0
 53
90.0
  3
ME10_DIM_14
100
AcDbAlignedDimension
 13
177.6450332563989
 23
259.2767498315
 33
0.0
 14
158.8293598627
 24
261.7767498315001
 34
0.0
 50
90.0
100
AcDbRotatedDimension
  0
DIMENSION
  5
11E
330
1F
100
AcDbEntity
  8
1
100
AcDbDimension
  2
*D6
 10
136.3293598627
 20
195.491595055049
 30
0.0
 11
168.344340619348
 21
199.241595055049
 31
0.0
 70
    32
  1
<>
 71
     5
 42
-1.0
 53
0.00013888888889
  3
ME10_DIM_15
100
AcDbAlignedDimension
 13
158.8293598627
 23
223.7767498315
 33
0.0
 14
136.3293598627
 24
223.7767498315
 34
0.0
100
AcDbRotatedDimension
  0
ENDSEC
  0
SECTION
  2
OBJECTS
  0
DICTIONARY
  5
C
330
0
100
AcDbDictionary
281
     1
  3
ACAD_GROUP
350
D
  3
ACAD_LAYOUT
350
1A
  3
ACAD_MLINESTYLE
350
17
  3
ACAD_PLOTSETTINGS
350
19
  3
ACAD_PLOTSTYLENAME
350
E
  0
DICTIONARY
  5
D
102
{ACAD_REACTORS
330
C
102
}
330
C
100
AcDbDictionary
281
     1
  0
DICTIONARY
  5
1A
102
{ACAD_REACTORS
330
C
102
}
330
C
100
AcDbDictionary
281
     1
  3
Layout1
350
1E
  3
Layout2
350
26
  3
Model
350
22
  0
DICTIONARY
  5
17
102
{ACAD_REACTORS
330
C
102
}
330
C
100
AcDbDictionary
281
     1
  3
Standard
350
18
  0
DICTIONARY
  5
19
102
{ACAD_REACTORS
330
C
102
}
330
C
100
AcDbDictionary
281
     1
  0
ACDBDICTIONARYWDFLT
  5
E
102
{ACAD_REACTORS
330
C
102
}
330
C
100
AcDbDictionary
281
     1
  3
Normal
350
F
100
AcDbDictionaryWithDefault
340
F
  0
LAYOUT
  5
1E
102
{ACAD_REACTORS
330
1A
102
}
330
1A
100
AcDbPlotSettings
  1

  2

  4

  6

 40
0.0
 41
0.0
 42
0.0
 43
0.0
 44
0.0
 45
0.0
 46
0.0
 47
0.0
 48
0.0
 49
0.0
140
0.0
141
0.0
142
1.0
143
1.0
 70
   688
 72
     0
 73
     0
 74
     5
  7

 75
    16
 76
     0
 77
     2
 78
   300
147
1.0
148
0.0
149
0.0
100
AcDbLayout
  1
Layout1
 70
     1
 71
     1
 10
0.0
 20
0.0
 11
0.0
 21
0.0
 12
0.0
 22
0.0
 32
0.0
 14
0.0
 24
0.0
 34
0.0
 15
0.0
 25
0.0
 35
0.0
146
0.0
 13
0.0
 23
0.0
 33
0.0
 16
1.0
 26
0.0
 36
0.0
 17
0.0
 27
1.0
 37
0.0
 76
     0
330
1B
  0
LAYOUT
  5
26
102
{ACAD_REACTORS
330
1A
102
}
330
1A
100
AcDbPlotSettings
  1

  2

  4

  6

 40
0.0
 41
0.0
 42
0.0
 43
0.0
 44
0.0
 45
0.0
 46
0.0
 47
0.0
 48
0.0
 49
0.0
140
0.0
141
0.0
142
1.0
143
1.0
 70
   688
 72
     0
 73
     0
 74
     5
  7

 75
    16
 76
     0
 77
     2
 78
   300
147
1.0
148
0.0
149
0.0
100
AcDbLayout
  1
Layout2
 70
     1
 71
     2
 10
0.0
 20
0.0
 11
0.0
 21
0.0
 12
0.0
 22
0.0
 32
0.0
 14
0.0
 24
0.0
 34
0.0
 15
0.0
 25
0.0
 35
0.0
146
0.0
 13
0.0
 23
0.0
 33
0.0
 16
1.0
 26
0.0
 36
0.0
 17
0.0
 27
1.0
 37
0.0
 76
     0
330
23
  0
LAYOUT
  5
22
102
{ACAD_REACTORS
330
1A
102
}
330
1A
100
AcDbPlotSettings
  1

  2

  4

  6

 40
0.0
 41
0.0
 42
0.0
 43
0.0
 44
0.0
 45
0.0
 46
0.0
 47
0.0
 48
0.0
 49
0.0
140
0.0
141
0.0
142
1.0
143
1.0
 70
  1712
 72
     0
 73
     0
 74
     0
  7

 75
     0
 76
     0
 77
     2
 78
   300
147
1.0
148
0.0
149
0.0
100
AcDbLayout
  1
Model
 70
     1
 71
     0
 10
0.0
 20
0.0
 11
0.0
 21
0.0
 12
0.0
 22
0.0
 32
0.0
 14
73.8642400901802
 24
83.7767498315
 34
0.0
 15
215.436559032575
 25
279.7767498315
 35
0.0
146
0.0
 13
0.0
 23
0.0
 33
0.0
 16
1.0
 26
0.0
 36
0.0
 17
0.0
 27
1.0
 37
0.0
 76
     0
330
1F
  0
MLINESTYLE
  5
18
102
{ACAD_REACTORS
330
17
102
}
330
17
100
AcDbMlineStyle
  2
Standard
 70
     0
  3

 62
   256
 51
90.0
 52
90.0
 71
     2
 49
0.5
 62
   256
  6
BYLAYER
 49
-0.5
 62
   256
  6
BYLAYER
  0
ACDBPLACEHOLDER
  5
F
102
{ACAD_REACTORS
330
E
102
}
330
E
  0
ENDSEC
  0
EOF
