  0
SECTION
  2
HEADER
  9
$ACADVER
  1
AC1018
  9
$ACADMAINTVER
 70
     0
  9
$DWGCODEPAGE
  3
ANSI_1252
  9
$INSBASE
 10
0.0
 20
0.0
 30
0.0
  9
$EXTMIN
 10
77.095114897526
 20
169.233823911787
 30
0.0
  9
$EXTMAX
 10
145.253140516017
 20
240.017905229148
 30
0.0
  9
$LIMMIN
 10
0.0
 20
0.0
  9
$LIMMAX
 10
12.0
 20
9.0
  9
$ORTHOMODE
 70
     0
  9
$REGENMODE
 70
     1
  9
$FILLMODE
 70
     1
  9
$QTEXTMODE
 70
     0
  9
$MIRRTEXT
 70
     1
  9
$LTSCALE
 40
1.0
  9
$ATTMODE
 70
     1
  9
$TEXTSIZE
 40
0.2
  9
$TRACEWID
 40
0.05
  9
$TEXTSTYLE
  7
Standard
  9
$CLAYER
  8
0
  9
$CELTYPE
  6
ByLayer
  9
$CECOLOR
 62
   256
  9
$CELTSCALE
 40
1.0
  9
$DISPSILH
 70
     0
  9
$DIMSCALE
 40
1.0
  9
$DIMASZ
 40
0.18
  9
$DIMEXO
 40
0.0625
  9
$DIMDLI
 40
0.38
  9
$DIMRND
 40
0.0
  9
$DIMDLE
 40
0.0
  9
$DIMEXE
 40
0.18
  9
$DIMTP
 40
0.0
  9
$DIMTM
 40
0.0
  9
$DIMTXT
 40
0.18
  9
$DIMCEN
 40
0.09
  9
$DIMTSZ
 40
0.0
  9
$DIMTOL
 70
     0
  9
$DIMLIM
 70
     0
  9
$DIMTIH
 70
     1
  9
$DIMTOH
 70
     1
  9
$DIMSE1
 70
     0
  9
$DIMSE2
 70
     0
  9
$DIMTAD
 70
     0
  9
$DIMZIN
 70
     0
  9
$DIMBLK
  1

  9
$DIMASO
 70
     1
  9
$DIMSHO
 70
     1
  9
$DIMPOST
  1

  9
$DIMAPOST
  1

  9
$DIMALT
 70
     0
  9
$DIMALTD
 70
     2
  9
$DIMALTF
 40
25.4
  9
$DIMLFAC
 40
1.0
  9
$DIMTOFL
 70
     0
  9
$DIMTVP
 40
0.0
  9
$DIMTIX
 70
     0
  9
$DIMSOXD
 70
     0
  9
$DIMSAH
 70
     0
  9
$DIMBLK1
  1

  9
$DIMBLK2
  1

  9
$DIMSTYLE
  2
Standard
  9
$DIMCLRD
 70
     0
  9
$DIMCLRE
 70
     0
  9
$DIMCLRT
 70
     0
  9
$DIMTFAC
 40
1.0
  9
$DIMGAP
 40
0.09
  9
$DIMJUST
 70
     0
  9
$DIMSD1
 70
     0
  9
$DIMSD2
 70
     0
  9
$DIMTOLJ
 70
     1
  9
$DIMTZIN
 70
     0
  9
$DIMALTZ
 70
     0
  9
$DIMALTTZ
 70
     0
  9
$DIMUPT
 70
     0
  9
$DIMDEC
 70
     4
  9
$DIMTDEC
 70
     4
  9
$DIMALTU
 70
     2
  9
$DIMALTTD
 70
     2
  9
$DIMTXSTY
  7
Standard
  9
$DIMAUNIT
 70
     0
  9
$DIMADEC
 70
     0
  9
$DIMALTRND
 40
0.0
  9
$DIMAZIN
 70
     0
  9
$DIMDSEP
 70
    46
  9
$DIMATFIT
 70
     3
  9
$DIMFRAC
 70
     0
  9
$DIMLDRBLK
  1

  9
$DIMLUNIT
 70
     2
  9
$DIMLWD
 70
    -2
  9
$DIMLWE
 70
    -2
  9
$DIMTMOVE
 70
     0
  9
$LUNITS
 70
     2
  9
$LUPREC
 70
     4
  9
$SKETCHINC
 40
0.1
  9
$FILLETRAD
 40
0.5
  9
$AUNITS
 70
     0
  9
$AUPREC
 70
     0
  9
$MENU
  1
.
  9
$ELEVATION
 40
0.0
  9
$PELEVATION
 40
0.0
  9
$THICKNESS
 40
0.0
  9
$LIMCHECK
 70
     0
  9
$CHAMFERA
 40
0.5
  9
$CHAMFERB
 40
0.5
  9
$CHAMFERC
 40
1.0
  9
$CHAMFERD
 40
0.0
  9
$SKPOLY
 70
     0
  9
$TDCREATE
 40
2456629.340341076
  9
$TDUCREATE
 40
2456629.29867441
  9
$TDUPDATE
 40
2456629.340341088
  9
$TDUUPDATE
 40
2456629.298674421
  9
$TDINDWG
 40
0.0000000116
  9
$TDUSRTIMER
 40
0.0000000116
  9
$USRTIMER
 70
     1
  9
$ANGBASE
 50
0.0
  9
$ANGDIR
 70
     0
  9
$PDMODE
 70
     0
  9
$PDSIZE
 40
0.0
  9
$PLINEWID
 40
0.0
  9
$SPLFRAME
 70
     0
  9
$SPLINETYPE
 70
     6
  9
$SPLINESEGS
 70
     8
  9
$HANDSEED
  5
155
  9
$SURFTAB1
 70
     6
  9
$SURFTAB2
 70
     6
  9
$SURFTYPE
 70
     6
  9
$SURFU
 70
     6
  9
$SURFV
 70
     6
  9
$UCSBASE
  2

  9
$UCSNAME
  2

  9
$UCSORG
 10
0.0
 20
0.0
 30
0.0
  9
$UCSXDIR
 10
1.0
 20
0.0
 30
0.0
  9
$UCSYDIR
 10
0.0
 20
1.0
 30
0.0
  9
$UCSORTHOREF
  2

  9
$UCSORTHOVIEW
 70
     0
  9
$UCSORGTOP
 10
0.0
 20
0.0
 30
0.0
  9
$UCSORGBOTTOM
 10
0.0
 20
0.0
 30
0.0
  9
$UCSORGLEFT
 10
0.0
 20
0.0
 30
0.0
  9
$UCSORGRIGHT
 10
0.0
 20
0.0
 30
0.0
  9
$UCSORGFRONT
 10
0.0
 20
0.0
 30
0.0
  9
$UCSORGBACK
 10
0.0
 20
0.0
 30
0.0
  9
$PUCSBASE
  2

  9
$PUCSNAME
  2

  9
$PUCSORG
 10
0.0
 20
0.0
 30
0.0
  9
$PUCSXDIR
 10
1.0
 20
0.0
 30
0.0
  9
$PUCSYDIR
 10
0.0
 20
1.0
 30
0.0
  9
$PUCSORTHOREF
  2

  9
$PUCSORTHOVIEW
 70
     0
  9
$PUCSORGTOP
 10
0.0
 20
0.0
 30
0.0
  9
$PUCSORGBOTTOM
 10
0.0
 20
0.0
 30
0.0
  9
$PUCSORGLEFT
 10
0.0
 20
0.0
 30
0.0
  9
$PUCSORGRIGHT
 10
0.0
 20
0.0
 30
0.0
  9
$PUCSORGFRONT
 10
0.0
 20
0.0
 30
0.0
  9
$PUCSORGBACK
 10
0.0
 20
0.0
 30
0.0
  9
$USERI1
 70
     0
  9
$USERI2
 70
     0
  9
$USERI3
 70
     0
  9
$USERI4
 70
     0
  9
$USERI5
 70
     0
  9
$USERR1
 40
14.5
  9
$USERR2
 40
0.0
  9
$USERR3
 40
0.0
  9
$USERR4
 40
0.0
  9
$USERR5
 40
0.0
  9
$WORLDVIEW
 70
     1
  9
$SHADEDGE
 70
     3
  9
$SHADEDIF
 70
    70
  9
$TILEMODE
 70
     1
  9
$MAXACTVP
 70
    64
  9
$PINSBASE
 10
0.0
 20
0.0
 30
0.0
  9
$PLIMCHECK
 70
     0
  9
$PEXTMIN
 10
1.00000000000000E+20
 20
1.00000000000000E+20
 30
1.00000000000000E+20
  9
$PEXTMAX
 10
-1.00000000000000E+20
 20
-1.00000000000000E+20
 30
-1.00000000000000E+20
  9
$PLIMMIN
 10
0.0
 20
0.0
  9
$PLIMMAX
 10
12.0
 20
9.0
  9
$UNITMODE
 70
     0
  9
$VISRETAIN
 70
     1
  9
$PLINEGEN
 70
     0
  9
$PSLTSCALE
 70
     1
  9
$TREEDEPTH
 70
  3020
  9
$CMLSTYLE
  2
Standard
  9
$CMLJUST
 70
     0
  9
$CMLSCALE
 40
1.0
  9
$PROXYGRAPHICS
 70
     1
  9
$MEASUREMENT
 70
     1
  9
$CELWEIGHT
370
    -1
  9
$ENDCAPS
280
     0
  9
$JOINSTYLE
280
     0
  9
$LWDISPLAY
290
     0
  9
$INSUNITS
 70
     1
  9
$HYPERLINKBASE
  1

  9
$STYLESHEET
  1

  9
$XEDIT
290
     1
  9
$CEPSNTYPE
380
     0
  9
$PSTYLEMODE
290
     1
  9
$FINGERPRINTGUID
  2
{E44DCD92-91A8-4665-87E9-4671357CF40C}
  9
$VERSIONGUID
  2
{FAEB1C32-E019-11D5-929B-00C0DF256EC4}
  9
$EXTNAMES
290
     1
  9
$PSVPSCALE
 40
0.0
  9
$OLESTARTUP
290
     0
  9
$SORTENTS
280
   127
  9
$INDEXCTL
280
     0
  9
$HIDETEXT
280
     1
  9
$XCLIPFRAME
290
     0
  9
$HALOGAP
280
     0
  9
$OBSCOLOR
 70
   257
  9
$OBSLTYPE
280
     0
  9
$INTERSECTIONDISPLAY
280
     0
  9
$INTERSECTIONCOLOR
 70
   257
  9
$DIMASSOC
280
     2
  9
$PROJECTNAME
  1

  0
ENDSEC
  0
SECTION
  2
CLASSES
  0
CLASS
  1
ACDBDICTIONARYWDFLT
  2
AcDbDictionaryWithDefault
  3
ObjectDBX Classes
 90
        0
 91
        3
280
     0
281
     0
  0
CLASS
  1

  2
exOdDbSpline
  3

 90
        0
 91
        3
280
     0
281
     1
  0
CLASS
  1

  2
exOdDbPolyline
  3

 90
        0
 91
        3
280
     0
281
     1
  0
ENDSEC
  0
SECTION
  2
TABLES
  0
TABLE
  2
VPORT
  5
8
330
0
100
AcDbSymbolTable
 70
     1
  0
VPORT
  5
29
330
8
100
AcDbSymbolTableRecord
100
AcDbViewportTableRecord
  2
*Active
 70
     0
 10
0.0
 20
0.0
 11
1.0
 21
1.0
 12
111.1741277067715
 22
204.6258645704675
 13
0.0
 23
0.0
 14
0.5
 24
0.5
 15
0.5
 25
0.5
 16
0.0
 26
0.0
 36
1.0
 17
0.0
 27
0.0
 37
0.0
 40
77.86248944909711
 41
1.60267857142857
 42
50.0
 43
0.0
 44
0.0
 50
0.0
 51
0.0
 71
     0
 72
   100
 73
     1
 74
     3
 75
     0
 76
     0
 77
     0
 78
     0
281
     0
 65
     1
110
0.0
120
0.0
130
0.0
111
1.0
121
0.0
131
0.0
112
0.0
122
1.0
132
0.0
 79
     0
146
0.0
  0
ENDTAB
  0
TABLE
  2
LTYPE
  5
5
330
0
100
AcDbSymbolTable
 70
     9
  0
LTYPE
  5
14
330
5
100
AcDbSymbolTableRecord
100
AcDbLinetypeTableRecord
  2
ByBlock
 70
     0
  3

 72
    65
 73
     0
 40
0.0
  0
LTYPE
  5
15
330
5
100
AcDbSymbolTableRecord
100
AcDbLinetypeTableRecord
  2
ByLayer
 70
     0
  3

 72
    65
 73
     0
 40
0.0
  0
LTYPE
  5
16
330
5
100
AcDbSymbolTableRecord
100
AcDbLinetypeTableRecord
  2
Continuous
 70
     0
  3
Solid line
 72
    65
 73
     0
 40
0.0
  0
LTYPE
  5
2A
330
5
100
AcDbSymbolTableRecord
100
AcDbLinetypeTableRecord
  2
DASHED
 70
     0
  3
Dashed
 72
    65
 73
     2
 40
15.0
 49
7.0
 74
     0
 49
-8.0
 74
     0
  0
LTYPE
  5
2B
330
5
100
AcDbSymbolTableRecord
100
AcDbLinetypeTableRecord
  2
DOTTED
 70
     0
  3
Dotted
 72
    65
 73
     2
 40
1.0
 49
0.0
 74
     0
 49
-1.0
 74
     0
  0
LTYPE
  5
2C
330
5
100
AcDbSymbolTableRecord
100
AcDbLinetypeTableRecord
  2
DOT_CENTER
 70
     0
  3
Dot_Center
 72
    65
 73
     4
 40
14.0
 49
12.0
 74
     0
 49
-1.0
 74
     0
 49
0.0
 74
     0
 49
-1.0
 74
     0
  0
LTYPE
  5
2D
330
5
100
AcDbSymbolTableRecord
100
AcDbLinetypeTableRecord
  2
LONG_DASHED
 70
     0
  3
Long_Dashed
 72
    65
 73
     2
 40
15.0
 49
10.0
 74
     0
 49
-5.0
 74
     0
  0
LTYPE
  5
2E
330
5
100
AcDbSymbolTableRecord
100
AcDbLinetypeTableRecord
  2
DASH_CENTER
 70
     0
  3
Dash_Center
 72
    65
 73
     4
 40
14.0
 49
11.0
 74
     0
 49
-1.0
 74
     0
 49
1.0
 74
     0
 49
-1.0
 74
     0
  0
LTYPE
  5
2F
330
5
100
AcDbSymbolTableRecord
100
AcDbLinetypeTableRecord
  2
PHANTOM
 70
     0
  3
Phantom
 72
    65
 73
     6
 40
13.0
 49
10.0
 74
     0
 49
-1.0
 74
     0
 49
0.0
 74
     0
 49
-1.0
 74
     0
 49
0.0
 74
     0
 49
-1.0
 74
     0
  0
LTYPE
  5
30
330
5
100
AcDbSymbolTableRecord
100
AcDbLinetypeTableRecord
  2
CENTER_DASH_DASH
 70
     0
  3
Center_Dash_Dash
 72
    65
 73
     6
 40
14.0
 49
9.0
 74
     0
 49
-1.0
 74
     0
 49
1.0
 74
     0
 49
-1.0
 74
     0
 49
1.0
 74
     0
 49
-1.0
 74
     0
  0
LTYPE
  5
31
330
5
100
AcDbSymbolTableRecord
100
AcDbLinetypeTableRecord
  2
HIDDEN
 70
     0
  3
HIDDEN
 72
    65
 73
     2
 40
4.0
 49
2.0
 74
     0
 49
-2.0
 74
     0
  0
ENDTAB
  0
TABLE
  2
LAYER
  5
2
330
0
100
AcDbSymbolTable
 70
     6
  0
LAYER
  5
10
330
2
100
AcDbSymbolTableRecord
100
AcDbLayerTableRecord
  2
0
 70
     0
 62
     7
  6
Continuous
370
    -3
390
F
  0
LAYER
  5
32
330
2
100
AcDbSymbolTableRecord
100
AcDbLayerTableRecord
  2
1
 70
     0
 62
     7
  6
Continuous
370
    -3
390
F
  0
LAYER
  5
33
330
2
100
AcDbSymbolTableRecord
100
AcDbLayerTableRecord
  2
A_ACHSEN
 70
     0
 62
     7
  6
Continuous
370
    -3
390
F
  0
LAYER
  5
34
330
2
100
AcDbSymbolTableRecord
100
AcDbLayerTableRecord
  2
A_FASEN
 70
     0
 62
     7
  6
Continuous
370
    -3
390
F
  0
LAYER
  5
35
330
2
100
AcDbSymbolTableRecord
100
AcDbLayerTableRecord
  2
A_RUNDUNGEN
 70
     0
 62
     7
  6
Continuous
370
    -3
390
F
  0
LAYER
  5
36
330
2
100
AcDbSymbolTableRecord
100
AcDbLayerTableRecord
  2
DEFAULT_2
 70
     0
 62
     7
  6
Continuous
370
    -3
390
F
  0
ENDTAB
  0
TABLE
  2
STYLE
  5
3
330
0
100
AcDbSymbolTable
 70
     2
  0
STYLE
  5
11
330
3
100
AcDbSymbolTableRecord
100
AcDbTextStyleTableRecord
  2
Standard
 70
     0
 40
0.0
 41
1.0
 50
0.0
 71
     0
 42
0.2
  3
txt
  4

  0
STYLE
  5
123
330
3
100
AcDbSymbolTableRecord
100
AcDbTextStyleTableRecord
  2
CONVERTER_11
 70
     0
 40
0.0
 41
0.9
 50
0.0
 71
     0
 42
0.2
  3
txt.shx
  4

  0
ENDTAB
  0
TABLE
  2
VIEW
  5
6
330
0
100
AcDbSymbolTable
 70
     0
  0
ENDTAB
  0
TABLE
  2
UCS
  5
7
330
0
100
AcDbSymbolTable
 70
     0
  0
ENDTAB
  0
TABLE
  2
APPID
  5
9
330
0
100
AcDbSymbolTable
 70
     1
  0
APPID
  5
12
330
9
100
AcDbSymbolTableRecord
100
AcDbRegAppTableRecord
  2
ACAD
 70
     0
  0
ENDTAB
  0
TABLE
  2
DIMSTYLE
  5
A
330
0
100
AcDbSymbolTable
 70
     6
100
AcDbDimStyleTable
  0
DIMSTYLE
105
27
330
A
100
AcDbSymbolTableRecord
100
AcDbDimStyleTableRecord
  2
Standard
 70
     0
340
11
  0
DIMSTYLE
105
127
102
{ACAD_REACTORS
330
128
102
}
330
A
100
AcDbSymbolTableRecord
100
AcDbDimStyleTableRecord
  2
ME10_DIM_10
 70
     0
 41
3.5
 42
0.0
 44
2.0
 73
     0
 74
     0
 77
     1
 78
     8
140
3.5
147
2.0
172
     1
173
     1
176
     2
177
     2
178
     2
271
     3
340
123
  0
DIMSTYLE
105
132
102
{ACAD_REACTORS
330
133
102
}
330
A
100
AcDbSymbolTableRecord
100
AcDbDimStyleTableRecord
  2
ME10_DIM_11
 70
     0
 41
3.5
 42
0.0
 44
2.0
 73
     0
 74
     0
 77
     1
 78
     8
140
3.5
147
2.0
172
     1
173
     1
176
     2
177
     2
178
     2
271
     3
340
123
  0
DIMSTYLE
105
13D
102
{ACAD_REACTORS
330
13E
102
}
330
A
100
AcDbSymbolTableRecord
100
AcDbDimStyleTableRecord
  2
ME10_DIM_12
 70
     0
 41
3.5
 42
0.0
 44
2.0
 73
     0
 74
     0
 77
     1
 78
     8
140
3.5
147
2.0
172
     1
173
     1
176
     2
177
     2
178
     2
271
     3
340
123
  0
DIMSTYLE
105
148
102
{ACAD_REACTORS
330
149
102
}
330
A
100
AcDbSymbolTableRecord
100
AcDbDimStyleTableRecord
  2
ME10_DIM_13
 70
     0
 41
3.5
 42
0.0
 44
2.0
 73
     0
 74
     0
 77
     1
 78
     8
140
3.5
147
2.0
172
     1
173
     1
176
     2
177
     2
178
     2
271
     3
340
123
  0
DIMSTYLE
105
153
102
{ACAD_REACTORS
330
154
102
}
330
A
100
AcDbSymbolTableRecord
100
AcDbDimStyleTableRecord
  2
ME10_DIM_14
 70
     0
 41
3.5
 42
0.0
 44
2.0
 73
     0
 74
     0
 77
     1
 78
     8
140
3.5
147
2.0
172
     1
173
     1
176
     2
177
     2
178
     2
271
     3
340
123
  0
ENDTAB
  0
TABLE
  2
BLOCK_RECORD
  5
1
330
0
100
AcDbSymbolTable
 70
     6
  0
BLOCK_RECORD
  5
1F
330
1
100
AcDbSymbolTableRecord
100
AcDbBlockTableRecord
  2
*Model_Space
340
22
  0
BLOCK_RECORD
  5
1B
330
1
100
AcDbSymbolTableRecord
100
AcDbBlockTableRecord
  2
*Paper_Space
340
1E
  0
BLOCK_RECORD
  5
23
330
1
100
AcDbSymbolTableRecord
100
AcDbBlockTableRecord
  2
*Paper_Space0
340
26
  0
BLOCK_RECORD
  5
11D
330
1
100
AcDbSymbolTableRecord
100
AcDbBlockTableRecord
  2
*D1
340
0
  0
BLOCK_RECORD
  5
129
330
1
100
AcDbSymbolTableRecord
100
AcDbBlockTableRecord
  2
*D2
340
0
  0
BLOCK_RECORD
  5
134
330
1
100
AcDbSymbolTableRecord
100
AcDbBlockTableRecord
  2
*D3
340
0
  0
BLOCK_RECORD
  5
13F
330
1
100
AcDbSymbolTableRecord
100
AcDbBlockTableRecord
  2
*D4
340
0
  0
BLOCK_RECORD
  5
14A
330
1
100
AcDbSymbolTableRecord
100
AcDbBlockTableRecord
  2
*D5
340
0
  0
ENDTAB
  0
ENDSEC
  0
SECTION
  2
BLOCKS
  0
BLOCK
  5
20
330
1F
100
AcDbEntity
  8
0
100
AcDbBlockBegin
  2
*Model_Space
 70
     0
 71
     0
 10
0.0
 20
0.0
 30
0.0
  3
*Model_Space
  1

  0
ENDBLK
  5
21
330
1F
100
AcDbEntity
  8
0
100
AcDbBlockEnd
  0
BLOCK
  5
1C
330
1B
100
AcDbEntity
 67
     1
  8
0
100
AcDbBlockBegin
  2
*Paper_Space
 70
     0
 71
     0
 10
0.0
 20
0.0
 30
0.0
  3
*Paper_Space
  1

  0
ENDBLK
  5
1D
330
1B
100
AcDbEntity
 67
     1
  8
0
100
AcDbBlockEnd
  0
BLOCK
  5
24
330
23
100
AcDbEntity
  8
0
100
AcDbBlockBegin
  2
*Paper_Space0
 70
     0
 71
     0
 10
0.0
 20
0.0
 30
0.0
  3
*Paper_Space0
  1

  0
ENDBLK
  5
25
330
23
100
AcDbEntity
  8
0
100
AcDbBlockEnd
  0
BLOCK
  5
125
330
11D
100
AcDbEntity
  8
0
100
AcDbBlockBegin
  2
*D1
 70
     1
 71
     0
 10
0.0
 20
0.0
 30
0.0
  3
*D1
  1

  0
LINE
  5
11E
330
11D
100
AcDbEntity
  8
1
  6
Continuous
 62
     2
100
AcDbLine
 10
133.683186978625
 20
181.2633674565
 30
0.0
 11
133.683186978625
 21
196.2633674565001
 31
0.0
  0
LINE
  5
11F
330
11D
100
AcDbEntity
  8
1
  6
Continuous
 62
     2
100
AcDbLine
 10
122.092260389
 20
181.2633674565
 30
0.0
 11
135.683186978625
 21
181.2633674565
 31
0.0
  0
LINE
  5
120
330
11D
100
AcDbEntity
  8
1
  6
Continuous
 62
     2
100
AcDbLine
 10
125.8845904619645
 20
196.2633674565001
 30
0.0
 11
135.683186978625
 21
196.2633674565001
 31
0.0
  0
SOLID
  5
121
330
11D
100
AcDbEntity
  8
1
 62
     2
100
AcDbTrace
 10
133.2224032370691
 20
184.7633674565
 30
0.0
 11
134.1439707201809
 21
184.7633674565
 31
0.0
 12
133.683186978625
 22
181.2633674565
 32
0.0
 13
133.683186978625
 23
181.2633674565
 33
0.0
  0
SOLID
  5
122
330
11D
100
AcDbEntity
  8
1
 62
     2
100
AcDbTrace
 10
134.1439707201809
 20
192.7633674565001
 30
0.0
 11
133.2224032370691
 21
192.7633674565001
 31
0.0
 12
133.683186978625
 22
196.2633674565001
 32
0.0
 13
133.683186978625
 23
196.2633674565001
 33
0.0
  0
MTEXT
  5
124
330
11D
100
AcDbEntity
  8
1
 62
     2
100
AcDbMText
 10
131.683186978625
 20
186.671362654173
 30
0.0
 40
3.5
 41
0.0
 71
     7
 72
     1
  1
15
  7
CONVERTER_11
 11
0.0
 21
1.0
 31
0.0
 73
     1
 44
0.60024009603842
  0
ENDBLK
  5
126
330
11D
100
AcDbEntity
  8
0
100
AcDbBlockEnd
  0
BLOCK
  5
130
330
129
100
AcDbEntity
  8
0
100
AcDbBlockBegin
  2
*D2
 70
     1
 71
     0
 10
0.0
 20
0.0
 30
0.0
  3
*D2
  1

  0
LINE
  5
12A
330
129
100
AcDbEntity
  8
1
  6
Continuous
 62
     2
100
AcDbLine
 10
143.253140516017
 20
181.2633674565
 30
0.0
 11
143.253140516017
 21
199.2633674565
 31
0.0
  0
LINE
  5
12B
330
129
100
AcDbEntity
  8
1
  6
Continuous
 62
     2
100
AcDbLine
 10
116.592260389
 20
181.2633674565
 30
0.0
 11
145.253140516017
 21
181.2633674565
 31
0.0
  0
LINE
  5
12C
330
129
100
AcDbEntity
  8
1
  6
Continuous
 62
     2
100
AcDbLine
 10
125.792260389
 20
199.2633674565
 30
0.0
 11
145.253140516017
 21
199.2633674565
 31
0.0
  0
SOLID
  5
12D
330
129
100
AcDbEntity
  8
1
 62
     2
100
AcDbTrace
 10
142.7923567744611
 20
184.7633674565
 30
0.0
 11
143.7139242575729
 21
184.7633674565
 31
0.0
 12
143.253140516017
 22
181.2633674565
 32
0.0
 13
143.253140516017
 23
181.2633674565
 33
0.0
  0
SOLID
  5
12E
330
129
100
AcDbEntity
  8
1
 62
     2
100
AcDbTrace
 10
143.7139242575729
 20
195.7633674565
 30
0.0
 11
142.7923567744611
 21
195.7633674565
 31
0.0
 12
143.253140516017
 22
199.2633674565
 32
0.0
 13
143.253140516017
 23
199.2633674565
 33
0.0
  0
MTEXT
  5
12F
330
129
100
AcDbEntity
  8
1
 62
     2
100
AcDbMText
 10
141.253140516017
 20
189.1633674565
 30
0.0
 40
3.5
 41
0.0
 71
     7
 72
     1
  1
18
  7
CONVERTER_11
 11
0.0
 21
1.0
 31
0.0
 73
     1
 44
0.60024009603842
  0
ENDBLK
  5
131
330
129
100
AcDbEntity
  8
0
100
AcDbBlockEnd
  0
BLOCK
  5
13B
330
134
100
AcDbEntity
  8
0
100
AcDbBlockBegin
  2
*D3
 70
     1
 71
     0
 10
0.0
 20
0.0
 30
0.0
  3
*D3
  1

  0
LINE
  5
135
330
134
100
AcDbEntity
  8
1
  6
Continuous
 62
     2
100
AcDbLine
 10
82.595114897526
 20
214.7633674565
 30
0.0
 11
82.595114897526
 21
182.7633674565
 31
0.0
  0
LINE
  5
136
330
134
100
AcDbEntity
  8
1
  6
Continuous
 62
     2
100
AcDbLine
 10
101.592260389
 20
214.7633674565
 30
0.0
 11
80.595114897526
 21
214.7633674565
 31
0.0
  0
LINE
  5
137
330
134
100
AcDbEntity
  8
1
  6
Continuous
 62
     2
100
AcDbLine
 10
99.592260389
 20
182.7633674565
 30
0.0
 11
80.595114897526
 21
182.7633674565
 31
0.0
  0
SOLID
  5
138
330
134
100
AcDbEntity
  8
1
 62
     2
100
AcDbTrace
 10
83.05589863908189
 20
211.2633674565
 30
0.0
 11
82.13433115597012
 21
211.2633674565
 31
0.0
 12
82.595114897526
 22
214.7633674565
 32
0.0
 13
82.595114897526
 23
214.7633674565
 33
0.0
  0
SOLID
  5
139
330
134
100
AcDbEntity
  8
1
 62
     2
100
AcDbTrace
 10
82.13433115597012
 20
186.2633674565
 30
0.0
 11
83.05589863908189
 21
186.2633674565
 31
0.0
 12
82.595114897526
 22
182.7633674565
 32
0.0
 13
82.595114897526
 23
182.7633674565
 33
0.0
  0
MTEXT
  5
13A
330
134
100
AcDbEntity
  8
1
 62
     2
100
AcDbMText
 10
80.595114897526
 20
196.6383674565
 30
0.0
 40
3.5
 41
0.0
 71
     7
 72
     1
  1
32
  7
CONVERTER_11
 11
0.0
 21
1.0
 31
0.0
 73
     1
 44
0.60024009603842
  0
ENDBLK
  5
13C
330
134
100
AcDbEntity
  8
0
100
AcDbBlockEnd
  0
BLOCK
  5
146
330
13F
100
AcDbEntity
  8
0
100
AcDbBlockBegin
  2
*D4
 70
     1
 71
     0
 10
0.0
 20
0.0
 30
0.0
  3
*D4
  1

  0
LINE
  5
140
330
13F
100
AcDbEntity
  8
1
  6
Continuous
 62
     2
100
AcDbLine
 10
123.592260389
 20
171.233823911787
 30
0.0
 11
109.592260389
 21
171.233823911787
 31
0.0
  0
LINE
  5
141
330
13F
100
AcDbEntity
  8
1
  6
Continuous
 62
     2
100
AcDbLine
 10
123.592260389
 20
182.7633674565
 30
0.0
 11
123.592260389
 21
169.233823911787
 31
0.0
  0
LINE
  5
142
330
13F
100
AcDbEntity
  8
1
  6
Continuous
 62
     2
100
AcDbLine
 10
109.592260389
 20
187.7633674565
 30
0.0
 11
109.592260389
 21
169.233823911787
 31
0.0
  0
SOLID
  5
143
330
13F
100
AcDbEntity
  8
1
 62
     2
100
AcDbTrace
 10
120.092260389
 20
170.7730401702311
 30
0.0
 11
120.092260389
 21
171.6946076533429
 31
0.0
 12
123.592260389
 22
171.233823911787
 32
0.0
 13
123.592260389
 23
171.233823911787
 33
0.0
  0
SOLID
  5
144
330
13F
100
AcDbEntity
  8
1
 62
     2
100
AcDbTrace
 10
113.092260389
 20
171.6946076533429
 30
0.0
 11
113.092260389
 21
170.7730401702311
 31
0.0
 12
109.592260389
 22
171.233823911787
 32
0.0
 13
109.592260389
 23
171.233823911787
 33
0.0
  0
MTEXT
  5
145
330
13F
100
AcDbEntity
  8
1
 62
     2
100
AcDbMText
 10
114.253768735782
 20
173.233823911787
 30
0.0
 40
3.5
 41
0.0
 71
     7
 72
     1
  1
14
  7
CONVERTER_11
 11
0.9999999999970621
 21
2.424068405545307E-6
 31
0.0
 73
     1
 44
0.60024009603842
  0
ENDBLK
  5
147
330
13F
100
AcDbEntity
  8
0
100
AcDbBlockEnd
  0
BLOCK
  5
151
330
14A
100
AcDbEntity
  8
0
100
AcDbBlockBegin
  2
*D5
 70
     1
 71
     0
 10
0.0
 20
0.0
 30
0.0
  3
*D5
  1

  0
LINE
  5
14B
330
14A
100
AcDbEntity
  8
1
  6
Continuous
 62
     2
100
AcDbLine
 10
122.092260389
 20
231.135986282696
 30
0.0
 11
99.09226038899996
 21
231.135986282696
 31
0.0
  0
LINE
  5
14C
330
14A
100
AcDbEntity
  8
1
  6
Continuous
 62
     2
100
AcDbLine
 10
122.092260389
 20
223.2633674565
 30
0.0
 11
122.092260389
 21
233.135986282696
 31
0.0
  0
LINE
  5
14D
330
14A
100
AcDbEntity
  8
1
  6
Continuous
 62
     2
100
AcDbLine
 10
99.09226038899996
 20
212.2633674565
 30
0.0
 11
99.09226038899996
 21
233.135986282696
 31
0.0
  0
SOLID
  5
14E
330
14A
100
AcDbEntity
  8
1
 62
     2
100
AcDbTrace
 10
118.592260389
 20
230.6752025411401
 30
0.0
 11
118.592260389
 21
231.5967700242519
 31
0.0
 12
122.092260389
 22
231.135986282696
 32
0.0
 13
122.092260389
 23
231.135986282696
 33
0.0
  0
SOLID
  5
14F
330
14A
100
AcDbEntity
  8
1
 62
     2
100
AcDbTrace
 10
102.592260389
 20
231.5967700242519
 30
0.0
 11
102.592260389
 21
230.6752025411401
 31
0.0
 12
99.09226038899996
 22
231.135986282696
 32
0.0
 13
99.09226038899996
 23
231.135986282696
 33
0.0
  0
MTEXT
  5
150
330
14A
100
AcDbEntity
  8
1
 62
     2
100
AcDbMText
 10
108.1937086132108
 20
233.135986282696
 30
0.0
 40
3.5
 41
0.0
 71
     7
 72
     1
  1
23
  7
CONVERTER_11
 11
0.9999999999970621
 21
2.424068405545307E-6
 31
0.0
 73
     1
 44
0.60024009603842
  0
ENDBLK
  5
152
330
14A
100
AcDbEntity
  8
0
100
AcDbBlockEnd
  0
ENDSEC
  0
SECTION
  2
ENTITIES
  0
POINT
  5
37
330
1F
100
AcDbEntity
  8
1
 62
     3
 60
     1
100
AcDbPoint
 10
104.592260389
 20
199.2633674565
 30
0.0
  0
POINT
  5
38
330
1F
100
AcDbEntity
  8
1
 62
     3
 60
     1
100
AcDbPoint
 10
100.342260389
 20
199.2633674565
 30
0.0
  0
POINT
  5
39
330
1F
100
AcDbEntity
  8
1
 62
     3
 60
     1
100
AcDbPoint
 10
117.292260389
 20
199.2633674565
 30
0.0
  0
POINT
  5
3A
330
1F
100
AcDbEntity
  8
1
 62
     3
 60
     1
100
AcDbPoint
 10
125.792260389
 20
199.2633674565
 30
0.0
  0
POINT
  5
3B
330
1F
100
AcDbEntity
  8
1
 62
     3
 60
     1
100
AcDbPoint
 10
121.092260389
 20
201.2633674565
 30
0.0
  0
POINT
  5
3C
330
1F
100
AcDbEntity
  8
1
 62
     3
 60
     1
100
AcDbPoint
 10
121.092260389
 20
191.2633674565
 30
0.0
  0
LINE
  5
3D
330
1F
100
AcDbEntity
  8
0
  6
Continuous
 62
     7
100
AcDbLine
 10
99.092260389
 20
185.2633674565
 30
0.0
 11
99.092260389
 21
212.2633674565
 31
0.0
  0
LINE
  5
3E
330
1F
100
AcDbEntity
  8
0
  6
Continuous
 62
     7
100
AcDbLine
 10
102.886281616
 20
216.3871003639
 30
0.0
 11
102.5442614727
 21
215.4474077431
 31
0.0
  0
LINE
  5
3F
330
1F
100
AcDbEntity
  8
0
  6
Continuous
 62
     7
100
AcDbLine
 10
101.592260389
 20
191.2633674565
 30
0.0
 11
101.092260389
 21
191.7633674565
 31
0.0
  0
LINE
  5
40
330
1F
100
AcDbEntity
  8
0
  6
Continuous
 62
     7
100
AcDbLine
 10
101.092260389
 20
185.2633674565
 30
0.0
 11
101.092260389
 21
212.2633674565
 31
0.0
  0
LINE
  5
41
330
1F
100
AcDbEntity
  8
0
  6
Continuous
 62
     7
100
AcDbLine
 10
101.592260389
 20
191.2633674565
 30
0.0
 11
101.592260389
 21
207.2633674565
 31
0.0
  0
LINE
  5
42
330
1F
100
AcDbEntity
  8
0
  6
Continuous
 62
     7
100
AcDbLine
 10
102.292260389
 20
212.6633674565
 30
0.0
 11
102.292260389
 21
207.2633674565
 31
0.0
  0
LINE
  5
43
330
1F
100
AcDbEntity
  8
0
  6
Continuous
 62
     7
100
AcDbLine
 10
102.292260389
 20
191.2633674565
 30
0.0
 11
102.292260389
 21
184.7633674565
 31
0.0
  0
LINE
  5
44
330
1F
100
AcDbEntity
  8
0
  6
Continuous
 62
     7
100
AcDbLine
 10
104.592260389
 20
187.7633674565
 30
0.0
 11
104.592260389
 21
199.2633674565
 31
0.0
  0
LINE
  5
45
330
1F
100
AcDbEntity
  8
0
  6
Continuous
 62
     7
100
AcDbLine
 10
104.492260389
 20
182.7633674565
 30
0.0
 11
104.492260389
 21
184.7633674565
 31
0.0
  0
LINE
  5
46
330
1F
100
AcDbEntity
  8
0
  6
Continuous
 62
     7
100
AcDbLine
 10
101.592260389
 20
207.2633674565
 30
0.0
 11
101.092260389
 21
206.7633674565
 31
0.0
  0
LINE
  5
47
330
1F
100
AcDbEntity
  8
0
  6
Continuous
 62
     7
100
AcDbLine
 10
104.492260389
 20
183.7633674565
 30
0.0
 11
112.842260389
 21
183.7633674565
 31
0.0
  0
LINE
  5
48
330
1F
100
AcDbEntity
  8
0
  6
Continuous
 62
     7
100
AcDbLine
 10
106.092260389
 20
198.7633674565
 30
0.0
 11
106.092260389
 21
193.7633674565
 31
0.0
  0
LINE
  5
49
330
1F
100
AcDbEntity
  8
0
  6
Continuous
 62
     7
100
AcDbLine
 10
106.592260389
 20
187.7633674565
 30
0.0
 11
106.592260389
 21
192.2633674565
 31
0.0
  0
LINE
  5
4A
330
1F
100
AcDbEntity
  8
0
  6
Continuous
 62
     7
100
AcDbLine
 10
106.592260389
 20
200.2633674565
 30
0.0
 11
106.592260389
 21
210.7633674565
 31
0.0
  0
LINE
  5
4B
330
1F
100
AcDbEntity
  8
0
  6
Continuous
 62
     7
100
AcDbLine
 10
106.592260389
 20
193.2633674565
 30
0.0
 11
106.592260389
 21
199.2633674565
 31
0.0
  0
LINE
  5
4C
330
1F
100
AcDbEntity
  8
0
  6
Continuous
 62
     7
100
AcDbLine
 10
101.592260389
 20
184.7633674565
 30
0.0
 11
104.492260389
 21
184.7633674565
 31
0.0
  0
LINE
  5
4D
330
1F
100
AcDbEntity
  8
0
  6
Continuous
 62
     7
100
AcDbLine
 10
104.592260389
 20
187.7633674565
 30
0.0
 11
109.592260389
 21
187.7633674565
 31
0.0
  0
LINE
  5
4E
330
1F
100
AcDbEntity
  8
0
  6
Continuous
 62
     7
100
AcDbLine
 10
112.092260389
 20
187.7633674565
 30
0.0
 11
112.842260389
 21
187.7633674565
 31
0.0
  0
LINE
  5
4F
330
1F
100
AcDbEntity
  8
0
  6
Continuous
 62
     7
100
AcDbLine
 10
106.592260389
 20
193.2633674565
 30
0.0
 11
106.092260389
 21
193.7633674565
 31
0.0
  0
LINE
  5
50
330
1F
100
AcDbEntity
  8
0
  6
Continuous
 62
     7
100
AcDbLine
 10
109.592260389
 20
187.7633674565
 30
0.0
 11
109.592260389
 21
193.2633674565
 31
0.0
  0
LINE
  5
51
330
1F
100
AcDbEntity
  8
0
  6
Continuous
 62
     7
100
AcDbLine
 10
109.592260389
 20
199.2633674565
 30
0.0
 11
109.592260389
 21
210.7633674565
 31
0.0
  0
LINE
  5
52
330
1F
100
AcDbEntity
  8
0
  6
Continuous
 62
     7
100
AcDbLine
 10
112.092260389
 20
193.2633674565
 30
0.0
 11
112.092260389
 21
189.8949431019281
 31
0.0
  0
LINE
  5
53
330
1F
100
AcDbEntity
  8
0
  6
Continuous
 62
     7
100
AcDbLine
 10
122.092260389
 20
190.7633674565
 30
0.0
 11
123.592260389
 21
190.7633674565
 31
0.0
  0
LINE
  5
54
330
1F
100
AcDbEntity
  8
0
  6
Continuous
 62
     7
100
AcDbLine
 10
121.092260389
 20
191.0133674565
 30
0.0
 11
122.092260389
 21
191.0133674565
 31
0.0
  0
LINE
  5
55
330
1F
100
AcDbEntity
  8
0
  6
Continuous
 62
     7
100
AcDbLine
 10
121.592260389
 20
191.2633674565
 30
0.0
 11
121.092260389
 21
191.2633674565
 31
0.0
  0
LINE
  5
56
330
1F
100
AcDbEntity
  8
0
  6
Continuous
 62
     7
100
AcDbLine
 10
112.092260389
 20
191.2633674565
 30
0.0
 11
110.4920585411578
 21
191.2633674565
 31
0.0
  0
LINE
  5
57
330
1F
100
AcDbEntity
  8
0
  6
Continuous
 62
     7
100
AcDbLine
 10
104.592260389
 20
191.2633674565
 30
0.0
 11
101.592260389
 21
191.2633674565
 31
0.0
  0
LINE
  5
58
330
1F
100
AcDbEntity
  8
0
  6
Continuous
 62
     7
100
AcDbLine
 10
109.592260389
 20
199.7633674565
 30
0.0
 11
109.3422603890001
 21
200.2633674565
 31
0.0
  0
LINE
  5
59
330
1F
100
AcDbEntity
  8
0
  6
Continuous
 62
     7
100
AcDbLine
 10
112.542260389
 20
210.7633674565
 30
0.0
 11
112.542260389
 21
203.9884421120418
 31
0.0
  0
LINE
  5
5A
330
1F
100
AcDbEntity
  8
0
  6
Continuous
 62
     7
100
AcDbLine
 10
113.592260389
 20
187.7633674565
 30
0.0
 11
113.592260389
 21
193.2633674565
 31
0.0
  0
LINE
  5
5B
330
1F
100
AcDbEntity
  8
0
  6
Continuous
 62
     7
100
AcDbLine
 10
113.592260389
 20
199.2633674565
 30
0.0
 11
113.592260389
 21
210.7633674565
 31
0.0
  0
LINE
  5
5C
330
1F
100
AcDbEntity
  8
0
  6
Continuous
 62
     7
100
AcDbLine
 10
106.592260389
 20
199.2633674565
 30
0.0
 11
106.092260389
 21
198.7633674565
 31
0.0
  0
LINE
  5
5D
330
1F
100
AcDbEntity
  8
0
  6
Continuous
 62
     7
100
AcDbLine
 10
106.592260389
 20
192.0133674565
 30
0.0
 11
109.592260389
 21
192.0133674565
 31
0.0
  0
LINE
  5
5E
330
1F
100
AcDbEntity
  8
0
  6
Continuous
 62
     7
100
AcDbLine
 10
109.092260389
 20
192.2633674565
 30
0.0
 11
106.592260389
 21
192.2633674565
 31
0.0
  0
LINE
  5
5F
330
1F
100
AcDbEntity
  8
0
  6
Continuous
 62
     2
100
AcDbLine
 10
101.092260389
 20
192.2633674565
 30
0.0
 11
104.592260389
 21
192.2633674565
 31
0.0
  0
LINE
  5
60
330
1F
100
AcDbEntity
  8
0
  6
Continuous
 62
     7
100
AcDbLine
 10
113.592260389
 20
193.1633674565
 30
0.0
 11
117.5020656527
 21
193.1633674565
 31
0.0
  0
LINE
  5
61
330
1F
100
AcDbEntity
  8
0
  6
Continuous
 62
     7
100
AcDbLine
 10
117.292260389
 20
193.2633674565
 30
0.0
 11
106.592260389
 21
193.2633674565
 31
0.0
  0
LINE
  5
62
330
1F
100
AcDbEntity
  8
0
  6
Continuous
 62
     2
100
AcDbLine
 10
104.592260389
 20
193.2633674565
 30
0.0
 11
106.592260389
 21
193.2633674565
 31
0.0
  0
LINE
  5
63
330
1F
100
AcDbEntity
  8
0
  6
Continuous
 62
     2
100
AcDbLine
 10
106.092260389
 20
193.7633674565
 30
0.0
 11
117.592260389
 21
193.7633674565
 31
0.0
  0
LINE
  5
64
330
1F
100
AcDbEntity
  8
DEFAULT_2
  6
DASHED
 62
     2
100
AcDbLine
 10
121.592260389
 20
193.9539663797
 30
0.0
 11
119.3482434532
 21
193.9539663797
 31
0.0
  0
LINE
  5
65
330
1F
100
AcDbEntity
  8
0
  6
Continuous
 62
     7
100
AcDbLine
 10
104.592260389
 20
193.9633674565
 30
0.0
 11
106.092260389
 21
193.9633674565
 31
0.0
  0
LINE
  5
66
330
1F
100
AcDbEntity
  8
DEFAULT_2
  6
DASHED
 62
     2
100
AcDbLine
 10
121.592260389
 20
195.1086669181
 30
0.0
 11
119.3482434532
 21
195.1086669181
 31
0.0
  0
LINE
  5
67
330
1F
100
AcDbEntity
  8
DEFAULT_2
  6
DASHED
 62
     2
100
AcDbLine
 10
119.2151169945
 20
195.6963669049
 30
0.0
 11
119.1696108363
 21
196.2644780544
 31
0.0
  0
LINE
  5
68
330
1F
100
AcDbEntity
  8
DEFAULT_2
  6
HIDDEN
 62
     2
100
AcDbLine
 10
117.592260389
 20
199.2633674565
 30
0.0
 11
117.592260389
 21
193.2633674565
 31
0.0
  0
LINE
  5
69
330
1F
100
AcDbEntity
  8
A_RUNDUNGEN
  6
Continuous
 62
     7
100
AcDbLine
 10
117.592260389
 20
200.9633674001
 30
0.0
 11
117.592260389
 21
191.5633675129
 31
0.0
  0
LINE
  5
6A
330
1F
100
AcDbEntity
  8
0
  6
Continuous
 62
     7
100
AcDbLine
 10
118.092260389
 20
182.7633674565
 30
0.0
 11
118.092260389
 21
183.7633674565
 31
0.0
  0
LINE
  5
6B
330
1F
100
AcDbEntity
  8
0
  6
Continuous
 62
     7
100
AcDbLine
 10
117.592260389
 20
187.7633674565
 30
0.0
 11
117.592260389
 21
191.5633675129
 31
0.0
  0
LINE
  5
6C
330
1F
100
AcDbEntity
  8
0
  6
Continuous
 62
     7
100
AcDbLine
 10
117.592260389
 20
200.9633674001
 30
0.0
 11
117.592260389
 21
210.7633674565
 31
0.0
  0
LINE
  5
6D
330
1F
100
AcDbEntity
  8
0
  6
Continuous
 62
     7
100
AcDbLine
 10
118.592260389
 20
210.7633674565
 30
0.0
 11
118.592260389
 21
212.6633674565
 31
0.0
  0
LINE
  5
6E
330
1F
100
AcDbEntity
  8
0
  6
Continuous
 62
     7
100
AcDbLine
 10
118.592260389
 20
207.2633674565
 30
0.0
 11
118.592260389
 21
204.7633674565
 31
0.0
  0
LINE
  5
6F
330
1F
100
AcDbEntity
  8
A_ACHSEN
  6
DOT_CENTER
 62
     2
100
AcDbLine
 10
100.3383000152
 20
196.2633674565
 30
0.0
 11
124.5122851236
 21
196.2633674565
 31
0.0
  0
LINE
  5
70
330
1F
100
AcDbEntity
  8
DEFAULT_2
  6
DASHED
 62
     2
100
AcDbLine
 10
121.592260389
 20
197.4180679949
 30
0.0
 11
119.3482434532
 21
197.4180679949
 31
0.0
  0
LINE
  5
71
330
1F
100
AcDbEntity
  8
0
  6
Continuous
 62
     7
100
AcDbLine
 10
104.592260389
 20
198.5633674565
 30
0.0
 11
106.092260389
 21
198.5633674565
 31
0.0
  0
LINE
  5
72
330
1F
100
AcDbEntity
  8
DEFAULT_2
  6
DASHED
 62
     2
100
AcDbLine
 10
121.592260389
 20
198.5727685332
 30
0.0
 11
119.3482434532
 21
198.5727685332
 31
0.0
  0
LINE
  5
73
330
1F
100
AcDbEntity
  8
0
  6
Continuous
 62
     2
100
AcDbLine
 10
106.092260389
 20
198.7633674565
 30
0.0
 11
117.592260389
 21
198.7633674565
 31
0.0
  0
LINE
  5
74
330
1F
100
AcDbEntity
  8
DEFAULT_2
  6
DASHED
 62
     2
100
AcDbLine
 10
118.0149101199
 20
196.2633674565
 30
0.0
 11
119.3482434532
 21
193.9539663797
 31
0.0
  0
LINE
  5
75
330
1F
100
AcDbEntity
  8
DEFAULT_2
  6
DASHED
 62
     2
100
AcDbLine
 10
119.3482434532
 20
193.9539663797
 30
0.0
 11
119.2148558602
 21
194.2486466385
 31
0.0
  0
LINE
  5
76
330
1F
100
AcDbEntity
  8
DEFAULT_2
  6
DASHED
 62
     2
100
AcDbLine
 10
119.3482434532
 20
197.4180679949
 30
0.0
 11
119.2148558602
 21
197.7127482536
 31
0.0
  0
LINE
  5
77
330
1F
100
AcDbEntity
  8
DEFAULT_2
  6
DASHED
 62
     2
100
AcDbLine
 10
119.3482434532
 20
195.1086669181
 30
0.0
 11
119.2148558602
 21
195.6980274356
 31
0.0
  0
LINE
  5
78
330
1F
100
AcDbEntity
  8
DEFAULT_2
  6
DASHED
 62
     2
100
AcDbLine
 10
119.2151169945
 20
194.2478163731
 30
0.0
 11
119.1696108363
 21
194.5318719479
 31
0.0
  0
LINE
  5
79
330
1F
100
AcDbEntity
  8
DEFAULT_2
  6
DASHED
 62
     2
100
AcDbLine
 10
119.2151169945
 20
197.7119179882
 30
0.0
 11
119.1696108363
 21
197.995973563
 31
0.0
  0
LINE
  5
7A
330
1F
100
AcDbEntity
  8
0
  6
Continuous
 62
     7
100
AcDbLine
 10
119.392260389
 20
212.7633674565
 30
0.0
 11
119.392260389
 21
214.7633674565
 31
0.0
  0
LINE
  5
7B
330
1F
100
AcDbEntity
  8
0
  6
Continuous
 62
     7
100
AcDbLine
 10
119.092260389
 20
206.7632795775
 30
0.0
 11
119.092260389
 21
204.7633674565
 31
0.0
  0
LINE
  5
7C
330
1F
100
AcDbEntity
  8
DEFAULT_2
  6
DASHED
 62
     2
100
AcDbLine
 10
121.592260389
 20
193.9539663797
 30
0.0
 11
121.592260389
 21
198.5727685332
 31
0.0
  0
LINE
  5
7D
330
1F
100
AcDbEntity
  8
A_FASEN
  6
Continuous
 62
     7
100
AcDbLine
 10
121.592260389
 20
191.2633674565
 30
0.0
 11
121.592260389
 21
201.2633674565
 31
0.0
  0
LINE
  5
7E
330
1F
100
AcDbEntity
  8
DEFAULT_2
  6
DASHED
 62
     2
100
AcDbLine
 10
119.1696108363
 20
196.2622568585
 30
0.0
 11
119.2151169945
 21
196.8303680081
 31
0.0
  0
LINE
  5
7F
330
1F
100
AcDbEntity
  8
DEFAULT_2
  6
DASHED
 62
     2
100
AcDbLine
 10
119.1696108363
 20
197.9948629651
 30
0.0
 11
119.2151169945
 21
198.2789185399
 31
0.0
  0
LINE
  5
80
330
1F
100
AcDbEntity
  8
DEFAULT_2
  6
DASHED
 62
     2
100
AcDbLine
 10
119.1696108363
 20
194.5307613499
 30
0.0
 11
119.2151169945
 21
194.8148169247
 31
0.0
  0
LINE
  5
81
330
1F
100
AcDbEntity
  8
DEFAULT_2
  6
DASHED
 62
     2
100
AcDbLine
 10
119.3482434532
 20
197.4180679949
 30
0.0
 11
119.2148558602
 21
196.8287074774
 31
0.0
  0
LINE
  5
82
330
1F
100
AcDbEntity
  8
DEFAULT_2
  6
DASHED
 62
     2
100
AcDbLine
 10
119.3482434532
 20
198.5727685332
 30
0.0
 11
119.2148558602
 21
198.2780882745
 31
0.0
  0
LINE
  5
83
330
1F
100
AcDbEntity
  8
DEFAULT_2
  6
DASHED
 62
     2
100
AcDbLine
 10
119.3482434532
 20
195.1086669181
 30
0.0
 11
119.2148558602
 21
194.8139866594
 31
0.0
  0
LINE
  5
84
330
1F
100
AcDbEntity
  8
DEFAULT_2
  6
DASHED
 62
     2
100
AcDbLine
 10
118.0149101199
 20
196.2633674565
 30
0.0
 11
119.3482434532
 21
198.5727685332
 31
0.0
  0
LINE
  5
85
330
1F
100
AcDbEntity
  8
0
  6
Continuous
 62
     7
100
AcDbLine
 10
109.592260389
 20
192.7633674565
 30
0.0
 11
109.092260389
 21
192.2633674565
 31
0.0
  0
LINE
  5
86
330
1F
100
AcDbEntity
  8
0
  6
Continuous
 62
     7
100
AcDbLine
 10
117.292260389
 20
199.2633674565
 30
0.0
 11
106.592260389
 21
199.2633674565
 31
0.0
  0
LINE
  5
87
330
1F
100
AcDbEntity
  8
0
  6
Continuous
 62
     2
100
AcDbLine
 10
104.592260389
 20
199.2633674565
 30
0.0
 11
106.592260389
 21
199.2633674565
 31
0.0
  0
LINE
  5
88
330
1F
100
AcDbEntity
  8
0
  6
Continuous
 62
     7
100
AcDbLine
 10
113.592260389
 20
199.3633674565
 30
0.0
 11
117.5020656527
 21
199.3633674565
 31
0.0
  0
LINE
  5
89
330
1F
100
AcDbEntity
  8
0
  6
Continuous
 62
     7
100
AcDbLine
 10
109.3422603890001
 20
200.2633674565
 30
0.0
 11
106.592260389
 21
200.2633674565
 31
0.0
  0
LINE
  5
8A
330
1F
100
AcDbEntity
  8
0
  6
Continuous
 62
     7
100
AcDbLine
 10
106.592260389
 20
200.5133674565
 30
0.0
 11
109.592260389
 21
200.5133674565
 31
0.0
  0
LINE
  5
8B
330
1F
100
AcDbEntity
  8
0
  6
Continuous
 62
     7
100
AcDbLine
 10
121.592260389
 20
201.2633674565
 30
0.0
 11
121.092260389
 21
201.2633674565
 31
0.0
  0
LINE
  5
8C
330
1F
100
AcDbEntity
  8
0
  6
Continuous
 62
     7
100
AcDbLine
 10
121.092260389
 20
201.5133674565
 30
0.0
 11
122.092260389
 21
201.5133674565
 31
0.0
  0
LINE
  5
8D
330
1F
100
AcDbEntity
  8
0
  6
Continuous
 62
     7
100
AcDbLine
 10
122.092260389
 20
201.7633674565
 30
0.0
 11
123.592260389
 21
201.7633674565
 31
0.0
  0
LINE
  5
8E
330
1F
100
AcDbEntity
  8
A_RUNDUNGEN
  6
Continuous
 62
     7
100
AcDbLine
 10
121.092260389
 20
204.7633674565
 30
0.0
 11
117.892260389
 21
204.7633674565
 31
0.0
  0
LINE
  5
8F
330
1F
100
AcDbEntity
  8
0
  6
Continuous
 62
     7
100
AcDbLine
 10
117.892260389
 20
204.7633674565
 30
0.0
 11
121.092260389
 21
204.7633674565
 31
0.0
  0
LINE
  5
90
330
1F
100
AcDbEntity
  8
0
  6
Continuous
 62
     7
100
AcDbLine
 10
119.092260389
 20
206.7633674565
 30
0.0
 11
118.592260389
 21
207.2633674565
 31
0.0
  0
LINE
  5
91
330
1F
100
AcDbEntity
  8
0
  6
Continuous
 62
     2
100
AcDbLine
 10
101.092260389
 20
206.2633674565
 30
0.0
 11
104.592260389
 21
206.2633674565
 31
0.0
  0
LINE
  5
92
330
1F
100
AcDbEntity
  8
0
  6
Continuous
 62
     2
100
AcDbLine
 10
117.592260389
 20
206.2633674565
 30
0.0
 11
119.092260389
 21
206.2633674565
 31
0.0
  0
LINE
  5
93
330
1F
100
AcDbEntity
  8
0
  6
Continuous
 62
     7
100
AcDbLine
 10
118.592260389
 20
207.2633674565
 30
0.0
 11
117.5922603890001
 21
207.2633674565
 31
0.0
  0
LINE
  5
94
330
1F
100
AcDbEntity
  8
0
  6
Continuous
 62
     7
100
AcDbLine
 10
104.592260389
 20
207.2633674565
 30
0.0
 11
101.592260389
 21
207.2633674565
 31
0.0
  0
LINE
  5
95
330
1F
100
AcDbEntity
  8
0
  6
Continuous
 62
     7
100
AcDbLine
 10
102.5442614727
 20
215.4474077431
 30
0.0
 11
104.092260389
 21
214.8839822149
 31
0.0
  0
LINE
  5
96
330
1F
100
AcDbEntity
  8
0
  6
Continuous
 62
     7
100
AcDbLine
 10
102.886281616
 20
216.3871003639
 30
0.0
 11
104.4342805324
 21
215.8236748357
 31
0.0
  0
LINE
  5
97
330
1F
100
AcDbEntity
  8
0
  6
Continuous
 62
     7
100
AcDbLine
 10
104.592260389
 20
210.7633674565
 30
0.0
 11
117.592260389
 21
210.7633674565
 31
0.0
  0
LINE
  5
98
330
1F
100
AcDbEntity
  8
0
  6
Continuous
 62
     7
100
AcDbLine
 10
118.592260389
 20
210.7633674565
 30
0.0
 11
121.092260389
 21
210.7633674565
 31
0.0
  0
LINE
  5
99
330
1F
100
AcDbEntity
  8
0
  6
Continuous
 62
     7
100
AcDbLine
 10
118.592260389
 20
212.6633674565
 30
0.0
 11
102.292260389
 21
212.6633674565
 31
0.0
  0
LINE
  5
9A
330
1F
100
AcDbEntity
  8
0
  6
Continuous
 62
     7
100
AcDbLine
 10
101.592260389
 20
212.7633674565
 30
0.0
 11
119.392260389
 21
212.7633674565
 31
0.0
  0
LINE
  5
9B
330
1F
100
AcDbEntity
  8
0
  6
Continuous
 62
     7
100
AcDbLine
 10
101.592260389
 20
214.7633674565
 30
0.0
 11
120.592260389
 21
214.7633674565
 31
0.0
  0
LINE
  5
9C
330
1F
100
AcDbEntity
  8
A_ACHSEN
  6
Continuous
 62
     7
100
AcDbLine
 10
122.0002604732
 20
214.7633674565
 30
0.0
 11
122.092260389
 21
214.7633674565
 31
0.0
  0
LINE
  5
9D
330
1F
100
AcDbEntity
  8
0
  6
Continuous
 62
     7
100
AcDbLine
 10
104.7763006757
 20
215.7633674565
 30
0.0
 11
120.592260389
 21
215.7633674565
 31
0.0
  0
LINE
  5
A6
330
1F
100
AcDbEntity
  8
1
  6
Continuous
 62
     7
100
AcDbLine
 10
124.592260389
 20
220.2633674565
 30
0.0
 11
124.592260389
 21
207.7633674565
 31
0.0
  0
LINE
  5
A7
330
1F
100
AcDbEntity
  8
1
  6
Continuous
 62
     7
100
AcDbLine
 10
132.6326315724901
 20
205.7633674565
 30
0.0
 11
126.592260389
 21
205.7633674565
 31
0.0
  0
LINE
  5
A8
330
1F
100
AcDbEntity
  8
1
  6
Continuous
 62
     7
100
AcDbLine
 10
132.8826315724901
 20
206.6201040527303
 30
0.0
 11
132.8826315724901
 21
206.0133674565
 31
0.0
  0
LINE
  5
A9
330
1F
100
AcDbEntity
  8
1
  6
Continuous
 62
     7
100
AcDbLine
 10
131.0598351833822
 20
209.1563984322837
 30
0.0
 11
132.6486760156091
 21
207.2628916624169
 31
0.0
  0
LINE
  5
AA
330
1F
100
AcDbEntity
  8
1
  6
Continuous
 62
     7
100
AcDbLine
 10
130.560131725457
 20
211.4104150692564
 30
0.0
 11
132.7935724600081
 21
219.745729366295
 31
0.0
  0
LINE
  5
AB
330
1F
100
AcDbEntity
  8
1
  6
Continuous
 62
     7
100
AcDbLine
 10
126.592260389
 20
222.2633674565
 30
0.0
 11
130.86172080743
 21
222.2633674565
 31
0.0
  0
LINE
  5
AC
330
1F
100
AcDbEntity
  8
1
  6
Continuous
 62
     7
100
AcDbLine
 10
126.592260389
 20
223.2633674565
 30
0.0
 11
130.86172080743
 21
223.2633674565
 31
0.0
  0
LINE
  5
AD
330
1F
100
AcDbEntity
  8
1
  6
Continuous
 62
     7
100
AcDbLine
 10
123.592260389
 20
220.2633674565
 30
0.0
 11
123.592260389
 21
207.7633674565
 31
0.0
  0
LINE
  5
AE
330
1F
100
AcDbEntity
  8
1
  6
Continuous
 62
     7
100
AcDbLine
 10
133.7594982862972
 20
219.4869103211924
 30
0.0
 11
134.6027471526776
 21
222.6339579339488
 31
0.0
  0
LINE
  5
AF
330
1F
100
AcDbEntity
  8
1
  6
Continuous
 62
     7
100
AcDbLine
 10
130.86172080743
 20
223.2633674565
 30
0.0
 11
134.119784239533
 21
223.2633674565
 31
0.0
  0
LINE
  5
B0
330
1F
100
AcDbEntity
  8
1
  6
Continuous
 62
     7
100
AcDbLine
 10
109.592260389
 20
181.2633674565
 30
0.0
 11
113.592260389
 21
181.2633674565
 31
0.0
  0
LINE
  5
B1
330
1F
100
AcDbEntity
  8
1
  6
DOT_CENTER
 62
     2
100
AcDbLine
 10
98.1608112977457
 20
196.2633674565
 30
0.0
 11
125.8845904619645
 21
196.2633674565001
 31
0.0
  0
LINE
  5
B2
330
1F
100
AcDbEntity
  8
1
  6
Continuous
 62
     7
100
AcDbLine
 10
116.592260389
 20
181.2633674565
 30
0.0
 11
106.592260389
 21
181.2633674565
 31
0.0
  0
LINE
  5
B3
330
1F
100
AcDbEntity
  8
1
  6
Continuous
 62
     7
100
AcDbLine
 10
116.592260389
 20
182.7633674565
 30
0.0
 11
116.592260389
 21
181.2633674565
 31
0.0
  0
LINE
  5
B4
330
1F
100
AcDbEntity
  8
1
  6
Continuous
 62
     7
100
AcDbLine
 10
106.592260389
 20
181.2633674565
 30
0.0
 11
94.09226038900003
 21
181.2633674565
 31
0.0
  0
LINE
  5
B5
330
1F
100
AcDbEntity
  8
1
  6
Continuous
 62
     7
100
AcDbLine
 10
106.592260389
 20
182.7633674565
 30
0.0
 11
106.592260389
 21
181.2633674565
 31
0.0
  0
LINE
  5
B6
330
1F
100
AcDbEntity
  8
1
  6
Continuous
 62
     7
100
AcDbLine
 10
122.092260389
 20
181.2633674565
 30
0.0
 11
116.592260389
 21
181.2633674565
 31
0.0
  0
LINE
  5
B7
330
1F
100
AcDbEntity
  8
1
  6
Continuous
 62
     7
100
AcDbLine
 10
137.6374223297379
 20
239.8581398524645
 30
0.0
 11
137.6374223297379
 21
210.7633674565
 31
0.0
  0
LINE
  5
B8
330
1F
100
AcDbEntity
  8
1
  6
Continuous
 62
     7
100
AcDbLine
 10
132.9749462911798
 20
209.2633674565
 30
0.0
 11
136.1374223297379
 21
209.2633674565
 31
0.0
  0
LINE
  5
B9
330
1F
100
AcDbEntity
  8
1
  6
Continuous
 62
     7
100
AcDbLine
 10
136.1374223297379
 20
211.2633674565
 30
0.0
 11
136.1374223297379
 21
239.8581398524645
 31
0.0
  0
LINE
  5
BA
330
1F
100
AcDbEntity
  8
1
  6
Continuous
 62
     7
100
AcDbLine
 10
133.6265589776002
 20
210.7633674565
 30
0.0
 11
135.6374223297379
 21
210.7633674565
 31
0.0
  0
LINE
  5
BB
330
1F
100
AcDbEntity
  8
1
  6
Continuous
 62
     7
100
AcDbLine
 10
136.0516358921113
 20
222.245729366295
 30
0.0
 11
133.1435960644558
 21
211.3927769790513
 31
0.0
  0
LINE
  5
BC
330
1F
100
AcDbEntity
  8
1
  6
Continuous
 62
     7
100
AcDbLine
 10
123.592260389
 20
224.7633674565
 30
0.0
 11
134.119784239533
 21
224.7633674565
 31
0.0
  0
LINE
  5
BD
330
1F
100
AcDbEntity
  8
1
  6
Continuous
 62
     7
100
AcDbLine
 10
94.09226038900003
 20
191.2633674565
 30
0.0
 11
94.09226038900003
 21
183.2633674565
 31
0.0
  0
LINE
  5
BE
330
1F
100
AcDbEntity
  8
1
  6
Continuous
 62
     7
100
AcDbLine
 10
92.59226038900003
 20
191.2633674565
 30
0.0
 11
92.59226038900003
 21
182.7633674565
 31
0.0
  0
LINE
  5
BF
330
1F
100
AcDbEntity
  8
1
  6
Continuous
 62
     7
100
AcDbLine
 10
94.09226038900003
 20
191.2633674565
 30
0.0
 11
92.59226038900003
 21
191.2633674565
 31
0.0
  0
LINE
  5
C0
330
1F
100
AcDbEntity
  8
1
  6
Continuous
 62
     7
100
AcDbLine
 10
131.5260575517461
 20
211.1515960241538
 30
0.0
 11
133.7594982862972
 21
219.4869103211924
 31
0.0
  0
LINE
  5
C1
330
1F
100
AcDbEntity
  8
1
  6
Continuous
 62
     7
100
AcDbLine
 10
124.092260389
 20
223.2633674565
 30
0.0
 11
126.592260389
 21
223.2633674565
 31
0.0
  0
LINE
  5
C2
330
1F
100
AcDbEntity
  8
1
  6
Continuous
 62
     7
100
AcDbLine
 10
123.592260389
 20
222.7633674565
 30
0.0
 11
123.592260389
 21
220.2633674565
 31
0.0
  0
LINE
  5
C3
330
1F
100
AcDbEntity
  8
1
  6
Continuous
 62
     7
100
AcDbLine
 10
123.592260389
 20
207.7633674565
 30
0.0
 11
123.592260389
 21
201.7633674565
 31
0.0
  0
LINE
  5
C4
330
1F
100
AcDbEntity
  8
1
  6
Continuous
 62
     7
100
AcDbLine
 10
131.8258796265013
 20
209.7991860419702
 30
0.0
 11
133.4147204587281
 21
207.9056792721034
 31
0.0
  0
LINE
  5
C5
330
1F
100
AcDbEntity
  8
1
  6
Continuous
 62
     7
100
AcDbLine
 10
133.8826315724901
 20
206.6201040527303
 30
0.0
 11
133.8826315724901
 21
206.0133674565
 31
0.0
  0
LINE
  5
C6
330
1F
100
AcDbEntity
  8
1
  6
Continuous
 62
     7
100
AcDbLine
 10
132.6326315724901
 20
204.7633674565
 30
0.0
 11
126.592260389
 21
204.7633674565
 31
0.0
  0
LINE
  5
C7
330
1F
100
AcDbEntity
  8
1
  6
Continuous
 62
     7
100
AcDbLine
 10
99.592260389
 20
182.7633674565
 30
0.0
 11
106.592260389
 21
182.7633674565
 31
0.0
  0
LINE
  5
C8
330
1F
100
AcDbEntity
  8
1
  6
Continuous
 62
     7
100
AcDbLine
 10
106.592260389
 20
182.7633674565
 30
0.0
 11
112.842260389
 21
182.7633674565
 31
0.0
  0
LINE
  5
C9
330
1F
100
AcDbEntity
  8
1
  6
Continuous
 62
     7
100
AcDbLine
 10
116.592260389
 20
182.7633674565
 30
0.0
 11
122.092260389
 21
182.7633674565
 31
0.0
  0
LINE
  5
CA
330
1F
100
AcDbEntity
  8
1
  6
Continuous
 62
     7
100
AcDbLine
 10
122.092260389
 20
223.2633674565
 30
0.0
 11
122.092260389
 21
182.7633674565
 31
0.0
  0
LINE
  5
CB
330
1F
100
AcDbEntity
  8
1
  6
Continuous
 62
     7
100
AcDbLine
 10
94.59226038900003
 20
182.7633674565
 30
0.0
 11
99.592260389
 21
182.7633674565
 31
0.0
  0
LINE
  5
CC
330
1F
100
AcDbEntity
  8
1
  6
Continuous
 62
     7
100
AcDbLine
 10
123.592260389
 20
201.7633674565
 30
0.0
 11
123.592260389
 21
190.7633674565
 31
0.0
  0
LINE
  5
CD
330
1F
100
AcDbEntity
  8
1
  6
Continuous
 62
     7
100
AcDbLine
 10
123.592260389
 20
190.7633674565
 30
0.0
 11
123.592260389
 21
182.7633674565
 31
0.0
  0
LINE
  5
CE
330
1F
100
AcDbEntity
  8
1
  6
DOT_CENTER
 62
     2
100
AcDbLine
 10
104.592260389
 20
199.2633674565
 30
0.0
 11
100.342260389
 21
199.2633674565
 31
0.0
  0
LINE
  5
CF
330
1F
100
AcDbEntity
  8
0
  6
Continuous
 62
     7
100
AcDbLine
 10
104.592260389
 20
199.2633674565
 30
0.0
 11
104.592260389
 21
210.7633674565
 31
0.0
  0
LINE
  5
D0
330
1F
100
AcDbEntity
  8
1
  6
DOT_CENTER
 62
     2
100
AcDbLine
 10
117.292260389
 20
199.2633674565
 30
0.0
 11
125.792260389
 21
199.2633674565
 31
0.0
  0
LINE
  5
D1
330
1F
100
AcDbEntity
  8
0
  6
Continuous
 62
     2
100
AcDbLine
 10
110.342260389
 20
192.2633674565
 30
0.0
 11
112.092260389
 21
192.2633674565
 31
0.0
  0
LINE
  5
D2
330
1F
100
AcDbEntity
  8
0
  6
Continuous
 62
     7
100
AcDbLine
 10
112.092260389
 20
188.9158876348954
 30
0.0
 11
112.092260389
 21
187.7633674565
 31
0.0
  0
LINE
  5
D3
330
1F
100
AcDbEntity
  8
0
  6
Continuous
 62
     7
100
AcDbLine
 10
113.592260389
 20
187.7633674565
 30
0.0
 11
117.592260389
 21
187.7633674565
 31
0.0
  0
LINE
  5
D4
330
1F
100
AcDbEntity
  8
0
  6
Continuous
 62
     7
100
AcDbLine
 10
109.592260389
 20
181.7633674565
 30
0.0
 11
112.592260389
 21
181.7633674565
 31
0.0
  0
LINE
  5
D5
330
1F
100
AcDbEntity
  8
0
  6
Continuous
 62
     7
100
AcDbLine
 10
109.592260389
 20
182.5133674565
 30
0.0
 11
112.592260389
 21
182.5133674565
 31
0.0
  0
LINE
  5
D6
330
1F
100
AcDbEntity
  8
0
  6
Continuous
 62
     7
100
AcDbLine
 10
109.592260389
 20
181.7633674565
 30
0.0
 11
109.592260389
 21
182.5133674565
 31
0.0
  0
LINE
  5
D7
330
1F
100
AcDbEntity
  8
0
  6
Continuous
 62
     7
100
AcDbLine
 10
110.592260389
 20
181.7633674565
 30
0.0
 11
110.592260389
 21
182.5133674565
 31
0.0
  0
LINE
  5
D8
330
1F
100
AcDbEntity
  8
0
  6
Continuous
 62
     7
100
AcDbLine
 10
112.842260389
 20
182.7633674565
 30
0.0
 11
112.842260389
 21
193.2633674565
 31
0.0
  0
LINE
  5
D9
330
1F
100
AcDbEntity
  8
0
  6
Continuous
 62
     7
100
AcDbLine
 10
113.592260389
 20
182.7633674565
 30
0.0
 11
113.592260389
 21
193.2633674565
 31
0.0
  0
LINE
  5
DA
330
1F
100
AcDbEntity
  8
0
  6
Continuous
 62
     7
100
AcDbLine
 10
112.842260389
 20
188.2865629115001
 30
0.0
 11
110.1280789745
 21
190.5640315354
 31
0.0
  0
LINE
  5
DB
330
1F
100
AcDbEntity
  8
0
  6
Continuous
 62
     7
100
AcDbLine
 10
110.6101696818001
 20
191.1385648678001
 30
0.0
 11
112.842260389
 21
189.2656183785
 31
0.0
  0
LINE
  5
DC
330
1F
100
AcDbEntity
  8
0
  6
Continuous
 62
     7
100
AcDbLine
 10
110.342260389
 20
193.2633674565
 30
0.0
 11
110.342260389
 21
191.7130982001001
 31
0.0
  0
LINE
  5
DD
330
1F
100
AcDbEntity
  8
0
  6
Continuous
 62
     7
100
AcDbLine
 10
113.592260389
 20
192.7633674565
 30
0.0
 11
112.842260389
 21
192.7633674565
 31
0.0
  0
LINE
  5
DE
330
1F
100
AcDbEntity
  8
0
  6
Continuous
 62
     7
100
AcDbLine
 10
113.592260389
 20
183.7633674565
 30
0.0
 11
120.592260389
 21
183.7633674565
 31
0.0
  0
LINE
  5
DF
330
1F
100
AcDbEntity
  8
1
  6
Continuous
 62
     7
100
AcDbLine
 10
113.592260389
 20
182.7633674565
 30
0.0
 11
116.592260389
 21
182.7633674565
 31
0.0
  0
LINE
  5
E0
330
1F
100
AcDbEntity
  8
0
  6
Continuous
 62
     7
100
AcDbLine
 10
110.342260389
 20
202.1424229234155
 30
0.0
 11
110.342260389
 21
210.7633674565
 31
0.0
  0
LINE
  5
E1
330
1F
100
AcDbEntity
  8
0
  6
Continuous
 62
     7
100
AcDbLine
 10
110.1280789745
 20
201.9627033775001
 30
0.0
 11
112.842260389
 21
204.2401720014
 31
0.0
  0
LINE
  5
E2
330
1F
100
AcDbEntity
  8
0
  6
Continuous
 62
     7
100
AcDbLine
 10
110.342260389
 20
200.8136367129
 30
0.0
 11
110.342260389
 21
199.2633674565
 31
0.0
  0
LINE
  5
E3
330
1F
100
AcDbEntity
  8
0
  6
Continuous
 62
     7
100
AcDbLine
 10
112.842260389
 20
203.2611165344
 30
0.0
 11
110.6101696818001
 21
201.3881700452
 31
0.0
  0
LINE
  5
E4
330
1F
100
AcDbEntity
  8
0
  6
Continuous
 62
     7
100
AcDbLine
 10
112.542260389
 20
203.0093866450422
 30
0.0
 11
112.542260389
 21
200.8633674565
 31
0.0
  0
LINE
  5
E5
330
1F
100
AcDbEntity
  8
0
  6
Continuous
 62
     7
100
AcDbLine
 10
112.842260389
 20
209.2633674565
 30
0.0
 11
112.842260389
 21
199.2633674565
 31
0.0
  0
LINE
  5
E6
330
1F
100
AcDbEntity
  8
0
  6
Continuous
 62
     7
100
AcDbLine
 10
112.842260389
 20
209.2633674565
 30
0.0
 11
113.592260389
 21
209.2633674565
 31
0.0
  0
LINE
  5
E7
330
1F
100
AcDbEntity
  8
0
  6
Continuous
 62
     7
100
AcDbLine
 10
113.592260389
 20
199.2633674565
 30
0.0
 11
113.592260389
 21
209.2633674565
 31
0.0
  0
LINE
  5
E8
330
1F
100
AcDbEntity
  8
1
  6
Continuous
 62
     7
100
AcDbLine
 10
121.092260389
 20
214.2633674565
 30
0.0
 11
121.092260389
 21
201.2633674565
 31
0.0
  0
LINE
  5
E9
330
1F
100
AcDbEntity
  8
0
  6
Continuous
 62
     7
100
AcDbLine
 10
121.092260389
 20
201.2633674565
 30
0.0
 11
117.892260389
 21
201.2633674565
 31
0.0
  0
LINE
  5
EA
330
1F
100
AcDbEntity
  8
1
  6
Continuous
 62
     7
100
AcDbLine
 10
121.092260389
 20
191.2633674565
 30
0.0
 11
121.092260389
 21
184.2633674565
 31
0.0
  0
LINE
  5
EB
330
1F
100
AcDbEntity
  8
0
  6
Continuous
 62
     7
100
AcDbLine
 10
121.092260389
 20
191.2633674565
 30
0.0
 11
117.592260389
 21
191.2633674565
 31
0.0
  0
ARC
  5
EC
330
1F
100
AcDbEntity
  8
0
  6
Continuous
 62
     7
100
AcDbCircle
 10
101.592260389
 20
212.2633674565
 30
0.0
 40
2.5
100
AcDbArc
 50
90.0
 51
180.0
  0
ARC
  5
ED
330
1F
100
AcDbEntity
  8
0
  6
Continuous
 62
     7
100
AcDbCircle
 10
101.592260389
 20
185.2633674565
 30
0.0
 40
2.5
100
AcDbArc
 50
180.0
 51
-90.0
  0
ARC
  5
EE
330
1F
100
AcDbEntity
  8
DEFAULT_2
  6
DASHED
 62
     2
100
AcDbCircle
 10
123.5071146046
 20
196.2633674565
 30
0.0
 40
2.236067977585297
100
AcDbArc
 50
148.9090696430267
 51
-148.9090696430273
  0
ARC
  5
EF
330
1F
100
AcDbEntity
  8
0
  6
Continuous
 62
     7
100
AcDbCircle
 10
111.342260389
 20
199.2633674565
 30
0.0
 40
2.000000000000003
100
AcDbArc
 50
41.40962210927096
 51
53.13010235415582
  0
ARC
  5
F0
330
1F
100
AcDbEntity
  8
0
  6
Continuous
 62
     7
100
AcDbCircle
 10
104.7763006757
 20
216.7633674565
 30
0.0
 40
2.00000000004313
100
AcDbArc
 50
-110.0000000010337
 51
-90.0
  0
ARC
  5
F1
330
1F
100
AcDbEntity
  8
0
  6
Continuous
 62
     7
100
AcDbCircle
 10
120.592260389
 20
214.2633674565
 30
0.0
 40
1.5
100
AcDbArc
 50
0.0
 51
90.0
  0
ARC
  5
F2
330
1F
100
AcDbEntity
  8
0
  6
Continuous
 62
     7
100
AcDbCircle
 10
120.592260389
 20
184.2633674565
 30
0.0
 40
1.5
100
AcDbArc
 50
-90.0
 51
0.0
  0
ARC
  5
F3
330
1F
100
AcDbEntity
  8
0
  6
Continuous
 62
     7
100
AcDbCircle
 10
104.7763006757
 20
216.7633674565
 30
0.0
 40
1.000000000004466
100
AcDbArc
 50
-109.999999998342
 51
-90.0
  0
ARC
  5
F4
330
1F
100
AcDbEntity
  8
0
  6
Continuous
 62
     7
100
AcDbCircle
 10
120.592260389
 20
214.2633674565
 30
0.0
 40
0.5
100
AcDbArc
 50
0.0
 51
90.0
  0
ARC
  5
F5
330
1F
100
AcDbEntity
  8
0
  6
Continuous
 62
     7
100
AcDbCircle
 10
120.592260389
 20
184.2633674565
 30
0.0
 40
0.5
100
AcDbArc
 50
-90.0
 51
0.0
  0
ARC
  5
F6
330
1F
100
AcDbEntity
  8
0
  6
Continuous
 62
     7
100
AcDbCircle
 10
101.592260389
 20
212.2633674565
 30
0.0
 40
0.5
100
AcDbArc
 50
90.0
 51
180.0
  0
ARC
  5
F7
330
1F
100
AcDbEntity
  8
0
  6
Continuous
 62
     7
100
AcDbCircle
 10
101.592260389
 20
185.2633674565
 30
0.0
 40
0.5
100
AcDbArc
 50
180.0
 51
-90.0
  0
ARC
  5
F8
330
1F
100
AcDbEntity
  8
A_RUNDUNGEN
  6
Continuous
 62
     7
100
AcDbCircle
 10
117.892260389
 20
200.9633674565001
 30
0.0
 40
0.2999999999998977
100
AcDbArc
 50
90.0
 51
-179.9999898693414
  0
ARC
  5
F9
330
1F
100
AcDbEntity
  8
A_RUNDUNGEN
  6
Continuous
 62
     7
100
AcDbCircle
 10
117.892260389
 20
191.5633674565
 30
0.0
 40
0.3000000000000018
100
AcDbArc
 50
179.9999898693414
 51
-90.0
  0
ARC
  5
FA
330
1F
100
AcDbEntity
  8
A_RUNDUNGEN
  6
Continuous
 62
     7
100
AcDbCircle
 10
117.292260389
 20
192.9633674565
 30
0.0
 40
0.299999999999875
100
AcDbArc
 50
0.00058951035154
 51
90.0
  0
ARC
  5
FB
330
1F
100
AcDbEntity
  8
A_RUNDUNGEN
  6
Continuous
 62
     7
100
AcDbCircle
 10
117.292260389
 20
199.5633674565
 30
0.0
 40
0.3000000000000114
100
AcDbArc
 50
-90.0
 51
-0.00058951035697
  0
ARC
  5
FC
330
1F
100
AcDbEntity
  8
0
  6
Continuous
 62
     7
100
AcDbCircle
 10
117.892260389
 20
205.0633674565
 30
0.0
 40
0.2999999999999972
100
AcDbArc
 50
-179.9999997771203
 51
-90.0
  0
ARC
  5
FD
330
1F
100
AcDbEntity
  8
1
  6
Continuous
 62
     7
100
AcDbCircle
 10
130.86172080743
 20
220.2633674565
 30
0.0
 40
1.999999999999956
100
AcDbArc
 50
-14.99999999999902
 51
90.0
  0
ARC
  5
FE
330
1F
100
AcDbEntity
  8
1
  6
Continuous
 62
     7
100
AcDbCircle
 10
126.592260389
 20
220.2633674565
 30
0.0
 40
2.0
100
AcDbArc
 50
90.0
 51
180.0
  0
ARC
  5
FF
330
1F
100
AcDbEntity
  8
1
  6
Continuous
 62
     7
100
AcDbCircle
 10
130.86172080743
 20
220.2633674565
 30
0.0
 40
3.000000000000002
100
AcDbArc
 50
-15.00000000000064
 51
90.0
  0
ARC
  5
100
330
1F
100
AcDbEntity
  8
1
  6
Continuous
 62
     7
100
AcDbCircle
 10
126.592260389
 20
220.2633674565
 30
0.0
 40
3.0
100
AcDbArc
 50
90.0
 51
180.0
  0
ARC
  5
101
330
1F
100
AcDbEntity
  8
0
  6
Continuous
 62
     7
100
AcDbCircle
 10
112.592260389
 20
182.7633674565
 30
0.0
 40
1.0
100
AcDbArc
 50
-90.0
 51
0.0
  0
ARC
  5
102
330
1F
100
AcDbEntity
  8
0
  6
Continuous
 62
     7
100
AcDbCircle
 10
112.592260389
 20
182.7633674565
 30
0.0
 40
0.25
100
AcDbArc
 50
-90.0
 51
0.0
  0
ARC
  5
103
330
1F
100
AcDbEntity
  8
0
  6
Continuous
 62
     7
100
AcDbCircle
 10
111.092260389
 20
191.7130982001001
 30
0.0
 40
1.5
100
AcDbArc
 50
180.0
 51
-129.9999999985971
  0
ARC
  5
104
330
1F
100
AcDbEntity
  8
0
  6
Continuous
 62
     7
100
AcDbCircle
 10
111.092260389
 20
191.7130982001001
 30
0.0
 40
0.75
100
AcDbArc
 50
180.0
 51
-129.9999999981236
  0
ARC
  5
105
330
1F
100
AcDbEntity
  8
0
  6
Continuous
 62
     7
100
AcDbCircle
 10
111.092260389
 20
200.8136367129
 30
0.0
 40
1.499999999920808
100
AcDbArc
 50
130.000000001052
 51
180.0
  0
ARC
  5
106
330
1F
100
AcDbEntity
  8
0
  6
Continuous
 62
     7
100
AcDbCircle
 10
111.092260389
 20
200.8136367129
 30
0.0
 40
0.7499999999281676
100
AcDbArc
 50
129.9999999981222
 51
180.0
  0
SPLINE
  5
107
330
1F
100
AcDbEntity
  8
1
  6
Continuous
 62
     2
100
AcDbSpline
210
0.0
220
0.0
230
1.0
 70
     8
 71
     3
 72
    21
 73
    17
 74
    15
 42
0.0000000001
 43
0.0000000001
 44
0.00000001
 40
0.0
 40
0.0
 40
0.0
 40
0.0
 40
0.20559416526485
 40
0.366490572546498
 40
0.5282493060458977
 40
0.6720983026134758
 40
0.7797807341074066
 40
0.8857064111209842
 40
0.9882327233805348
 40
1.109598171382093
 40
1.20320696920492
 40
1.29300254424437
 40
1.416894134578998
 40
1.532052433088574
 40
1.636514903006402
 40
1.759431153385473
 40
1.759431153385473
 40
1.759431153385473
 40
1.759431153385473
 10
136.1374223297379
 20
239.8581398524645
 30
0.0
 10
136.1898513902667
 20
239.8145596539093
 30
0.0
 10
136.2833110289999
 20
239.736873928249
 30
0.0
 10
136.4831324496486
 20
239.7044018081383
 30
0.0
 10
136.5810379637281
 20
239.8344073367166
 30
0.0
 10
136.7105211926598
 20
239.929282263221
 30
0.0
 10
136.8180377194985
 20
239.8585695546952
 30
0.0
 10
136.9175835566338
 20
239.8001837954054
 30
0.0
 10
137.020195017261
 20
239.8742058919117
 30
0.0
 10
137.0792839553887
 20
239.9500845663725
 30
0.0
 10
137.1675231167014
 20
240.0336997206181
 30
0.0
 10
137.2651857169284
 20
239.9602818473946
 30
0.0
 10
137.3251308592797
 20
239.87811467898
 30
0.0
 10
137.4123001709006
 20
239.7884194001025
 30
0.0
 10
137.536047405188
 20
239.8010005193367
 30
0.0
 10
137.6018505212587
 20
239.838090028273
 30
0.0
 10
137.6374223297379
 20
239.8581398524645
 30
0.0
 11
136.1374223297379
 21
239.8581398524645
 31
0.0
 11
136.3089254713386
 21
239.7447571676663
 31
0.0
 11
136.4692949516328
 21
239.7317462619981
 31
0.0
 11
136.5936521114798
 21
239.8351927924286
 31
0.0
 11
136.7208224024699
 21
239.9024256036371
 31
0.0
 11
136.8193316813646
 21
239.8589350526623
 31
0.0
 11
136.9184511138409
 21
239.8215774944396
 31
0.0
 11
137.0084647129447
 21
239.870661062789
 31
0.0
 11
137.0915358111186
 21
239.9591413691674
 31
0.0
 11
137.1699785646781
 21
240.010223082567
 31
0.0
 11
137.249235752685
 21
239.9680147487228
 31
0.0
 11
137.3313118043883
 21
239.8752103959562
 31
0.0
 11
137.4215060155141
 21
239.8036112479513
 31
0.0
 11
137.5259315635996
 21
239.8063883918749
 31
0.0
 11
137.6374223297379
 21
239.8581398524645
 31
0.0
  0
ARC
  5
108
330
1F
100
AcDbEntity
  8
1
  6
Continuous
 62
     7
100
AcDbCircle
 10
126.592260389
 20
207.7633674565
 30
0.0
 40
2.0
100
AcDbArc
 50
180.0
 51
-90.0
  0
ARC
  5
109
330
1F
100
AcDbEntity
  8
1
  6
Continuous
 62
     7
100
AcDbCircle
 10
132.6326315724901
 20
206.0133674565
 30
0.0
 40
0.25
100
AcDbArc
 50
-90.0
 51
0.0
  0
ARC
  5
10A
330
1F
100
AcDbEntity
  8
1
  6
Continuous
 62
     7
100
AcDbCircle
 10
131.8826315724901
 20
206.6201040527303
 30
0.0
 40
1.0
100
AcDbArc
 50
0.0
 51
40.00000000000154
  0
ARC
  5
10B
330
1F
100
AcDbEntity
  8
1
  6
Continuous
 62
     7
100
AcDbCircle
 10
132.9749462911798
 20
210.7633674565
 30
0.0
 40
2.500000000000146
100
AcDbArc
 50
164.9999999999983
 51
-140.0000000000034
  0
ARC
  5
10C
330
1F
100
AcDbEntity
  8
1
  6
Continuous
 62
     7
100
AcDbCircle
 10
123.592260389
 20
223.2633674565
 30
0.0
 40
1.5
100
AcDbArc
 50
90.0
 51
180.0
  0
ARC
  5
10D
330
1F
100
AcDbEntity
  8
1
  6
Continuous
 62
     7
100
AcDbCircle
 10
122.092260389
 20
182.7633674565
 30
0.0
 40
1.5
100
AcDbArc
 50
-90.0
 51
0.0
  0
ARC
  5
10E
330
1F
100
AcDbEntity
  8
1
  6
Continuous
 62
     7
100
AcDbCircle
 10
94.09226038900003
 20
182.7633674565
 30
0.0
 40
1.5
100
AcDbArc
 50
180.0
 51
-90.0
  0
ARC
  5
10F
330
1F
100
AcDbEntity
  8
1
  6
Continuous
 62
     7
100
AcDbCircle
 10
136.1374223297379
 20
210.7633674565
 30
0.0
 40
1.5
100
AcDbArc
 50
-90.0
 51
0.0
  0
ARC
  5
110
330
1F
100
AcDbEntity
  8
1
  6
Continuous
 62
     7
100
AcDbCircle
 10
134.119784239533
 20
222.7633674565
 30
0.0
 40
0.5000000000000481
100
AcDbArc
 50
-14.99999999998962
 51
90.0
  0
ARC
  5
111
330
1F
100
AcDbEntity
  8
1
  6
Continuous
 62
     7
100
AcDbCircle
 10
135.6374223297379
 20
211.2633674565
 30
0.0
 40
0.5
100
AcDbArc
 50
-90.0
 51
0.0
  0
ARC
  5
112
330
1F
100
AcDbEntity
  8
1
  6
Continuous
 62
     7
100
AcDbCircle
 10
133.6265589776002
 20
211.2633674565
 30
0.0
 40
0.4999999999998853
100
AcDbArc
 50
164.9999999999919
 51
-90.0
  0
ARC
  5
113
330
1F
100
AcDbEntity
  8
1
  6
Continuous
 62
     7
100
AcDbCircle
 10
134.119784239533
 20
222.7633674565
 30
0.0
 40
2.000000000000149
100
AcDbArc
 50
-14.99999999999754
 51
90.0
  0
ARC
  5
114
330
1F
100
AcDbEntity
  8
1
  6
Continuous
 62
     7
100
AcDbCircle
 10
94.59226038900003
 20
183.2633674565
 30
0.0
 40
0.5
100
AcDbArc
 50
180.0
 51
-90.0
  0
ARC
  5
115
330
1F
100
AcDbEntity
  8
1
  6
Continuous
 62
     7
100
AcDbCircle
 10
124.092260389
 20
222.7633674565
 30
0.0
 40
0.5
100
AcDbArc
 50
90.0
 51
180.0
  0
ARC
  5
116
330
1F
100
AcDbEntity
  8
1
  6
Continuous
 62
     7
100
AcDbCircle
 10
132.9749462911798
 20
210.7633674565
 30
0.0
 40
1.500000000000033
100
AcDbArc
 50
-140.0000000000013
 51
-90.0
  0
ARC
  5
117
330
1F
100
AcDbEntity
  8
1
  6
Continuous
 62
     7
100
AcDbCircle
 10
132.9749462911798
 20
210.7633674565
 30
0.0
 40
1.500000000000101
100
AcDbArc
 50
164.9999999999998
 51
-140.0000000000013
  0
ARC
  5
118
330
1F
100
AcDbEntity
  8
1
  6
Continuous
 62
     7
100
AcDbCircle
 10
126.592260389
 20
207.7633674565
 30
0.0
 40
3.0
100
AcDbArc
 50
180.0
 51
-90.0
  0
ARC
  5
119
330
1F
100
AcDbEntity
  8
1
  6
Continuous
 62
     7
100
AcDbCircle
 10
132.6326315724901
 20
206.0133674565
 30
0.0
 40
1.25
100
AcDbArc
 50
-90.0
 51
0.0
  0
ARC
  5
11A
330
1F
100
AcDbEntity
  8
1
  6
Continuous
 62
     7
100
AcDbCircle
 10
131.8826315724901
 20
206.6201040527303
 30
0.0
 40
2.0
100
AcDbArc
 50
0.0
 51
39.99999999999967
  0
LWPOLYLINE
  5
11B
330
1F
100
AcDbEntity
  8
DEFAULT_2
  6
DASHED
 62
     2
100
AcDbPolyline
 90
        5
 70
     0
 43
0.0
 10
121.592260389
 20
198.5727685332
 10
121.348348808
 20
198.2868501754
 10
121.2710466271
 20
197.9954182641
 10
121.348348808
 20
197.7039863527
 10
121.592260389
 20
197.4180679949
  0
LWPOLYLINE
  5
11C
330
1F
100
AcDbEntity
  8
DEFAULT_2
  6
DASHED
 62
     2
100
AcDbPolyline
 90
        5
 70
     0
 43
0.0
 10
121.592260389
 20
195.1086669181
 10
121.348348808
 20
194.8227485602
 10
121.2710466271
 20
194.5313166489
 10
121.348348808
 20
194.2398847376
 10
121.592260389
 20
193.9539663797
  0
DIMENSION
  5
128
330
1F
100
AcDbEntity
  8
1
100
AcDbDimension
  2
*D1
 10
133.683186978625
 20
181.2633674565
 30
0.0
 11
129.933186978625
 21
188.771362654173
 31
0.0
 70
    32
  1
<>
 71
     5
 42
-1.0
 53
90.0
  3
ME10_DIM_10
100
AcDbAlignedDimension
 13
125.8845904619645
 23
196.2633674565001
 33
0.0
 14
122.092260389
 24
181.2633674565
 34
0.0
 50
90.0
100
AcDbRotatedDimension
  0
DIMENSION
  5
133
330
1F
100
AcDbEntity
  8
1
100
AcDbDimension
  2
*D2
 10
143.253140516017
 20
181.2633674565
 30
0.0
 11
139.503140516017
 21
191.2633674565
 31
0.0
 70
    32
  1
<>
 71
     5
 42
-1.0
 53
90.0
  3
ME10_DIM_11
100
AcDbAlignedDimension
 13
125.792260389
 23
199.2633674565
 33
0.0
 14
116.592260389
 24
181.2633674565
 34
0.0
 50
90.0
100
AcDbRotatedDimension
  0
DIMENSION
  5
13E
330
1F
100
AcDbEntity
  8
1
100
AcDbDimension
  2
*D3
 10
82.595114897526
 20
214.7633674565
 30
0.0
 11
78.845114897526
 21
199.2633674565
 31
0.0
 70
    32
  1
<>
 71
     5
 42
-1.0
 53
90.0
  3
ME10_DIM_12
100
AcDbAlignedDimension
 13
99.592260389
 23
182.7633674565
 33
0.0
 14
101.592260389
 24
214.7633674565
 34
0.0
 50
90.0
100
AcDbRotatedDimension
  0
DIMENSION
  5
149
330
1F
100
AcDbEntity
  8
1
100
AcDbDimension
  2
*D4
 10
123.592260389
 20
171.233823911787
 30
0.0
 11
116.353768735782
 21
174.983823911787
 31
0.0
 70
    32
  1
<>
 71
     5
 42
-1.0
 53
0.00013888888889
  3
ME10_DIM_13
100
AcDbAlignedDimension
 13
109.592260389
 23
187.7633674565
 33
0.0
 14
123.592260389
 24
182.7633674565
 34
0.0
100
AcDbRotatedDimension
  0
DIMENSION
  5
154
330
1F
100
AcDbEntity
  8
1
100
AcDbDimension
  2
*D5
 10
122.092260389
 20
231.135986282696
 30
0.0
 11
110.8187086132108
 21
234.885986282696
 31
0.0
 70
    32
  1
<>
 71
     5
 42
-1.0
 53
0.00013888888889
  3
ME10_DIM_14
100
AcDbAlignedDimension
 13
99.092260389
 23
212.2633674565
 33
0.0
 14
122.092260389
 24
223.2633674565
 34
0.0
100
AcDbRotatedDimension
  0
ENDSEC
  0
SECTION
  2
OBJECTS
  0
DICTIONARY
  5
C
330
0
100
AcDbDictionary
281
     1
  3
ACAD_GROUP
350
D
  3
ACAD_LAYOUT
350
1A
  3
ACAD_MLINESTYLE
350
17
  3
ACAD_PLOTSETTINGS
350
19
  3
ACAD_PLOTSTYLENAME
350
E
  0
DICTIONARY
  5
D
102
{ACAD_REACTORS
330
C
102
}
330
C
100
AcDbDictionary
281
     1
  0
DICTIONARY
  5
1A
102
{ACAD_REACTORS
330
C
102
}
330
C
100
AcDbDictionary
281
     1
  3
Layout1
350
1E
  3
Layout2
350
26
  3
Model
350
22
  0
DICTIONARY
  5
17
102
{ACAD_REACTORS
330
C
102
}
330
C
100
AcDbDictionary
281
     1
  3
Standard
350
18
  0
DICTIONARY
  5
19
102
{ACAD_REACTORS
330
C
102
}
330
C
100
AcDbDictionary
281
     1
  0
ACDBDICTIONARYWDFLT
  5
E
102
{ACAD_REACTORS
330
C
102
}
330
C
100
AcDbDictionary
281
     1
  3
Normal
350
F
100
AcDbDictionaryWithDefault
340
F
  0
LAYOUT
  5
1E
102
{ACAD_REACTORS
330
1A
102
}
330
1A
100
AcDbPlotSettings
  1

  2

  4

  6

 40
0.0
 41
0.0
 42
0.0
 43
0.0
 44
0.0
 45
0.0
 46
0.0
 47
0.0
 48
0.0
 49
0.0
140
0.0
141
0.0
142
1.0
143
1.0
 70
   688
 72
     0
 73
     0
 74
     5
  7

 75
    16
 76
     0
 77
     2
 78
   300
147
1.0
148
0.0
149
0.0
100
AcDbLayout
  1
Layout1
 70
     1
 71
     1
 10
0.0
 20
0.0
 11
0.0
 21
0.0
 12
0.0
 22
0.0
 32
0.0
 14
0.0
 24
0.0
 34
0.0
 15
0.0
 25
0.0
 35
0.0
146
0.0
 13
0.0
 23
0.0
 33
0.0
 16
1.0
 26
0.0
 36
0.0
 17
0.0
 27
1.0
 37
0.0
 76
     0
330
1B
  0
LAYOUT
  5
26
102
{ACAD_REACTORS
330
1A
102
}
330
1A
100
AcDbPlotSettings
  1

  2

  4

  6

 40
0.0
 41
0.0
 42
0.0
 43
0.0
 44
0.0
 45
0.0
 46
0.0
 47
0.0
 48
0.0
 49
0.0
140
0.0
141
0.0
142
1.0
143
1.0
 70
   688
 72
     0
 73
     0
 74
     5
  7

 75
    16
 76
     0
 77
     2
 78
   300
147
1.0
148
0.0
149
0.0
100
AcDbLayout
  1
Layout2
 70
     1
 71
     2
 10
0.0
 20
0.0
 11
0.0
 21
0.0
 12
0.0
 22
0.0
 32
0.0
 14
0.0
 24
0.0
 34
0.0
 15
0.0
 25
0.0
 35
0.0
146
0.0
 13
0.0
 23
0.0
 33
0.0
 16
1.0
 26
0.0
 36
0.0
 17
0.0
 27
1.0
 37
0.0
 76
     0
330
23
  0
LAYOUT
  5
22
102
{ACAD_REACTORS
330
1A
102
}
330
1A
100
AcDbPlotSettings
  1

  2

  4

  6

 40
0.0
 41
0.0
 42
0.0
 43
0.0
 44
0.0
 45
0.0
 46
0.0
 47
0.0
 48
0.0
 49
0.0
140
0.0
141
0.0
142
1.0
143
1.0
 70
  1712
 72
     0
 73
     0
 74
     0
  7

 75
     0
 76
     0
 77
     2
 78
   300
147
1.0
148
0.0
149
0.0
100
AcDbLayout
  1
Model
 70
     1
 71
     0
 10
0.0
 20
0.0
 11
0.0
 21
0.0
 12
0.0
 22
0.0
 32
0.0
 14
77.095114897526
 24
169.233823911787
 34
0.0
 15
145.253140516017
 25
240.017905229148
 35
0.0
146
0.0
 13
0.0
 23
0.0
 33
0.0
 16
1.0
 26
0.0
 36
0.0
 17
0.0
 27
1.0
 37
0.0
 76
     0
330
1F
  0
MLINESTYLE
  5
18
102
{ACAD_REACTORS
330
17
102
}
330
17
100
AcDbMlineStyle
  2
Standard
 70
     0
  3

 62
   256
 51
90.0
 52
90.0
 71
     2
 49
0.5
 62
   256
  6
BYLAYER
 49
-0.5
 62
   256
  6
BYLAYER
  0
ACDBPLACEHOLDER
  5
F
102
{ACAD_REACTORS
330
E
102
}
330
E
  0
ENDSEC
  0
EOF
