  0
SECTION
  2
HEADER
  9
$ACADVER
  1
AC1018
  9
$ACADMAINTVER
 70
     0
  9
$DWGCODEPAGE
  3
ANSI_1252
  9
$INSBASE
 10
0.0
 20
0.0
 30
0.0
  9
$EXTMIN
 10
3571.28416034785
 20
5199.58960022834
 30
0.0
  9
$EXTMAX
 10
3722.317157580279
 20
5333.17056492578
 30
0.0
  9
$LIMMIN
 10
0.0
 20
0.0
  9
$LIMMAX
 10
12.0
 20
9.0
  9
$ORTHOMODE
 70
     0
  9
$REGENMODE
 70
     1
  9
$FILLMODE
 70
     1
  9
$QTEXTMODE
 70
     0
  9
$MIRRTEXT
 70
     1
  9
$LTSCALE
 40
1.0
  9
$ATTMODE
 70
     1
  9
$TEXTSIZE
 40
0.2
  9
$TRACEWID
 40
0.05
  9
$TEXTSTYLE
  7
Standard
  9
$CLAYER
  8
0
  9
$CELTYPE
  6
ByLayer
  9
$CECOLOR
 62
   256
  9
$CELTSCALE
 40
1.0
  9
$DISPSILH
 70
     0
  9
$DIMSCALE
 40
1.0
  9
$DIMASZ
 40
0.18
  9
$DIMEXO
 40
0.0625
  9
$DIMDLI
 40
0.38
  9
$DIMRND
 40
0.0
  9
$DIMDLE
 40
0.0
  9
$DIMEXE
 40
0.18
  9
$DIMTP
 40
0.0
  9
$DIMTM
 40
0.0
  9
$DIMTXT
 40
0.18
  9
$DIMCEN
 40
0.09
  9
$DIMTSZ
 40
0.0
  9
$DIMTOL
 70
     0
  9
$DIMLIM
 70
     0
  9
$DIMTIH
 70
     1
  9
$DIMTOH
 70
     1
  9
$DIMSE1
 70
     0
  9
$DIMSE2
 70
     0
  9
$DIMTAD
 70
     0
  9
$DIMZIN
 70
     0
  9
$DIMBLK
  1

  9
$DIMASO
 70
     1
  9
$DIMSHO
 70
     1
  9
$DIMPOST
  1

  9
$DIMAPOST
  1

  9
$DIMALT
 70
     0
  9
$DIMALTD
 70
     2
  9
$DIMALTF
 40
25.4
  9
$DIMLFAC
 40
1.0
  9
$DIMTOFL
 70
     0
  9
$DIMTVP
 40
0.0
  9
$DIMTIX
 70
     0
  9
$DIMSOXD
 70
     0
  9
$DIMSAH
 70
     0
  9
$DIMBLK1
  1

  9
$DIMBLK2
  1

  9
$DIMSTYLE
  2
Standard
  9
$DIMCLRD
 70
     0
  9
$DIMCLRE
 70
     0
  9
$DIMCLRT
 70
     0
  9
$DIMTFAC
 40
1.0
  9
$DIMGAP
 40
0.09
  9
$DIMJUST
 70
     0
  9
$DIMSD1
 70
     0
  9
$DIMSD2
 70
     0
  9
$DIMTOLJ
 70
     1
  9
$DIMTZIN
 70
     0
  9
$DIMALTZ
 70
     0
  9
$DIMALTTZ
 70
     0
  9
$DIMUPT
 70
     0
  9
$DIMDEC
 70
     4
  9
$DIMTDEC
 70
     4
  9
$DIMALTU
 70
     2
  9
$DIMALTTD
 70
     2
  9
$DIMTXSTY
  7
Standard
  9
$DIMAUNIT
 70
     0
  9
$DIMADEC
 70
     0
  9
$DIMALTRND
 40
0.0
  9
$DIMAZIN
 70
     0
  9
$DIMDSEP
 70
    46
  9
$DIMATFIT
 70
     3
  9
$DIMFRAC
 70
     0
  9
$DIMLDRBLK
  1

  9
$DIMLUNIT
 70
     2
  9
$DIMLWD
 70
    -2
  9
$DIMLWE
 70
    -2
  9
$DIMTMOVE
 70
     0
  9
$LUNITS
 70
     2
  9
$LUPREC
 70
     4
  9
$SKETCHINC
 40
0.1
  9
$FILLETRAD
 40
0.5
  9
$AUNITS
 70
     0
  9
$AUPREC
 70
     0
  9
$MENU
  1
.
  9
$ELEVATION
 40
0.0
  9
$PELEVATION
 40
0.0
  9
$THICKNESS
 40
0.0
  9
$LIMCHECK
 70
     0
  9
$CHAMFERA
 40
0.5
  9
$CHAMFERB
 40
0.5
  9
$CHAMFERC
 40
1.0
  9
$CHAMFERD
 40
0.0
  9
$SKPOLY
 70
     0
  9
$TDCREATE
 40
2456605.429968935
  9
$TDUCREATE
 40
2456605.388302268
  9
$TDUPDATE
 40
2456605.429968947
  9
$TDUUPDATE
 40
2456605.38830228
  9
$TDINDWG
 40
0.0000000116
  9
$TDUSRTIMER
 40
0.0000000116
  9
$USRTIMER
 70
     1
  9
$ANGBASE
 50
0.0
  9
$ANGDIR
 70
     0
  9
$PDMODE
 70
     0
  9
$PDSIZE
 40
0.0
  9
$PLINEWID
 40
0.0
  9
$SPLFRAME
 70
     0
  9
$SPLINETYPE
 70
     6
  9
$SPLINESEGS
 70
     8
  9
$HANDSEED
  5
12C
  9
$SURFTAB1
 70
     6
  9
$SURFTAB2
 70
     6
  9
$SURFTYPE
 70
     6
  9
$SURFU
 70
     6
  9
$SURFV
 70
     6
  9
$UCSBASE
  2

  9
$UCSNAME
  2

  9
$UCSORG
 10
0.0
 20
0.0
 30
0.0
  9
$UCSXDIR
 10
1.0
 20
0.0
 30
0.0
  9
$UCSYDIR
 10
0.0
 20
1.0
 30
0.0
  9
$UCSORTHOREF
  2

  9
$UCSORTHOVIEW
 70
     0
  9
$UCSORGTOP
 10
0.0
 20
0.0
 30
0.0
  9
$UCSORGBOTTOM
 10
0.0
 20
0.0
 30
0.0
  9
$UCSORGLEFT
 10
0.0
 20
0.0
 30
0.0
  9
$UCSORGRIGHT
 10
0.0
 20
0.0
 30
0.0
  9
$UCSORGFRONT
 10
0.0
 20
0.0
 30
0.0
  9
$UCSORGBACK
 10
0.0
 20
0.0
 30
0.0
  9
$PUCSBASE
  2

  9
$PUCSNAME
  2

  9
$PUCSORG
 10
0.0
 20
0.0
 30
0.0
  9
$PUCSXDIR
 10
1.0
 20
0.0
 30
0.0
  9
$PUCSYDIR
 10
0.0
 20
1.0
 30
0.0
  9
$PUCSORTHOREF
  2

  9
$PUCSORTHOVIEW
 70
     0
  9
$PUCSORGTOP
 10
0.0
 20
0.0
 30
0.0
  9
$PUCSORGBOTTOM
 10
0.0
 20
0.0
 30
0.0
  9
$PUCSORGLEFT
 10
0.0
 20
0.0
 30
0.0
  9
$PUCSORGRIGHT
 10
0.0
 20
0.0
 30
0.0
  9
$PUCSORGFRONT
 10
0.0
 20
0.0
 30
0.0
  9
$PUCSORGBACK
 10
0.0
 20
0.0
 30
0.0
  9
$USERI1
 70
     0
  9
$USERI2
 70
     0
  9
$USERI3
 70
     0
  9
$USERI4
 70
     0
  9
$USERI5
 70
     0
  9
$USERR1
 40
14.5
  9
$USERR2
 40
0.0
  9
$USERR3
 40
0.0
  9
$USERR4
 40
0.0
  9
$USERR5
 40
0.0
  9
$WORLDVIEW
 70
     1
  9
$SHADEDGE
 70
     3
  9
$SHADEDIF
 70
    70
  9
$TILEMODE
 70
     1
  9
$MAXACTVP
 70
    64
  9
$PINSBASE
 10
0.0
 20
0.0
 30
0.0
  9
$PLIMCHECK
 70
     0
  9
$PEXTMIN
 10
1.00000000000000E+20
 20
1.00000000000000E+20
 30
1.00000000000000E+20
  9
$PEXTMAX
 10
-1.00000000000000E+20
 20
-1.00000000000000E+20
 30
-1.00000000000000E+20
  9
$PLIMMIN
 10
0.0
 20
0.0
  9
$PLIMMAX
 10
12.0
 20
9.0
  9
$UNITMODE
 70
     0
  9
$VISRETAIN
 70
     1
  9
$PLINEGEN
 70
     0
  9
$PSLTSCALE
 70
     1
  9
$TREEDEPTH
 70
  3020
  9
$CMLSTYLE
  2
Standard
  9
$CMLJUST
 70
     0
  9
$CMLSCALE
 40
1.0
  9
$PROXYGRAPHICS
 70
     1
  9
$MEASUREMENT
 70
     1
  9
$CELWEIGHT
370
    -1
  9
$ENDCAPS
280
     0
  9
$JOINSTYLE
280
     0
  9
$LWDISPLAY
290
     0
  9
$INSUNITS
 70
     1
  9
$HYPERLINKBASE
  1

  9
$STYLESHEET
  1

  9
$XEDIT
290
     1
  9
$CEPSNTYPE
380
     0
  9
$PSTYLEMODE
290
     1
  9
$FINGERPRINTGUID
  2
{8E7B1B04-DD3A-4700-A0B0-CAD1093F8EFA}
  9
$VERSIONGUID
  2
{FAEB1C32-E019-11D5-929B-00C0DF256EC4}
  9
$EXTNAMES
290
     1
  9
$PSVPSCALE
 40
0.0
  9
$OLESTARTUP
290
     0
  9
$SORTENTS
280
   127
  9
$INDEXCTL
280
     0
  9
$HIDETEXT
280
     1
  9
$XCLIPFRAME
290
     0
  9
$HALOGAP
280
     0
  9
$OBSCOLOR
 70
   257
  9
$OBSLTYPE
280
     0
  9
$INTERSECTIONDISPLAY
280
     0
  9
$INTERSECTIONCOLOR
 70
   257
  9
$DIMASSOC
280
     2
  9
$PROJECTNAME
  1

  0
ENDSEC
  0
SECTION
  2
CLASSES
  0
CLASS
  1
ACDBDICTIONARYWDFLT
  2
AcDbDictionaryWithDefault
  3
ObjectDBX Classes
 90
        0
 91
        3
280
     0
281
     0
  0
ENDSEC
  0
SECTION
  2
TABLES
  0
TABLE
  2
VPORT
  5
8
330
0
100
AcDbSymbolTable
 70
     1
  0
VPORT
  5
29
330
8
100
AcDbSymbolTableRecord
100
AcDbViewportTableRecord
  2
*Active
 70
     0
 10
0.0
 20
0.0
 11
1.0
 21
1.0
 12
3646.800658964064
 22
5266.38008257706
 13
0.0
 23
0.0
 14
0.5
 24
0.5
 15
0.5
 25
0.5
 16
0.0
 26
0.0
 36
1.0
 17
0.0
 27
0.0
 37
0.0
 40
146.9390611671844
 41
1.60267857142857
 42
50.0
 43
0.0
 44
0.0
 50
0.0
 51
0.0
 71
     0
 72
   100
 73
     1
 74
     3
 75
     0
 76
     0
 77
     0
 78
     0
281
     0
 65
     1
110
0.0
120
0.0
130
0.0
111
1.0
121
0.0
131
0.0
112
0.0
122
1.0
132
0.0
 79
     0
146
0.0
  0
ENDTAB
  0
TABLE
  2
LTYPE
  5
5
330
0
100
AcDbSymbolTable
 70
     8
  0
LTYPE
  5
14
330
5
100
AcDbSymbolTableRecord
100
AcDbLinetypeTableRecord
  2
ByBlock
 70
     0
  3

 72
    65
 73
     0
 40
0.0
  0
LTYPE
  5
15
330
5
100
AcDbSymbolTableRecord
100
AcDbLinetypeTableRecord
  2
ByLayer
 70
     0
  3

 72
    65
 73
     0
 40
0.0
  0
LTYPE
  5
16
330
5
100
AcDbSymbolTableRecord
100
AcDbLinetypeTableRecord
  2
Continuous
 70
     0
  3
Solid line
 72
    65
 73
     0
 40
0.0
  0
LTYPE
  5
2A
330
5
100
AcDbSymbolTableRecord
100
AcDbLinetypeTableRecord
  2
DASHED
 70
     0
  3
Dashed
 72
    65
 73
     2
 40
15.0
 49
7.0
 74
     0
 49
-8.0
 74
     0
  0
LTYPE
  5
2B
330
5
100
AcDbSymbolTableRecord
100
AcDbLinetypeTableRecord
  2
DOTTED
 70
     0
  3
Dotted
 72
    65
 73
     2
 40
1.0
 49
0.0
 74
     0
 49
-1.0
 74
     0
  0
LTYPE
  5
2C
330
5
100
AcDbSymbolTableRecord
100
AcDbLinetypeTableRecord
  2
DOT_CENTER
 70
     0
  3
Dot_Center
 72
    65
 73
     4
 40
14.0
 49
12.0
 74
     0
 49
-1.0
 74
     0
 49
0.0
 74
     0
 49
-1.0
 74
     0
  0
LTYPE
  5
2D
330
5
100
AcDbSymbolTableRecord
100
AcDbLinetypeTableRecord
  2
LONG_DASHED
 70
     0
  3
Long_Dashed
 72
    65
 73
     2
 40
15.0
 49
10.0
 74
     0
 49
-5.0
 74
     0
  0
LTYPE
  5
2E
330
5
100
AcDbSymbolTableRecord
100
AcDbLinetypeTableRecord
  2
DASH_CENTER
 70
     0
  3
Dash_Center
 72
    65
 73
     4
 40
14.0
 49
11.0
 74
     0
 49
-1.0
 74
     0
 49
1.0
 74
     0
 49
-1.0
 74
     0
  0
LTYPE
  5
2F
330
5
100
AcDbSymbolTableRecord
100
AcDbLinetypeTableRecord
  2
PHANTOM
 70
     0
  3
Phantom
 72
    65
 73
     6
 40
13.0
 49
10.0
 74
     0
 49
-1.0
 74
     0
 49
0.0
 74
     0
 49
-1.0
 74
     0
 49
0.0
 74
     0
 49
-1.0
 74
     0
  0
LTYPE
  5
30
330
5
100
AcDbSymbolTableRecord
100
AcDbLinetypeTableRecord
  2
CENTER_DASH_DASH
 70
     0
  3
Center_Dash_Dash
 72
    65
 73
     6
 40
14.0
 49
9.0
 74
     0
 49
-1.0
 74
     0
 49
1.0
 74
     0
 49
-1.0
 74
     0
 49
1.0
 74
     0
 49
-1.0
 74
     0
  0
ENDTAB
  0
TABLE
  2
LAYER
  5
2
330
0
100
AcDbSymbolTable
 70
     3
  0
LAYER
  5
10
330
2
100
AcDbSymbolTableRecord
100
AcDbLayerTableRecord
  2
0
 70
     0
 62
     7
  6
Continuous
370
    -3
390
F
  0
LAYER
  5
31
330
2
100
AcDbSymbolTableRecord
100
AcDbLayerTableRecord
  2
1
 70
     0
 62
     7
  6
Continuous
370
    -3
390
F
  0
LAYER
  5
32
330
2
100
AcDbSymbolTableRecord
100
AcDbLayerTableRecord
  2
VOLLLINIE_BREIT
 70
     0
 62
     7
  6
Continuous
370
    -3
390
F
  0
ENDTAB
  0
TABLE
  2
STYLE
  5
3
330
0
100
AcDbSymbolTable
 70
     2
  0
STYLE
  5
11
330
3
100
AcDbSymbolTableRecord
100
AcDbTextStyleTableRecord
  2
Standard
 70
     0
 40
0.0
 41
1.0
 50
0.0
 71
     0
 42
0.2
  3
txt
  4

  0
STYLE
  5
DB
330
3
100
AcDbSymbolTableRecord
100
AcDbTextStyleTableRecord
  2
CONVERTER_11
 70
     0
 40
0.0
 41
0.9
 50
0.0
 71
     0
 42
0.2
  3
txt.shx
  4

  0
ENDTAB
  0
TABLE
  2
VIEW
  5
6
330
0
100
AcDbSymbolTable
 70
     0
  0
ENDTAB
  0
TABLE
  2
UCS
  5
7
330
0
100
AcDbSymbolTable
 70
     0
  0
ENDTAB
  0
TABLE
  2
APPID
  5
9
330
0
100
AcDbSymbolTable
 70
     1
  0
APPID
  5
12
330
9
100
AcDbSymbolTableRecord
100
AcDbRegAppTableRecord
  2
ACAD
 70
     0
  0
ENDTAB
  0
TABLE
  2
DIMSTYLE
  5
A
330
0
100
AcDbSymbolTable
 70
     8
100
AcDbDimStyleTable
  0
DIMSTYLE
105
27
330
A
100
AcDbSymbolTableRecord
100
AcDbDimStyleTableRecord
  2
Standard
 70
     0
340
11
  0
DIMSTYLE
105
DF
102
{ACAD_REACTORS
330
E0
102
}
330
A
100
AcDbSymbolTableRecord
100
AcDbDimStyleTableRecord
  2
ME10_DIM_10
 70
     0
 41
3.5
 42
0.0
 44
2.0
 73
     0
 74
     0
 77
     1
 78
     8
140
3.5
147
2.0
172
     1
173
     1
176
     2
177
     2
178
     2
271
     3
340
DB
  0
DIMSTYLE
105
EA
102
{ACAD_REACTORS
330
EB
102
}
330
A
100
AcDbSymbolTableRecord
100
AcDbDimStyleTableRecord
  2
ME10_DIM_11
 70
     0
 41
3.5
 42
0.0
 44
2.0
 73
     0
 74
     0
 77
     1
 78
     8
140
3.5
147
2.0
172
     1
173
     1
176
     2
177
     2
178
     2
271
     3
340
DB
  0
DIMSTYLE
105
F5
102
{ACAD_REACTORS
330
F6
102
}
330
A
100
AcDbSymbolTableRecord
100
AcDbDimStyleTableRecord
  2
ME10_DIM_12
 70
     0
 41
3.5
 42
0.0
 44
2.0
 73
     0
 74
     0
 77
     1
 78
     8
140
3.5
147
2.0
172
     1
173
     1
176
     2
177
     2
178
     2
271
     3
340
DB
  0
DIMSTYLE
105
100
102
{ACAD_REACTORS
330
101
102
}
330
A
100
AcDbSymbolTableRecord
100
AcDbDimStyleTableRecord
  2
ME10_DIM_13
 70
     0
 41
3.5
 42
0.0
 44
2.0
 73
     0
 74
     0
 77
     1
 78
     8
140
3.5
147
2.0
172
     1
173
     1
176
     2
177
     2
178
     2
271
     3
340
DB
  0
DIMSTYLE
105
10C
102
{ACAD_REACTORS
330
10D
102
}
330
A
100
AcDbSymbolTableRecord
100
AcDbDimStyleTableRecord
  2
ME10_DIM_14
 70
     0
 41
3.5
 42
0.0
 44
2.0
 73
     0
 74
     0
 77
     1
 78
     8
140
3.5
147
2.0
172
     1
173
     1
176
     2
177
     2
178
     2
271
     3
340
DB
  0
DIMSTYLE
105
117
102
{ACAD_REACTORS
330
118
102
}
330
A
100
AcDbSymbolTableRecord
100
AcDbDimStyleTableRecord
  2
ME10_DIM_15
 70
     0
 41
3.5
 42
0.0
 44
2.0
 73
     0
 74
     0
 77
     1
 78
     8
140
3.5
147
2.0
172
     1
173
     1
176
     2
177
     2
178
     2
271
     3
340
DB
  0
DIMSTYLE
105
123
102
{ACAD_REACTORS
330
124
102
}
330
A
100
AcDbSymbolTableRecord
100
AcDbDimStyleTableRecord
  2
ME10_DIM_16
 70
     0
 41
3.5
 42
0.0
 44
2.0
 73
     0
 74
     0
 77
     1
 78
     8
140
3.5
147
2.0
172
     1
173
     1
176
     2
177
     2
178
     2
271
     3
340
DB
  0
ENDTAB
  0
TABLE
  2
BLOCK_RECORD
  5
1
330
0
100
AcDbSymbolTable
 70
     9
  0
BLOCK_RECORD
  5
1F
330
1
100
AcDbSymbolTableRecord
100
AcDbBlockTableRecord
  2
*Model_Space
340
22
  0
BLOCK_RECORD
  5
1B
330
1
100
AcDbSymbolTableRecord
100
AcDbBlockTableRecord
  2
*Paper_Space
340
1E
  0
BLOCK_RECORD
  5
23
330
1
100
AcDbSymbolTableRecord
100
AcDbBlockTableRecord
  2
*Paper_Space0
340
26
  0
BLOCK_RECORD
  5
D5
330
1
100
AcDbSymbolTableRecord
100
AcDbBlockTableRecord
  2
*D1
340
0
  0
BLOCK_RECORD
  5
E1
330
1
100
AcDbSymbolTableRecord
100
AcDbBlockTableRecord
  2
*D2
340
0
  0
BLOCK_RECORD
  5
EC
330
1
100
AcDbSymbolTableRecord
100
AcDbBlockTableRecord
  2
*D3
340
0
  0
BLOCK_RECORD
  5
F7
330
1
100
AcDbSymbolTableRecord
100
AcDbBlockTableRecord
  2
*D4
340
0
  0
BLOCK_RECORD
  5
102
330
1
100
AcDbSymbolTableRecord
100
AcDbBlockTableRecord
  2
*D5
340
0
  0
BLOCK_RECORD
  5
10E
330
1
100
AcDbSymbolTableRecord
100
AcDbBlockTableRecord
  2
*D6
340
0
  0
BLOCK_RECORD
  5
119
330
1
100
AcDbSymbolTableRecord
100
AcDbBlockTableRecord
  2
*D7
340
0
  0
BLOCK_RECORD
  5
125
330
1
100
AcDbSymbolTableRecord
100
AcDbBlockTableRecord
  2
*D8
340
0
102
{BLKREFS
331
12B
102
}
  0
ENDTAB
  0
ENDSEC
  0
SECTION
  2
BLOCKS
  0
BLOCK
  5
20
330
1F
100
AcDbEntity
  8
0
100
AcDbBlockBegin
  2
*Model_Space
 70
     0
 71
     0
 10
0.0
 20
0.0
 30
0.0
  3
*Model_Space
  1

  0
ENDBLK
  5
21
330
1F
100
AcDbEntity
  8
0
100
AcDbBlockEnd
  0
BLOCK
  5
1C
330
1B
100
AcDbEntity
 67
     1
  8
0
100
AcDbBlockBegin
  2
*Paper_Space
 70
     0
 71
     0
 10
0.0
 20
0.0
 30
0.0
  3
*Paper_Space
  1

  0
ENDBLK
  5
1D
330
1B
100
AcDbEntity
 67
     1
  8
0
100
AcDbBlockEnd
  0
BLOCK
  5
24
330
23
100
AcDbEntity
  8
0
100
AcDbBlockBegin
  2
*Paper_Space0
 70
     0
 71
     0
 10
0.0
 20
0.0
 30
0.0
  3
*Paper_Space0
  1

  0
ENDBLK
  5
25
330
23
100
AcDbEntity
  8
0
100
AcDbBlockEnd
  0
BLOCK
  5
DD
330
D5
100
AcDbEntity
  8
0
100
AcDbBlockBegin
  2
*D1
 70
     1
 71
     0
 10
0.0
 20
0.0
 30
0.0
  3
*D1
  1

  0
LINE
  5
D6
330
D5
100
AcDbEntity
  8
1
  6
Continuous
 62
     2
100
AcDbLine
 10
3720.317157580279
 20
5214.94070436309
 30
0.0
 11
3720.317157580279
 21
5259.940704363088
 31
0.0
  0
LINE
  5
D7
330
D5
100
AcDbEntity
  8
1
  6
Continuous
 62
     2
100
AcDbLine
 10
3707.058085308219
 20
5214.94070436309
 30
0.0
 11
3722.317157580279
 21
5214.94070436309
 31
0.0
  0
LINE
  5
D8
330
D5
100
AcDbEntity
  8
1
  6
Continuous
 62
     2
100
AcDbLine
 10
3707.058085308219
 20
5259.940704363088
 30
0.0
 11
3722.317157580279
 21
5259.940704363088
 31
0.0
  0
SOLID
  5
D9
330
D5
100
AcDbEntity
  8
1
 62
     2
100
AcDbTrace
 10
3719.856373838723
 20
5218.44070436309
 30
0.0
 11
3720.777941321835
 21
5218.44070436309
 31
0.0
 12
3720.317157580279
 22
5214.94070436309
 32
0.0
 13
3720.317157580279
 23
5214.94070436309
 33
0.0
  0
SOLID
  5
DA
330
D5
100
AcDbEntity
  8
1
 62
     2
100
AcDbTrace
 10
3720.777941321835
 20
5256.440704363088
 30
0.0
 11
3719.856373838723
 21
5256.440704363088
 31
0.0
 12
3720.317157580279
 22
5259.940704363088
 32
0.0
 13
3720.317157580279
 23
5259.940704363088
 33
0.0
  0
MTEXT
  5
DC
330
D5
100
AcDbEntity
  8
1
 62
     2
100
AcDbMText
 10
3718.317157580279
 20
5234.26246281574
 30
0.0
 40
3.5
 41
0.0
 71
     7
 72
     1
  1
45
  7
CONVERTER_11
 11
0.0
 21
1.0
 31
0.0
 73
     1
 44
0.60024009603842
  0
ENDBLK
  5
DE
330
D5
100
AcDbEntity
  8
0
100
AcDbBlockEnd
  0
BLOCK
  5
E8
330
E1
100
AcDbEntity
  8
0
100
AcDbBlockBegin
  2
*D2
 70
     1
 71
     0
 10
0.0
 20
0.0
 30
0.0
  3
*D2
  1

  0
LINE
  5
E2
330
E1
100
AcDbEntity
  8
1
  6
Continuous
 62
     2
100
AcDbLine
 10
3690.587131467709
 20
5225.440704363088
 30
0.0
 11
3690.587131467709
 21
5249.440704363088
 31
0.0
  0
LINE
  5
E3
330
E1
100
AcDbEntity
  8
1
  6
Continuous
 62
     2
100
AcDbLine
 10
3664.654596516438
 20
5225.440704363088
 30
0.0
 11
3692.587131467709
 21
5225.440704363088
 31
0.0
  0
LINE
  5
E4
330
E1
100
AcDbEntity
  8
1
  6
Continuous
 62
     2
100
AcDbLine
 10
3664.654596516438
 20
5249.440704363088
 30
0.0
 11
3692.587131467709
 21
5249.440704363088
 31
0.0
  0
SOLID
  5
E5
330
E1
100
AcDbEntity
  8
1
 62
     2
100
AcDbTrace
 10
3690.126347726153
 20
5228.940704363088
 30
0.0
 11
3691.047915209265
 21
5228.940704363088
 31
0.0
 12
3690.587131467709
 22
5225.440704363088
 32
0.0
 13
3690.587131467709
 23
5225.440704363088
 33
0.0
  0
SOLID
  5
E6
330
E1
100
AcDbEntity
  8
1
 62
     2
100
AcDbTrace
 10
3691.047915209265
 20
5245.940704363088
 30
0.0
 11
3690.126347726153
 21
5245.940704363088
 31
0.0
 12
3690.587131467709
 22
5249.440704363088
 32
0.0
 13
3690.587131467709
 23
5249.440704363088
 33
0.0
  0
MTEXT
  5
E7
330
E1
100
AcDbEntity
  8
1
 62
     2
100
AcDbMText
 10
3688.587131467709
 20
5234.72975928427
 30
0.0
 40
3.5
 41
0.0
 71
     7
 72
     1
  1
24
  7
CONVERTER_11
 11
0.0
 21
1.0
 31
0.0
 73
     1
 44
0.60024009603842
  0
ENDBLK
  5
E9
330
E1
100
AcDbEntity
  8
0
100
AcDbBlockEnd
  0
BLOCK
  5
F3
330
EC
100
AcDbEntity
  8
0
100
AcDbBlockBegin
  2
*D3
 70
     1
 71
     0
 10
0.0
 20
0.0
 30
0.0
  3
*D3
  1

  0
LINE
  5
ED
330
EC
100
AcDbEntity
  8
1
  6
Continuous
 62
     2
100
AcDbLine
 10
3631.154596516438
 20
5327.67056492578
 30
0.0
 11
3605.654596516438
 21
5327.67056492578
 31
0.0
  0
LINE
  5
EE
330
EC
100
AcDbEntity
  8
1
  6
Continuous
 62
     2
100
AcDbLine
 10
3605.654596516438
 20
5291.440704363088
 30
0.0
 11
3605.654596516438
 21
5329.67056492578
 31
0.0
  0
LINE
  5
EF
330
EC
100
AcDbEntity
  8
1
  6
Continuous
 62
     2
100
AcDbLine
 10
3631.154596516438
 20
5291.440704363088
 30
0.0
 11
3631.154596516438
 21
5329.67056492578
 31
0.0
  0
SOLID
  5
F0
330
EC
100
AcDbEntity
  8
1
 62
     2
100
AcDbTrace
 10
3627.654596516438
 20
5327.209781184224
 30
0.0
 11
3627.654596516438
 21
5328.131348667336
 31
0.0
 12
3631.154596516438
 22
5327.67056492578
 32
0.0
 13
3631.154596516438
 23
5327.67056492578
 33
0.0
  0
SOLID
  5
F1
330
EC
100
AcDbEntity
  8
1
 62
     2
100
AcDbTrace
 10
3609.154596516438
 20
5328.131348667336
 30
0.0
 11
3609.154596516438
 21
5327.209781184224
 31
0.0
 12
3605.654596516438
 22
5327.67056492578
 32
0.0
 13
3605.654596516438
 23
5327.67056492578
 33
0.0
  0
MTEXT
  5
F2
330
EC
100
AcDbEntity
  8
1
 62
     2
100
AcDbMText
 10
3614.409370801569
 20
5329.67056492578
 30
0.0
 40
3.5
 41
0.0
 71
     7
 72
     1
  1
25.5
  7
CONVERTER_11
 11
0.9999999999970621
 21
2.424068405545307E-6
 31
0.0
 73
     1
 44
0.60024009603842
  0
ENDBLK
  5
F4
330
EC
100
AcDbEntity
  8
0
100
AcDbBlockEnd
  0
BLOCK
  5
FE
330
F7
100
AcDbEntity
  8
0
100
AcDbBlockBegin
  2
*D4
 70
     1
 71
     0
 10
0.0
 20
0.0
 30
0.0
  3
*D4
  1

  0
LINE
  5
F8
330
F7
100
AcDbEntity
  8
1
  6
Continuous
 62
     2
100
AcDbLine
 10
3631.154596516438
 20
5316.69996900591
 30
0.0
 11
3619.154596516438
 21
5316.69996900591
 31
0.0
  0
LINE
  5
F9
330
F7
100
AcDbEntity
  8
1
  6
Continuous
 62
     2
100
AcDbLine
 10
3631.154596516438
 20
5306.440704363088
 30
0.0
 11
3631.154596516438
 21
5318.69996900591
 31
0.0
  0
LINE
  5
FA
330
F7
100
AcDbEntity
  8
1
  6
Continuous
 62
     2
100
AcDbLine
 10
3619.154596516438
 20
5288.940704363088
 30
0.0
 11
3619.154596516438
 21
5318.69996900591
 31
0.0
  0
SOLID
  5
FB
330
F7
100
AcDbEntity
  8
1
 62
     2
100
AcDbTrace
 10
3627.654596516438
 20
5316.239185264354
 30
0.0
 11
3627.654596516438
 21
5317.160752747466
 31
0.0
 12
3631.154596516438
 22
5316.69996900591
 32
0.0
 13
3631.154596516438
 23
5316.69996900591
 33
0.0
  0
SOLID
  5
FC
330
F7
100
AcDbEntity
  8
1
 62
     2
100
AcDbTrace
 10
3622.654596516438
 20
5317.160752747466
 30
0.0
 11
3622.654596516438
 21
5316.239185264354
 31
0.0
 12
3619.154596516438
 22
5316.69996900591
 32
0.0
 13
3619.154596516438
 23
5316.69996900591
 33
0.0
  0
MTEXT
  5
FD
330
F7
100
AcDbEntity
  8
1
 62
     2
100
AcDbMText
 10
3622.687336518119
 20
5318.69996900591
 30
0.0
 40
3.5
 41
0.0
 71
     7
 72
     1
  1
12
  7
CONVERTER_11
 11
0.9999999999970621
 21
2.424068405545307E-6
 31
0.0
 73
     1
 44
0.60024009603842
  0
ENDBLK
  5
FF
330
F7
100
AcDbEntity
  8
0
100
AcDbBlockEnd
  0
BLOCK
  5
10A
330
102
100
AcDbEntity
  8
0
100
AcDbBlockBegin
  2
*D5
 70
     1
 71
     0
 10
0.0
 20
0.0
 30
0.0
  3
*D5
  1

  0
LINE
  5
103
330
102
100
AcDbEntity
  8
1
  6
Continuous
 62
     2
100
AcDbLine
 10
3604.654596516438
 20
5201.58960022834
 30
0.0
 11
3629.654596516438
 21
5201.58960022834
 31
0.0
  0
LINE
  5
104
330
102
100
AcDbEntity
  8
1
  6
Continuous
 62
     2
100
AcDbLine
 10
3604.654596516438
 20
5212.1537970115
 30
0.0
 11
3604.654596516438
 21
5199.58960022834
 31
0.0
  0
LINE
  5
105
330
102
100
AcDbEntity
  8
1
  6
Continuous
 62
     2
100
AcDbLine
 10
3604.654596516438
 20
5237.440704363088
 30
0.0
 11
3604.654596516438
 21
5217.28547607042
 31
0.0
  0
LINE
  5
106
330
102
100
AcDbEntity
  8
1
  6
Continuous
 62
     2
100
AcDbLine
 10
3629.654596516438
 20
5209.31601474725
 30
0.0
 11
3629.654596516438
 21
5199.58960022834
 31
0.0
  0
SOLID
  5
107
330
102
100
AcDbEntity
  8
1
 62
     2
100
AcDbTrace
 10
3608.154596516438
 20
5202.050383969896
 30
0.0
 11
3608.154596516438
 21
5201.128816486784
 31
0.0
 12
3604.654596516438
 22
5201.58960022834
 32
0.0
 13
3604.654596516438
 23
5201.58960022834
 33
0.0
  0
SOLID
  5
108
330
102
100
AcDbEntity
  8
1
 62
     2
100
AcDbTrace
 10
3626.154596516438
 20
5201.128816486784
 30
0.0
 11
3626.154596516438
 21
5202.050383969896
 31
0.0
 12
3629.654596516438
 22
5201.58960022834
 32
0.0
 13
3629.654596516438
 23
5201.58960022834
 33
0.0
  0
MTEXT
  5
109
330
102
100
AcDbEntity
  8
1
 62
     2
100
AcDbMText
 10
3614.0197173762
 20
5203.58960022834
 30
0.0
 40
3.5
 41
0.0
 71
     7
 72
     1
  1
25
  7
CONVERTER_11
 11
0.9999999999970621
 21
2.424068405545307E-6
 31
0.0
 73
     1
 44
0.60024009603842
  0
ENDBLK
  5
10B
330
102
100
AcDbEntity
  8
0
100
AcDbBlockEnd
  0
BLOCK
  5
115
330
10E
100
AcDbEntity
  8
0
100
AcDbBlockBegin
  2
*D6
 70
     1
 71
     0
 10
0.0
 20
0.0
 30
0.0
  3
*D6
  1

  0
LINE
  5
10F
330
10E
100
AcDbEntity
  8
1
  6
Continuous
 62
     2
100
AcDbLine
 10
3576.78416034785
 20
5262.440704363088
 30
0.0
 11
3576.78416034785
 21
5237.440704363088
 31
0.0
  0
LINE
  5
110
330
10E
100
AcDbEntity
  8
1
  6
Continuous
 62
     2
100
AcDbLine
 10
3612.654596516438
 20
5262.440704363088
 30
0.0
 11
3574.78416034785
 21
5262.440704363088
 31
0.0
  0
LINE
  5
111
330
10E
100
AcDbEntity
  8
1
  6
Continuous
 62
     2
100
AcDbLine
 10
3585.730935843739
 20
5237.440704363088
 30
0.0
 11
3574.78416034785
 21
5237.440704363088
 31
0.0
  0
SOLID
  5
112
330
10E
100
AcDbEntity
  8
1
 62
     2
100
AcDbTrace
 10
3577.244944089406
 20
5258.940704363088
 30
0.0
 11
3576.323376606294
 21
5258.940704363088
 31
0.0
 12
3576.78416034785
 22
5262.440704363088
 32
0.0
 13
3576.78416034785
 23
5262.440704363088
 33
0.0
  0
SOLID
  5
113
330
10E
100
AcDbEntity
  8
1
 62
     2
100
AcDbTrace
 10
3576.323376606294
 20
5240.940704363088
 30
0.0
 11
3577.244944089406
 21
5240.940704363088
 31
0.0
 12
3576.78416034785
 22
5237.440704363088
 32
0.0
 13
3576.78416034785
 23
5237.440704363088
 33
0.0
  0
MTEXT
  5
114
330
10E
100
AcDbEntity
  8
1
 62
     2
100
AcDbMText
 10
3574.78416034785
 20
5247.80319860391
 30
0.0
 40
3.5
 41
0.0
 71
     7
 72
     1
  1
25
  7
CONVERTER_11
 11
0.0
 21
1.0
 31
0.0
 73
     1
 44
0.60024009603842
  0
ENDBLK
  5
116
330
10E
100
AcDbEntity
  8
0
100
AcDbBlockEnd
  0
BLOCK
  5
121
330
119
100
AcDbEntity
  8
0
100
AcDbBlockBegin
  2
*D7
 70
     1
 71
     0
 10
0.0
 20
0.0
 30
0.0
  3
*D7
  1

  0
LINE
  5
11A
330
119
100
AcDbEntity
  8
1
  6
Continuous
 62
     2
100
AcDbLine
 10
3576.78416034785
 20
5237.440704363088
 30
0.0
 11
3576.78416034785
 21
5214.940704363088
 31
0.0
  0
LINE
  5
11B
330
119
100
AcDbEntity
  8
1
  6
Continuous
 62
     2
100
AcDbLine
 10
3603.80351134248
 20
5237.440704363088
 30
0.0
 11
3574.78416034785
 21
5237.440704363088
 31
0.0
  0
LINE
  5
11C
330
119
100
AcDbEntity
  8
1
  6
Continuous
 62
     2
100
AcDbLine
 10
3599.36011437046
 20
5214.940704363088
 30
0.0
 11
3574.78416034785
 21
5214.940704363088
 31
0.0
  0
LINE
  5
11D
330
119
100
AcDbEntity
  8
1
  6
Continuous
 62
     2
100
AcDbLine
 10
3629.654596516438
 20
5214.940704363088
 30
0.0
 11
3609.23234712894
 21
5214.940704363088
 31
0.0
  0
SOLID
  5
11E
330
119
100
AcDbEntity
  8
1
 62
     2
100
AcDbTrace
 10
3577.244944089406
 20
5233.940704363088
 30
0.0
 11
3576.323376606294
 21
5233.940704363088
 31
0.0
 12
3576.78416034785
 22
5237.440704363088
 32
0.0
 13
3576.78416034785
 23
5237.440704363088
 33
0.0
  0
SOLID
  5
11F
330
119
100
AcDbEntity
  8
1
 62
     2
100
AcDbTrace
 10
3576.323376606294
 20
5218.440704363088
 30
0.0
 11
3577.244944089406
 21
5218.440704363088
 31
0.0
 12
3576.78416034785
 22
5214.940704363088
 32
0.0
 13
3576.78416034785
 23
5214.940704363088
 33
0.0
  0
MTEXT
  5
120
330
119
100
AcDbEntity
  8
1
 62
     2
100
AcDbMText
 10
3574.78416034785
 20
5221.16168583286
 30
0.0
 40
3.5
 41
0.0
 71
     7
 72
     1
  1
22.5
  7
CONVERTER_11
 11
0.0
 21
1.0
 31
0.0
 73
     1
 44
0.60024009603842
  0
ENDBLK
  5
122
330
119
100
AcDbEntity
  8
0
100
AcDbBlockEnd
  0
BLOCK
  5
129
330
125
100
AcDbEntity
  8
0
100
AcDbBlockBegin
  2
*D8
 70
     1
 71
     0
 10
0.0
 20
0.0
 30
0.0
  3
*D8
  1

  0
LINE
  5
126
330
125
100
AcDbEntity
  8
1
  6
Continuous
 62
     2
100
AcDbLine
 10
3629.654596516439
 20
5237.440704363088
 30
0.0
 11
3587.317036599141
 21
5200.750262478904
 31
0.0
  0
SOLID
  5
127
330
125
100
AcDbEntity
  8
1
 62
     2
100
AcDbTrace
 10
3610.307967151564
 20
5220.064851754521
 30
0.0
 11
3609.704424285246
 21
5220.761287418775
 31
0.0
 12
3612.65117274891
 22
5222.705251191169
 32
0.0
 13
3612.65117274891
 23
5222.705251191169
 33
0.0
  0
MTEXT
  5
128
330
125
100
AcDbEntity
  8
1
 62
     2
100
AcDbMText
 10
3587.012309811007
 20
5203.132706934624
 30
0.0
 40
3.5
 41
0.0
 71
     7
 72
     1
  1
\C2;R\C2;22.5
  7
CONVERTER_11
 11
0.7557077230012834
 21
0.6549090298630914
 31
0.0
 73
     1
 44
0.60024009603842
  0
ENDBLK
  5
12A
330
125
100
AcDbEntity
  8
0
100
AcDbBlockEnd
  0
ENDSEC
  0
SECTION
  2
ENTITIES
  0
POINT
  5
33
330
1F
100
AcDbEntity
  8
1
 62
     3
 60
     1
100
AcDbPoint
 10
3641.154596516438
 20
5249.440704363088
 30
0.0
  0
POINT
  5
34
330
1F
100
AcDbEntity
  8
1
 62
     3
 60
     1
100
AcDbPoint
 10
3641.154596516438
 20
5225.440704363088
 30
0.0
  0
POINT
  5
35
330
1F
100
AcDbEntity
  8
1
 62
     3
 60
     1
100
AcDbPoint
 10
3641.154596516438
 20
5259.940704363088
 30
0.0
  0
POINT
  5
36
330
1F
100
AcDbEntity
  8
1
 62
     3
 60
     1
100
AcDbPoint
 10
3638.154596516438
 20
5216.440704363088
 30
0.0
  0
POINT
  5
37
330
1F
100
AcDbEntity
  8
1
 62
     3
 60
     1
100
AcDbPoint
 10
3641.154596516438
 20
5216.440704363088
 30
0.0
  0
POINT
  5
38
330
1F
100
AcDbEntity
  8
1
 62
     3
 60
     1
100
AcDbPoint
 10
3707.058085308219
 20
5259.940704363088
 30
0.0
  0
POINT
  5
39
330
1F
100
AcDbEntity
  8
1
 62
     3
 60
     1
100
AcDbPoint
 10
3638.154596516438
 20
5259.940704363088
 30
0.0
  0
POINT
  5
3A
330
1F
100
AcDbEntity
  8
1
 62
     3
 60
     1
100
AcDbPoint
 10
3618.108804101512
 20
5240.710976142534
 30
0.0
  0
POINT
  5
3B
330
1F
100
AcDbEntity
  8
1
 62
     3
 60
     1
100
AcDbPoint
 10
3621.436957787609
 20
5246.18544070688
 30
0.0
  0
POINT
  5
3C
330
1F
100
AcDbEntity
  8
1
 62
     3
 60
     1
100
AcDbPoint
 10
3638.154596516438
 20
5225.440704363088
 30
0.0
  0
POINT
  5
3D
330
1F
100
AcDbEntity
  8
1
 62
     3
 60
     1
100
AcDbPoint
 10
3638.154596516438
 20
5249.440704363088
 30
0.0
  0
POINT
  5
3E
330
1F
100
AcDbEntity
  8
1
 62
     3
 60
     1
100
AcDbPoint
 10
3616.098558214407
 20
5255.39853901969
 30
0.0
  0
POINT
  5
3F
330
1F
100
AcDbEntity
  8
1
 62
     3
 60
     1
100
AcDbPoint
 10
3619.881150127778
 20
5257.150593903317
 30
0.0
  0
POINT
  5
40
330
1F
100
AcDbEntity
  8
1
 62
     3
 60
     1
100
AcDbPoint
 10
3629.654596516438
 20
5262.71779545725
 30
0.0
  0
POINT
  5
41
330
1F
100
AcDbEntity
  8
1
 62
     3
 60
     1
100
AcDbPoint
 10
3629.654596516438
 20
5237.440704363088
 30
0.0
  0
POINT
  5
42
330
1F
100
AcDbEntity
  8
1
 62
     3
 60
     1
100
AcDbPoint
 10
3616.18823623713
 20
5254.837748388666
 30
0.0
  0
POINT
  5
43
330
1F
100
AcDbEntity
  8
1
 62
     3
 60
     1
100
AcDbPoint
 10
3629.654596516438
 20
5209.31601474725
 30
0.0
  0
POINT
  5
44
330
1F
100
AcDbEntity
  8
1
 62
     3
 60
     1
100
AcDbPoint
 10
3604.654596516438
 20
5262.440704363088
 30
0.0
  0
POINT
  5
45
330
1F
100
AcDbEntity
  8
1
 62
     3
 60
     1
100
AcDbPoint
 10
3631.154596516438
 20
5306.440704363088
 30
0.0
  0
POINT
  5
46
330
1F
100
AcDbEntity
  8
1
 62
     3
 60
     1
100
AcDbPoint
 10
3631.154596516438
 20
5291.440704363088
 30
0.0
  0
LINE
  5
47
330
1F
100
AcDbEntity
  8
1
  6
Continuous
 62
     7
100
AcDbLine
 10
3648.093685431027
 20
5249.440704363088
 30
0.0
 11
3641.154596516438
 21
5249.440704363088
 31
0.0
  0
LINE
  5
48
330
1F
100
AcDbEntity
  8
1
  6
Continuous
 62
     7
100
AcDbLine
 10
3641.154596516438
 20
5256.940704363088
 30
0.0
 11
3641.154596516438
 21
5249.440704363088
 31
0.0
  0
LINE
  5
49
330
1F
100
AcDbEntity
  8
VOLLLINIE_BREIT
  6
Continuous
 62
     7
100
AcDbLine
 10
3660.654596516438
 20
5225.440704363088
 30
0.0
 11
3641.154596516438
 21
5225.440704363088
 31
0.0
  0
LINE
  5
4A
330
1F
100
AcDbEntity
  8
1
  6
Continuous
 62
     7
100
AcDbLine
 10
3641.154596516438
 20
5225.440704363088
 30
0.0
 11
3641.154596516438
 21
5218.101624757275
 31
0.0
  0
LINE
  5
4B
330
1F
100
AcDbEntity
  8
1
  6
Continuous
 62
     7
100
AcDbLine
 10
3707.058085308219
 20
5259.940704363088
 30
0.0
 11
3641.154596516438
 21
5259.940704363088
 31
0.0
  0
LINE
  5
4C
330
1F
100
AcDbEntity
  8
1
  6
DASHED
 62
     2
100
AcDbLine
 10
3641.154596516438
 20
5256.940704363088
 30
0.0
 11
3653.154596516438
 21
5256.940704363088
 31
0.0
  0
LINE
  5
4D
330
1F
100
AcDbEntity
  8
1
  6
DASHED
 62
     2
100
AcDbLine
 10
3641.154596516438
 20
5217.940704363088
 30
0.0
 11
3653.154596516438
 21
5217.940704363089
 31
0.0
  0
LINE
  5
4E
330
1F
100
AcDbEntity
  8
1
  6
Continuous
 62
     7
100
AcDbLine
 10
3641.154596516438
 20
5216.440704363088
 30
0.0
 11
3641.154596516438
 21
5214.940704363088
 31
0.0
  0
LINE
  5
4F
330
1F
100
AcDbEntity
  8
1
  6
Continuous
 62
     7
100
AcDbLine
 10
3641.154596516438
 20
5218.101624757275
 30
0.0
 11
3641.154596516438
 21
5217.940704363088
 31
0.0
  0
LINE
  5
50
330
1F
100
AcDbEntity
  8
1
  6
Continuous
 62
     7
100
AcDbLine
 10
3641.154596516438
 20
5216.440704363088
 30
0.0
 11
3638.154596516438
 21
5216.440704363088
 31
0.0
  0
LINE
  5
51
330
1F
100
AcDbEntity
  8
1
  6
Continuous
 62
     7
100
AcDbLine
 10
3641.154596516438
 20
5217.940704363088
 30
0.0
 11
3641.154596516438
 21
5216.440704363088
 31
0.0
  0
LINE
  5
52
330
1F
100
AcDbEntity
  8
1
  6
Continuous
 62
     7
100
AcDbLine
 10
3638.154596516438
 20
5216.440704363088
 30
0.0
 11
3638.154596516438
 21
5214.940704363088
 31
0.0
  0
LINE
  5
53
330
1F
100
AcDbEntity
  8
1
  6
Continuous
 62
     7
100
AcDbLine
 10
3641.154596516438
 20
5258.440704363088
 30
0.0
 11
3641.154596516438
 21
5256.940704363088
 31
0.0
  0
LINE
  5
54
330
1F
100
AcDbEntity
  8
1
  6
Continuous
 62
     7
100
AcDbLine
 10
3638.154596516438
 20
5258.440704363089
 30
0.0
 11
3641.154596516438
 21
5258.440704363088
 31
0.0
  0
LINE
  5
55
330
1F
100
AcDbEntity
  8
1
  6
Continuous
 62
     7
100
AcDbLine
 10
3641.154596516438
 20
5259.940704363088
 30
0.0
 11
3641.154596516438
 21
5258.440704363088
 31
0.0
  0
LINE
  5
56
330
1F
100
AcDbEntity
  8
1
  6
Continuous
 62
     7
100
AcDbLine
 10
3638.154596516438
 20
5259.940704363088
 30
0.0
 11
3638.154596516438
 21
5258.440704363089
 31
0.0
  0
LINE
  5
57
330
1F
100
AcDbEntity
  8
1
  6
Continuous
 62
     7
100
AcDbLine
 10
3641.154596516438
 20
5256.940704363088
 30
0.0
 11
3641.154596516438
 21
5256.779783968902
 31
0.0
  0
LINE
  5
58
330
1F
100
AcDbEntity
  8
1
  6
DASHED
 62
     2
100
AcDbLine
 10
3653.154596516438
 20
5225.440704363088
 30
0.0
 11
3653.154596516438
 21
5217.940704363089
 31
0.0
  0
LINE
  5
59
330
1F
100
AcDbEntity
  8
1
  6
Continuous
 62
     7
100
AcDbLine
 10
3653.154596516438
 20
5249.440704363088
 30
0.0
 11
3648.093685431027
 21
5249.440704363088
 31
0.0
  0
LINE
  5
5A
330
1F
100
AcDbEntity
  8
1
  6
DASHED
 62
     2
100
AcDbLine
 10
3653.154596516438
 20
5256.940704363088
 30
0.0
 11
3653.154596516438
 21
5249.440704363088
 31
0.0
  0
LINE
  5
5B
330
1F
100
AcDbEntity
  8
VOLLLINIE_BREIT
  6
Continuous
 62
     7
100
AcDbLine
 10
3707.058085308219
 20
5214.94070436309
 30
0.0
 11
3641.154596516438
 21
5214.940704363088
 31
0.0
  0
LINE
  5
5C
330
1F
100
AcDbEntity
  8
1
  6
Continuous
 62
     7
100
AcDbLine
 10
3638.154596516438
 20
5259.940704363088
 30
0.0
 11
3633.654596515427
 21
5259.940704363088
 31
0.0
  0
LINE
  5
5D
330
1F
100
AcDbEntity
  8
1
  6
DASHED
 62
     2
100
AcDbLine
 10
3616.18823623713
 20
5254.837748388666
 30
0.0
 11
3616.110745554581
 21
5255.407732529232
 31
0.0
  0
LINE
  5
5E
330
1F
100
AcDbEntity
  8
1
  6
DASHED
 62
     2
100
AcDbLine
 10
3619.881150127778
 20
5257.150593903317
 30
0.0
 11
3621.399330139919
 21
5246.096571410426
 31
0.0
  0
LINE
  5
5F
330
1F
100
AcDbEntity
  8
1
  6
DASHED
 62
     2
100
AcDbLine
 10
3616.18823623713
 20
5254.837748388666
 30
0.0
 11
3618.108804101512
 21
5240.710976142534
 31
0.0
  0
LINE
  5
60
330
1F
100
AcDbEntity
  8
1
  6
DOT_CENTER
 62
     2
100
AcDbLine
 10
3707.058085308219
 20
5264.64565524897
 30
0.0
 11
3707.058085308219
 21
5259.940704363088
 31
0.0
  0
LINE
  5
61
330
1F
100
AcDbEntity
  8
VOLLLINIE_BREIT
  6
Continuous
 62
     7
100
AcDbLine
 10
3641.154596516438
 20
5225.440704363088
 30
0.0
 11
3638.154596516438
 21
5225.440704363088
 31
0.0
  0
LINE
  5
62
330
1F
100
AcDbEntity
  8
VOLLLINIE_BREIT
  6
Continuous
 62
     7
100
AcDbLine
 10
3640.654596516437
 20
5249.440704363088
 30
0.0
 11
3638.154596516438
 21
5249.440704363088
 31
0.0
  0
LINE
  5
63
330
1F
100
AcDbEntity
  8
1
  6
Continuous
 62
     7
100
AcDbLine
 10
3640.654596516438
 20
5245.440704363088
 30
0.0
 11
3650.14849804836
 21
5245.440704363088
 31
0.0
  0
LINE
  5
64
330
1F
100
AcDbEntity
  8
1
  6
Continuous
 62
     7
100
AcDbLine
 10
3641.154596516438
 20
5249.440704363088
 30
0.0
 11
3640.654596516437
 21
5249.440704363088
 31
0.0
  0
LINE
  5
65
330
1F
100
AcDbEntity
  8
1
  6
Continuous
 62
     7
100
AcDbLine
 10
3633.654596515427
 20
5259.940704363088
 30
0.0
 11
3629.654596516438
 21
5259.940704363088
 31
0.0
  0
LINE
  5
66
330
1F
100
AcDbEntity
  8
1
  6
DOT_CENTER
 62
     2
100
AcDbLine
 10
3629.654596516438
 20
5209.31601474725
 30
0.0
 11
3629.654596516438
 21
5259.940704363088
 31
0.0
  0
LINE
  5
67
330
1F
100
AcDbEntity
  8
1
  6
DOT_CENTER
 62
     2
100
AcDbLine
 10
3629.654596516438
 20
5259.940704363088
 30
0.0
 11
3629.654596516438
 21
5262.71779545725
 31
0.0
  0
LINE
  5
68
330
1F
100
AcDbEntity
  8
1
  6
DASHED
 62
     2
100
AcDbLine
 10
3621.564504616537
 20
5244.893919310423
 30
0.0
 11
3624.500053561732
 21
5242.176808978498
 31
0.0
  0
LINE
  5
69
330
1F
100
AcDbEntity
  8
1
  6
DOT_CENTER
 62
     2
100
AcDbLine
 10
3707.058085308219
 20
5214.94070436309
 30
0.0
 11
3707.058085308219
 21
5211.235753477208
 31
0.0
  0
LINE
  5
6A
330
1F
100
AcDbEntity
  8
1
  6
DOT_CENTER
 62
     2
100
AcDbLine
 10
3707.058085308219
 20
5264.64565524897
 30
0.0
 11
3707.058085308219
 21
5260.940704363088
 31
0.0
  0
LINE
  5
6B
330
1F
100
AcDbEntity
  8
VOLLLINIE_BREIT
  6
Continuous
 62
     7
100
AcDbLine
 10
3638.154596516438
 20
5249.440704363088
 30
0.0
 11
3629.654596516438
 21
5249.440704363088
 31
0.0
  0
LINE
  5
6C
330
1F
100
AcDbEntity
  8
VOLLLINIE_BREIT
  6
Continuous
 62
     7
100
AcDbLine
 10
3638.154596516438
 20
5225.440704363088
 30
0.0
 11
3629.654596516438
 21
5225.440704363088
 31
0.0
  0
LINE
  5
6D
330
1F
100
AcDbEntity
  8
VOLLLINIE_BREIT
  6
Continuous
 62
     7
100
AcDbLine
 10
3638.154596516438
 20
5214.940704363088
 30
0.0
 11
3629.654596516438
 21
5214.940704363088
 31
0.0
  0
LINE
  5
6E
330
1F
100
AcDbEntity
  8
VOLLLINIE_BREIT
  6
DOT_CENTER
 62
     2
100
AcDbLine
 10
3707.058085308219
 20
5214.94070436309
 30
0.0
 11
3707.058085308219
 21
5259.940704363088
 31
0.0
  0
LINE
  5
6F
330
1F
100
AcDbEntity
  8
1
  6
Continuous
 62
     7
100
AcDbLine
 10
3634.640966643851
 20
5242.353556177712
 30
0.0
 11
3637.490321002372
 21
5245.160900071783
 31
0.0
  0
LINE
  5
70
330
1F
100
AcDbEntity
  8
1
  6
Continuous
 62
     7
100
AcDbLine
 10
3629.038020234153
 20
5244.41349675123
 30
0.0
 11
3637.490321002372
 21
5245.160900071783
 31
0.0
  0
LINE
  5
71
330
1F
100
AcDbEntity
  8
1
  6
Continuous
 62
     7
100
AcDbLine
 10
3628.685690929991
 20
5248.397949544454
 30
0.0
 11
3640.302267212274
 21
5249.425157156312
 31
0.0
  0
LINE
  5
72
330
1F
100
AcDbEntity
  8
1
  6
Continuous
 62
     7
100
AcDbLine
 10
3637.490321002372
 20
5245.160900071783
 30
0.0
 11
3640.654596516438
 21
5245.440704363088
 31
0.0
  0
LINE
  5
73
330
1F
100
AcDbEntity
  8
1
  6
Continuous
 62
     7
100
AcDbLine
 10
3664.654596516438
 20
5225.440704363088
 30
0.0
 11
3664.654596516438
 21
5244.440704363088
 31
0.0
  0
LINE
  5
74
330
1F
100
AcDbEntity
  8
1
  6
Continuous
 62
     7
100
AcDbLine
 10
3660.654596516438
 20
5244.940704363088
 30
0.0
 11
3660.654596516438
 21
5244.440704363088
 31
0.0
  0
LINE
  5
75
330
1F
100
AcDbEntity
  8
1
  6
DASHED
 62
     2
100
AcDbLine
 10
3660.654596516438
 20
5244.440704363088
 30
0.0
 11
3664.654596516438
 21
5244.440704363088
 31
0.0
  0
LINE
  5
76
330
1F
100
AcDbEntity
  8
1
  6
Continuous
 62
     7
100
AcDbLine
 10
3664.654596516438
 20
5244.940704363088
 30
0.0
 11
3664.654596516438
 21
5249.440704363088
 31
0.0
  0
LINE
  5
77
330
1F
100
AcDbEntity
  8
1
  6
Continuous
 62
     7
100
AcDbLine
 10
3664.654596516438
 20
5249.440704363088
 30
0.0
 11
3660.654596516438
 21
5249.440704363088
 31
0.0
  0
LINE
  5
78
330
1F
100
AcDbEntity
  8
1
  6
Continuous
 62
     7
100
AcDbLine
 10
3660.654596516438
 20
5249.440704363088
 30
0.0
 11
3660.654596516438
 21
5244.940704363088
 31
0.0
  0
LINE
  5
79
330
1F
100
AcDbEntity
  8
1
  6
Continuous
 62
     7
100
AcDbLine
 10
3664.654596516438
 20
5244.440704363088
 30
0.0
 11
3664.654596516438
 21
5244.940704363088
 31
0.0
  0
LINE
  5
7A
330
1F
100
AcDbEntity
  8
1
  6
Continuous
 62
     7
100
AcDbLine
 10
3660.654596516438
 20
5225.440704363088
 30
0.0
 11
3664.654596516438
 21
5225.440704363088
 31
0.0
  0
LINE
  5
7B
330
1F
100
AcDbEntity
  8
1
  6
Continuous
 62
     7
100
AcDbLine
 10
3660.154596516438
 20
5249.440704363088
 30
0.0
 11
3653.154596516438
 21
5249.440704363088
 31
0.0
  0
LINE
  5
7C
330
1F
100
AcDbEntity
  8
1
  6
Continuous
 62
     7
100
AcDbLine
 10
3650.14849804836
 20
5245.440704363088
 30
0.0
 11
3660.154596516438
 21
5245.440704363088
 31
0.0
  0
LINE
  5
7D
330
1F
100
AcDbEntity
  8
1
  6
DOT_CENTER
 62
     2
100
AcDbLine
 10
3659.454596516438
 20
5235.440704363088
 30
0.0
 11
3681.515194939529
 21
5235.440704363089
 31
0.0
  0
LINE
  5
7E
330
1F
100
AcDbEntity
  8
1
  6
DASHED
 62
     2
100
AcDbLine
 10
3663.204596516438
 20
5238.440704363088
 30
0.0
 11
3664.654596516438
 21
5238.440704363088
 31
0.0
  0
LINE
  5
7F
330
1F
100
AcDbEntity
  8
1
  6
DASHED
 62
     2
100
AcDbLine
 10
3660.954596516438
 20
5240.690704363088
 30
0.0
 11
3663.204596516438
 21
5238.440704363088
 31
0.0
  0
LINE
  5
80
330
1F
100
AcDbEntity
  8
1
  6
DASHED
 62
     2
100
AcDbLine
 10
3663.204596516438
 20
5232.440704363088
 30
0.0
 11
3664.654596516438
 21
5232.440704363088
 31
0.0
  0
LINE
  5
81
330
1F
100
AcDbEntity
  8
1
  6
DASHED
 62
     2
100
AcDbLine
 10
3660.954596516438
 20
5230.190704363088
 30
0.0
 11
3663.204596516438
 21
5232.440704363088
 31
0.0
  0
LINE
  5
82
330
1F
100
AcDbEntity
  8
1
  6
DASHED
 62
     2
100
AcDbLine
 10
3663.204596516438
 20
5232.440704363088
 30
0.0
 11
3663.204596516438
 21
5238.440704363088
 31
0.0
  0
LINE
  5
83
330
1F
100
AcDbEntity
  8
1
  6
DASHED
 62
     2
100
AcDbLine
 10
3660.954596516438
 20
5230.190704363088
 30
0.0
 11
3660.954596516438
 21
5240.690704363088
 31
0.0
  0
LINE
  5
84
330
1F
100
AcDbEntity
  8
1
  6
DASHED
 62
     2
100
AcDbLine
 10
3660.654596516438
 20
5240.690704363088
 30
0.0
 11
3660.954596516438
 21
5240.690704363088
 31
0.0
  0
LINE
  5
85
330
1F
100
AcDbEntity
  8
1
  6
Continuous
 62
     7
100
AcDbLine
 10
3660.654596516438
 20
5244.440704363088
 30
0.0
 11
3660.654596516438
 21
5225.440704363088
 31
0.0
  0
LINE
  5
86
330
1F
100
AcDbEntity
  8
1
  6
DASHED
 62
     2
100
AcDbLine
 10
3660.654596516438
 20
5230.190704363088
 30
0.0
 11
3660.954596516438
 21
5230.190704363088
 31
0.0
  0
LINE
  5
87
330
1F
100
AcDbEntity
  8
1
  6
DASHED
 62
     2
100
AcDbLine
 10
3660.654596516438
 20
5234.190704363088
 30
0.0
 11
3660.954596516438
 21
5234.190704363088
 31
0.0
  0
LINE
  5
88
330
1F
100
AcDbEntity
  8
1
  6
DASHED
 62
     2
100
AcDbLine
 10
3660.654596516438
 20
5244.690704363088
 30
0.0
 11
3660.954596516438
 21
5244.690704363088
 31
0.0
  0
LINE
  5
89
330
1F
100
AcDbEntity
  8
1
  6
DASHED
 62
     2
100
AcDbLine
 10
3660.954596516438
 20
5240.690704363088
 30
0.0
 11
3660.954596516438
 21
5244.690704363088
 31
0.0
  0
LINE
  5
8A
330
1F
100
AcDbEntity
  8
1
  6
DASHED
 62
     2
100
AcDbLine
 10
3663.204596516438
 20
5238.440704363088
 30
0.0
 11
3663.204596516438
 21
5242.440704363088
 31
0.0
  0
LINE
  5
8B
330
1F
100
AcDbEntity
  8
1
  6
DASHED
 62
     2
100
AcDbLine
 10
3660.954596516438
 20
5234.190704363088
 30
0.0
 11
3663.204596516438
 21
5236.440704363088
 31
0.0
  0
LINE
  5
8C
330
1F
100
AcDbEntity
  8
1
  6
DASHED
 62
     2
100
AcDbLine
 10
3663.204596516438
 20
5236.440704363088
 30
0.0
 11
3664.654596516438
 21
5236.440704363088
 31
0.0
  0
LINE
  5
8D
330
1F
100
AcDbEntity
  8
1
  6
DASHED
 62
     2
100
AcDbLine
 10
3660.954596516438
 20
5244.690704363088
 30
0.0
 11
3663.204596516438
 21
5242.440704363088
 31
0.0
  0
LINE
  5
8E
330
1F
100
AcDbEntity
  8
1
  6
DASHED
 62
     2
100
AcDbLine
 10
3663.204596516438
 20
5242.440704363088
 30
0.0
 11
3664.654596516438
 21
5242.440704363088
 31
0.0
  0
LINE
  5
8F
330
1F
100
AcDbEntity
  8
1
  6
DOT_CENTER
 62
     2
100
AcDbLine
 10
3659.454596516438
 20
5239.440704363088
 30
0.0
 11
3681.515194939529
 21
5239.440704363089
 31
0.0
  0
LINE
  5
90
330
1F
100
AcDbEntity
  8
1
  6
DOT_CENTER
 62
     2
100
AcDbLine
 10
3603.80351134248
 20
5237.440704363088
 30
0.0
 11
3656.930311169519
 21
5237.440704363088
 31
0.0
  0
LINE
  5
91
330
1F
100
AcDbEntity
  8
1
  6
DASHED
 62
     2
100
AcDbLine
 10
3621.564504616537
 20
5244.893919310423
 30
0.0
 11
3622.791662239464
 21
5235.958860320286
 31
0.0
  0
LINE
  5
92
330
1F
100
AcDbEntity
  8
1
  6
Continuous
 62
     7
100
AcDbLine
 10
3621.399330139919
 20
5246.096571410426
 30
0.0
 11
3621.564504616537
 21
5244.893919310423
 31
0.0
  0
LINE
  5
93
330
1F
100
AcDbEntity
  8
1
  6
Continuous
 62
     7
100
AcDbLine
 10
3618.108804101512
 20
5240.710976142534
 30
0.0
 11
3618.754865408158
 21
5235.958860320286
 31
0.0
  0
LINE
  5
94
330
1F
100
AcDbEntity
  8
1
  6
Continuous
 62
     7
100
AcDbLine
 10
3619.809477126134
 20
5257.672452290311
 30
0.0
 11
3619.881150127778
 21
5257.150593903317
 31
0.0
  0
LINE
  5
95
330
1F
100
AcDbEntity
  8
1
  6
Continuous
 62
     7
100
AcDbLine
 10
3615.154596516438
 20
5288.940704363088
 30
0.0
 11
3615.154596516438
 21
5273.440704363088
 31
0.0
  0
LINE
  5
96
330
1F
100
AcDbEntity
  8
1
  6
Continuous
 62
     7
100
AcDbLine
 10
3619.154596516438
 20
5288.940704363088
 30
0.0
 11
3619.154596516438
 21
5272.940704363088
 31
0.0
  0
LINE
  5
97
330
1F
100
AcDbEntity
  8
1
  6
Continuous
 62
     7
100
AcDbLine
 10
3629.654596516438
 20
5291.440704363088
 30
0.0
 11
3629.654596516438
 21
5271.190704363088
 31
0.0
  0
LINE
  5
98
330
1F
100
AcDbEntity
  8
1
  6
Continuous
 62
     7
100
AcDbLine
 10
3626.654596516438
 20
5271.190704363088
 30
0.0
 11
3626.654596516438
 21
5271.440704363088
 31
0.0
  0
LINE
  5
99
330
1F
100
AcDbEntity
  8
1
  6
Continuous
 62
     7
100
AcDbLine
 10
3631.154596516438
 20
5262.440704363088
 30
0.0
 11
3631.154596516438
 21
5291.440704363088
 31
0.0
  0
LINE
  5
9A
330
1F
100
AcDbEntity
  8
1
  6
Continuous
 62
     7
100
AcDbLine
 10
3631.154596516438
 20
5306.440704363088
 30
0.0
 11
3631.154596516438
 21
5291.440704363088
 31
0.0
  0
LINE
  5
9B
330
1F
100
AcDbEntity
  8
1
  6
Continuous
 62
     7
100
AcDbLine
 10
3631.154596516438
 20
5262.440704363088
 30
0.0
 11
3629.654596516438
 21
5262.440704363088
 31
0.0
  0
LINE
  5
9C
330
1F
100
AcDbEntity
  8
1
  6
Continuous
 62
     7
100
AcDbLine
 10
3631.154596516438
 20
5291.440704363088
 30
0.0
 11
3629.654596516438
 21
5291.440704363088
 31
0.0
  0
LINE
  5
9D
330
1F
100
AcDbEntity
  8
1
  6
Continuous
 62
     7
100
AcDbLine
 10
3604.654596516438
 20
5262.440704363088
 30
0.0
 11
3605.654596516438
 21
5262.440704363088
 31
0.0
  0
LINE
  5
9E
330
1F
100
AcDbEntity
  8
VOLLLINIE_BREIT
  6
Continuous
 62
     7
100
AcDbLine
 10
3631.154596516438
 20
5306.440704363088
 30
0.0
 11
3585.730935843739
 21
5306.440704363088
 31
0.0
  0
LINE
  5
9F
330
1F
100
AcDbEntity
  8
VOLLLINIE_BREIT
  6
Continuous
 62
     7
100
AcDbLine
 10
3585.730935843739
 20
5237.440704363088
 30
0.0
 11
3604.654596516438
 21
5237.440704363088
 31
0.0
  0
LINE
  5
A0
330
1F
100
AcDbEntity
  8
VOLLLINIE_BREIT
  6
Continuous
 62
     7
100
AcDbLine
 10
3585.730935843739
 20
5306.440704363088
 30
0.0
 11
3585.730935843739
 21
5237.440704363088
 31
0.0
  0
LINE
  5
A1
330
1F
100
AcDbEntity
  8
1
  6
Continuous
 62
     7
100
AcDbLine
 10
3619.154596516438
 20
5265.440704363089
 30
0.0
 11
3619.154596516437
 21
5262.440704363088
 31
0.0
  0
LINE
  5
A2
330
1F
100
AcDbEntity
  8
1
  6
Continuous
 62
     7
100
AcDbLine
 10
3615.154596516438
 20
5265.440704363088
 30
0.0
 11
3615.154596516438
 21
5262.440704363088
 31
0.0
  0
LINE
  5
A3
330
1F
100
AcDbEntity
  8
1
  6
Continuous
 62
     7
100
AcDbLine
 10
3619.154596516438
 20
5267.440704363088
 30
0.0
 11
3619.154596516438
 21
5265.440704363089
 31
0.0
  0
LINE
  5
A4
330
1F
100
AcDbEntity
  8
1
  6
Continuous
 62
     7
100
AcDbLine
 10
3615.154596516438
 20
5273.440704363088
 30
0.0
 11
3615.154596516438
 21
5265.440704363088
 31
0.0
  0
LINE
  5
A5
330
1F
100
AcDbEntity
  8
1
  6
Continuous
 62
     7
100
AcDbLine
 10
3615.154596516438
 20
5262.440704363088
 30
0.0
 11
3612.654596516438
 21
5262.440704363088
 31
0.0
  0
LINE
  5
A6
330
1F
100
AcDbEntity
  8
1
  6
Continuous
 62
     7
100
AcDbLine
 10
3619.154596516438
 20
5265.440704363089
 30
0.0
 11
3622.654596516438
 21
5265.440704363088
 31
0.0
  0
LINE
  5
A7
330
1F
100
AcDbEntity
  8
1
  6
Continuous
 62
     7
100
AcDbLine
 10
3619.154596516438
 20
5268.440704363088
 30
0.0
 11
3619.154596516438
 21
5267.440704363088
 31
0.0
  0
LINE
  5
A8
330
1F
100
AcDbEntity
  8
1
  6
Continuous
 62
     7
100
AcDbLine
 10
3605.654596516438
 20
5291.440704363088
 30
0.0
 11
3626.654596516438
 21
5291.440704363088
 31
0.0
  0
LINE
  5
A9
330
1F
100
AcDbEntity
  8
1
  6
Continuous
 62
     7
100
AcDbLine
 10
3619.154596516438
 20
5268.440704363088
 30
0.0
 11
3619.154596516438
 21
5272.940704363088
 31
0.0
  0
LINE
  5
AA
330
1F
100
AcDbEntity
  8
1
  6
Continuous
 62
     7
100
AcDbLine
 10
3629.654596516438
 20
5262.440704363088
 30
0.0
 11
3622.654596516438
 21
5262.440704363088
 31
0.0
  0
LINE
  5
AB
330
1F
100
AcDbEntity
  8
1
  6
Continuous
 62
     7
100
AcDbLine
 10
3605.654596516438
 20
5265.440704363088
 30
0.0
 11
3605.654596516438
 21
5291.440704363088
 31
0.0
  0
LINE
  5
AC
330
1F
100
AcDbEntity
  8
1
  6
Continuous
 62
     7
100
AcDbLine
 10
3629.654596516438
 20
5271.190704363088
 30
0.0
 11
3629.654596516438
 21
5262.440704363088
 31
0.0
  0
LINE
  5
AD
330
1F
100
AcDbEntity
  8
1
  6
Continuous
 62
     7
100
AcDbLine
 10
3619.154596516438
 20
5272.940704363088
 30
0.0
 11
3619.154596516438
 21
5273.440704363088
 31
0.0
  0
LINE
  5
AE
330
1F
100
AcDbEntity
  8
1
  6
Continuous
 62
     7
100
AcDbLine
 10
3626.654596516438
 20
5265.440704363088
 30
0.0
 11
3626.654596516438
 21
5281.440704363088
 31
0.0
  0
LINE
  5
AF
330
1F
100
AcDbEntity
  8
1
  6
Continuous
 62
     7
100
AcDbLine
 10
3622.654596516438
 20
5262.440704363088
 30
0.0
 11
3622.654596516438
 21
5265.440704363088
 31
0.0
  0
LINE
  5
B0
330
1F
100
AcDbEntity
  8
1
  6
Continuous
 62
     7
100
AcDbLine
 10
3612.654596516438
 20
5262.440704363088
 30
0.0
 11
3612.654596516438
 21
5265.440704363088
 31
0.0
  0
LINE
  5
B1
330
1F
100
AcDbEntity
  8
1
  6
Continuous
 62
     7
100
AcDbLine
 10
3605.654596516438
 20
5265.440704363088
 30
0.0
 11
3612.654596516438
 21
5265.440704363088
 31
0.0
  0
LINE
  5
B2
330
1F
100
AcDbEntity
  8
1
  6
Continuous
 62
     7
100
AcDbLine
 10
3605.654596516438
 20
5262.440704363088
 30
0.0
 11
3605.654596516438
 21
5265.440704363088
 31
0.0
  0
LINE
  5
B3
330
1F
100
AcDbEntity
  8
1
  6
Continuous
 62
     7
100
AcDbLine
 10
3626.654596516438
 20
5281.440704363088
 30
0.0
 11
3626.654596516438
 21
5291.440704363088
 31
0.0
  0
LINE
  5
B4
330
1F
100
AcDbEntity
  8
1
  6
Continuous
 62
     7
100
AcDbLine
 10
3622.654596516438
 20
5262.440704363088
 30
0.0
 11
3619.154596516437
 21
5262.440704363088
 31
0.0
  0
LINE
  5
B5
330
1F
100
AcDbEntity
  8
1
  6
Continuous
 62
     7
100
AcDbLine
 10
3612.654596516438
 20
5265.440704363088
 30
0.0
 11
3615.154596516438
 21
5265.440704363088
 31
0.0
  0
LINE
  5
B6
330
1F
100
AcDbEntity
  8
1
  6
Continuous
 62
     7
100
AcDbLine
 10
3622.654596516438
 20
5265.440704363088
 30
0.0
 11
3626.654596516438
 21
5265.440704363088
 31
0.0
  0
LINE
  5
B7
330
1F
100
AcDbEntity
  8
1
  6
Continuous
 62
     7
100
AcDbLine
 10
3629.654596516438
 20
5291.440704363088
 30
0.0
 11
3626.654596516438
 21
5291.440704363088
 31
0.0
  0
LINE
  5
B8
330
1F
100
AcDbEntity
  8
1
  6
Continuous
 62
     7
100
AcDbLine
 10
3604.654596516438
 20
5262.440704363088
 30
0.0
 11
3612.654596516438
 21
5262.440704363088
 31
0.0
  0
LINE
  5
B9
330
1F
100
AcDbEntity
  8
1
  6
Continuous
 62
     7
100
AcDbLine
 10
3604.654596516438
 20
5262.440704363088
 30
0.0
 11
3604.654596516438
 21
5237.440704363088
 31
0.0
  0
LINE
  5
BA
330
1F
100
AcDbEntity
  8
1
  6
Continuous
 62
     7
100
AcDbLine
 10
3605.654596516438
 20
5262.440704363088
 30
0.0
 11
3604.654596516438
 21
5262.440704363088
 31
0.0
  0
LINE
  5
BB
330
1F
100
AcDbEntity
  8
1
  6
Continuous
 62
     7
100
AcDbLine
 10
3615.154596516438
 20
5288.940704363088
 30
0.0
 11
3619.154596516438
 21
5288.940704363088
 31
0.0
  0
LINE
  5
BC
330
1F
100
AcDbEntity
  8
1
  6
Continuous
 62
     7
100
AcDbLine
 10
3615.154596516438
 20
5262.440704363088
 30
0.0
 11
3616.110745554581
 21
5255.407732529232
 31
0.0
  0
LINE
  5
BD
330
1F
100
AcDbEntity
  8
1
  6
Continuous
 62
     7
100
AcDbLine
 10
3619.154596516437
 20
5262.440704363088
 30
0.0
 11
3619.809477126134
 21
5257.672452290311
 31
0.0
  0
ARC
  5
BE
330
1F
100
AcDbEntity
  8
1
  6
Continuous
 62
     7
100
AcDbCircle
 10
3629.654596516435
 20
5237.440704363091
 30
0.0
 40
11.99999999999558
100
AcDbArc
 50
133.2201340646217
 51
164.185565574877
  0
ARC
  5
BF
330
1F
100
AcDbEntity
  8
1
  6
Continuous
 62
     7
100
AcDbCircle
 10
3629.654596516503
 20
5237.44070436299
 30
0.0
 40
22.50000000011767
100
AcDbArc
 50
115.9483577859732
 51
127.0484821256049
  0
ARC
  5
C0
330
1F
100
AcDbEntity
  8
1
  6
DASHED
 62
     2
100
AcDbCircle
 10
3629.65459651644
 20
5237.440704363089
 30
0.0
 40
21.99999999858834
100
AcDbArc
 50
72.66393509491218
 51
76.41362942421185
  0
ARC
  5
C1
330
1F
100
AcDbEntity
  8
1
  6
DASHED
 62
     2
100
AcDbCircle
 10
3629.65459651644
 20
5237.440704363089
 30
0.0
 40
22.00000000000098
100
AcDbArc
 50
76.41362942421185
 51
116.375208117931
  0
ARC
  5
C2
330
1F
100
AcDbEntity
  8
1
  6
Continuous
 62
     7
100
AcDbCircle
 10
3629.654596516438
 20
5237.440704363088
 30
0.0
 40
22.49999999999969
100
AcDbArc
 50
127.0484821256235
 51
130.1201816236967
  0
ARC
  5
C3
330
1F
100
AcDbEntity
  8
1
  6
Continuous
 62
     7
100
AcDbCircle
 10
3629.654596516438
 20
5237.440704363088
 30
0.0
 40
22.50000000000076
100
AcDbArc
 50
130.1201816236967
 51
-90.0
  0
ARC
  5
C4
330
1F
100
AcDbEntity
  8
VOLLLINIE_BREIT
  6
Continuous
 62
     7
100
AcDbCircle
 10
3629.654596516438
 20
5237.440704363088
 30
0.0
 40
12.00000000000049
100
AcDbArc
 50
167.1459837639222
 51
-90.0
  0
ARC
  5
C5
330
1F
100
AcDbEntity
  8
1
  6
Continuous
 62
     7
100
AcDbCircle
 10
3629.654596516438
 20
5237.440704363088
 30
0.0
 40
11.0000000000011
100
AcDbArc
 50
137.3463450320996
 51
-90.0
  0
ARC
  5
C6
330
1F
100
AcDbEntity
  8
1
  6
Continuous
 62
     7
100
AcDbCircle
 10
3629.654596516438
 20
5237.440704363088
 30
0.0
 40
7.000000000001231
100
AcDbArc
 50
137.4225372875931
 51
-90.0
  0
ARC
  5
C7
330
1F
100
AcDbEntity
  8
VOLLLINIE_BREIT
  6
Continuous
 62
     7
100
AcDbCircle
 10
3629.654596516438
 20
5237.440704363088
 30
0.0
 40
12.0
100
AcDbArc
 50
90.0
 51
133.2201340646223
  0
ARC
  5
C8
330
1F
100
AcDbEntity
  8
1
  6
Continuous
 62
     7
100
AcDbCircle
 10
3629.654596516438
 20
5237.440704363088
 30
0.0
 40
7.000000000000473
100
AcDbArc
 50
44.5744906394331
 51
95.05329428079416
  0
ARC
  5
C9
330
1F
100
AcDbEntity
  8
1
  6
Continuous
 62
     7
100
AcDbCircle
 10
3629.654596516438
 20
5237.440704363088
 30
0.0
 40
11.00000000000033
100
AcDbArc
 50
95.05329428079125
 51
137.3463450320996
  0
ARC
  5
CA
330
1F
100
AcDbEntity
  8
1
  6
Continuous
 62
     7
100
AcDbCircle
 10
3629.654596516438
 20
5237.440704363088
 30
0.0
 40
7.000000000000406
100
AcDbArc
 50
95.05329428079416
 51
137.4225372875931
  0
ARC
  5
CB
330
1F
100
AcDbEntity
  8
1
  6
Continuous
 62
     7
100
AcDbCircle
 10
3629.654596516438
 20
5237.440704363088
 30
0.0
 40
7.0
100
AcDbArc
 50
-90.0
 51
44.5744906394331
  0
ARC
  5
CC
330
1F
100
AcDbEntity
  8
1
  6
Continuous
 62
     7
100
AcDbCircle
 10
3629.654596516438
 20
5237.440704363088
 30
0.0
 40
11.0
100
AcDbArc
 50
90.0
 51
95.05329428079125
  0
ARC
  5
CD
330
1F
100
AcDbEntity
  8
1
  6
Continuous
 62
     7
100
AcDbCircle
 10
3629.654596516438
 20
5237.440704363088
 30
0.0
 40
11.0
100
AcDbArc
 50
-90.0
 51
44.57449063943574
  0
ARC
  5
CE
330
1F
100
AcDbEntity
  8
1
  6
Continuous
 62
     7
100
AcDbCircle
 10
3629.654596516438
 20
5237.440704363088
 30
0.0
 40
22.5
100
AcDbArc
 50
90.0
 51
115.9483577859337
  0
ARC
  5
CF
330
1F
100
AcDbEntity
  8
VOLLLINIE_BREIT
  6
Continuous
 62
     3
100
AcDbCircle
 10
3629.654596516438
 20
5237.440704363088
 30
0.0
 40
11.99999999999994
100
AcDbArc
 50
164.1855655748681
 51
167.1459837639222
  0
ARC
  5
D0
330
1F
100
AcDbEntity
  8
1
  6
DASHED
 62
     2
100
AcDbCircle
 10
3629.65459651644
 20
5237.440704363089
 30
0.0
 40
22.0000000000012
100
AcDbArc
 50
127.7420298839788
 51
72.66393509491218
  0
ARC
  5
D1
330
1F
100
AcDbEntity
  8
1
  6
Continuous
 62
     7
100
AcDbCircle
 10
3640.654596516438
 20
5245.440704363088
 30
0.0
 40
4.0
100
AcDbArc
 50
90.00000000001303
 51
95.0532942808121
  0
ARC
  5
D2
330
1F
100
AcDbEntity
  8
1
  6
Continuous
 62
     7
100
AcDbCircle
 10
3660.154596516438
 20
5244.940704363088
 30
0.0
 40
4.500000000001659
100
AcDbArc
 50
83.62062979155957
 51
90.0
  0
ARC
  5
D3
330
1F
100
AcDbEntity
  8
1
  6
Continuous
 62
     7
100
AcDbCircle
 10
3660.154596516438
 20
5244.940704363088
 30
0.0
 40
0.5
100
AcDbArc
 50
0.0
 51
90.0
  0
ARC
  5
D4
330
1F
100
AcDbEntity
  8
1
  6
DASHED
 62
     2
100
AcDbCircle
 10
3660.154596516438
 20
5244.940704363088
 30
0.0
 40
4.5
100
AcDbArc
 50
0.0
 51
83.62062979155957
  0
DIMENSION
  5
E0
330
1F
100
AcDbEntity
  8
1
100
AcDbDimension
  2
*D1
 10
3720.317157580279
 20
5214.94070436309
 30
0.0
 11
3716.567157580279
 21
5236.88746281574
 31
0.0
 70
    32
  1
<>
 71
     5
 42
-1.0
 53
90.0
  3
ME10_DIM_10
100
AcDbAlignedDimension
 13
3707.058085308219
 23
5259.940704363088
 33
0.0
 14
3707.058085308219
 24
5214.94070436309
 34
0.0
 50
90.0
100
AcDbRotatedDimension
  0
DIMENSION
  5
EB
330
1F
100
AcDbEntity
  8
1
100
AcDbDimension
  2
*D2
 10
3690.587131467709
 20
5225.440704363088
 30
0.0
 11
3686.837131467709
 21
5237.35475928427
 31
0.0
 70
    32
  1
<>
 71
     5
 42
-1.0
 53
90.0
  3
ME10_DIM_11
100
AcDbAlignedDimension
 13
3664.654596516438
 23
5249.440704363088
 33
0.0
 14
3664.654596516438
 24
5225.440704363088
 34
0.0
 50
90.0
100
AcDbRotatedDimension
  0
DIMENSION
  5
F6
330
1F
100
AcDbEntity
  8
1
100
AcDbDimension
  2
*D3
 10
3631.154596516438
 20
5327.67056492578
 30
0.0
 11
3619.178120801569
 21
5331.42056492578
 31
0.0
 70
    32
  1
<>
 71
     5
 42
-1.0
 53
0.00013888888889
  3
ME10_DIM_12
100
AcDbAlignedDimension
 13
3605.654596516438
 23
5291.440704363088
 33
0.0
 14
3631.154596516438
 24
5291.440704363088
 34
0.0
100
AcDbRotatedDimension
  0
DIMENSION
  5
101
330
1F
100
AcDbEntity
  8
1
100
AcDbDimension
  2
*D4
 10
3631.154596516438
 20
5316.69996900591
 30
0.0
 11
3624.787336518119
 21
5320.44996900591
 31
0.0
 70
    32
  1
<>
 71
     5
 42
-1.0
 53
0.00013888888889
  3
ME10_DIM_13
100
AcDbAlignedDimension
 13
3619.154596516438
 23
5288.940704363088
 33
0.0
 14
3631.154596516438
 24
5306.440704363088
 34
0.0
100
AcDbRotatedDimension
  0
DIMENSION
  5
10D
330
1F
100
AcDbEntity
  8
1
100
AcDbDimension
  2
*D5
 10
3604.654596516438
 20
5201.58960022834
 30
0.0
 11
3616.6447173762
 21
5205.33960022834
 31
0.0
 70
    32
  1
<>
 71
     5
 42
-1.0
 53
0.00013888888889
  3
ME10_DIM_14
100
AcDbAlignedDimension
 13
3629.654596516438
 23
5209.31601474725
 33
0.0
 14
3604.654596516438
 24
5237.440704363088
 34
0.0
100
AcDbRotatedDimension
  0
DIMENSION
  5
118
330
1F
100
AcDbEntity
  8
1
100
AcDbDimension
  2
*D6
 10
3576.78416034785
 20
5262.440704363088
 30
0.0
 11
3573.03416034785
 21
5250.42819860391
 31
0.0
 70
    32
  1
<>
 71
     5
 42
-1.0
 53
90.0
  3
ME10_DIM_15
100
AcDbAlignedDimension
 13
3585.730935843739
 23
5237.440704363088
 33
0.0
 14
3612.654596516438
 24
5262.440704363088
 34
0.0
 50
90.0
100
AcDbRotatedDimension
  0
DIMENSION
  5
124
330
1F
100
AcDbEntity
  8
1
100
AcDbDimension
  2
*D7
 10
3576.78416034785
 20
5237.440704363088
 30
0.0
 11
3573.03416034785
 21
5225.93043583286
 31
0.0
 70
    32
  1
<>
 71
     5
 42
-1.0
 53
90.0
  3
ME10_DIM_16
100
AcDbAlignedDimension
 13
3629.654596516438
 23
5214.940704363088
 33
0.0
 14
3603.80351134248
 24
5237.440704363088
 34
0.0
 50
90.0
100
AcDbRotatedDimension
  0
INSERT
  5
12B
330
1F
100
AcDbEntity
  8
1
100
AcDbBlockReference
  2
*D8
 10
0.0
 20
0.0
 30
0.0
  0
ENDSEC
  0
SECTION
  2
OBJECTS
  0
DICTIONARY
  5
C
330
0
100
AcDbDictionary
281
     1
  3
ACAD_GROUP
350
D
  3
ACAD_LAYOUT
350
1A
  3
ACAD_MLINESTYLE
350
17
  3
ACAD_PLOTSETTINGS
350
19
  3
ACAD_PLOTSTYLENAME
350
E
  0
DICTIONARY
  5
D
102
{ACAD_REACTORS
330
C
102
}
330
C
100
AcDbDictionary
281
     1
  0
DICTIONARY
  5
1A
102
{ACAD_REACTORS
330
C
102
}
330
C
100
AcDbDictionary
281
     1
  3
Layout1
350
1E
  3
Layout2
350
26
  3
Model
350
22
  0
DICTIONARY
  5
17
102
{ACAD_REACTORS
330
C
102
}
330
C
100
AcDbDictionary
281
     1
  3
Standard
350
18
  0
DICTIONARY
  5
19
102
{ACAD_REACTORS
330
C
102
}
330
C
100
AcDbDictionary
281
     1
  0
ACDBDICTIONARYWDFLT
  5
E
102
{ACAD_REACTORS
330
C
102
}
330
C
100
AcDbDictionary
281
     1
  3
Normal
350
F
100
AcDbDictionaryWithDefault
340
F
  0
LAYOUT
  5
1E
102
{ACAD_REACTORS
330
1A
102
}
330
1A
100
AcDbPlotSettings
  1

  2

  4

  6

 40
0.0
 41
0.0
 42
0.0
 43
0.0
 44
0.0
 45
0.0
 46
0.0
 47
0.0
 48
0.0
 49
0.0
140
0.0
141
0.0
142
1.0
143
1.0
 70
   688
 72
     0
 73
     0
 74
     5
  7

 75
    16
 76
     0
 77
     2
 78
   300
147
1.0
148
0.0
149
0.0
100
AcDbLayout
  1
Layout1
 70
     1
 71
     1
 10
0.0
 20
0.0
 11
0.0
 21
0.0
 12
0.0
 22
0.0
 32
0.0
 14
0.0
 24
0.0
 34
0.0
 15
0.0
 25
0.0
 35
0.0
146
0.0
 13
0.0
 23
0.0
 33
0.0
 16
1.0
 26
0.0
 36
0.0
 17
0.0
 27
1.0
 37
0.0
 76
     0
330
1B
  0
LAYOUT
  5
26
102
{ACAD_REACTORS
330
1A
102
}
330
1A
100
AcDbPlotSettings
  1

  2

  4

  6

 40
0.0
 41
0.0
 42
0.0
 43
0.0
 44
0.0
 45
0.0
 46
0.0
 47
0.0
 48
0.0
 49
0.0
140
0.0
141
0.0
142
1.0
143
1.0
 70
   688
 72
     0
 73
     0
 74
     5
  7

 75
    16
 76
     0
 77
     2
 78
   300
147
1.0
148
0.0
149
0.0
100
AcDbLayout
  1
Layout2
 70
     1
 71
     2
 10
0.0
 20
0.0
 11
0.0
 21
0.0
 12
0.0
 22
0.0
 32
0.0
 14
0.0
 24
0.0
 34
0.0
 15
0.0
 25
0.0
 35
0.0
146
0.0
 13
0.0
 23
0.0
 33
0.0
 16
1.0
 26
0.0
 36
0.0
 17
0.0
 27
1.0
 37
0.0
 76
     0
330
23
  0
LAYOUT
  5
22
102
{ACAD_REACTORS
330
1A
102
}
330
1A
100
AcDbPlotSettings
  1

  2

  4

  6

 40
0.0
 41
0.0
 42
0.0
 43
0.0
 44
0.0
 45
0.0
 46
0.0
 47
0.0
 48
0.0
 49
0.0
140
0.0
141
0.0
142
1.0
143
1.0
 70
  1712
 72
     0
 73
     0
 74
     0
  7

 75
     0
 76
     0
 77
     2
 78
   300
147
1.0
148
0.0
149
0.0
100
AcDbLayout
  1
Model
 70
     1
 71
     0
 10
0.0
 20
0.0
 11
0.0
 21
0.0
 12
0.0
 22
0.0
 32
0.0
 14
3571.28416034785
 24
5199.58960022834
 34
0.0
 15
3722.317157580279
 25
5333.17056492578
 35
0.0
146
0.0
 13
0.0
 23
0.0
 33
0.0
 16
1.0
 26
0.0
 36
0.0
 17
0.0
 27
1.0
 37
0.0
 76
     0
330
1F
  0
MLINESTYLE
  5
18
102
{ACAD_REACTORS
330
17
102
}
330
17
100
AcDbMlineStyle
  2
Standard
 70
     0
  3

 62
   256
 51
90.0
 52
90.0
 71
     2
 49
0.5
 62
   256
  6
BYLAYER
 49
-0.5
 62
   256
  6
BYLAYER
  0
ACDBPLACEHOLDER
  5
F
102
{ACAD_REACTORS
330
E
102
}
330
E
  0
ENDSEC
  0
EOF
