  0
SECTION
  2
HEADER
  9
$ACADVER
  1
AC1018
  9
$ACADMAINTVER
 70
     0
  9
$DWGCODEPAGE
  3
ANSI_1252
  9
$INSBASE
 10
0.0
 20
0.0
 30
0.0
  9
$EXTMIN
 10
-204.5930649039443
 20
67.2134639213
 30
0.0
  9
$EXTMAX
 10
-58.92603380941799
 20
247.2134639213
 30
0.0
  9
$LIMMIN
 10
0.0
 20
0.0
  9
$LIMMAX
 10
12.0
 20
9.0
  9
$ORTHOMODE
 70
     0
  9
$REGENMODE
 70
     1
  9
$FILLMODE
 70
     1
  9
$QTEXTMODE
 70
     0
  9
$MIRRTEXT
 70
     1
  9
$LTSCALE
 40
1.0
  9
$ATTMODE
 70
     1
  9
$TEXTSIZE
 40
0.2
  9
$TRACEWID
 40
0.05
  9
$TEXTSTYLE
  7
Standard
  9
$CLAYER
  8
0
  9
$CELTYPE
  6
ByLayer
  9
$CECOLOR
 62
   256
  9
$CELTSCALE
 40
1.0
  9
$DISPSILH
 70
     0
  9
$DIMSCALE
 40
1.0
  9
$DIMASZ
 40
0.18
  9
$DIMEXO
 40
0.0625
  9
$DIMDLI
 40
0.38
  9
$DIMRND
 40
0.0
  9
$DIMDLE
 40
0.0
  9
$DIMEXE
 40
0.18
  9
$DIMTP
 40
0.0
  9
$DIMTM
 40
0.0
  9
$DIMTXT
 40
0.18
  9
$DIMCEN
 40
0.09
  9
$DIMTSZ
 40
0.0
  9
$DIMTOL
 70
     0
  9
$DIMLIM
 70
     0
  9
$DIMTIH
 70
     1
  9
$DIMTOH
 70
     1
  9
$DIMSE1
 70
     0
  9
$DIMSE2
 70
     0
  9
$DIMTAD
 70
     0
  9
$DIMZIN
 70
     0
  9
$DIMBLK
  1

  9
$DIMASO
 70
     1
  9
$DIMSHO
 70
     1
  9
$DIMPOST
  1

  9
$DIMAPOST
  1

  9
$DIMALT
 70
     0
  9
$DIMALTD
 70
     2
  9
$DIMALTF
 40
25.4
  9
$DIMLFAC
 40
1.0
  9
$DIMTOFL
 70
     0
  9
$DIMTVP
 40
0.0
  9
$DIMTIX
 70
     0
  9
$DIMSOXD
 70
     0
  9
$DIMSAH
 70
     0
  9
$DIMBLK1
  1

  9
$DIMBLK2
  1

  9
$DIMSTYLE
  2
Standard
  9
$DIMCLRD
 70
     0
  9
$DIMCLRE
 70
     0
  9
$DIMCLRT
 70
     0
  9
$DIMTFAC
 40
1.0
  9
$DIMGAP
 40
0.09
  9
$DIMJUST
 70
     0
  9
$DIMSD1
 70
     0
  9
$DIMSD2
 70
     0
  9
$DIMTOLJ
 70
     1
  9
$DIMTZIN
 70
     0
  9
$DIMALTZ
 70
     0
  9
$DIMALTTZ
 70
     0
  9
$DIMUPT
 70
     0
  9
$DIMDEC
 70
     4
  9
$DIMTDEC
 70
     4
  9
$DIMALTU
 70
     2
  9
$DIMALTTD
 70
     2
  9
$DIMTXSTY
  7
Standard
  9
$DIMAUNIT
 70
     0
  9
$DIMADEC
 70
     0
  9
$DIMALTRND
 40
0.0
  9
$DIMAZIN
 70
     0
  9
$DIMDSEP
 70
    46
  9
$DIMATFIT
 70
     3
  9
$DIMFRAC
 70
     0
  9
$DIMLDRBLK
  1

  9
$DIMLUNIT
 70
     2
  9
$DIMLWD
 70
    -2
  9
$DIMLWE
 70
    -2
  9
$DIMTMOVE
 70
     0
  9
$LUNITS
 70
     2
  9
$LUPREC
 70
     4
  9
$SKETCHINC
 40
0.1
  9
$FILLETRAD
 40
0.5
  9
$AUNITS
 70
     0
  9
$AUPREC
 70
     0
  9
$MENU
  1
.
  9
$ELEVATION
 40
0.0
  9
$PELEVATION
 40
0.0
  9
$THICKNESS
 40
0.0
  9
$LIMCHECK
 70
     0
  9
$CHAMFERA
 40
0.5
  9
$CHAMFERB
 40
0.5
  9
$CHAMFERC
 40
1.0
  9
$CHAMFERD
 40
0.0
  9
$SKPOLY
 70
     0
  9
$TDCREATE
 40
2456392.476271412
  9
$TDUCREATE
 40
2456392.392938079
  9
$TDUPDATE
 40
2456392.476271424
  9
$TDUUPDATE
 40
2456392.39293809
  9
$TDINDWG
 40
0.0000000116
  9
$TDUSRTIMER
 40
0.0000000116
  9
$USRTIMER
 70
     1
  9
$ANGBASE
 50
0.0
  9
$ANGDIR
 70
     0
  9
$PDMODE
 70
     0
  9
$PDSIZE
 40
0.0
  9
$PLINEWID
 40
0.0
  9
$SPLFRAME
 70
     0
  9
$SPLINETYPE
 70
     6
  9
$SPLINESEGS
 70
     8
  9
$HANDSEED
  5
129
  9
$SURFTAB1
 70
     6
  9
$SURFTAB2
 70
     6
  9
$SURFTYPE
 70
     6
  9
$SURFU
 70
     6
  9
$SURFV
 70
     6
  9
$UCSBASE
  2

  9
$UCSNAME
  2

  9
$UCSORG
 10
0.0
 20
0.0
 30
0.0
  9
$UCSXDIR
 10
1.0
 20
0.0
 30
0.0
  9
$UCSYDIR
 10
0.0
 20
1.0
 30
0.0
  9
$UCSORTHOREF
  2

  9
$UCSORTHOVIEW
 70
     0
  9
$UCSORGTOP
 10
0.0
 20
0.0
 30
0.0
  9
$UCSORGBOTTOM
 10
0.0
 20
0.0
 30
0.0
  9
$UCSORGLEFT
 10
0.0
 20
0.0
 30
0.0
  9
$UCSORGRIGHT
 10
0.0
 20
0.0
 30
0.0
  9
$UCSORGFRONT
 10
0.0
 20
0.0
 30
0.0
  9
$UCSORGBACK
 10
0.0
 20
0.0
 30
0.0
  9
$PUCSBASE
  2

  9
$PUCSNAME
  2

  9
$PUCSORG
 10
0.0
 20
0.0
 30
0.0
  9
$PUCSXDIR
 10
1.0
 20
0.0
 30
0.0
  9
$PUCSYDIR
 10
0.0
 20
1.0
 30
0.0
  9
$PUCSORTHOREF
  2

  9
$PUCSORTHOVIEW
 70
     0
  9
$PUCSORGTOP
 10
0.0
 20
0.0
 30
0.0
  9
$PUCSORGBOTTOM
 10
0.0
 20
0.0
 30
0.0
  9
$PUCSORGLEFT
 10
0.0
 20
0.0
 30
0.0
  9
$PUCSORGRIGHT
 10
0.0
 20
0.0
 30
0.0
  9
$PUCSORGFRONT
 10
0.0
 20
0.0
 30
0.0
  9
$PUCSORGBACK
 10
0.0
 20
0.0
 30
0.0
  9
$USERI1
 70
     0
  9
$USERI2
 70
     0
  9
$USERI3
 70
     0
  9
$USERI4
 70
     0
  9
$USERI5
 70
     0
  9
$USERR1
 40
14.5
  9
$USERR2
 40
0.0
  9
$USERR3
 40
0.0
  9
$USERR4
 40
0.0
  9
$USERR5
 40
0.0
  9
$WORLDVIEW
 70
     1
  9
$SHADEDGE
 70
     3
  9
$SHADEDIF
 70
    70
  9
$TILEMODE
 70
     1
  9
$MAXACTVP
 70
    64
  9
$PINSBASE
 10
0.0
 20
0.0
 30
0.0
  9
$PLIMCHECK
 70
     0
  9
$PEXTMIN
 10
1.00000000000000E+20
 20
1.00000000000000E+20
 30
1.00000000000000E+20
  9
$PEXTMAX
 10
-1.00000000000000E+20
 20
-1.00000000000000E+20
 30
-1.00000000000000E+20
  9
$PLIMMIN
 10
0.0
 20
0.0
  9
$PLIMMAX
 10
12.0
 20
9.0
  9
$UNITMODE
 70
     0
  9
$VISRETAIN
 70
     1
  9
$PLINEGEN
 70
     0
  9
$PSLTSCALE
 70
     1
  9
$TREEDEPTH
 70
  3020
  9
$CMLSTYLE
  2
Standard
  9
$CMLJUST
 70
     0
  9
$CMLSCALE
 40
1.0
  9
$PROXYGRAPHICS
 70
     1
  9
$MEASUREMENT
 70
     1
  9
$CELWEIGHT
370
    -1
  9
$ENDCAPS
280
     0
  9
$JOINSTYLE
280
     0
  9
$LWDISPLAY
290
     0
  9
$INSUNITS
 70
     1
  9
$HYPERLINKBASE
  1

  9
$STYLESHEET
  1

  9
$XEDIT
290
     1
  9
$CEPSNTYPE
380
     0
  9
$PSTYLEMODE
290
     1
  9
$FINGERPRINTGUID
  2
{E8C62651-C3D8-4B7C-98C3-5318DB33DC0B}
  9
$VERSIONGUID
  2
{FAEB1C32-E019-11D5-929B-00C0DF256EC4}
  9
$EXTNAMES
290
     1
  9
$PSVPSCALE
 40
0.0
  9
$OLESTARTUP
290
     0
  9
$SORTENTS
280
   127
  9
$INDEXCTL
280
     0
  9
$HIDETEXT
280
     1
  9
$XCLIPFRAME
290
     0
  9
$HALOGAP
280
     0
  9
$OBSCOLOR
 70
   257
  9
$OBSLTYPE
280
     0
  9
$INTERSECTIONDISPLAY
280
     0
  9
$INTERSECTIONCOLOR
 70
   257
  9
$DIMASSOC
280
     2
  9
$PROJECTNAME
  1

  0
ENDSEC
  0
SECTION
  2
CLASSES
  0
CLASS
  1
ACDBDICTIONARYWDFLT
  2
AcDbDictionaryWithDefault
  3
ObjectDBX Classes
 90
        0
 91
        3
280
     0
281
     0
  0
CLASS
  1

  2
exOdDbSpline
  3

 90
        0
 91
        3
280
     0
281
     1
  0
ENDSEC
  0
SECTION
  2
TABLES
  0
TABLE
  2
VPORT
  5
8
330
0
100
AcDbSymbolTable
 70
     1
  0
VPORT
  5
29
330
8
100
AcDbSymbolTableRecord
100
AcDbViewportTableRecord
  2
*Active
 70
     0
 10
0.0
 20
0.0
 11
1.0
 21
1.0
 12
-131.7595493566811
 22
157.2134639213
 13
0.0
 23
0.0
 14
0.5
 24
0.5
 15
0.5
 25
0.5
 16
0.0
 26
0.0
 36
1.0
 17
0.0
 27
0.0
 37
0.0
 40
198.0
 41
1.60267857142857
 42
50.0
 43
0.0
 44
0.0
 50
0.0
 51
0.0
 71
     0
 72
   100
 73
     1
 74
     3
 75
     0
 76
     0
 77
     0
 78
     0
281
     0
 65
     1
110
0.0
120
0.0
130
0.0
111
1.0
121
0.0
131
0.0
112
0.0
122
1.0
132
0.0
 79
     0
146
0.0
  0
ENDTAB
  0
TABLE
  2
LTYPE
  5
5
330
0
100
AcDbSymbolTable
 70
     9
  0
LTYPE
  5
14
330
5
100
AcDbSymbolTableRecord
100
AcDbLinetypeTableRecord
  2
ByBlock
 70
     0
  3

 72
    65
 73
     0
 40
0.0
  0
LTYPE
  5
15
330
5
100
AcDbSymbolTableRecord
100
AcDbLinetypeTableRecord
  2
ByLayer
 70
     0
  3

 72
    65
 73
     0
 40
0.0
  0
LTYPE
  5
16
330
5
100
AcDbSymbolTableRecord
100
AcDbLinetypeTableRecord
  2
Continuous
 70
     0
  3
Solid line
 72
    65
 73
     0
 40
0.0
  0
LTYPE
  5
2A
330
5
100
AcDbSymbolTableRecord
100
AcDbLinetypeTableRecord
  2
DASHED
 70
     0
  3
Dashed
 72
    65
 73
     2
 40
15.0
 49
7.0
 74
     0
 49
-8.0
 74
     0
  0
LTYPE
  5
2B
330
5
100
AcDbSymbolTableRecord
100
AcDbLinetypeTableRecord
  2
DOTTED
 70
     0
  3
Dotted
 72
    65
 73
     2
 40
1.0
 49
0.0
 74
     0
 49
-1.0
 74
     0
  0
LTYPE
  5
2C
330
5
100
AcDbSymbolTableRecord
100
AcDbLinetypeTableRecord
  2
DOT_CENTER
 70
     0
  3
Dot_Center
 72
    65
 73
     4
 40
14.0
 49
12.0
 74
     0
 49
-1.0
 74
     0
 49
0.0
 74
     0
 49
-1.0
 74
     0
  0
LTYPE
  5
2D
330
5
100
AcDbSymbolTableRecord
100
AcDbLinetypeTableRecord
  2
LONG_DASHED
 70
     0
  3
Long_Dashed
 72
    65
 73
     2
 40
15.0
 49
10.0
 74
     0
 49
-5.0
 74
     0
  0
LTYPE
  5
2E
330
5
100
AcDbSymbolTableRecord
100
AcDbLinetypeTableRecord
  2
DASH_CENTER
 70
     0
  3
Dash_Center
 72
    65
 73
     4
 40
14.0
 49
11.0
 74
     0
 49
-1.0
 74
     0
 49
1.0
 74
     0
 49
-1.0
 74
     0
  0
LTYPE
  5
2F
330
5
100
AcDbSymbolTableRecord
100
AcDbLinetypeTableRecord
  2
PHANTOM
 70
     0
  3
Phantom
 72
    65
 73
     6
 40
13.0
 49
10.0
 74
     0
 49
-1.0
 74
     0
 49
0.0
 74
     0
 49
-1.0
 74
     0
 49
0.0
 74
     0
 49
-1.0
 74
     0
  0
LTYPE
  5
30
330
5
100
AcDbSymbolTableRecord
100
AcDbLinetypeTableRecord
  2
CENTER_DASH_DASH
 70
     0
  3
Center_Dash_Dash
 72
    65
 73
     6
 40
14.0
 49
9.0
 74
     0
 49
-1.0
 74
     0
 49
1.0
 74
     0
 49
-1.0
 74
     0
 49
1.0
 74
     0
 49
-1.0
 74
     0
  0
LTYPE
  5
31
330
5
100
AcDbSymbolTableRecord
100
AcDbLinetypeTableRecord
  2
HIDDEN
 70
     0
  3
HIDDEN
 72
    65
 73
     2
 40
6.0
 49
3.0
 74
     0
 49
-3.0
 74
     0
  0
ENDTAB
  0
TABLE
  2
LAYER
  5
2
330
0
100
AcDbSymbolTable
 70
     6
  0
LAYER
  5
10
330
2
100
AcDbSymbolTableRecord
100
AcDbLayerTableRecord
  2
0
 70
     0
 62
     7
  6
Continuous
370
    -3
390
F
  0
LAYER
  5
32
330
2
100
AcDbSymbolTableRecord
100
AcDbLayerTableRecord
  2
1
 70
     0
 62
     7
  6
Continuous
370
    -3
390
F
  0
LAYER
  5
33
330
2
100
AcDbSymbolTableRecord
100
AcDbLayerTableRecord
  2
A_ACHSEN
 70
     0
 62
     7
  6
Continuous
370
    -3
390
F
  0
LAYER
  5
34
330
2
100
AcDbSymbolTableRecord
100
AcDbLayerTableRecord
  2
A_FASEN
 70
     0
 62
     7
  6
Continuous
370
    -3
390
F
  0
LAYER
  5
35
330
2
100
AcDbSymbolTableRecord
100
AcDbLayerTableRecord
  2
DEFAULT_1
 70
     0
 62
     7
  6
Continuous
370
    -3
390
F
  0
LAYER
  5
36
330
2
100
AcDbSymbolTableRecord
100
AcDbLayerTableRecord
  2
DEFAULT_2
 70
     0
 62
     7
  6
Continuous
370
    -3
390
F
  0
ENDTAB
  0
TABLE
  2
STYLE
  5
3
330
0
100
AcDbSymbolTable
 70
     2
  0
STYLE
  5
11
330
3
100
AcDbSymbolTableRecord
100
AcDbTextStyleTableRecord
  2
Standard
 70
     0
 40
0.0
 41
1.0
 50
0.0
 71
     0
 42
0.2
  3
txt
  4

  0
STYLE
  5
DA
330
3
100
AcDbSymbolTableRecord
100
AcDbTextStyleTableRecord
  2
CONVERTER_11
 70
     0
 40
0.0
 41
0.9
 50
0.0
 71
     0
 42
0.2
  3
txt.shx
  4

  0
ENDTAB
  0
TABLE
  2
VIEW
  5
6
330
0
100
AcDbSymbolTable
 70
     0
  0
ENDTAB
  0
TABLE
  2
UCS
  5
7
330
0
100
AcDbSymbolTable
 70
     0
  0
ENDTAB
  0
TABLE
  2
APPID
  5
9
330
0
100
AcDbSymbolTable
 70
     1
  0
APPID
  5
12
330
9
100
AcDbSymbolTableRecord
100
AcDbRegAppTableRecord
  2
ACAD
 70
     0
  0
ENDTAB
  0
TABLE
  2
DIMSTYLE
  5
A
330
0
100
AcDbSymbolTable
 70
     8
100
AcDbDimStyleTable
  0
DIMSTYLE
105
27
330
A
100
AcDbSymbolTableRecord
100
AcDbDimStyleTableRecord
  2
Standard
 70
     0
340
11
  0
DIMSTYLE
105
E5
102
{ACAD_REACTORS
330
E6
102
}
330
A
100
AcDbSymbolTableRecord
100
AcDbDimStyleTableRecord
  2
ME10_DIM_10
 70
     0
 41
3.5
 42
0.0
 44
2.0
 73
     0
 74
     0
 77
     1
 78
     8
140
3.5
147
2.0
172
     1
173
     1
176
     2
177
     2
178
     2
271
     3
340
DA
  0
DIMSTYLE
105
F0
102
{ACAD_REACTORS
330
F1
102
}
330
A
100
AcDbSymbolTableRecord
100
AcDbDimStyleTableRecord
  2
ME10_DIM_11
 70
     0
  3
ø<>
 41
3.5
 42
0.0
 44
2.0
 73
     0
 74
     0
 77
     1
 78
     8
140
3.5
147
2.0
172
     1
173
     1
176
     2
177
     2
178
     2
271
     3
340
DA
  0
DIMSTYLE
105
FB
102
{ACAD_REACTORS
330
FC
102
}
330
A
100
AcDbSymbolTableRecord
100
AcDbDimStyleTableRecord
  2
ME10_DIM_12
 70
     0
 41
3.5
 42
0.0
 44
2.0
 73
     0
 74
     0
 77
     1
 78
     8
140
3.5
147
2.0
172
     1
173
     1
176
     2
177
     2
178
     2
271
     3
340
DA
  0
DIMSTYLE
105
106
102
{ACAD_REACTORS
330
107
102
}
330
A
100
AcDbSymbolTableRecord
100
AcDbDimStyleTableRecord
  2
ME10_DIM_13
 70
     0
 41
3.5
 42
0.0
 44
2.0
 73
     0
 74
     0
 77
     1
 78
     8
140
3.5
147
2.0
172
     1
173
     1
176
     2
177
     2
178
     2
271
     3
340
DA
  0
DIMSTYLE
105
111
102
{ACAD_REACTORS
330
112
102
}
330
A
100
AcDbSymbolTableRecord
100
AcDbDimStyleTableRecord
  2
ME10_DIM_14
 70
     0
 41
3.5
 42
0.0
 44
2.0
 73
     0
 74
     0
 77
     1
 78
     8
140
3.5
147
2.0
172
     1
173
     1
176
     2
177
     2
178
     2
271
     3
340
DA
  0
DIMSTYLE
105
11C
102
{ACAD_REACTORS
330
11D
102
}
330
A
100
AcDbSymbolTableRecord
100
AcDbDimStyleTableRecord
  2
ME10_DIM_15
 70
     0
 41
3.5
 42
0.0
 44
2.0
 73
     0
 74
     0
 77
     1
 78
     8
140
3.5
147
2.0
172
     1
173
     1
176
     2
177
     2
178
     2
271
     3
340
DA
  0
DIMSTYLE
105
127
102
{ACAD_REACTORS
330
128
102
}
330
A
100
AcDbSymbolTableRecord
100
AcDbDimStyleTableRecord
  2
ME10_DIM_16
 70
     0
 41
3.5
 42
0.0
 44
2.0
 73
     0
 74
     0
 77
     1
 78
     8
140
3.5
147
2.0
172
     1
173
     1
176
     2
177
     2
178
     2
271
     3
340
DA
  0
ENDTAB
  0
TABLE
  2
BLOCK_RECORD
  5
1
330
0
100
AcDbSymbolTable
 70
     8
  0
BLOCK_RECORD
  5
1F
330
1
100
AcDbSymbolTableRecord
100
AcDbBlockTableRecord
  2
*Model_Space
340
22
  0
BLOCK_RECORD
  5
1B
330
1
100
AcDbSymbolTableRecord
100
AcDbBlockTableRecord
  2
*Paper_Space
340
1E
  0
BLOCK_RECORD
  5
23
330
1
100
AcDbSymbolTableRecord
100
AcDbBlockTableRecord
  2
*Paper_Space0
340
26
  0
BLOCK_RECORD
  5
DC
330
1
100
AcDbSymbolTableRecord
100
AcDbBlockTableRecord
  2
*D1
340
0
  0
BLOCK_RECORD
  5
E7
330
1
100
AcDbSymbolTableRecord
100
AcDbBlockTableRecord
  2
*D2
340
0
  0
BLOCK_RECORD
  5
F2
330
1
100
AcDbSymbolTableRecord
100
AcDbBlockTableRecord
  2
*D3
340
0
  0
BLOCK_RECORD
  5
FD
330
1
100
AcDbSymbolTableRecord
100
AcDbBlockTableRecord
  2
*D4
340
0
  0
BLOCK_RECORD
  5
108
330
1
100
AcDbSymbolTableRecord
100
AcDbBlockTableRecord
  2
*D5
340
0
  0
BLOCK_RECORD
  5
113
330
1
100
AcDbSymbolTableRecord
100
AcDbBlockTableRecord
  2
*D6
340
0
  0
BLOCK_RECORD
  5
11E
330
1
100
AcDbSymbolTableRecord
100
AcDbBlockTableRecord
  2
*D7
340
0
  0
ENDTAB
  0
ENDSEC
  0
SECTION
  2
BLOCKS
  0
BLOCK
  5
20
330
1F
100
AcDbEntity
  8
0
100
AcDbBlockBegin
  2
*Model_Space
 70
     0
 71
     0
 10
0.0
 20
0.0
 30
0.0
  3
*Model_Space
  1

  0
ENDBLK
  5
21
330
1F
100
AcDbEntity
  8
0
100
AcDbBlockEnd
  0
BLOCK
  5
1C
330
1B
100
AcDbEntity
 67
     1
  8
0
100
AcDbBlockBegin
  2
*Paper_Space
 70
     0
 71
     0
 10
0.0
 20
0.0
 30
0.0
  3
*Paper_Space
  1

  0
ENDBLK
  5
1D
330
1B
100
AcDbEntity
 67
     1
  8
0
100
AcDbBlockEnd
  0
BLOCK
  5
24
330
23
100
AcDbEntity
  8
0
100
AcDbBlockBegin
  2
*Paper_Space0
 70
     0
 71
     0
 10
0.0
 20
0.0
 30
0.0
  3
*Paper_Space0
  1

  0
ENDBLK
  5
25
330
23
100
AcDbEntity
  8
0
100
AcDbBlockEnd
  0
BLOCK
  5
E3
330
DC
100
AcDbEntity
  8
0
100
AcDbBlockBegin
  2
*D1
 70
     1
 71
     0
 10
0.0
 20
0.0
 30
0.0
  3
*D1
  1

  0
LINE
  5
DD
330
DC
100
AcDbEntity
  8
1
  6
Continuous
 62
     2
100
AcDbLine
 10
-187.886145101362
 20
247.2134639213
 30
0.0
 11
-187.886145101362
 21
157.2134639213
 31
0.0
  0
LINE
  5
DE
330
DC
100
AcDbEntity
  8
1
  6
Continuous
 62
     2
100
AcDbLine
 10
-182.1374671907
 20
157.2134639213
 30
0.0
 11
-189.886145101362
 21
157.2134639213
 31
0.0
  0
LINE
  5
DF
330
DC
100
AcDbEntity
  8
1
  6
Continuous
 62
     2
100
AcDbLine
 10
-174.2454439296
 20
247.2134639213
 30
0.0
 11
-189.886145101362
 21
247.2134639213
 31
0.0
  0
SOLID
  5
E0
330
DC
100
AcDbEntity
  8
1
 62
     2
100
AcDbTrace
 10
-187.4253613598061
 20
243.7134639213
 30
0.0
 11
-188.3469288429179
 21
243.7134639213
 31
0.0
 12
-187.886145101362
 22
247.2134639213
 32
0.0
 13
-187.886145101362
 23
247.2134639213
 33
0.0
  0
SOLID
  5
E1
330
DC
100
AcDbEntity
  8
1
 62
     2
100
AcDbTrace
 10
-188.3469288429179
 20
160.7134639213
 30
0.0
 11
-187.4253613598061
 21
160.7134639213
 31
0.0
 12
-187.886145101362
 22
157.2134639213
 32
0.0
 13
-187.886145101362
 23
157.2134639213
 33
0.0
  0
MTEXT
  5
E2
330
DC
100
AcDbEntity
  8
1
 62
     2
100
AcDbMText
 10
-189.886145101362
 20
195.662932006406
 30
0.0
 40
3.5
 41
0.0
 71
     7
 72
     1
  1
90
  7
CONVERTER_11
 11
0.0
 21
1.0
 31
0.0
 73
     1
 44
0.60024009603842
  0
ENDBLK
  5
E4
330
DC
100
AcDbEntity
  8
0
100
AcDbBlockEnd
  0
BLOCK
  5
EE
330
E7
100
AcDbEntity
  8
0
100
AcDbBlockBegin
  2
*D2
 70
     1
 71
     0
 10
0.0
 20
0.0
 30
0.0
  3
*D2
  1

  0
LINE
  5
E8
330
E7
100
AcDbEntity
  8
1
  6
Continuous
 62
     2
100
AcDbLine
 10
-154.2454439296
 20
241.658653512384
 30
0.0
 11
-132.2454439296
 21
241.658653512384
 31
0.0
  0
LINE
  5
E9
330
E7
100
AcDbEntity
  8
1
  6
Continuous
 62
     2
100
AcDbLine
 10
-154.2454439296
 20
232.2134639213
 30
0.0
 11
-154.2454439296
 21
243.658653512384
 31
0.0
  0
LINE
  5
EA
330
E7
100
AcDbEntity
  8
1
  6
Continuous
 62
     2
100
AcDbLine
 10
-132.2454439296
 20
232.2134639213
 30
0.0
 11
-132.2454439296
 21
243.658653512384
 31
0.0
  0
SOLID
  5
EB
330
E7
100
AcDbEntity
  8
1
 62
     2
100
AcDbTrace
 10
-150.7454439296
 20
242.1194372539399
 30
0.0
 11
-150.7454439296
 21
241.1978697708281
 31
0.0
 12
-154.2454439296
 22
241.658653512384
 32
0.0
 13
-154.2454439296
 23
241.658653512384
 33
0.0
  0
SOLID
  5
EC
330
E7
100
AcDbEntity
  8
1
 62
     2
100
AcDbTrace
 10
-135.7454439296
 20
241.1978697708281
 30
0.0
 11
-135.7454439296
 21
242.1194372539399
 31
0.0
 12
-132.2454439296
 22
241.658653512384
 32
0.0
 13
-132.2454439296
 23
241.658653512384
 33
0.0
  0
MTEXT
  5
ED
330
E7
100
AcDbEntity
  8
1
 62
     2
100
AcDbMText
 10
-146.6937575190456
 20
243.6586465553077
 30
0.0
 40
3.5
 41
0.0
 71
     7
 72
     1
  1
\C2;ø\C2;22
  7
CONVERTER_11
 11
0.9999999999970621
 21
2.424068405545307E-6
 31
0.0
 73
     1
 44
0.60024009603842
  0
ENDBLK
  5
EF
330
E7
100
AcDbEntity
  8
0
100
AcDbBlockEnd
  0
BLOCK
  5
F9
330
F2
100
AcDbEntity
  8
0
100
AcDbBlockBegin
  2
*D3
 70
     1
 71
     0
 10
0.0
 20
0.0
 30
0.0
  3
*D3
  1

  0
LINE
  5
F3
330
F2
100
AcDbEntity
  8
1
  6
Continuous
 62
     2
100
AcDbLine
 10
-199.0930649039443
 20
247.2134639213
 30
0.0
 11
-199.0930649039443
 21
67.2134639213
 31
0.0
  0
LINE
  5
F4
330
F2
100
AcDbEntity
  8
1
  6
Continuous
 62
     2
100
AcDbLine
 10
-178.2454439296
 20
67.2134639213
 30
0.0
 11
-201.0930649039443
 21
67.2134639213
 31
0.0
  0
LINE
  5
F5
330
F2
100
AcDbEntity
  8
1
  6
Continuous
 62
     2
100
AcDbLine
 10
-178.2454439296
 20
247.2134639213
 30
0.0
 11
-201.0930649039443
 21
247.2134639213
 31
0.0
  0
SOLID
  5
F6
330
F2
100
AcDbEntity
  8
1
 62
     2
100
AcDbTrace
 10
-198.6322811623884
 20
243.7134639213
 30
0.0
 11
-199.5538486455002
 21
243.7134639213
 31
0.0
 12
-199.0930649039443
 22
247.2134639213
 32
0.0
 13
-199.0930649039443
 23
247.2134639213
 33
0.0
  0
SOLID
  5
F7
330
F2
100
AcDbEntity
  8
1
 62
     2
100
AcDbTrace
 10
-199.5538486455002
 20
70.7134639213
 30
0.0
 11
-198.6322811623884
 21
70.7134639213
 31
0.0
 12
-199.0930649039443
 22
67.2134639213
 32
0.0
 13
-199.0930649039443
 23
67.2134639213
 33
0.0
  0
MTEXT
  5
F8
330
F2
100
AcDbEntity
  8
1
 62
     2
100
AcDbMText
 10
-201.0930649039443
 20
154.667822913787
 30
0.0
 40
3.5
 41
0.0
 71
     7
 72
     1
  1
180
  7
CONVERTER_11
 11
0.0
 21
1.0
 31
0.0
 73
     1
 44
0.60024009603842
  0
ENDBLK
  5
FA
330
F2
100
AcDbEntity
  8
0
100
AcDbBlockEnd
  0
BLOCK
  5
104
330
FD
100
AcDbEntity
  8
0
100
AcDbBlockBegin
  2
*D4
 70
     1
 71
     0
 10
0.0
 20
0.0
 30
0.0
  3
*D4
  1

  0
LINE
  5
FE
330
FD
100
AcDbEntity
  8
1
  6
Continuous
 62
     2
100
AcDbLine
 10
-60.92603380941799
 20
232.2134639213
 30
0.0
 11
-60.92603380941799
 21
82.2134639213
 31
0.0
  0
LINE
  5
FF
330
FD
100
AcDbEntity
  8
1
  6
Continuous
 62
     2
100
AcDbLine
 10
-132.2454511921
 20
82.2134639213
 30
0.0
 11
-58.92603380941799
 21
82.2134639213
 31
0.0
  0
LINE
  5
100
330
FD
100
AcDbEntity
  8
1
  6
Continuous
 62
     2
100
AcDbLine
 10
-132.2454511921
 20
232.2134639213
 30
0.0
 11
-58.92603380941799
 21
232.2134639213
 31
0.0
  0
SOLID
  5
101
330
FD
100
AcDbEntity
  8
1
 62
     2
100
AcDbTrace
 10
-60.4652500678621
 20
228.7134639213
 30
0.0
 11
-61.38681755097387
 21
228.7134639213
 31
0.0
 12
-60.92603380941799
 22
232.2134639213
 32
0.0
 13
-60.92603380941799
 23
232.2134639213
 33
0.0
  0
SOLID
  5
102
330
FD
100
AcDbEntity
  8
1
 62
     2
100
AcDbTrace
 10
-61.38681755097387
 20
85.7134639213
 30
0.0
 11
-60.4652500678621
 21
85.7134639213
 31
0.0
 12
-60.92603380941799
 22
82.2134639213
 32
0.0
 13
-60.92603380941799
 23
82.2134639213
 33
0.0
  0
MTEXT
  5
103
330
FD
100
AcDbEntity
  8
1
 62
     2
100
AcDbMText
 10
-62.92603380941799
 20
154.36471103454
 30
0.0
 40
3.5
 41
0.0
 71
     7
 72
     1
  1
150
  7
CONVERTER_11
 11
0.0
 21
1.0
 31
0.0
 73
     1
 44
0.60024009603842
  0
ENDBLK
  5
105
330
FD
100
AcDbEntity
  8
0
100
AcDbBlockEnd
  0
BLOCK
  5
10F
330
108
100
AcDbEntity
  8
0
100
AcDbBlockBegin
  2
*D5
 70
     1
 71
     0
 10
0.0
 20
0.0
 30
0.0
  3
*D5
  1

  0
LINE
  5
109
330
108
100
AcDbEntity
  8
1
  6
Continuous
 62
     2
100
AcDbLine
 10
-70.73654521305801
 20
199.2134639213
 30
0.0
 11
-70.73654521305801
 21
115.2134639213001
 31
0.0
  0
LINE
  5
10A
330
108
100
AcDbEntity
  8
1
  6
Continuous
 62
     2
100
AcDbLine
 10
-94.4774947371688
 20
115.2134639213001
 30
0.0
 11
-68.73654521305801
 21
115.2134639213001
 31
0.0
  0
LINE
  5
10B
330
108
100
AcDbEntity
  8
1
  6
Continuous
 62
     2
100
AcDbLine
 10
-94.4774947371688
 20
199.2134639213
 30
0.0
 11
-68.73654521305801
 21
199.2134639213
 31
0.0
  0
SOLID
  5
10C
330
108
100
AcDbEntity
  8
1
 62
     2
100
AcDbTrace
 10
-70.27576147150212
 20
195.7134639213
 30
0.0
 11
-71.1973289546139
 21
195.7134639213
 31
0.0
 12
-70.73654521305801
 22
199.2134639213
 32
0.0
 13
-70.73654521305801
 23
199.2134639213
 33
0.0
  0
SOLID
  5
10D
330
108
100
AcDbEntity
  8
1
 62
     2
100
AcDbTrace
 10
-71.1973289546139
 20
118.7134639213001
 30
0.0
 11
-70.27576147150212
 21
118.7134639213001
 31
0.0
 12
-70.73654521305801
 22
115.2134639213001
 32
0.0
 13
-70.73654521305801
 23
115.2134639213001
 33
0.0
  0
MTEXT
  5
10E
330
108
100
AcDbEntity
  8
1
 62
     2
100
AcDbMText
 10
-72.73654521305801
 20
154.733894521707
 30
0.0
 40
3.5
 41
0.0
 71
     7
 72
     1
  1
84
  7
CONVERTER_11
 11
0.0
 21
1.0
 31
0.0
 73
     1
 44
0.60024009603842
  0
ENDBLK
  5
110
330
108
100
AcDbEntity
  8
0
100
AcDbBlockEnd
  0
BLOCK
  5
11A
330
113
100
AcDbEntity
  8
0
100
AcDbBlockBegin
  2
*D6
 70
     1
 71
     0
 10
0.0
 20
0.0
 30
0.0
  3
*D6
  1

  0
LINE
  5
114
330
113
100
AcDbEntity
  8
1
  6
Continuous
 62
     2
100
AcDbLine
 10
-80.901841845066
 20
157.2134639213
 30
0.0
 11
-80.901841845066
 21
129.2134639213
 31
0.0
  0
LINE
  5
115
330
113
100
AcDbEntity
  8
1
  6
Continuous
 62
     2
100
AcDbLine
 10
-87.74544392959999
 20
129.2134639213
 30
0.0
 11
-78.901841845066
 21
129.2134639213
 31
0.0
  0
LINE
  5
116
330
113
100
AcDbEntity
  8
1
  6
Continuous
 62
     2
100
AcDbLine
 10
-89.2079335684
 20
157.2134639213
 30
0.0
 11
-78.901841845066
 21
157.2134639213
 31
0.0
  0
SOLID
  5
117
330
113
100
AcDbEntity
  8
1
 62
     2
100
AcDbTrace
 10
-80.44105810351012
 20
153.7134639213
 30
0.0
 11
-81.36262558662189
 21
153.7134639213
 31
0.0
 12
-80.901841845066
 22
157.2134639213
 32
0.0
 13
-80.901841845066
 23
157.2134639213
 33
0.0
  0
SOLID
  5
118
330
113
100
AcDbEntity
  8
1
 62
     2
100
AcDbTrace
 10
-81.36262558662189
 20
132.7134639213
 30
0.0
 11
-80.44105810351012
 21
132.7134639213
 31
0.0
 12
-80.901841845066
 22
129.2134639213
 32
0.0
 13
-80.901841845066
 23
129.2134639213
 33
0.0
  0
MTEXT
  5
119
330
113
100
AcDbEntity
  8
1
 62
     2
100
AcDbMText
 10
-82.901841845066
 20
141.565214793878
 30
0.0
 40
3.5
 41
0.0
 71
     7
 72
     1
  1
28
  7
CONVERTER_11
 11
0.0
 21
1.0
 31
0.0
 73
     1
 44
0.60024009603842
  0
ENDBLK
  5
11B
330
113
100
AcDbEntity
  8
0
100
AcDbBlockEnd
  0
BLOCK
  5
125
330
11E
100
AcDbEntity
  8
0
100
AcDbBlockBegin
  2
*D7
 70
     1
 71
     0
 10
0.0
 20
0.0
 30
0.0
  3
*D7
  1

  0
LINE
  5
11F
330
11E
100
AcDbEntity
  8
1
  6
Continuous
 62
     2
100
AcDbLine
 10
-80.901841845066
 20
185.2134639213
 30
0.0
 11
-80.901841845066
 21
157.2134639213
 31
0.0
  0
LINE
  5
120
330
11E
100
AcDbEntity
  8
1
  6
Continuous
 62
     2
100
AcDbLine
 10
-89.2079335684
 20
157.2134639213
 30
0.0
 11
-78.901841845066
 21
157.2134639213
 31
0.0
  0
LINE
  5
121
330
11E
100
AcDbEntity
  8
1
  6
Continuous
 62
     2
100
AcDbLine
 10
-87.74544392959999
 20
185.2134639213
 30
0.0
 11
-78.901841845066
 21
185.2134639213
 31
0.0
  0
SOLID
  5
122
330
11E
100
AcDbEntity
  8
1
 62
     2
100
AcDbTrace
 10
-80.44105810351012
 20
181.7134639213
 30
0.0
 11
-81.36262558662189
 21
181.7134639213
 31
0.0
 12
-80.901841845066
 22
185.2134639213
 32
0.0
 13
-80.901841845066
 23
185.2134639213
 33
0.0
  0
SOLID
  5
123
330
11E
100
AcDbEntity
  8
1
 62
     2
100
AcDbTrace
 10
-81.36262558662189
 20
160.7134639213
 30
0.0
 11
-80.44105810351012
 21
160.7134639213
 31
0.0
 12
-80.901841845066
 22
157.2134639213
 32
0.0
 13
-80.901841845066
 23
157.2134639213
 33
0.0
  0
MTEXT
  5
124
330
11E
100
AcDbEntity
  8
1
 62
     2
100
AcDbMText
 10
-82.901841845066
 20
168.133603718445
 30
0.0
 40
3.5
 41
0.0
 71
     7
 72
     1
  1
28
  7
CONVERTER_11
 11
0.0
 21
1.0
 31
0.0
 73
     1
 44
0.60024009603842
  0
ENDBLK
  5
126
330
11E
100
AcDbEntity
  8
0
100
AcDbBlockEnd
  0
ENDSEC
  0
SECTION
  2
ENTITIES
  0
POINT
  5
37
330
1F
100
AcDbEntity
  8
1
 62
     3
 60
     1
100
AcDbPoint
 10
-90.74544392959999
 20
198.2134639213
 30
0.0
  0
POINT
  5
38
330
1F
100
AcDbEntity
  8
1
 62
     3
 60
     1
100
AcDbPoint
 10
-94.4774947371688
 20
199.2134639213
 30
0.0
  0
LINE
  5
39
330
1F
100
AcDbEntity
  8
DEFAULT_2
  6
DASHED
 62
     2
100
AcDbLine
 10
-174.2454439296
 20
79.9634639213
 30
0.0
 11
-174.5454439296
 21
79.9634639213
 31
0.0
  0
LINE
  5
3A
330
1F
100
AcDbEntity
  8
A_ACHSEN
  6
DASHED
 62
     2
100
AcDbLine
 10
-178.2454439296
 20
77.7134639213
 30
0.0
 11
-176.7954439296
 21
77.7134639213
 31
0.0
  0
LINE
  5
3B
330
1F
100
AcDbEntity
  8
DEFAULT_2
  6
DASHED
 62
     2
100
AcDbLine
 10
-178.2454439296
 20
71.7134639213
 30
0.0
 11
-176.7954439296
 21
71.7134639213
 31
0.0
  0
LINE
  5
3C
330
1F
100
AcDbEntity
  8
DEFAULT_2
  6
DASHED
 62
     2
100
AcDbLine
 10
-174.2454439296
 20
69.4634639213
 30
0.0
 11
-174.5454439296
 21
69.4634639213
 31
0.0
  0
LINE
  5
3D
330
1F
100
AcDbEntity
  8
DEFAULT_2
  6
DASHED
 62
     2
100
AcDbLine
 10
-174.5454439296
 20
79.9634639213
 30
0.0
 11
-176.7954439296
 21
77.7134639213
 31
0.0
  0
LINE
  5
3E
330
1F
100
AcDbEntity
  8
DEFAULT_2
  6
DASHED
 62
     2
100
AcDbLine
 10
-176.7954439296
 20
71.7134639213
 30
0.0
 11
-174.5454439296
 21
69.4634639213
 31
0.0
  0
LINE
  5
3F
330
1F
100
AcDbEntity
  8
DEFAULT_2
  6
DASHED
 62
     2
100
AcDbLine
 10
-174.5454439296
 20
79.9634639213
 30
0.0
 11
-174.5454439296
 21
69.4634639213
 31
0.0
  0
LINE
  5
40
330
1F
100
AcDbEntity
  8
DEFAULT_2
  6
DASHED
 62
     2
100
AcDbLine
 10
-176.7954439296
 20
77.7134639213
 30
0.0
 11
-176.7954439296
 21
71.7134639213
 31
0.0
  0
LINE
  5
41
330
1F
100
AcDbEntity
  8
DEFAULT_2
  6
DASHED
 62
     2
100
AcDbLine
 10
-174.2454439296
 20
244.9634639213
 30
0.0
 11
-174.5454439296
 21
244.9634639213
 31
0.0
  0
LINE
  5
42
330
1F
100
AcDbEntity
  8
A_ACHSEN
  6
DASHED
 62
     2
100
AcDbLine
 10
-178.2454439296
 20
242.7134639213
 30
0.0
 11
-176.7954439296
 21
242.7134639213
 31
0.0
  0
LINE
  5
43
330
1F
100
AcDbEntity
  8
DEFAULT_2
  6
DASHED
 62
     2
100
AcDbLine
 10
-178.2454439296
 20
236.7134639213
 30
0.0
 11
-176.7954439296
 21
236.7134639213
 31
0.0
  0
LINE
  5
44
330
1F
100
AcDbEntity
  8
DEFAULT_2
  6
DASHED
 62
     2
100
AcDbLine
 10
-174.2454439296
 20
234.4634639213
 30
0.0
 11
-174.5454439296
 21
234.4634639213
 31
0.0
  0
LINE
  5
45
330
1F
100
AcDbEntity
  8
DEFAULT_2
  6
DASHED
 62
     2
100
AcDbLine
 10
-176.7954439296
 20
236.7134639213
 30
0.0
 11
-174.5454439296
 21
234.4634639213
 31
0.0
  0
LINE
  5
46
330
1F
100
AcDbEntity
  8
DEFAULT_2
  6
DASHED
 62
     2
100
AcDbLine
 10
-174.5454439296
 20
244.9634639213
 30
0.0
 11
-176.7954439296
 21
242.7134639213
 31
0.0
  0
LINE
  5
47
330
1F
100
AcDbEntity
  8
DEFAULT_2
  6
DASHED
 62
     2
100
AcDbLine
 10
-174.5454439296
 20
244.9634639213
 30
0.0
 11
-174.5454439296
 21
234.4634639213
 31
0.0
  0
LINE
  5
48
330
1F
100
AcDbEntity
  8
DEFAULT_2
  6
DASHED
 62
     2
100
AcDbLine
 10
-176.7954439296
 20
242.7134639213
 30
0.0
 11
-176.7954439296
 21
236.7134639213
 31
0.0
  0
LINE
  5
49
330
1F
100
AcDbEntity
  8
0
  6
Continuous
 62
     7
100
AcDbLine
 10
-178.2454439296
 20
67.2134639213
 30
0.0
 11
-178.2454439296
 21
247.2134639213
 31
0.0
  0
LINE
  5
4A
330
1F
100
AcDbEntity
  8
DEFAULT_2
  6
DASHED
 62
     2
100
AcDbLine
 10
-176.7954439296
 20
178.7134639213
 30
0.0
 11
-176.7954439296
 21
172.7134639213
 31
0.0
  0
LINE
  5
4B
330
1F
100
AcDbEntity
  8
DEFAULT_2
  6
DASHED
 62
     2
100
AcDbLine
 10
-176.7954439296
 20
141.7134639213
 30
0.0
 11
-176.7954439296
 21
135.7134639213
 31
0.0
  0
LINE
  5
4C
330
1F
100
AcDbEntity
  8
DEFAULT_2
  6
DASHED
 62
     2
100
AcDbLine
 10
-174.5454439296
 20
180.9634639213
 30
0.0
 11
-174.5454439296
 21
170.4634639213
 31
0.0
  0
LINE
  5
4D
330
1F
100
AcDbEntity
  8
DEFAULT_2
  6
DASHED
 62
     2
100
AcDbLine
 10
-174.5454439296
 20
143.9634639213
 30
0.0
 11
-174.5454439296
 21
133.4634639213
 31
0.0
  0
LINE
  5
4E
330
1F
100
AcDbEntity
  8
0
  6
Continuous
 62
     7
100
AcDbLine
 10
-174.2454439296
 20
247.2134639213
 30
0.0
 11
-174.2454439296
 21
67.2134639213
 31
0.0
  0
LINE
  5
4F
330
1F
100
AcDbEntity
  8
0
  6
Continuous
 62
     7
100
AcDbLine
 10
-167.110842093
 20
125.3134639213
 30
0.0
 11
-167.110842093
 21
189.1134639213
 31
0.0
  0
LINE
  5
50
330
1F
100
AcDbEntity
  8
0
  6
Continuous
 62
     7
100
AcDbLine
 10
-165.2454439296
 20
183.2134575632
 30
0.0
 11
-165.2454439296
 21
131.2134711479
 31
0.0
  0
LINE
  5
51
330
1F
100
AcDbEntity
  8
A_ACHSEN
  6
Continuous
 62
     7
100
AcDbLine
 10
-154.2454439296
 20
130.1134639213
 30
0.0
 11
-154.2454439296
 21
124.5134639213
 31
0.0
  0
LINE
  5
52
330
1F
100
AcDbEntity
  8
0
  6
Continuous
 62
     7
100
AcDbLine
 10
-154.2454439296
 20
82.2134639213
 30
0.0
 11
-154.2454439296
 21
124.3134639213
 31
0.0
  0
LINE
  5
53
330
1F
100
AcDbEntity
  8
A_ACHSEN
  6
Continuous
 62
     7
100
AcDbLine
 10
-154.2454439296
 20
184.3134639213
 30
0.0
 11
-154.2454439296
 21
189.9134639213
 31
0.0
  0
LINE
  5
54
330
1F
100
AcDbEntity
  8
0
  6
Continuous
 62
     7
100
AcDbLine
 10
-154.2454439296
 20
190.1134639213
 30
0.0
 11
-154.2454439296
 21
232.2134639213
 31
0.0
  0
LINE
  5
55
330
1F
100
AcDbEntity
  8
A_ACHSEN
  6
DOT_CENTER
 62
     2
100
AcDbLine
 10
-143.2454439296
 20
235.3938125
 30
0.0
 11
-143.2454439296
 21
74.4850125
 31
0.0
  0
LINE
  5
56
330
1F
100
AcDbEntity
  8
DEFAULT_2
  6
DASHED
 62
     2
100
AcDbLine
 10
-174.5454439296
 20
180.9634639213
 30
0.0
 11
-176.7954439296
 21
178.7134639213
 31
0.0
  0
LINE
  5
57
330
1F
100
AcDbEntity
  8
A_FASEN
  6
Continuous
 62
     7
100
AcDbLine
 10
-164.7454372165
 20
183.7134639213
 30
0.0
 11
-165.2454439183
 21
183.2134575632
 31
0.0
  0
LINE
  5
58
330
1F
100
AcDbEntity
  8
DEFAULT_2
  6
DASHED
 62
     2
100
AcDbLine
 10
-176.7954439296
 20
135.7134639213
 30
0.0
 11
-174.5454439296
 21
133.4634639213
 31
0.0
  0
LINE
  5
59
330
1F
100
AcDbEntity
  8
A_FASEN
  6
Continuous
 62
     7
100
AcDbLine
 10
-164.7454363481
 20
130.7134639213
 30
0.0
 11
-165.2454439185
 21
131.2134711479
 31
0.0
  0
LINE
  5
5A
330
1F
100
AcDbEntity
  8
A_ACHSEN
  6
Continuous
 62
     7
100
AcDbLine
 10
-132.2454439296
 20
130.1134639213
 30
0.0
 11
-132.2454439296
 21
124.5134639213
 31
0.0
  0
LINE
  5
5B
330
1F
100
AcDbEntity
  8
0
  6
Continuous
 62
     7
100
AcDbLine
 10
-132.2454439296
 20
82.2134639213
 30
0.0
 11
-132.2454439296
 21
124.3134639213
 31
0.0
  0
LINE
  5
5C
330
1F
100
AcDbEntity
  8
A_ACHSEN
  6
Continuous
 62
     7
100
AcDbLine
 10
-132.2454439296
 20
184.3134639213
 30
0.0
 11
-132.2454439296
 21
189.9134639213
 31
0.0
  0
LINE
  5
5D
330
1F
100
AcDbEntity
  8
0
  6
Continuous
 62
     7
100
AcDbLine
 10
-132.2454439296
 20
190.1134639213
 30
0.0
 11
-132.2454439296
 21
232.2134639213
 31
0.0
  0
LINE
  5
5E
330
1F
100
AcDbEntity
  8
A_FASEN
  6
Continuous
 62
     7
100
AcDbLine
 10
-154.2454439296
 20
189.9134639213
 30
0.0
 11
-154.0454439296
 21
190.1134639213
 31
0.0
  0
LINE
  5
5F
330
1F
100
AcDbEntity
  8
A_FASEN
  6
Continuous
 62
     7
100
AcDbLine
 10
-154.2454439296
 20
124.5134639213
 30
0.0
 11
-154.0454439296
 21
124.3134639213
 31
0.0
  0
LINE
  5
60
330
1F
100
AcDbEntity
  8
A_FASEN
  6
Continuous
 62
     7
100
AcDbLine
 10
-126.7446132105
 20
183.2134639213
 30
0.0
 11
-126.7446132105
 21
131.2134639213
 31
0.0
  0
LINE
  5
61
330
1F
100
AcDbEntity
  8
DEFAULT_2
  6
DASHED
 62
     2
100
AcDbLine
 10
-174.5454439296
 20
143.9634639213
 30
0.0
 11
-176.7954439296
 21
141.7134639213
 31
0.0
  0
LINE
  5
62
330
1F
100
AcDbEntity
  8
A_FASEN
  6
Continuous
 62
     7
100
AcDbLine
 10
-132.4454439296
 20
184.1134639213
 30
0.0
 11
-132.2454439296
 21
184.3134639213
 31
0.0
  0
LINE
  5
63
330
1F
100
AcDbEntity
  8
DEFAULT_2
  6
DASHED
 62
     2
100
AcDbLine
 10
-176.7954439296
 20
172.7134639213
 30
0.0
 11
-174.5454439296
 21
170.4634639213
 31
0.0
  0
LINE
  5
64
330
1F
100
AcDbEntity
  8
A_FASEN
  6
Continuous
 62
     7
100
AcDbLine
 10
-132.4454439296
 20
130.3134639213
 30
0.0
 11
-132.2454439296
 21
130.1134639213
 31
0.0
  0
LINE
  5
65
330
1F
100
AcDbEntity
  8
0
  6
Continuous
 62
     7
100
AcDbLine
 10
-117.2454439296
 20
199.2134639213
 30
0.0
 11
-117.2454439296
 21
185.7134615311
 31
0.0
  0
LINE
  5
66
330
1F
100
AcDbEntity
  8
0
  6
Continuous
 62
     7
100
AcDbLine
 10
-117.2454439296
 20
115.2134639213
 30
0.0
 11
-117.2454439296
 21
128.7134663115
 31
0.0
  0
LINE
  5
67
330
1F
100
AcDbEntity
  8
0
  6
Continuous
 62
     7
100
AcDbLine
 10
-109.2454439296
 20
189.2134639213
 30
0.0
 11
-109.2454439296
 21
181.2134639213
 31
0.0
  0
LINE
  5
68
330
1F
100
AcDbEntity
  8
0
  6
Continuous
 62
     7
100
AcDbLine
 10
-109.2454439296
 20
161.2134639213
 30
0.0
 11
-109.2454439296
 21
153.2134639213
 31
0.0
  0
LINE
  5
69
330
1F
100
AcDbEntity
  8
0
  6
Continuous
 62
     7
100
AcDbLine
 10
-109.2454439296
 20
133.2134639213
 30
0.0
 11
-109.2454439296
 21
125.2134639213
 31
0.0
  0
LINE
  5
6A
330
1F
100
AcDbEntity
  8
0
  6
Continuous
 62
     7
100
AcDbLine
 10
-174.2454439296
 20
67.2134639213
 30
0.0
 11
-178.2454439296
 21
67.2134639213
 31
0.0
  0
LINE
  5
6B
330
1F
100
AcDbEntity
  8
A_ACHSEN
  6
DOT_CENTER
 62
     2
100
AcDbLine
 10
-181.2454439296
 20
74.7134639213
 30
0.0
 11
-171.2454439296
 21
74.7134639213
 31
0.0
  0
LINE
  5
6C
330
1F
100
AcDbEntity
  8
A_FASEN
  6
Continuous
 62
     7
100
AcDbLine
 10
-154.0454439296
 20
130.3134639213
 30
0.0
 11
-154.2454439296
 21
130.1134639213
 31
0.0
  0
LINE
  5
6D
330
1F
100
AcDbEntity
  8
0
  6
Continuous
 62
     7
100
AcDbLine
 10
-132.2454511921
 20
82.2134639213
 30
0.0
 11
-154.2459007269
 21
82.2134639213
 31
0.0
  0
LINE
  5
6E
330
1F
100
AcDbEntity
  8
DEFAULT_2
  6
HIDDEN
 62
   252
420
  8685188
100
AcDbLine
 10
-174.2454439296
 20
82.2134639213
 30
0.0
 11
-174.204724054
 21
82.2134639213
 31
0.0
  0
LINE
  5
6F
330
1F
100
AcDbEntity
  8
0
  6
Continuous
 62
     7
100
AcDbLine
 10
-174.204724054
 20
82.2134639213
 30
0.0
 11
-154.2454439296
 21
82.2134639213
 31
0.0
  0
LINE
  5
70
330
1F
100
AcDbEntity
  8
A_ACHSEN
  6
HIDDEN
 62
   252
420
  8685188
100
AcDbLine
 10
-154.2013194577
 20
82.2134639213
 30
0.0
 11
-142.627701323
 21
82.2134639213
 31
0.0
  0
LINE
  5
71
330
1F
100
AcDbEntity
  8
A_FASEN
  6
Continuous
 62
     7
100
AcDbLine
 10
-154.0454439296
 20
184.1134639213
 30
0.0
 11
-154.2454439296
 21
184.3134639213
 31
0.0
  0
LINE
  5
72
330
1F
100
AcDbEntity
  8
0
  6
Continuous
 62
     7
100
AcDbLine
 10
-90.74544392959999
 20
179.4634639213
 30
0.0
 11
-90.74544392959999
 21
162.9634639213
 31
0.0
  0
LINE
  5
73
330
1F
100
AcDbEntity
  8
0
  6
Continuous
 62
     7
100
AcDbLine
 10
-90.74544392959999
 20
151.4634639213
 30
0.0
 11
-90.74544392959999
 21
134.9634639213
 31
0.0
  0
LINE
  5
74
330
1F
100
AcDbEntity
  8
0
  6
Continuous
 62
     7
100
AcDbLine
 10
-90.74544392959999
 20
123.4634639213
 30
0.0
 11
-90.74544392959999
 21
116.2134639213001
 31
0.0
  0
LINE
  5
75
330
1F
100
AcDbEntity
  8
A_FASEN
  6
Continuous
 62
     7
100
AcDbLine
 10
-132.2454439296
 20
124.5134639213
 30
0.0
 11
-132.4454439296
 21
124.3134639213
 31
0.0
  0
LINE
  5
76
330
1F
100
AcDbEntity
  8
A_FASEN
  6
Continuous
 62
     7
100
AcDbLine
 10
-132.2454439296
 20
189.9134639213
 30
0.0
 11
-132.4454439296
 21
190.1134639213
 31
0.0
  0
LINE
  5
77
330
1F
100
AcDbEntity
  8
0
  6
Continuous
 62
     7
100
AcDbLine
 10
-117.2454439296
 20
115.2134639213
 30
0.0
 11
-94.4774947371688
 21
115.2134639213001
 31
0.0
  0
LINE
  5
78
330
1F
100
AcDbEntity
  8
0
  6
Continuous
 62
     7
100
AcDbLine
 10
-106.2454439296
 20
122.2134639213
 30
0.0
 11
-100.1866731124
 21
122.2134639213
 31
0.0
  0
LINE
  5
79
330
1F
100
AcDbEntity
  8
0
  6
Continuous
 62
     7
100
AcDbLine
 10
-132.2454511921
 20
124.3134639213
 30
0.0
 11
-154.2459007269
 21
124.3134639213
 31
0.0
  0
LINE
  5
7A
330
1F
100
AcDbEntity
  8
0
  6
Continuous
 62
     7
100
AcDbLine
 10
-166.110842093
 20
124.3134639213
 30
0.0
 11
-154.2454439296
 21
124.3134639213
 31
0.0
  0
LINE
  5
7B
330
1F
100
AcDbEntity
  8
A_FASEN
  6
HIDDEN
 62
   252
420
  8685188
100
AcDbLine
 10
-154.0453173839
 20
124.3134639213
 30
0.0
 11
-132.4455704753
 21
124.3134639213
 31
0.0
  0
LINE
  5
7C
330
1F
100
AcDbEntity
  8
A_ACHSEN
  6
HIDDEN
 62
   252
420
  8685188
100
AcDbLine
 10
-150.2454439296
 20
124.3134639213
 30
0.0
 11
-136.2454439296
 21
124.3134639213
 31
0.0
  0
LINE
  5
7D
330
1F
100
AcDbEntity
  8
A_FASEN
  6
Continuous
 62
     2
100
AcDbLine
 10
-154.2454439296
 20
124.5134639213
 30
0.0
 11
-132.2454439296
 21
124.5134639213
 31
0.0
  0
LINE
  5
7E
330
1F
100
AcDbEntity
  8
0
  6
Continuous
 62
     7
100
AcDbLine
 10
-95.34544392960001
 20
125.9634639213
 30
0.0
 11
-93.24544392959999
 21
125.9634639213
 31
0.0
  0
LINE
  5
7F
330
1F
100
AcDbEntity
  8
A_ACHSEN
  6
DOT_CENTER
 62
     2
100
AcDbLine
 10
-111.6725746927
 20
129.2134639213
 30
0.0
 11
-87.74544392959999
 21
129.2134639213
 31
0.0
  0
LINE
  5
80
330
1F
100
AcDbEntity
  8
A_FASEN
  6
Continuous
 62
     2
100
AcDbLine
 10
-154.2454439296
 20
130.1134639213
 30
0.0
 11
-132.2454439296
 21
130.1134639213
 31
0.0
  0
LINE
  5
81
330
1F
100
AcDbEntity
  8
A_FASEN
  6
Continuous
 62
     7
100
AcDbLine
 10
-154.0453173839
 20
130.3134639213
 30
0.0
 11
-132.4455704753
 21
130.3134639213
 31
0.0
  0
LINE
  5
82
330
1F
100
AcDbEntity
  8
DEFAULT_2
  6
HIDDEN
 62
   252
420
  8685188
100
AcDbLine
 10
-150.245230276
 20
130.7134639213
 30
0.0
 11
-156.5451712803
 21
130.7134639213
 31
0.0
  0
LINE
  5
83
330
1F
100
AcDbEntity
  8
A_FASEN
  6
Continuous
 62
     7
100
AcDbLine
 10
-127.3200081574
 20
130.7134639213
 30
0.0
 11
-164.7451510193
 21
130.7134639213
 31
0.0
  0
LINE
  5
84
330
1F
100
AcDbEntity
  8
DEFAULT_2
  6
HIDDEN
 62
   252
420
  8685188
100
AcDbLine
 10
-136.2455782117
 20
130.7134639213
 30
0.0
 11
-127.3200081574
 21
130.7134639213
 31
0.0
  0
LINE
  5
85
330
1F
100
AcDbEntity
  8
A_FASEN
  6
Continuous
 62
     2
100
AcDbLine
 10
-165.2454439296
 20
131.213471158
 30
0.0
 11
-126.7446132105
 21
131.2134639213
 31
0.0
  0
LINE
  5
86
330
1F
100
AcDbEntity
  8
0
  6
Continuous
 62
     7
100
AcDbLine
 10
-93.24544392959999
 20
132.4634639213
 30
0.0
 11
-95.34544392960001
 21
132.4634639213
 31
0.0
  0
LINE
  5
87
330
1F
100
AcDbEntity
  8
DEFAULT_2
  6
DASHED
 62
     2
100
AcDbLine
 10
-174.2454439296
 20
133.4634639213
 30
0.0
 11
-174.5454439296
 21
133.4634639213
 31
0.0
  0
LINE
  5
88
330
1F
100
AcDbEntity
  8
A_ACHSEN
  6
DASHED
 62
     2
100
AcDbLine
 10
-178.2454439296
 20
135.7134639213
 30
0.0
 11
-176.7954439296
 21
135.7134639213
 31
0.0
  0
LINE
  5
89
330
1F
100
AcDbEntity
  8
0
  6
Continuous
 62
     7
100
AcDbLine
 10
-100.1866731124
 20
136.2134639213
 30
0.0
 11
-106.2454439296
 21
136.2134639213
 31
0.0
  0
LINE
  5
8A
330
1F
100
AcDbEntity
  8
A_ACHSEN
  6
DOT_CENTER
 62
     2
100
AcDbLine
 10
-181.2454439296
 20
138.7134639213
 30
0.0
 11
-171.2454439296
 21
138.7134639213
 31
0.0
  0
LINE
  5
8B
330
1F
100
AcDbEntity
  8
DEFAULT_2
  6
DASHED
 62
     2
100
AcDbLine
 10
-178.2454439296
 20
141.7134639213
 30
0.0
 11
-176.7954439296
 21
141.7134639213
 31
0.0
  0
LINE
  5
8C
330
1F
100
AcDbEntity
  8
DEFAULT_2
  6
DASHED
 62
     2
100
AcDbLine
 10
-174.2454439296
 20
143.9634639213
 30
0.0
 11
-174.5454439296
 21
143.9634639213
 31
0.0
  0
LINE
  5
8D
330
1F
100
AcDbEntity
  8
0
  6
Continuous
 62
     7
100
AcDbLine
 10
-106.2454439296
 20
150.2134639213
 30
0.0
 11
-100.1866731124
 21
150.2134639213
 31
0.0
  0
LINE
  5
8E
330
1F
100
AcDbEntity
  8
0
  6
Continuous
 62
     7
100
AcDbLine
 10
-95.34544392960001
 20
153.9634639213
 30
0.0
 11
-93.24544392959999
 21
153.9634639213
 31
0.0
  0
LINE
  5
8F
330
1F
100
AcDbEntity
  8
DEFAULT_1
  6
DOT_CENTER
 62
     7
100
AcDbLine
 10
-182.1374671907
 20
157.2134639213
 30
0.0
 11
-139.800781997
 21
157.2134639213
 31
0.0
  0
LINE
  5
90
330
1F
100
AcDbEntity
  8
DEFAULT_1
  6
DOT_CENTER
 62
     7
100
AcDbLine
 10
-139.800781997
 20
157.2134639213
 30
0.0
 11
-89.2079335684
 21
157.2134639213
 31
0.0
  0
LINE
  5
91
330
1F
100
AcDbEntity
  8
0
  6
Continuous
 62
     7
100
AcDbLine
 10
-93.24544392959999
 20
160.4634639213
 30
0.0
 11
-95.34544392960001
 21
160.4634639213
 31
0.0
  0
LINE
  5
92
330
1F
100
AcDbEntity
  8
0
  6
Continuous
 62
     7
100
AcDbLine
 10
-100.1866731124
 20
164.2134639213
 30
0.0
 11
-106.2454439296
 21
164.2134639213
 31
0.0
  0
LINE
  5
93
330
1F
100
AcDbEntity
  8
DEFAULT_2
  6
DASHED
 62
     2
100
AcDbLine
 10
-174.2454439296
 20
170.4634639213
 30
0.0
 11
-174.5454439296
 21
170.4634639213
 31
0.0
  0
LINE
  5
94
330
1F
100
AcDbEntity
  8
A_ACHSEN
  6
DASHED
 62
     2
100
AcDbLine
 10
-178.2454439296
 20
172.7134639213
 30
0.0
 11
-176.7954439296
 21
172.7134639213
 31
0.0
  0
LINE
  5
95
330
1F
100
AcDbEntity
  8
A_ACHSEN
  6
DOT_CENTER
 62
     2
100
AcDbLine
 10
-181.2454439296
 20
175.7134639213
 30
0.0
 11
-171.2454439296
 21
175.7134639213
 31
0.0
  0
LINE
  5
96
330
1F
100
AcDbEntity
  8
0
  6
Continuous
 62
     7
100
AcDbLine
 10
-106.2454439296
 20
178.2134639213
 30
0.0
 11
-100.1866731124
 21
178.2134639213
 31
0.0
  0
LINE
  5
97
330
1F
100
AcDbEntity
  8
DEFAULT_2
  6
DASHED
 62
     2
100
AcDbLine
 10
-178.2454439296
 20
178.7134639213
 30
0.0
 11
-176.7954439296
 21
178.7134639213
 31
0.0
  0
LINE
  5
98
330
1F
100
AcDbEntity
  8
DEFAULT_2
  6
DASHED
 62
     2
100
AcDbLine
 10
-174.2454439296
 20
180.9634639213
 30
0.0
 11
-174.5454439296
 21
180.9634639213
 31
0.0
  0
LINE
  5
99
330
1F
100
AcDbEntity
  8
0
  6
Continuous
 62
     7
100
AcDbLine
 10
-95.34544392960001
 20
181.9634639213
 30
0.0
 11
-93.24544392959999
 21
181.9634639213
 31
0.0
  0
LINE
  5
9A
330
1F
100
AcDbEntity
  8
A_FASEN
  6
Continuous
 62
     2
100
AcDbLine
 10
-126.7446132105
 20
183.2134639213
 30
0.0
 11
-165.2454439296
 21
183.2134575528
 31
0.0
  0
LINE
  5
9B
330
1F
100
AcDbEntity
  8
DEFAULT_2
  6
HIDDEN
 62
   252
420
  8685188
100
AcDbLine
 10
-156.5451712803
 20
183.7134639213
 30
0.0
 11
-150.245230276
 21
183.7134639213
 31
0.0
  0
LINE
  5
9C
330
1F
100
AcDbEntity
  8
A_ACHSEN
  6
HIDDEN
 62
   252
420
  8685188
100
AcDbLine
 10
-149.2954439296
 20
183.7134639213
 30
0.0
 11
-137.1954439296
 21
183.7134639213
 31
0.0
  0
LINE
  5
9D
330
1F
100
AcDbEntity
  8
DEFAULT_2
  6
HIDDEN
 62
   252
420
  8685188
100
AcDbLine
 10
-150.245230276
 20
183.7134639213
 30
0.0
 11
-136.2455782117
 21
183.7134639213
 31
0.0
  0
LINE
  5
9E
330
1F
100
AcDbEntity
  8
DEFAULT_2
  6
HIDDEN
 62
   252
420
  8685188
100
AcDbLine
 10
-136.2455782117
 20
183.7134639213
 30
0.0
 11
-127.3200081574
 21
183.7134639213
 31
0.0
  0
LINE
  5
9F
330
1F
100
AcDbEntity
  8
A_FASEN
  6
Continuous
 62
     7
100
AcDbLine
 10
-164.7451518882
 20
183.7134639213
 30
0.0
 11
-127.3200081574
 21
183.7134639213
 31
0.0
  0
LINE
  5
A0
330
1F
100
AcDbEntity
  8
A_FASEN
  6
HIDDEN
 62
   252
420
  8685188
100
AcDbLine
 10
-127.3200081574
 20
183.7134639213
 30
0.0
 11
-121.7455536467
 21
183.7134639213
 31
0.0
  0
LINE
  5
A1
330
1F
100
AcDbEntity
  8
0
  6
Continuous
 62
     7
100
AcDbLine
 10
-127.3200081574
 20
183.7134639213
 30
0.0
 11
-119.594518938
 21
183.7134639213
 31
0.0
  0
LINE
  5
A2
330
1F
100
AcDbEntity
  8
DEFAULT_2
  6
HIDDEN
 62
   252
420
  8685188
100
AcDbLine
 10
-148.6997046524
 20
184.1134639213
 30
0.0
 11
-137.7911832069
 21
184.1134639213
 31
0.0
  0
LINE
  5
A3
330
1F
100
AcDbEntity
  8
A_FASEN
  6
Continuous
 62
     7
100
AcDbLine
 10
-154.0453173839
 20
184.1134639213
 30
0.0
 11
-132.4455704753
 21
184.1134639213
 31
0.0
  0
LINE
  5
A4
330
1F
100
AcDbEntity
  8
A_FASEN
  6
Continuous
 62
     2
100
AcDbLine
 10
-154.2454439296
 20
184.3134639213
 30
0.0
 11
-132.2454439296
 21
184.3134639213
 31
0.0
  0
LINE
  5
A5
330
1F
100
AcDbEntity
  8
A_ACHSEN
  6
DOT_CENTER
 62
     2
100
AcDbLine
 10
-112.0461371548
 20
185.2134639213
 30
0.0
 11
-87.74544392959999
 21
185.2134639213
 31
0.0
  0
LINE
  5
A6
330
1F
100
AcDbEntity
  8
0
  6
Continuous
 62
     7
100
AcDbLine
 10
-93.24544392959999
 20
188.4634639213
 30
0.0
 11
-95.34544392960001
 21
188.4634639213
 31
0.0
  0
LINE
  5
A7
330
1F
100
AcDbEntity
  8
A_FASEN
  6
Continuous
 62
     2
100
AcDbLine
 10
-154.2454439296
 20
189.9134639213
 30
0.0
 11
-132.2454439296
 21
189.9134639213
 31
0.0
  0
LINE
  5
A8
330
1F
100
AcDbEntity
  8
0
  6
Continuous
 62
     7
100
AcDbLine
 10
-132.2454511921
 20
190.1134639213
 30
0.0
 11
-154.2459007269
 21
190.1134639213
 31
0.0
  0
LINE
  5
A9
330
1F
100
AcDbEntity
  8
0
  6
Continuous
 62
     7
100
AcDbLine
 10
-166.110842093
 20
190.1134639213
 30
0.0
 11
-154.2454439296
 21
190.1134639213
 31
0.0
  0
LINE
  5
AA
330
1F
100
AcDbEntity
  8
A_ACHSEN
  6
HIDDEN
 62
   252
420
  8685188
100
AcDbLine
 10
-150.2454439296
 20
190.1134639213
 30
0.0
 11
-136.2454439296
 21
190.1134639213
 31
0.0
  0
LINE
  5
AB
330
1F
100
AcDbEntity
  8
A_FASEN
  6
HIDDEN
 62
   252
420
  8685188
100
AcDbLine
 10
-154.0453173839
 20
190.1134639213
 30
0.0
 11
-132.4455704753
 21
190.1134639213
 31
0.0
  0
LINE
  5
AC
330
1F
100
AcDbEntity
  8
0
  6
Continuous
 62
     7
100
AcDbLine
 10
-100.1866731124
 20
192.2134639213
 30
0.0
 11
-106.2454439296
 21
192.2134639213
 31
0.0
  0
LINE
  5
AD
330
1F
100
AcDbEntity
  8
0
  6
Continuous
 62
     7
100
AcDbLine
 10
-117.2454439296
 20
199.2134639213
 30
0.0
 11
-94.4774947371688
 21
199.2134639213
 31
0.0
  0
LINE
  5
AE
330
1F
100
AcDbEntity
  8
0
  6
Continuous
 62
     7
100
AcDbLine
 10
-132.2454511921
 20
232.2134639213
 30
0.0
 11
-154.2459007269
 21
232.2134639213
 31
0.0
  0
LINE
  5
AF
330
1F
100
AcDbEntity
  8
DEFAULT_2
  6
HIDDEN
 62
   252
420
  8685188
100
AcDbLine
 10
-174.2454439296
 20
232.2134639213
 30
0.0
 11
-174.204724054
 21
232.2134639213
 31
0.0
  0
LINE
  5
B0
330
1F
100
AcDbEntity
  8
0
  6
Continuous
 62
     7
100
AcDbLine
 10
-174.204724054
 20
232.2134639213
 30
0.0
 11
-154.2454439296
 21
232.2134639213
 31
0.0
  0
LINE
  5
B1
330
1F
100
AcDbEntity
  8
A_ACHSEN
  6
HIDDEN
 62
   252
420
  8685188
100
AcDbLine
 10
-154.2013194577
 20
232.2134639213
 30
0.0
 11
-142.627701323
 21
232.2134639213
 31
0.0
  0
LINE
  5
B2
330
1F
100
AcDbEntity
  8
A_ACHSEN
  6
DOT_CENTER
 62
     2
100
AcDbLine
 10
-181.2454439296
 20
239.7134639213
 30
0.0
 11
-171.2454439296
 21
239.7134639213
 31
0.0
  0
LINE
  5
B3
330
1F
100
AcDbEntity
  8
0
  6
Continuous
 62
     7
100
AcDbLine
 10
-174.2454439296
 20
247.2134639213
 30
0.0
 11
-178.2454439296
 21
247.2134639213
 31
0.0
  0
LINE
  5
B4
330
1F
100
AcDbEntity
  8
1
  6
Continuous
 62
     7
100
AcDbLine
 10
-94.4774947371688
 20
199.2134639213
 30
0.0
 11
-90.74544392959999
 21
198.2134639213
 31
0.0
  0
LINE
  5
B5
330
1F
100
AcDbEntity
  8
0
  6
Continuous
 62
     7
100
AcDbLine
 10
-90.74544392959999
 20
198.2134639213
 30
0.0
 11
-90.74544392959999
 21
190.9634639213
 31
0.0
  0
LINE
  5
B6
330
1F
100
AcDbEntity
  8
1
  6
Continuous
 62
     7
100
AcDbLine
 10
-90.74544392959999
 20
116.2134639213001
 30
0.0
 11
-94.4774947371688
 21
115.2134639213001
 31
0.0
  0
LINE
  5
B7
330
1F
100
AcDbEntity
  8
0
  6
Continuous
 62
     7
100
AcDbLine
 10
-127.3200081574
 20
130.7134639213
 30
0.0
 11
-119.594518938
 21
130.7134639213
 31
0.0
  0
ARC
  5
B8
330
1F
100
AcDbEntity
  8
A_FASEN
  6
Continuous
 62
     7
100
AcDbCircle
 10
-245.8019902776
 20
46.7845169511
 30
0.0
 40
181.073235475305
100
AcDbArc
 50
48.88978953046226
 51
49.13099458839006
  0
ARC
  5
B9
330
1F
100
AcDbEntity
  8
A_FASEN
  6
Continuous
 62
     7
100
AcDbCircle
 10
-245.8019902669
 20
267.6424108792
 30
0.0
 40
181.0732354590133
100
AcDbArc
 50
-49.13099458840372
 51
-48.88978953045419
  0
ARC
  5
BA
330
1F
100
AcDbEntity
  8
0
  6
Continuous
 62
     7
100
AcDbCircle
 10
-166.110842093
 20
125.3134639213
 30
0.0
 40
1.0
100
AcDbArc
 50
180.0
 51
-90.0
  0
ARC
  5
BB
330
1F
100
AcDbEntity
  8
0
  6
Continuous
 62
     7
100
AcDbCircle
 10
-106.2454439296
 20
133.2134639213
 30
0.0
 40
3.0
100
AcDbArc
 50
90.0
 51
180.0
  0
ARC
  5
BC
330
1F
100
AcDbEntity
  8
0
  6
Continuous
 62
     7
100
AcDbCircle
 10
-100.1866731124
 20
133.2134639213
 30
0.0
 40
2.999999999999928
100
AcDbArc
 50
14.47751218589104
 51
90.0
  0
ARC
  5
BD
330
1F
100
AcDbEntity
  8
0
  6
Continuous
 62
     7
100
AcDbCircle
 10
-100.1866731124
 20
153.2134639213
 30
0.0
 40
3.0
100
AcDbArc
 50
-90.0
 51
-14.47751218589051
  0
ARC
  5
BE
330
1F
100
AcDbEntity
  8
0
  6
Continuous
 62
     7
100
AcDbCircle
 10
-106.2454439296
 20
153.2134639213
 30
0.0
 40
3.0
100
AcDbArc
 50
180.0
 51
-90.0
  0
ARC
  5
BF
330
1F
100
AcDbEntity
  8
0
  6
Continuous
 62
     7
100
AcDbCircle
 10
-106.2454439296
 20
125.2134639213
 30
0.0
 40
3.0
100
AcDbArc
 50
180.0
 51
-90.0
  0
ARC
  5
C0
330
1F
100
AcDbEntity
  8
0
  6
Continuous
 62
     7
100
AcDbCircle
 10
-100.1866731124
 20
125.2134639213
 30
0.0
 40
3.0
100
AcDbArc
 50
-90.0
 51
-14.47751218589104
  0
ARC
  5
C1
330
1F
100
AcDbEntity
  8
0
  6
Continuous
 62
     7
100
AcDbCircle
 10
-93.24544392959999
 20
134.9634639213
 30
0.0
 40
2.5
100
AcDbArc
 50
-90.0
 51
0.0
  0
ARC
  5
C2
330
1F
100
AcDbEntity
  8
0
  6
Continuous
 62
     7
100
AcDbCircle
 10
-93.24544392959999
 20
151.4634639213
 30
0.0
 40
2.5
100
AcDbArc
 50
0.0
 51
90.0
  0
ARC
  5
C3
330
1F
100
AcDbEntity
  8
0
  6
Continuous
 62
     7
100
AcDbCircle
 10
-93.24544392959999
 20
123.4634639213
 30
0.0
 40
2.5
100
AcDbArc
 50
0.0
 51
90.0
  0
ARC
  5
C4
330
1F
100
AcDbEntity
  8
0
  6
Continuous
 62
     7
100
AcDbCircle
 10
-95.34544392960001
 20
134.4634639213
 30
0.0
 40
2.0000000000395
100
AcDbArc
 50
-165.5224878143034
 51
-90.0
  0
ARC
  5
C5
330
1F
100
AcDbEntity
  8
0
  6
Continuous
 62
     7
100
AcDbCircle
 10
-95.34544392960001
 20
151.9634639213
 30
0.0
 40
2.0
100
AcDbArc
 50
90.0
 51
165.5224878143026
  0
ARC
  5
C6
330
1F
100
AcDbEntity
  8
0
  6
Continuous
 62
     7
100
AcDbCircle
 10
-95.34544392960001
 20
123.9634639213
 30
0.0
 40
2.0
100
AcDbArc
 50
90.0
 51
165.5224878143034
  0
ARC
  5
C7
330
1F
100
AcDbEntity
  8
0
  6
Continuous
 62
     7
100
AcDbCircle
 10
-119.6066544449
 20
128.7511501002
 30
0.0
 40
1.964780543400008
100
AcDbArc
 50
43.03253151210757
 51
69.24014893040882
  0
ARC
  5
C8
330
1F
100
AcDbEntity
  8
0
  6
Continuous
 62
     7
100
AcDbCircle
 10
-119.5962642399
 20
128.7680783894
 30
0.0
 40
1.945386314799493
100
AcDbArc
 50
74.26891636190433
 51
89.94859712669921
  0
ARC
  5
C9
330
1F
100
AcDbEntity
  8
0
  6
Continuous
 62
     7
100
AcDbCircle
 10
-119.5945236958
 20
128.7776182495
 30
0.0
 40
1.93573208546551
100
AcDbArc
 50
69.29820647679396
 51
74.24194807664345
  0
ARC
  5
CA
330
1F
100
AcDbEntity
  8
0
  6
Continuous
 62
     7
100
AcDbCircle
 10
-166.110842093
 20
189.1134639213
 30
0.0
 40
1.0
100
AcDbArc
 50
90.0
 51
180.0
  0
ARC
  5
CB
330
1F
100
AcDbEntity
  8
0
  6
Continuous
 62
     7
100
AcDbCircle
 10
-106.2454439296
 20
161.2134639213
 30
0.0
 40
3.0
100
AcDbArc
 50
90.0
 51
180.0
  0
ARC
  5
CC
330
1F
100
AcDbEntity
  8
0
  6
Continuous
 62
     7
100
AcDbCircle
 10
-100.1866731124
 20
161.2134639213
 30
0.0
 40
2.999999999999928
100
AcDbArc
 50
14.47751218589104
 51
90.0
  0
ARC
  5
CD
330
1F
100
AcDbEntity
  8
0
  6
Continuous
 62
     7
100
AcDbCircle
 10
-100.1866731124
 20
181.2134639213
 30
0.0
 40
3.0
100
AcDbArc
 50
-90.0
 51
-14.47751218589051
  0
ARC
  5
CE
330
1F
100
AcDbEntity
  8
0
  6
Continuous
 62
     7
100
AcDbCircle
 10
-100.1866731124
 20
189.2134639213
 30
0.0
 40
2.999999999999928
100
AcDbArc
 50
14.47751218589104
 51
90.0
  0
ARC
  5
CF
330
1F
100
AcDbEntity
  8
0
  6
Continuous
 62
     7
100
AcDbCircle
 10
-106.2454439296
 20
189.2134639213
 30
0.0
 40
3.0
100
AcDbArc
 50
90.0
 51
180.0
  0
ARC
  5
D0
330
1F
100
AcDbEntity
  8
0
  6
Continuous
 62
     7
100
AcDbCircle
 10
-106.2454439296
 20
181.2134639213
 30
0.0
 40
3.0
100
AcDbArc
 50
180.0
 51
-90.0
  0
ARC
  5
D1
330
1F
100
AcDbEntity
  8
0
  6
Continuous
 62
     7
100
AcDbCircle
 10
-93.24544392959999
 20
162.9634639213
 30
0.0
 40
2.5
100
AcDbArc
 50
-90.0
 51
0.0
  0
ARC
  5
D2
330
1F
100
AcDbEntity
  8
0
  6
Continuous
 62
     7
100
AcDbCircle
 10
-93.24544392959999
 20
179.4634639213
 30
0.0
 40
2.5
100
AcDbArc
 50
0.0
 51
90.0
  0
ARC
  5
D3
330
1F
100
AcDbEntity
  8
0
  6
Continuous
 62
     7
100
AcDbCircle
 10
-93.24544392959999
 20
190.9634639213
 30
0.0
 40
2.5
100
AcDbArc
 50
-90.0
 51
0.0
  0
ARC
  5
D4
330
1F
100
AcDbEntity
  8
0
  6
Continuous
 62
     7
100
AcDbCircle
 10
-95.34544392960001
 20
162.4634639213
 30
0.0
 40
2.0000000000395
100
AcDbArc
 50
-165.5224878143034
 51
-90.0
  0
ARC
  5
D5
330
1F
100
AcDbEntity
  8
0
  6
Continuous
 62
     7
100
AcDbCircle
 10
-95.34544392960001
 20
179.9634639213
 30
0.0
 40
2.0
100
AcDbArc
 50
90.0
 51
165.5224878143026
  0
ARC
  5
D6
330
1F
100
AcDbEntity
  8
0
  6
Continuous
 62
     7
100
AcDbCircle
 10
-95.34544392960001
 20
190.4634639213
 30
0.0
 40
2.0000000000395
100
AcDbArc
 50
-165.5224878143034
 51
-90.0
  0
SPLINE
  5
D7
330
1F
100
AcDbEntity
  8
0
  6
Continuous
 62
     7
100
AcDbSpline
210
0.0
220
0.0
230
1.0
 70
     8
 71
     3
 72
    15
 73
    11
 74
     9
 42
0.0000000001
 43
0.0000000001
 44
0.00000001
 40
0.0
 40
0.0
 40
0.0
 40
0.0
 40
0.2166801955332664
 40
0.4341185874530236
 40
0.6511253794800608
 40
0.8680174792928311
 40
1.084545085584633
 40
1.301147196635671
 40
1.516392975412
 40
1.731492901511401
 40
1.731492901511401
 40
1.731492901511401
 40
1.731492901511401
 10
-117.2454439296
 20
185.7134591408
 30
0.0
 10
-117.2494586338896
 20
185.6411525812371
 30
0.0
 10
-117.2575020905193
 20
185.4962864506533
 30
0.0
 10
-117.3177310520577
 20
185.2860402349566
 30
0.0
 10
-117.4086289885175
 20
185.0881920690058
 30
0.0
 10
-117.5273502159781
 20
184.9059226021681
 30
0.0
 10
-117.6671197210175
 20
184.7397556173083
 30
0.0
 10
-117.8232905207148
 20
184.5899316479909
 30
0.0
 10
-117.9909822405645
 20
184.4538049103957
 30
0.0
 10
-118.1106515783572
 20
184.3745826706702
 30
0.0
 10
-118.1704659681
 20
184.3349849758
 30
0.0
 11
-117.2454439296
 21
185.7134591408
 31
0.0
 11
-117.2654881299772
 21
185.4977080407621
 31
0.0
 11
-117.3228919556131
 21
185.2879838049594
 31
0.0
 11
-117.4133088797717
 21
185.0907105741054
 31
0.0
 11
-117.5309436115829
 21
184.9084902326699
 31
0.0
 11
-117.6699009680057
 21
184.7424328408367
 31
0.0
 11
-117.8256096552404
 21
184.5918629924891
 31
0.0
 11
-117.9930518822723
 21
184.4566082480709
 31
0.0
 11
-118.1704659681
 21
184.3349849758
 31
0.0
  0
SPLINE
  5
D8
330
1F
100
AcDbEntity
  8
0
  6
Continuous
 62
     7
100
AcDbSpline
210
0.0
220
0.0
230
1.0
 70
     8
 71
     3
 72
    15
 73
    11
 74
     9
 42
0.0000000001
 43
0.0000000001
 44
0.00000001
 40
0.0
 40
0.0
 40
0.0
 40
0.0
 40
0.2150999260738949
 40
0.430345704828691
 40
0.6469478158876028
 40
0.8634754222026088
 40
1.080367522027684
 40
1.297374314056601
 40
1.514812705976331
 40
1.731492901509599
 40
1.731492901509599
 40
1.731492901509599
 40
1.731492901509599
 10
-118.170465968072
 20
130.091942866719
 30
0.0
 10
-118.1106515783394
 20
130.0523451718494
 30
0.0
 10
-117.9909822405658
 20
129.9731229321243
 30
0.0
 10
-117.8232905207017
 20
129.8369961945682
 30
0.0
 10
-117.6671197210124
 20
129.6871722252354
 30
0.0
 10
-117.5273502159823
 20
129.5210052403498
 30
0.0
 10
-117.4086289885199
 20
129.3387357734989
 30
0.0
 10
-117.3177310520578
 20
129.140887607544
 30
0.0
 10
-117.2575020905193
 20
128.9306413918466
 30
0.0
 10
-117.2494586338897
 20
128.7857752612629
 30
0.0
 10
-117.2454439296
 20
128.7134687017
 30
0.0
 11
-118.170465968072
 21
130.091942866719
 31
0.0
 11
-117.9930518822688
 21
129.9703195944575
 31
0.0
 11
-117.8256096552404
 21
129.8350648500692
 31
0.0
 11
-117.6699009680057
 21
129.6844950017103
 31
0.0
 11
-117.5309436115829
 21
129.5184376098468
 31
0.0
 11
-117.4133088797717
 21
129.3362172683966
 31
0.0
 11
-117.3228919556131
 21
129.1389440375406
 31
0.0
 11
-117.2654881299772
 21
128.9292198017379
 31
0.0
 11
-117.2454439296
 21
128.7134687017
 31
0.0
  0
SPLINE
  5
D9
330
1F
100
AcDbEntity
  8
0
  6
Continuous
 62
     7
100
AcDbSpline
210
0.0
220
0.0
230
1.0
 70
     8
 71
     3
 72
    11
 73
     7
 74
     5
 42
0.0000000001
 43
0.0000000001
 44
0.00000001
 40
0.0
 40
0.0
 40
0.0
 40
0.0
 40
0.3988632908047731
 40
0.7995919471184291
 40
1.198397398761814
 40
1.595261728171237
 40
1.595261728171237
 40
1.595261728171237
 40
1.595261728171237
 10
-118.1704659681
 20
184.3349849758
 30
0.0
 10
-118.2671609861601
 20
184.2430101517365
 30
0.0
 10
-118.4610032362488
 20
184.0586303645908
 30
0.0
 10
-118.8142643511827
 20
183.8644697908763
 30
0.0
 10
-119.1962080693751
 20
183.7374752100437
 30
0.0
 10
-119.4619647624955
 20
183.7214546562583
 30
0.0
 10
-119.594518938
 20
183.7134639213
 30
0.0
 11
-118.1704659681
 21
184.3349849758
 31
0.0
 11
-118.4709672058876
 21
184.0727047233224
 31
0.0
 11
-118.819745303785
 21
183.8753793716364
 31
0.0
 11
-119.1997779610374
 21
183.7544621781435
 31
0.0
 11
-119.594518938
 21
183.7134639213
 31
0.0
  0
MTEXT
  5
DB
330
1F
100
AcDbEntity
  8
1
 62
     2
100
AcDbMText
 10
-153.590311633406
 20
159.9209332368023
 30
0.0
 40
2.5
 41
0.0
 71
     5
 72
     1
  1
BBL
  7
CONVERTER_11
 73
     1
 44
1.32052821128451
  0
DIMENSION
  5
E6
330
1F
100
AcDbEntity
  8
1
100
AcDbDimension
  2
*D1
 10
-187.886145101362
 20
247.2134639213
 30
0.0
 11
-191.636145101362
 21
198.287932006406
 31
0.0
 70
    32
  1
<>
 71
     5
 42
-1.0
 53
90.0
  3
ME10_DIM_10
100
AcDbAlignedDimension
 13
-182.1374671907
 23
157.2134639213
 33
0.0
 14
-174.2454439296
 24
247.2134639213
 34
0.0
 50
90.0
100
AcDbRotatedDimension
  0
DIMENSION
  5
F1
330
1F
100
AcDbEntity
  8
1
100
AcDbDimension
  2
*D2
 10
-154.2454439296
 20
241.658653512384
 30
0.0
 11
-143.123757519054
 21
245.408653512384
 31
0.0
 70
    32
  1
<>
 71
     5
 42
-1.0
 53
0.00013888888889
  3
ME10_DIM_11
100
AcDbAlignedDimension
 13
-132.2454439296
 23
232.2134639213
 33
0.0
 14
-154.2454439296
 24
232.2134639213
 34
0.0
100
AcDbRotatedDimension
  0
DIMENSION
  5
FC
330
1F
100
AcDbEntity
  8
1
100
AcDbDimension
  2
*D3
 10
-199.0930649039443
 20
247.2134639213
 30
0.0
 11
-202.8430649039443
 21
158.342822913787
 31
0.0
 70
    32
  1
<>
 71
     5
 42
-1.0
 53
90.0
  3
ME10_DIM_12
100
AcDbAlignedDimension
 13
-178.2454439296
 23
67.2134639213
 33
0.0
 14
-178.2454439296
 24
247.2134639213
 34
0.0
 50
90.0
100
AcDbRotatedDimension
  0
DIMENSION
  5
107
330
1F
100
AcDbEntity
  8
1
100
AcDbDimension
  2
*D4
 10
-60.92603380941799
 20
232.2134639213
 30
0.0
 11
-64.67603380941799
 21
158.03971103454
 31
0.0
 70
    32
  1
<>
 71
     5
 42
-1.0
 53
90.0
  3
ME10_DIM_13
100
AcDbAlignedDimension
 13
-132.2454511921
 23
82.2134639213
 33
0.0
 14
-132.2454511921
 24
232.2134639213
 34
0.0
 50
90.0
100
AcDbRotatedDimension
  0
DIMENSION
  5
112
330
1F
100
AcDbEntity
  8
1
100
AcDbDimension
  2
*D5
 10
-70.73654521305801
 20
199.2134639213
 30
0.0
 11
-74.48654521305801
 21
157.358894521707
 31
0.0
 70
    32
  1
<>
 71
     5
 42
-1.0
 53
90.0
  3
ME10_DIM_14
100
AcDbAlignedDimension
 13
-94.4774947371688
 23
115.2134639213001
 33
0.0
 14
-94.4774947371688
 24
199.2134639213
 34
0.0
 50
90.0
100
AcDbRotatedDimension
  0
DIMENSION
  5
11D
330
1F
100
AcDbEntity
  8
1
100
AcDbDimension
  2
*D6
 10
-80.901841845066
 20
157.2134639213
 30
0.0
 11
-84.651841845066
 21
144.190214793878
 31
0.0
 70
    32
  1
<>
 71
     5
 42
-1.0
 53
90.0
  3
ME10_DIM_15
100
AcDbAlignedDimension
 13
-87.74544392959999
 23
129.2134639213
 33
0.0
 14
-89.2079335684
 24
157.2134639213
 34
0.0
 50
90.0
100
AcDbRotatedDimension
  0
DIMENSION
  5
128
330
1F
100
AcDbEntity
  8
1
100
AcDbDimension
  2
*D7
 10
-80.901841845066
 20
185.2134639213
 30
0.0
 11
-84.651841845066
 21
170.758603718445
 31
0.0
 70
    32
  1
<>
 71
     5
 42
-1.0
 53
90.0
  3
ME10_DIM_16
100
AcDbAlignedDimension
 13
-89.2079335684
 23
157.2134639213
 33
0.0
 14
-87.74544392959999
 24
185.2134639213
 34
0.0
 50
90.0
100
AcDbRotatedDimension
  0
ENDSEC
  0
SECTION
  2
OBJECTS
  0
DICTIONARY
  5
C
330
0
100
AcDbDictionary
281
     1
  3
ACAD_GROUP
350
D
  3
ACAD_LAYOUT
350
1A
  3
ACAD_MLINESTYLE
350
17
  3
ACAD_PLOTSETTINGS
350
19
  3
ACAD_PLOTSTYLENAME
350
E
  0
DICTIONARY
  5
D
102
{ACAD_REACTORS
330
C
102
}
330
C
100
AcDbDictionary
281
     1
  0
DICTIONARY
  5
1A
102
{ACAD_REACTORS
330
C
102
}
330
C
100
AcDbDictionary
281
     1
  3
Layout1
350
1E
  3
Layout2
350
26
  3
Model
350
22
  0
DICTIONARY
  5
17
102
{ACAD_REACTORS
330
C
102
}
330
C
100
AcDbDictionary
281
     1
  3
Standard
350
18
  0
DICTIONARY
  5
19
102
{ACAD_REACTORS
330
C
102
}
330
C
100
AcDbDictionary
281
     1
  0
ACDBDICTIONARYWDFLT
  5
E
102
{ACAD_REACTORS
330
C
102
}
330
C
100
AcDbDictionary
281
     1
  3
Normal
350
F
100
AcDbDictionaryWithDefault
340
F
  0
LAYOUT
  5
1E
102
{ACAD_REACTORS
330
1A
102
}
330
1A
100
AcDbPlotSettings
  1

  2

  4

  6

 40
0.0
 41
0.0
 42
0.0
 43
0.0
 44
0.0
 45
0.0
 46
0.0
 47
0.0
 48
0.0
 49
0.0
140
0.0
141
0.0
142
1.0
143
1.0
 70
   688
 72
     0
 73
     0
 74
     5
  7

 75
    16
 76
     0
 77
     2
 78
   300
147
1.0
148
0.0
149
0.0
100
AcDbLayout
  1
Layout1
 70
     1
 71
     1
 10
0.0
 20
0.0
 11
0.0
 21
0.0
 12
0.0
 22
0.0
 32
0.0
 14
0.0
 24
0.0
 34
0.0
 15
0.0
 25
0.0
 35
0.0
146
0.0
 13
0.0
 23
0.0
 33
0.0
 16
1.0
 26
0.0
 36
0.0
 17
0.0
 27
1.0
 37
0.0
 76
     0
330
1B
  0
LAYOUT
  5
26
102
{ACAD_REACTORS
330
1A
102
}
330
1A
100
AcDbPlotSettings
  1

  2

  4

  6

 40
0.0
 41
0.0
 42
0.0
 43
0.0
 44
0.0
 45
0.0
 46
0.0
 47
0.0
 48
0.0
 49
0.0
140
0.0
141
0.0
142
1.0
143
1.0
 70
   688
 72
     0
 73
     0
 74
     5
  7

 75
    16
 76
     0
 77
     2
 78
   300
147
1.0
148
0.0
149
0.0
100
AcDbLayout
  1
Layout2
 70
     1
 71
     2
 10
0.0
 20
0.0
 11
0.0
 21
0.0
 12
0.0
 22
0.0
 32
0.0
 14
0.0
 24
0.0
 34
0.0
 15
0.0
 25
0.0
 35
0.0
146
0.0
 13
0.0
 23
0.0
 33
0.0
 16
1.0
 26
0.0
 36
0.0
 17
0.0
 27
1.0
 37
0.0
 76
     0
330
23
  0
LAYOUT
  5
22
102
{ACAD_REACTORS
330
1A
102
}
330
1A
100
AcDbPlotSettings
  1

  2

  4

  6

 40
0.0
 41
0.0
 42
0.0
 43
0.0
 44
0.0
 45
0.0
 46
0.0
 47
0.0
 48
0.0
 49
0.0
140
0.0
141
0.0
142
1.0
143
1.0
 70
  1712
 72
     0
 73
     0
 74
     0
  7

 75
     0
 76
     0
 77
     2
 78
   300
147
1.0
148
0.0
149
0.0
100
AcDbLayout
  1
Model
 70
     1
 71
     0
 10
0.0
 20
0.0
 11
0.0
 21
0.0
 12
0.0
 22
0.0
 32
0.0
 14
-204.5930649039443
 24
67.2134639213
 34
0.0
 15
-58.92603380941799
 25
247.2134639213
 35
0.0
146
0.0
 13
0.0
 23
0.0
 33
0.0
 16
1.0
 26
0.0
 36
0.0
 17
0.0
 27
1.0
 37
0.0
 76
     0
330
1F
  0
MLINESTYLE
  5
18
102
{ACAD_REACTORS
330
17
102
}
330
17
100
AcDbMlineStyle
  2
Standard
 70
     0
  3

 62
   256
 51
90.0
 52
90.0
 71
     2
 49
0.5
 62
   256
  6
BYLAYER
 49
-0.5
 62
   256
  6
BYLAYER
  0
ACDBPLACEHOLDER
  5
F
102
{ACAD_REACTORS
330
E
102
}
330
E
  0
ENDSEC
  0
EOF
