  0
SECTION
  2
HEADER
  9
$ACADVER
  1
AC1024
  9
$ACADMAINTVER
 70
     6
  9
$DWGCODEPAGE
  3
ANSI_1252
  9
$INSBASE
 10
0.0
 20
0.0
 30
0.0
  9
$EXTMIN
 10
91.5637012682177
 20
101.188158536473
 30
0.0
  9
$EXTMAX
 10
160.103730934242
 20
188.507536372548
 30
0.0
  9
$LIMMIN
 10
0.0
 20
0.0
  9
$LIMMAX
 10
12.0
 20
9.0
  9
$ORTHOMODE
 70
     0
  9
$REGENMODE
 70
     1
  9
$FILLMODE
 70
     1
  9
$QTEXTMODE
 70
     0
  9
$MIRRTEXT
 70
     1
  9
$LTSCALE
 40
1.0
  9
$ATTMODE
 70
     1
  9
$TEXTSIZE
 40
0.2
  9
$TRACEWID
 40
0.05
  9
$TEXTSTYLE
  7
Standard
  9
$CLAYER
  8
0
  9
$CELTYPE
  6
ByLayer
  9
$CECOLOR
 62
   256
  9
$CELTSCALE
 40
1.0
  9
$DISPSILH
 70
     0
  9
$DIMSCALE
 40
1.0
  9
$DIMASZ
 40
0.18
  9
$DIMEXO
 40
0.0625
  9
$DIMDLI
 40
0.38
  9
$DIMRND
 40
0.0
  9
$DIMDLE
 40
0.0
  9
$DIMEXE
 40
0.18
  9
$DIMTP
 40
0.0
  9
$DIMTM
 40
0.0
  9
$DIMTXT
 40
0.18
  9
$DIMCEN
 40
0.09
  9
$DIMTSZ
 40
0.0
  9
$DIMTOL
 70
     0
  9
$DIMLIM
 70
     0
  9
$DIMTIH
 70
     1
  9
$DIMTOH
 70
     1
  9
$DIMSE1
 70
     0
  9
$DIMSE2
 70
     0
  9
$DIMTAD
 70
     0
  9
$DIMZIN
 70
     0
  9
$DIMBLK
  1

  9
$DIMASO
 70
     1
  9
$DIMSHO
 70
     1
  9
$DIMPOST
  1

  9
$DIMAPOST
  1

  9
$DIMALT
 70
     0
  9
$DIMALTD
 70
     2
  9
$DIMALTF
 40
25.4
  9
$DIMLFAC
 40
1.0
  9
$DIMTOFL
 70
     0
  9
$DIMTVP
 40
0.0
  9
$DIMTIX
 70
     0
  9
$DIMSOXD
 70
     0
  9
$DIMSAH
 70
     0
  9
$DIMBLK1
  1

  9
$DIMBLK2
  1

  9
$DIMSTYLE
  2
Standard
  9
$DIMCLRD
 70
     0
  9
$DIMCLRE
 70
     0
  9
$DIMCLRT
 70
     0
  9
$DIMTFAC
 40
1.0
  9
$DIMGAP
 40
0.09
  9
$DIMJUST
 70
     0
  9
$DIMSD1
 70
     0
  9
$DIMSD2
 70
     0
  9
$DIMTOLJ
 70
     1
  9
$DIMTZIN
 70
     0
  9
$DIMALTZ
 70
     0
  9
$DIMALTTZ
 70
     0
  9
$DIMUPT
 70
     0
  9
$DIMDEC
 70
     4
  9
$DIMTDEC
 70
     4
  9
$DIMALTU
 70
     2
  9
$DIMALTTD
 70
     2
  9
$DIMTXSTY
  7
Standard
  9
$DIMAUNIT
 70
     0
  9
$DIMADEC
 70
     0
  9
$DIMALTRND
 40
0.0
  9
$DIMAZIN
 70
     0
  9
$DIMDSEP
 70
    46
  9
$DIMATFIT
 70
     3
  9
$DIMFRAC
 70
     0
  9
$DIMLDRBLK
  1

  9
$DIMLUNIT
 70
     2
  9
$DIMLWD
 70
    -2
  9
$DIMLWE
 70
    -2
  9
$DIMTMOVE
 70
     0
  9
$DIMFXL
 40
1.0
  9
$DIMFXLON
 70
     0
  9
$DIMJOGANG
 40
0.78539816339745
  9
$DIMTFILL
 70
     0
  9
$DIMTFILLCLR
 70
     0
  9
$DIMARCSYM
 70
     0
  9
$DIMLTYPE
  6

  9
$DIMLTEX1
  6

  9
$DIMLTEX2
  6

  9
$DIMTXTDIRECTION
 70
     0
  9
$LUNITS
 70
     2
  9
$LUPREC
 70
     4
  9
$SKETCHINC
 40
0.1
  9
$FILLETRAD
 40
0.5
  9
$AUNITS
 70
     0
  9
$AUPREC
 70
     0
  9
$MENU
  1
.
  9
$ELEVATION
 40
0.0
  9
$PELEVATION
 40
0.0
  9
$THICKNESS
 40
0.0
  9
$LIMCHECK
 70
     0
  9
$CHAMFERA
 40
0.5
  9
$CHAMFERB
 40
0.5
  9
$CHAMFERC
 40
1.0
  9
$CHAMFERD
 40
0.0
  9
$SKPOLY
 70
     0
  9
$TDCREATE
 40
2457268.602945104
  9
$TDUCREATE
 40
2457268.519611771
  9
$TDUPDATE
 40
2457268.60294625
  9
$TDUUPDATE
 40
2457268.519612917
  9
$TDINDWG
 40
0.0000000116
  9
$TDUSRTIMER
 40
0.0000000116
  9
$USRTIMER
 70
     1
  9
$ANGBASE
 50
0.0
  9
$ANGDIR
 70
     0
  9
$PDMODE
 70
     0
  9
$PDSIZE
 40
0.0
  9
$PLINEWID
 40
0.0
  9
$SPLFRAME
 70
     0
  9
$SPLINETYPE
 70
     6
  9
$SPLINESEGS
 70
     8
  9
$HANDSEED
  5
186
  9
$SURFTAB1
 70
     6
  9
$SURFTAB2
 70
     6
  9
$SURFTYPE
 70
     6
  9
$SURFU
 70
     6
  9
$SURFV
 70
     6
  9
$UCSBASE
  2

  9
$UCSNAME
  2

  9
$UCSORG
 10
0.0
 20
0.0
 30
0.0
  9
$UCSXDIR
 10
1.0
 20
0.0
 30
0.0
  9
$UCSYDIR
 10
0.0
 20
1.0
 30
0.0
  9
$UCSORTHOREF
  2

  9
$UCSORTHOVIEW
 70
     0
  9
$UCSORGTOP
 10
0.0
 20
0.0
 30
0.0
  9
$UCSORGBOTTOM
 10
0.0
 20
0.0
 30
0.0
  9
$UCSORGLEFT
 10
0.0
 20
0.0
 30
0.0
  9
$UCSORGRIGHT
 10
0.0
 20
0.0
 30
0.0
  9
$UCSORGFRONT
 10
0.0
 20
0.0
 30
0.0
  9
$UCSORGBACK
 10
0.0
 20
0.0
 30
0.0
  9
$PUCSBASE
  2

  9
$PUCSNAME
  2

  9
$PUCSORG
 10
0.0
 20
0.0
 30
0.0
  9
$PUCSXDIR
 10
1.0
 20
0.0
 30
0.0
  9
$PUCSYDIR
 10
0.0
 20
1.0
 30
0.0
  9
$PUCSORTHOREF
  2

  9
$PUCSORTHOVIEW
 70
     0
  9
$PUCSORGTOP
 10
0.0
 20
0.0
 30
0.0
  9
$PUCSORGBOTTOM
 10
0.0
 20
0.0
 30
0.0
  9
$PUCSORGLEFT
 10
0.0
 20
0.0
 30
0.0
  9
$PUCSORGRIGHT
 10
0.0
 20
0.0
 30
0.0
  9
$PUCSORGFRONT
 10
0.0
 20
0.0
 30
0.0
  9
$PUCSORGBACK
 10
0.0
 20
0.0
 30
0.0
  9
$USERI1
 70
     0
  9
$USERI2
 70
     0
  9
$USERI3
 70
     0
  9
$USERI4
 70
     0
  9
$USERI5
 70
     0
  9
$USERR1
 40
18.1
  9
$USERR2
 40
0.0
  9
$USERR3
 40
0.0
  9
$USERR4
 40
0.0
  9
$USERR5
 40
0.0
  9
$WORLDVIEW
 70
     1
  9
$SHADEDGE
 70
     3
  9
$SHADEDIF
 70
    70
  9
$TILEMODE
 70
     1
  9
$MAXACTVP
 70
    64
  9
$PINSBASE
 10
0.0
 20
0.0
 30
0.0
  9
$PLIMCHECK
 70
     0
  9
$PEXTMIN
 10
1.00000000000000E+20
 20
1.00000000000000E+20
 30
1.00000000000000E+20
  9
$PEXTMAX
 10
-1.00000000000000E+20
 20
-1.00000000000000E+20
 30
-1.00000000000000E+20
  9
$PLIMMIN
 10
0.0
 20
0.0
  9
$PLIMMAX
 10
12.0
 20
9.0
  9
$UNITMODE
 70
     0
  9
$VISRETAIN
 70
     1
  9
$PLINEGEN
 70
     0
  9
$PSLTSCALE
 70
     1
  9
$TREEDEPTH
 70
  3020
  9
$CMLSTYLE
  2
Standard
  9
$CMLJUST
 70
     0
  9
$CMLSCALE
 40
1.0
  9
$PROXYGRAPHICS
 70
     1
  9
$MEASUREMENT
 70
     1
  9
$CELWEIGHT
370
    -1
  9
$ENDCAPS
280
     0
  9
$JOINSTYLE
280
     0
  9
$LWDISPLAY
290
     0
  9
$INSUNITS
 70
     4
  9
$HYPERLINKBASE
  1

  9
$STYLESHEET
  1

  9
$XEDIT
290
     1
  9
$CEPSNTYPE
380
     0
  9
$PSTYLEMODE
290
     1
  9
$FINGERPRINTGUID
  2
{FAFA2639-1D6F-49ED-9497-96870A60B32C}
  9
$VERSIONGUID
  2
{FAEB1C32-E019-11D5-929B-00C0DF256EC4}
  9
$EXTNAMES
290
     1
  9
$PSVPSCALE
 40
0.0
  9
$OLESTARTUP
290
     0
  9
$SORTENTS
280
   127
  9
$INDEXCTL
280
     0
  9
$HIDETEXT
280
     1
  9
$XCLIPFRAME
280
     2
  9
$HALOGAP
280
     0
  9
$OBSCOLOR
 70
   257
  9
$OBSLTYPE
280
     0
  9
$INTERSECTIONDISPLAY
280
     0
  9
$INTERSECTIONCOLOR
 70
   257
  9
$DIMASSOC
280
     2
  9
$PROJECTNAME
  1

  9
$CAMERADISPLAY
290
     0
  9
$LENSLENGTH
 40
50.0
  9
$CAMERAHEIGHT
 40
0.0
  9
$STEPSPERSEC
 40
2.0
  9
$STEPSIZE
 40
6.0
  9
$3DDWFPREC
 40
2.0
  9
$PSOLWIDTH
 40
0.25
  9
$PSOLHEIGHT
 40
4.0
  9
$LOFTANG1
 40
1.5707963267949
  9
$LOFTANG2
 40
1.5707963267949
  9
$LOFTMAG1
 40
0.0
  9
$LOFTMAG2
 40
0.0
  9
$LOFTPARAM
 70
     7
  9
$LOFTNORMALS
280
     1
  9
$LATITUDE
 40
37.795
  9
$LONGITUDE
 40
-122.394
  9
$NORTHDIRECTION
 40
0.0
  9
$TIMEZONE
 70
 -8000
  9
$LIGHTGLYPHDISPLAY
280
     1
  9
$TILEMODELIGHTSYNCH
280
     1
  9
$SOLIDHIST
280
     1
  9
$SHOWHIST
280
     1
  9
$DWFFRAME
280
     2
  9
$DGNFRAME
280
     2
  9
$REALWORLDSCALE
290
     1
  9
$INTERFERECOLOR
 62
   256
  9
$CSHADOW
280
     0
  9
$SHADOWPLANELOCATION
 40
0.0
  0
ENDSEC
  0
SECTION
  2
CLASSES
  0
CLASS
  1
ACDBDICTIONARYWDFLT
  2
AcDbDictionaryWithDefault
  3
ObjectDBX Classes
 90
        0
 91
        4
280
     0
281
     0
  0
CLASS
  1
VISUALSTYLE
  2
AcDbVisualStyle
  3
ObjectDBX Classes
 90
     4095
 91
        4
280
     0
281
     0
  0
CLASS
  1
MATERIAL
  2
AcDbMaterial
  3
ObjectDBX Classes
 90
     1153
 91
        4
280
     0
281
     0
  0
ENDSEC
  0
SECTION
  2
TABLES
  0
TABLE
  2
VPORT
  5
8
330
0
100
AcDbSymbolTable
 70
     1
  0
VPORT
  5
29
330
8
100
AcDbSymbolTableRecord
100
AcDbViewportTableRecord
  2
*Active
 70
     0
 10
0.0
 20
0.0
 11
1.0
 21
1.0
 12
125.8337161012299
 22
144.8478474545105
 13
0.0
 23
0.0
 14
0.5
 24
0.5
 15
0.5
 25
0.5
 16
0.0
 26
0.0
 36
1.0
 17
0.0
 27
0.0
 37
0.0
 40
96.05131561968251
 41
1.60267857142857
 42
50.0
 43
0.0
 44
0.0
 50
0.0
 51
0.0
 71
     0
 72
   100
 73
     1
 74
     3
 75
     0
 76
     0
 77
     0
 78
     0
281
     0
 65
     1
110
0.0
120
0.0
130
0.0
111
1.0
121
0.0
131
0.0
112
0.0
122
1.0
132
0.0
 79
     0
146
0.0
 60
     3
 61
     5
292
     1
282
     1
141
0.0
142
0.0
 63
   250
  0
ENDTAB
  0
TABLE
  2
LTYPE
  5
5
330
0
100
AcDbSymbolTable
 70
     8
  0
LTYPE
  5
14
330
5
100
AcDbSymbolTableRecord
100
AcDbLinetypeTableRecord
  2
ByBlock
 70
     0
  3

 72
    65
 73
     0
 40
0.0
  0
LTYPE
  5
15
330
5
100
AcDbSymbolTableRecord
100
AcDbLinetypeTableRecord
  2
ByLayer
 70
     0
  3

 72
    65
 73
     0
 40
0.0
  0
LTYPE
  5
16
330
5
100
AcDbSymbolTableRecord
100
AcDbLinetypeTableRecord
  2
Continuous
 70
     0
  3
Solid line
 72
    65
 73
     0
 40
0.0
  0
LTYPE
  5
3F
330
5
100
AcDbSymbolTableRecord
100
AcDbLinetypeTableRecord
  2
DASHED
 70
     0
  3
Dashed
 72
    65
 73
     2
 40
15.0
 49
7.0
 74
     0
 49
-8.0
 74
     0
  0
LTYPE
  5
40
330
5
100
AcDbSymbolTableRecord
100
AcDbLinetypeTableRecord
  2
DOTTED
 70
     0
  3
Dotted
 72
    65
 73
     2
 40
1.0
 49
0.0
 74
     0
 49
-1.0
 74
     0
  0
LTYPE
  5
41
330
5
100
AcDbSymbolTableRecord
100
AcDbLinetypeTableRecord
  2
DOT_CENTER
 70
     0
  3
Dot_Center
 72
    65
 73
     4
 40
14.0
 49
12.0
 74
     0
 49
-1.0
 74
     0
 49
0.0
 74
     0
 49
-1.0
 74
     0
  0
LTYPE
  5
42
330
5
100
AcDbSymbolTableRecord
100
AcDbLinetypeTableRecord
  2
LONG_DASHED
 70
     0
  3
Long_Dashed
 72
    65
 73
     2
 40
15.0
 49
10.0
 74
     0
 49
-5.0
 74
     0
  0
LTYPE
  5
43
330
5
100
AcDbSymbolTableRecord
100
AcDbLinetypeTableRecord
  2
DASH_CENTER
 70
     0
  3
Dash_Center
 72
    65
 73
     4
 40
14.0
 49
11.0
 74
     0
 49
-1.0
 74
     0
 49
1.0
 74
     0
 49
-1.0
 74
     0
  0
LTYPE
  5
44
330
5
100
AcDbSymbolTableRecord
100
AcDbLinetypeTableRecord
  2
PHANTOM
 70
     0
  3
Phantom
 72
    65
 73
     6
 40
13.0
 49
10.0
 74
     0
 49
-1.0
 74
     0
 49
0.0
 74
     0
 49
-1.0
 74
     0
 49
0.0
 74
     0
 49
-1.0
 74
     0
  0
LTYPE
  5
45
330
5
100
AcDbSymbolTableRecord
100
AcDbLinetypeTableRecord
  2
CENTER_DASH_DASH
 70
     0
  3
Center_Dash_Dash
 72
    65
 73
     6
 40
14.0
 49
9.0
 74
     0
 49
-1.0
 74
     0
 49
1.0
 74
     0
 49
-1.0
 74
     0
 49
1.0
 74
     0
 49
-1.0
 74
     0
  0
ENDTAB
  0
TABLE
  2
LAYER
  5
2
330
0
100
AcDbSymbolTable
 70
     7
  0
LAYER
  5
10
330
2
100
AcDbSymbolTableRecord
100
AcDbLayerTableRecord
  2
0
 70
     0
 62
     7
  6
Continuous
370
    -3
390
F
347
3E
  0
LAYER
  5
46
330
2
100
AcDbSymbolTableRecord
100
AcDbLayerTableRecord
  2
1
 70
     0
 62
     7
  6
Continuous
370
    -3
390
F
347
3E
  0
LAYER
  5
47
330
2
100
AcDbSymbolTableRecord
100
AcDbLayerTableRecord
  2
A_ACHSEN
 70
     0
 62
     7
  6
Continuous
370
    -3
390
F
347
3E
  0
LAYER
  5
48
330
2
100
AcDbSymbolTableRecord
100
AcDbLayerTableRecord
  2
A_BEMASSUNGEN
 70
     0
 62
     7
  6
Continuous
370
    -3
390
F
347
3E
  0
LAYER
  5
49
330
2
100
AcDbSymbolTableRecord
100
AcDbLayerTableRecord
  2
A_FASEN
 70
     0
 62
     7
  6
Continuous
370
    -3
390
F
347
3E
  0
LAYER
  5
4A
330
2
100
AcDbSymbolTableRecord
100
AcDbLayerTableRecord
  2
A_RUNDUNGEN
 70
     0
 62
     7
  6
Continuous
370
    -3
390
F
347
3E
  0
LAYER
  5
4B
330
2
100
AcDbSymbolTableRecord
100
AcDbLayerTableRecord
  2
DEFAULT_2
 70
     0
 62
     7
  6
Continuous
370
    -3
390
F
347
3E
  0
ENDTAB
  0
TABLE
  2
STYLE
  5
3
330
0
100
AcDbSymbolTable
 70
     2
  0
STYLE
  5
11
330
3
100
AcDbSymbolTableRecord
100
AcDbTextStyleTableRecord
  2
Standard
 70
     0
 40
0.0
 41
1.0
 50
0.0
 71
     0
 42
0.2
  3
txt
  4

  0
STYLE
  5
152
330
3
100
AcDbSymbolTableRecord
100
AcDbTextStyleTableRecord
  2
CONVERTER_11
 70
     0
 40
0.0
 41
0.9
 50
0.0
 71
     0
 42
0.2
  3
txt.shx
  4

  0
ENDTAB
  0
TABLE
  2
VIEW
  5
6
330
0
100
AcDbSymbolTable
 70
     0
  0
ENDTAB
  0
TABLE
  2
UCS
  5
7
330
0
100
AcDbSymbolTable
 70
     0
  0
ENDTAB
  0
TABLE
  2
APPID
  5
9
330
0
100
AcDbSymbolTable
 70
     1
  0
APPID
  5
12
330
9
100
AcDbSymbolTableRecord
100
AcDbRegAppTableRecord
  2
ACAD
 70
     0
  0
ENDTAB
  0
TABLE
  2
DIMSTYLE
  5
A
330
0
100
AcDbSymbolTable
 70
     6
100
AcDbDimStyleTable
  0
DIMSTYLE
105
27
330
A
100
AcDbSymbolTableRecord
100
AcDbDimStyleTableRecord
  2
Standard
 70
     0
178
     0
340
11
  0
DIMSTYLE
105
156
102
{ACAD_REACTORS
330
157
102
}
330
A
100
AcDbSymbolTableRecord
100
AcDbDimStyleTableRecord
  2
ME10_DIM_10
 70
     0
 41
3.5
 42
0.0
 44
2.0
 73
     0
 74
     0
 77
     1
 78
     8
140
3.5
147
2.0
172
     1
173
     1
174
     1
175
     1
176
     2
177
     2
271
     3
178
     2
271
     3
340
152
  0
DIMSTYLE
105
161
102
{ACAD_REACTORS
330
162
102
}
330
A
100
AcDbSymbolTableRecord
100
AcDbDimStyleTableRecord
  2
ME10_DIM_11
 70
     0
 41
3.5
 42
0.0
 44
2.0
 73
     0
 74
     0
 77
     1
 78
     8
140
3.5
147
2.0
172
     1
173
     1
174
     1
175
     1
176
     2
177
     2
271
     3
178
     2
271
     3
340
152
  0
DIMSTYLE
105
16C
102
{ACAD_REACTORS
330
16D
102
}
330
A
100
AcDbSymbolTableRecord
100
AcDbDimStyleTableRecord
  2
ME10_DIM_12
 70
     0
 41
3.5
 42
0.0
 44
2.0
 73
     0
 74
     0
 77
     1
 78
     8
140
3.5
147
2.0
172
     1
173
     1
174
     1
175
     1
176
     2
177
     2
271
     3
178
     2
271
     3
340
152
  0
DIMSTYLE
105
177
102
{ACAD_REACTORS
330
178
102
}
330
A
100
AcDbSymbolTableRecord
100
AcDbDimStyleTableRecord
  2
ME10_DIM_13
 70
     0
 41
3.5
 42
0.0
 44
2.0
 73
     0
 74
     0
 77
     1
 78
     8
140
3.5
147
2.0
172
     1
173
     1
174
     1
175
     1
176
     2
177
     2
271
     3
178
     2
271
     3
340
152
  0
DIMSTYLE
105
182
102
{ACAD_REACTORS
330
183
102
}
330
A
100
AcDbSymbolTableRecord
100
AcDbDimStyleTableRecord
  2
ME10_DIM_14
 70
     0
 41
3.5
 42
0.0
 44
2.0
 73
     0
 74
     0
 77
     1
 78
     8
140
3.5
147
2.0
172
     1
173
     1
174
     1
175
     1
176
     2
177
     2
271
     3
178
     2
271
     3
340
152
  0
ENDTAB
  0
TABLE
  2
BLOCK_RECORD
  5
1
330
0
100
AcDbSymbolTable
 70
     7
  0
BLOCK_RECORD
  5
1F
330
1
100
AcDbSymbolTableRecord
100
AcDbBlockTableRecord
  2
*Model_Space
340
22
 70
     0
280
     1
281
     0
  0
BLOCK_RECORD
  5
1B
330
1
100
AcDbSymbolTableRecord
100
AcDbBlockTableRecord
  2
*Paper_Space
340
1E
 70
     0
280
     1
281
     0
  0
BLOCK_RECORD
  5
23
330
1
100
AcDbSymbolTableRecord
100
AcDbBlockTableRecord
  2
*Paper_Space0
340
26
 70
     0
280
     1
281
     0
  0
BLOCK_RECORD
  5
4C
330
1
100
AcDbSymbolTableRecord
100
AcDbBlockTableRecord
  2
Top
340
0
102
{BLKREFS
331
4F
102
}
 70
     0
280
     1
281
     0
  0
BLOCK_RECORD
  5
14C
330
1
100
AcDbSymbolTableRecord
100
AcDbBlockTableRecord
  2
*D2
340
0
 70
     0
280
     1
281
     0
  0
BLOCK_RECORD
  5
158
330
1
100
AcDbSymbolTableRecord
100
AcDbBlockTableRecord
  2
*D3
340
0
 70
     0
280
     1
281
     0
  0
BLOCK_RECORD
  5
163
330
1
100
AcDbSymbolTableRecord
100
AcDbBlockTableRecord
  2
*D4
340
0
 70
     0
280
     1
281
     0
  0
BLOCK_RECORD
  5
16E
330
1
100
AcDbSymbolTableRecord
100
AcDbBlockTableRecord
  2
*D5
340
0
 70
     0
280
     1
281
     0
  0
BLOCK_RECORD
  5
179
330
1
100
AcDbSymbolTableRecord
100
AcDbBlockTableRecord
  2
*D6
340
0
 70
     0
280
     1
281
     0
  0
ENDTAB
  0
ENDSEC
  0
SECTION
  2
BLOCKS
  0
BLOCK
  5
20
330
1F
100
AcDbEntity
  8
0
100
AcDbBlockBegin
  2
*Model_Space
 70
     0
 10
0.0
 20
0.0
 30
0.0
  3
*Model_Space
  1

  0
ENDBLK
  5
21
330
1F
100
AcDbEntity
  8
0
100
AcDbBlockEnd
  0
BLOCK
  5
1C
330
1B
100
AcDbEntity
 67
     1
  8
0
100
AcDbBlockBegin
  2
*Paper_Space
 70
     0
 10
0.0
 20
0.0
 30
0.0
  3
*Paper_Space
  1

  0
ENDBLK
  5
1D
330
1B
100
AcDbEntity
 67
     1
  8
0
100
AcDbBlockEnd
  0
BLOCK
  5
24
330
23
100
AcDbEntity
  8
0
100
AcDbBlockBegin
  2
*Paper_Space0
 70
     0
 10
0.0
 20
0.0
 30
0.0
  3
*Paper_Space0
  1

  0
ENDBLK
  5
25
330
23
100
AcDbEntity
  8
0
100
AcDbBlockEnd
  0
BLOCK
  5
4D
330
4C
100
AcDbEntity
  8
0
100
AcDbBlockBegin
  2
Top
 70
     0
 10
224.797215188649
 20
138.19477729175
 30
0.0
  3
Top
  1

  0
LINE
  5
50
330
4C
100
AcDbEntity
  8
1
  6
Continuous
 62
     7
100
AcDbLine
 10
109.2249152542
 20
114.7529985999
 30
0.0
 11
113.7249152542
 21
114.7529985999
 31
0.0
  0
LINE
  5
51
330
4C
100
AcDbEntity
  8
1
  6
Continuous
 62
     7
100
AcDbLine
 10
108.7249152542
 20
123.2529985999
 30
0.0
 11
107.2249152542
 21
123.2529985999
 31
0.0
  0
LINE
  5
52
330
4C
100
AcDbEntity
  8
1
  6
Continuous
 62
     7
100
AcDbLine
 10
107.2249152542
 20
123.2529985999
 30
0.0
 11
107.2249152542
 21
114.7529985999
 31
0.0
  0
LINE
  5
53
330
4C
100
AcDbEntity
  8
1
  6
Continuous
 62
     7
100
AcDbLine
 10
108.7249152542
 20
123.2529985999
 30
0.0
 11
108.7249152542
 21
115.2529985999
 31
0.0
  0
LINE
  5
54
330
4C
100
AcDbEntity
  8
1
  6
Continuous
 62
     7
100
AcDbLine
 10
136.7249152542
 20
113.2529985999
 30
0.0
 11
131.2249152542
 21
113.2529985999
 31
0.0
  0
LINE
  5
55
330
4C
100
AcDbEntity
  8
1
  6
Continuous
 62
     7
100
AcDbLine
 10
121.2249152542
 20
113.2529985999
 30
0.0
 11
108.7249152542
 21
113.2529985999
 31
0.0
  0
LINE
  5
56
330
4C
100
AcDbEntity
  8
1
  6
Continuous
 62
     7
100
AcDbLine
 10
136.7249152542
 20
131.2529985999
 30
0.0
 11
138.2249152542
 21
131.2529985999
 31
0.0
  0
LINE
  5
57
330
4C
100
AcDbEntity
  8
1
  6
Continuous
 62
     7
100
AcDbLine
 10
138.2249152542
 20
131.2529985999
 30
0.0
 11
138.2249152542
 21
125.2529985999
 31
0.0
  0
LINE
  5
58
330
4C
100
AcDbEntity
  8
1
  6
Continuous
 62
     7
100
AcDbLine
 10
136.7249152542
 20
125.2529985999
 30
0.0
 11
138.2249152542
 21
125.2529985999
 31
0.0
  0
LINE
  5
59
330
4C
100
AcDbEntity
  8
1
  6
Continuous
 62
     7
100
AcDbLine
 10
138.2249152542
 20
125.2529985999
 30
0.0
 11
138.2249152542
 21
114.7529985999
 31
0.0
  0
LINE
  5
5A
330
4C
100
AcDbEntity
  8
1
  6
Continuous
 62
     7
100
AcDbLine
 10
131.2249152542
 20
113.2529985999
 30
0.0
 11
121.2249152542
 21
113.2529985999
 31
0.0
  0
ARC
  5
5B
330
4C
100
AcDbEntity
  8
1
  6
Continuous
 62
     7
100
AcDbCircle
 10
109.2249152542
 20
115.2529985999
 30
0.0
 40
0.5
100
AcDbArc
 50
180.0
 51
270.0
  0
ARC
  5
5C
330
4C
100
AcDbEntity
  8
1
  6
Continuous
 62
     7
100
AcDbCircle
 10
108.7249152542
 20
114.7529985999
 30
0.0
 40
1.5
100
AcDbArc
 50
180.0
 51
270.0
  0
ARC
  5
5D
330
4C
100
AcDbEntity
  8
1
  6
Continuous
 62
     7
100
AcDbCircle
 10
136.7249152542
 20
114.7529985999
 30
0.0
 40
1.5
100
AcDbArc
 50
270.0
 51
0.0
  0
ENDBLK
  5
4E
330
4C
100
AcDbEntity
  8
0
100
AcDbBlockEnd
  0
BLOCK
  5
154
330
14C
100
AcDbEntity
  8
0
100
AcDbBlockBegin
  2
*D2
 70
     1
 10
0.0
 20
0.0
 30
0.0
  3
*D2
  1

  0
LINE
  5
14D
330
14C
100
AcDbEntity
  8
1
  6
Continuous
 62
     2
100
AcDbLine
 10
138.2249152542
 20
103.188158536473
 30
0.0
 11
123.7249152542
 21
103.188158536473
 31
0.0
  0
LINE
  5
14E
330
14C
100
AcDbEntity
  8
1
  6
Continuous
 62
     2
100
AcDbLine
 10
123.7249152542
 20
114.7529985999
 30
0.0
 11
123.7249152542
 21
101.188158536473
 31
0.0
  0
LINE
  5
14F
330
14C
100
AcDbEntity
  8
1
  6
Continuous
 62
     2
100
AcDbLine
 10
138.2249152542
 20
114.7529985999
 30
0.0
 11
138.2249152542
 21
101.188158536473
 31
0.0
  0
SOLID
  5
150
330
14C
100
AcDbEntity
  8
1
 62
     2
100
AcDbTrace
 10
134.7249152542
 20
102.7273747949171
 30
0.0
 11
134.7249152542
 21
103.6489422780289
 31
0.0
 12
138.2249152542
 22
103.188158536473
 32
0.0
 13
138.2249152542
 23
103.188158536473
 33
0.0
  0
SOLID
  5
151
330
14C
100
AcDbEntity
  8
1
 62
     2
100
AcDbTrace
 10
127.2249152542
 20
103.6489422780289
 30
0.0
 11
127.2249152542
 21
102.7273747949171
 31
0.0
 12
123.7249152542
 22
103.188158536473
 32
0.0
 13
123.7249152542
 23
103.188158536473
 33
0.0
  0
MTEXT
  5
153
330
14C
100
AcDbEntity
  8
1
 62
     2
100
AcDbMText
 10
125.787159952818
 20
105.188158536473
 30
0.0
 40
3.5
 41
0.0
 46
0.0
 71
     7
 72
     1
  1
14.5
  7
CONVERTER_11
 11
0.9999999999970619
 21
2.424068405545306E-6
 31
0.0
 73
     1
 44
0.60024009603842
  0
ENDBLK
  5
155
330
14C
100
AcDbEntity
  8
0
100
AcDbBlockEnd
  0
BLOCK
  5
15F
330
158
100
AcDbEntity
  8
0
100
AcDbBlockBegin
  2
*D3
 70
     1
 10
0.0
 20
0.0
 30
0.0
  3
*D3
  1

  0
LINE
  5
159
330
158
100
AcDbEntity
  8
1
  6
Continuous
 62
     2
100
AcDbLine
 10
158.103730934242
 20
113.2529985999
 30
0.0
 11
158.103730934242
 21
131.2529985999
 31
0.0
  0
LINE
  5
15A
330
158
100
AcDbEntity
  8
1
  6
Continuous
 62
     2
100
AcDbLine
 10
141.2249152542
 20
131.2529985999
 30
0.0
 11
160.103730934242
 21
131.2529985999
 31
0.0
  0
LINE
  5
15B
330
158
100
AcDbEntity
  8
1
  6
Continuous
 62
     2
100
AcDbLine
 10
136.7249152542
 20
113.2529985999
 30
0.0
 11
160.103730934242
 21
113.2529985999
 31
0.0
  0
SOLID
  5
15C
330
158
100
AcDbEntity
  8
1
 62
     2
100
AcDbTrace
 10
157.6429471926861
 20
116.7529985999
 30
0.0
 11
158.5645146757979
 21
116.7529985999
 31
0.0
 12
158.103730934242
 22
113.2529985999
 32
0.0
 13
158.103730934242
 23
113.2529985999
 33
0.0
  0
SOLID
  5
15D
330
158
100
AcDbEntity
  8
1
 62
     2
100
AcDbTrace
 10
158.5645146757979
 20
127.7529985999
 30
0.0
 11
157.6429471926861
 21
127.7529985999
 31
0.0
 12
158.103730934242
 22
131.2529985999
 32
0.0
 13
158.103730934242
 23
131.2529985999
 33
0.0
  0
MTEXT
  5
15E
330
158
100
AcDbEntity
  8
1
 62
     2
100
AcDbMText
 10
156.103730934242
 20
119.469127479321
 30
0.0
 40
3.5
 41
0.0
 46
0.0
 71
     7
 72
     1
  1
18
  7
CONVERTER_11
 11
0.0
 21
1.0
 31
0.0
 73
     1
 44
0.60024009603842
  0
ENDBLK
  5
160
330
158
100
AcDbEntity
  8
0
100
AcDbBlockEnd
  0
BLOCK
  5
16A
330
163
100
AcDbEntity
  8
0
100
AcDbBlockBegin
  2
*D4
 70
     1
 10
0.0
 20
0.0
 30
0.0
  3
*D4
  1

  0
LINE
  5
164
330
163
100
AcDbEntity
  8
1
  6
Continuous
 62
     2
100
AcDbLine
 10
148.039115355722
 20
113.2529985999
 30
0.0
 11
148.039115355722
 21
128.2529985999
 31
0.0
  0
LINE
  5
165
330
163
100
AcDbEntity
  8
1
  6
Continuous
 62
     2
100
AcDbLine
 10
141.2249152542
 20
128.2529985999
 30
0.0
 11
150.039115355722
 21
128.2529985999
 31
0.0
  0
LINE
  5
166
330
163
100
AcDbEntity
  8
1
  6
Continuous
 62
     2
100
AcDbLine
 10
136.7249152542
 20
113.2529985999
 30
0.0
 11
150.039115355722
 21
113.2529985999
 31
0.0
  0
SOLID
  5
167
330
163
100
AcDbEntity
  8
1
 62
     2
100
AcDbTrace
 10
147.5783316141661
 20
116.7529985999
 30
0.0
 11
148.4998990972779
 21
116.7529985999
 31
0.0
 12
148.039115355722
 22
113.2529985999
 32
0.0
 13
148.039115355722
 23
113.2529985999
 33
0.0
  0
SOLID
  5
168
330
163
100
AcDbEntity
  8
1
 62
     2
100
AcDbTrace
 10
148.4998990972779
 20
124.7529985999
 30
0.0
 11
147.5783316141661
 21
124.7529985999
 31
0.0
 12
148.039115355722
 22
128.2529985999
 32
0.0
 13
148.039115355722
 23
128.2529985999
 33
0.0
  0
MTEXT
  5
169
330
163
100
AcDbEntity
  8
1
 62
     2
100
AcDbMText
 10
146.039115355722
 20
118.630409514444
 30
0.0
 40
3.5
 41
0.0
 46
0.0
 71
     7
 72
     1
  1
15
  7
CONVERTER_11
 11
0.0
 21
1.0
 31
0.0
 73
     1
 44
0.60024009603842
  0
ENDBLK
  5
16B
330
163
100
AcDbEntity
  8
0
100
AcDbBlockEnd
  0
BLOCK
  5
175
330
16E
100
AcDbEntity
  8
0
100
AcDbBlockBegin
  2
*D5
 70
     1
 10
0.0
 20
0.0
 30
0.0
  3
*D5
  1

  0
LINE
  5
16F
330
16E
100
AcDbEntity
  8
1
  6
Continuous
 62
     2
100
AcDbLine
 10
97.0637012682177
 20
114.7529985999
 30
0.0
 11
97.0637012682177
 21
146.7529985999
 31
0.0
  0
LINE
  5
170
330
16E
100
AcDbEntity
  8
1
  6
Continuous
 62
     2
100
AcDbLine
 10
116.2249152542
 20
146.7529985999
 30
0.0
 11
95.0637012682177
 21
146.7529985999
 31
0.0
  0
LINE
  5
171
330
16E
100
AcDbEntity
  8
1
  6
Continuous
 62
     2
100
AcDbLine
 10
121.4249152542
 20
114.7529985999
 30
0.0
 11
95.0637012682177
 21
114.7529985999
 31
0.0
  0
SOLID
  5
172
330
16E
100
AcDbEntity
  8
1
 62
     2
100
AcDbTrace
 10
96.60291752666181
 20
118.2529985999
 30
0.0
 11
97.52448500977358
 21
118.2529985999
 31
0.0
 12
97.0637012682177
 22
114.7529985999
 32
0.0
 13
97.0637012682177
 23
114.7529985999
 33
0.0
  0
SOLID
  5
173
330
16E
100
AcDbEntity
  8
1
 62
     2
100
AcDbTrace
 10
97.52448500977358
 20
143.2529985999
 30
0.0
 11
96.60291752666181
 21
143.2529985999
 31
0.0
 12
97.0637012682177
 22
146.7529985999
 32
0.0
 13
97.0637012682177
 23
146.7529985999
 33
0.0
  0
MTEXT
  5
174
330
16E
100
AcDbEntity
  8
1
 62
     2
100
AcDbMText
 10
95.0637012682177
 20
127.983643322992
 30
0.0
 40
3.5
 41
0.0
 46
0.0
 71
     7
 72
     1
  1
32
  7
CONVERTER_11
 11
0.0
 21
1.0
 31
0.0
 73
     1
 44
0.60024009603842
  0
ENDBLK
  5
176
330
16E
100
AcDbEntity
  8
0
100
AcDbBlockEnd
  0
BLOCK
  5
180
330
179
100
AcDbEntity
  8
0
100
AcDbBlockBegin
  2
*D6
 70
     1
 10
0.0
 20
0.0
 30
0.0
  3
*D6
  1

  0
LINE
  5
17A
330
179
100
AcDbEntity
  8
1
  6
Continuous
 62
     2
100
AcDbLine
 10
136.7249152542
 20
157.541691364121
 30
0.0
 11
113.7249152542
 21
157.541691364121
 31
0.0
  0
LINE
  5
17B
330
179
100
AcDbEntity
  8
1
  6
Continuous
 62
     2
100
AcDbLine
 10
136.7249152542
 20
146.7529985999
 30
0.0
 11
136.7249152542
 21
159.541691364121
 31
0.0
  0
LINE
  5
17C
330
179
100
AcDbEntity
  8
1
  6
Continuous
 62
     2
100
AcDbLine
 10
113.7249152542
 20
144.2529985999
 30
0.0
 11
113.7249152542
 21
159.541691364121
 31
0.0
  0
SOLID
  5
17D
330
179
100
AcDbEntity
  8
1
 62
     2
100
AcDbTrace
 10
133.2249152542
 20
157.0809076225651
 30
0.0
 11
133.2249152542
 21
158.0024751056769
 31
0.0
 12
136.7249152542
 22
157.541691364121
 32
0.0
 13
136.7249152542
 23
157.541691364121
 33
0.0
  0
SOLID
  5
17E
330
179
100
AcDbEntity
  8
1
 62
     2
100
AcDbTrace
 10
117.2249152542
 20
158.0024751056769
 30
0.0
 11
117.2249152542
 21
157.0809076225651
 31
0.0
 12
113.7249152542
 22
157.541691364121
 32
0.0
 13
113.7249152542
 23
157.541691364121
 33
0.0
  0
MTEXT
  5
17F
330
179
100
AcDbEntity
  8
1
 62
     2
100
AcDbMText
 10
122.982319574203
 20
159.541691364121
 30
0.0
 40
3.5
 41
0.0
 46
0.0
 71
     7
 72
     1
  1
23
  7
CONVERTER_11
 11
0.9999999999970619
 21
2.424068405545306E-6
 31
0.0
 73
     1
 44
0.60024009603842
  0
ENDBLK
  5
181
330
179
100
AcDbEntity
  8
0
100
AcDbBlockEnd
  0
ENDSEC
  0
SECTION
  2
ENTITIES
  0
INSERT
  5
4F
330
1F
100
AcDbEntity
  8
0
100
AcDbBlockReference
  2
Top
 10
224.797215188649
 20
138.19477729175
 30
0.0
  0
POINT
  5
5E
330
1F
100
AcDbEntity
  8
A_BEMASSUNGEN
 62
     7
100
AcDbPoint
 10
123.7249152542
 20
120.2529985999
 30
0.0
  0
POINT
  5
5F
330
1F
100
AcDbEntity
  8
A_BEMASSUNGEN
 62
     7
100
AcDbPoint
 10
116.2249152542
 20
146.7529985999
 30
0.0
  0
POINT
  5
60
330
1F
100
AcDbEntity
  8
A_BEMASSUNGEN
 62
     7
100
AcDbPoint
 10
116.2249152542
 20
114.7529985999
 30
0.0
  0
POINT
  5
61
330
1F
100
AcDbEntity
  8
A_BEMASSUNGEN
 62
     7
100
AcDbPoint
 10
113.7249152542
 20
144.2529985999
 30
0.0
  0
POINT
  5
62
330
1F
100
AcDbEntity
  8
A_BEMASSUNGEN
 62
     7
100
AcDbPoint
 10
141.2249152542
 20
128.2529985999
 30
0.0
  0
POINT
  5
63
330
1F
100
AcDbEntity
  8
A_BEMASSUNGEN
 62
     7
100
AcDbPoint
 10
141.2249152542
 20
131.2529985999
 30
0.0
  0
POINT
  5
64
330
1F
100
AcDbEntity
  8
1
 62
     3
 60
     1
100
AcDbPoint
 10
127.7249152542
 20
131.2529985999
 30
0.0
  0
POINT
  5
65
330
1F
100
AcDbEntity
  8
1
 62
     3
 60
     1
100
AcDbPoint
 10
127.7249152542
 20
125.7529985999
 30
0.0
  0
POINT
  5
66
330
1F
100
AcDbEntity
  8
1
 62
     3
 60
     1
100
AcDbPoint
 10
127.7249152542
 20
124.7529985999
 30
0.0
  0
LINE
  5
67
330
1F
100
AcDbEntity
  8
0
  6
Continuous
 62
     7
100
AcDbLine
 10
136.7249152542
 20
115.7529985999
 30
0.0
 11
136.7249152542
 21
146.7529985999
 31
0.0
  0
LINE
  5
68
330
1F
100
AcDbEntity
  8
0
  6
Continuous
 62
     7
100
AcDbLine
 10
135.2249152542
 20
124.6279985999
 30
0.0
 11
135.2249152542
 21
146.2529985999
 31
0.0
  0
LINE
  5
69
330
1F
100
AcDbEntity
  8
0
  6
Continuous
 62
     7
100
AcDbLine
 10
124.7249152542
 20
113.7529985999
 30
0.0
 11
127.7249152542
 21
113.7529985999
 31
0.0
  0
LINE
  5
6A
330
1F
100
AcDbEntity
  8
0
  6
Continuous
 62
     7
100
AcDbLine
 10
127.7249152542
 20
114.5029985999
 30
0.0
 11
124.7249152542
 21
114.5029985999
 31
0.0
  0
LINE
  5
6B
330
1F
100
AcDbEntity
  8
A_ACHSEN
  6
Continuous
 62
     7
100
AcDbLine
 10
121.4249152542
 20
114.7529985999
 30
0.0
 11
123.7249152542
 21
114.7529985999
 31
0.0
  0
LINE
  5
6C
330
1F
100
AcDbEntity
  8
A_ACHSEN
  6
Continuous
 62
     7
100
AcDbLine
 10
124.4749152542
 20
114.7529985999
 30
0.0
 11
131.4249152542
 21
114.7529985999
 31
0.0
  0
LINE
  5
6D
330
1F
100
AcDbEntity
  8
0
  6
Continuous
 62
     7
100
AcDbLine
 10
124.4749152542
 20
114.7529985999
 30
0.0
 11
135.7249152542
 21
114.7529985999
 31
0.0
  0
LINE
  5
6E
330
1F
100
AcDbEntity
  8
A_ACHSEN
  6
Continuous
 62
     7
100
AcDbLine
 10
118.4249152542
 20
116.2529985999
 30
0.0
 11
123.7249152542
 21
116.2529985999
 31
0.0
  0
LINE
  5
6F
330
1F
100
AcDbEntity
  8
A_ACHSEN
  6
Continuous
 62
     7
100
AcDbLine
 10
124.4749152542
 20
116.2529985999
 30
0.0
 11
132.7249152542
 21
116.2529985999
 31
0.0
  0
LINE
  5
70
330
1F
100
AcDbEntity
  8
0
  6
Continuous
 62
     7
100
AcDbLine
 10
132.7249152542
 20
116.2529985999
 30
0.0
 11
134.7249152542
 21
116.2529985999
 31
0.0
  0
LINE
  5
71
330
1F
100
AcDbEntity
  8
0
  6
Continuous
 62
     7
100
AcDbLine
 10
118.4249152542
 20
116.7529985999
 30
0.0
 11
116.2249152542
 21
116.7529985999
 31
0.0
  0
LINE
  5
72
330
1F
100
AcDbEntity
  8
0
  6
Continuous
 62
     7
100
AcDbLine
 10
119.7249152542
 20
119.4529985999
 30
0.0
 11
123.7249152542
 21
119.4529985999
 31
0.0
  0
LINE
  5
73
330
1F
100
AcDbEntity
  8
0
  6
Continuous
 62
     7
100
AcDbLine
 10
130.7249152542
 20
120.2529985999
 30
0.0
 11
127.7249152542
 21
120.2529985999
 31
0.0
  0
LINE
  5
74
330
1F
100
AcDbEntity
  8
0
  6
Continuous
 62
     7
100
AcDbLine
 10
123.7249152542
 20
120.2529985999
 30
0.0
 11
119.7249152542
 21
120.2529985999
 31
0.0
  0
LINE
  5
75
330
1F
100
AcDbEntity
  8
0
  6
Continuous
 62
     7
100
AcDbLine
 10
136.7249152542
 20
121.7529985999
 30
0.0
 11
135.2249152542
 21
121.7529985999
 31
0.0
  0
LINE
  5
76
330
1F
100
AcDbEntity
  8
0
  6
Continuous
 62
     7
100
AcDbLine
 10
127.7249152542
 20
121.8529985999
 30
0.0
 11
126.3540777355
 21
121.8529985999
 31
0.0
  0
LINE
  5
77
330
1F
100
AcDbEntity
  8
0
  6
Continuous
 62
     7
100
AcDbLine
 10
125.1872848653
 20
121.8529985999
 30
0.0
 11
124.4749152542
 21
121.8529985999
 31
0.0
  0
LINE
  5
78
330
1F
100
AcDbEntity
  8
A_ACHSEN
  6
Continuous
 62
     7
100
AcDbLine
 10
124.4749152542
 20
121.8529985999
 30
0.0
 11
125.1872848653
 21
121.8529985999
 31
0.0
  0
LINE
  5
79
330
1F
100
AcDbEntity
  8
A_ACHSEN
  6
Continuous
 62
     7
100
AcDbLine
 10
126.3540777355
 20
121.8529985999
 30
0.0
 11
127.7249152542
 21
121.8529985999
 31
0.0
  0
LINE
  5
7A
330
1F
100
AcDbEntity
  8
A_ACHSEN
  6
Continuous
 62
     7
100
AcDbLine
 10
131.5249152542
 20
122.2529985999
 30
0.0
 11
130.7249152542
 21
122.2529985999
 31
0.0
  0
LINE
  5
7B
330
1F
100
AcDbEntity
  8
A_ACHSEN
  6
Continuous
 62
     7
100
AcDbLine
 10
119.7249152542
 20
123.2529985999
 30
0.0
 11
116.7249152542
 21
123.2529985999
 31
0.0
  0
LINE
  5
7C
330
1F
100
AcDbEntity
  8
A_FASEN
  6
Continuous
 62
     7
100
AcDbLine
 10
116.7249152542
 20
123.2529985999
 30
0.0
 11
119.7249152542
 21
123.2529985999
 31
0.0
  0
LINE
  5
7D
330
1F
100
AcDbEntity
  8
0
  6
Continuous
 62
     2
100
AcDbLine
 10
132.7249152542
 20
124.2529985999
 30
0.0
 11
132.0725369035
 21
124.2529985999
 31
0.0
  0
LINE
  5
7E
330
1F
100
AcDbEntity
  8
0
  6
Continuous
 62
     2
100
AcDbLine
 10
119.7249152542
 20
124.2529985999
 30
0.0
 11
115.7249152542
 21
124.2529985999
 31
0.0
  0
LINE
  5
7F
330
1F
100
AcDbEntity
  8
0
  6
Continuous
 62
     7
100
AcDbLine
 10
128.4749152542
 20
124.5029985999
 30
0.0
 11
127.7249152542
 21
124.5029985999
 31
0.0
  0
LINE
  5
80
330
1F
100
AcDbEntity
  8
0
  6
Continuous
 62
     7
100
AcDbLine
 10
132.7249152542
 20
124.6279985999
 30
0.0
 11
134.7249152542
 21
124.6279985999
 31
0.0
  0
LINE
  5
81
330
1F
100
AcDbEntity
  8
0
  6
Continuous
 62
     7
100
AcDbLine
 10
123.7249152542
 20
124.7529985999
 30
0.0
 11
124.4749152542
 21
124.7529985999
 31
0.0
  0
LINE
  5
82
330
1F
100
AcDbEntity
  8
A_ACHSEN
  6
Continuous
 62
     7
100
AcDbLine
 10
127.6006511855
 20
125.2529985999
 30
0.0
 11
120.0249152542
 21
125.2529985999
 31
0.0
  0
LINE
  5
83
330
1F
100
AcDbEntity
  8
0
  6
Continuous
 62
     2
100
AcDbLine
 10
120.0249152542
 20
125.2529985999
 30
0.0
 11
119.7249152542
 21
125.2529985999
 31
0.0
  0
LINE
  5
84
330
1F
100
AcDbEntity
  8
0
  6
Continuous
 62
     7
100
AcDbLine
 10
120.0249152542
 20
125.2529985999
 30
0.0
 11
123.7249152542
 21
125.2529985999
 31
0.0
  0
LINE
  5
85
330
1F
100
AcDbEntity
  8
A_RUNDUNGEN
  6
Continuous
 62
     7
100
AcDbLine
 10
120.0249152542
 20
125.2529985999
 30
0.0
 11
127.6006511855
 21
125.2529985999
 31
0.0
  0
LINE
  5
86
330
1F
100
AcDbEntity
  8
DEFAULT_2
  6
DASHED
 62
     2
100
AcDbLine
 10
132.2983020959
 20
125.366247254
 30
0.0
 11
129.5482062479
 21
125.366247254
 31
0.0
  0
LINE
  5
87
330
1F
100
AcDbEntity
  8
0
  6
Continuous
 62
     2
100
AcDbLine
 10
127.7249152542
 20
125.7529985999
 30
0.0
 11
120.0249152542
 21
125.7529985999
 31
0.0
  0
LINE
  5
88
330
1F
100
AcDbEntity
  8
0
  6
Continuous
 62
     7
100
AcDbLine
 10
120.0249152542
 20
125.8529985999
 30
0.0
 11
119.7249152542
 21
125.8529985999
 31
0.0
  0
LINE
  5
89
330
1F
100
AcDbEntity
  8
DEFAULT_2
  6
DASHED
 62
     2
100
AcDbLine
 10
132.2983020959
 20
126.8096229269
 30
0.0
 11
129.5482062479
 21
126.8096229269
 31
0.0
  0
LINE
  5
8A
330
1F
100
AcDbEntity
  8
A_ACHSEN
  6
DOT_CENTER
 62
     2
100
AcDbLine
 10
110.7249152542
 20
128.2529985999
 30
0.0
 11
141.2249152542
 21
128.2529985999
 31
0.0
  0
LINE
  5
8B
330
1F
100
AcDbEntity
  8
DEFAULT_2
  6
DASHED
 62
     2
100
AcDbLine
 10
132.2983020959
 20
129.6963742729
 30
0.0
 11
129.5482062479
 21
129.6963742729
 31
0.0
  0
LINE
  5
8C
330
1F
100
AcDbEntity
  8
0
  6
Continuous
 62
     7
100
AcDbLine
 10
120.0249152542
 20
130.6529985999
 30
0.0
 11
119.7249152542
 21
130.6529985999
 31
0.0
  0
LINE
  5
8D
330
1F
100
AcDbEntity
  8
0
  6
Continuous
 62
     2
100
AcDbLine
 10
127.7249152542
 20
130.7529985999
 30
0.0
 11
120.0249152542
 21
130.7529985999
 31
0.0
  0
LINE
  5
8E
330
1F
100
AcDbEntity
  8
DEFAULT_2
  6
DASHED
 62
     2
100
AcDbLine
 10
132.2983020959
 20
131.1397499459
 30
0.0
 11
129.5482062479
 21
131.1397499459
 31
0.0
  0
LINE
  5
8F
330
1F
100
AcDbEntity
  8
A_ACHSEN
  6
Continuous
 62
     7
100
AcDbLine
 10
127.6006511855
 20
131.2529985999
 30
0.0
 11
120.0249152542
 21
131.2529985999
 31
0.0
  0
LINE
  5
90
330
1F
100
AcDbEntity
  8
0
  6
Continuous
 62
     2
100
AcDbLine
 10
120.0249152542
 20
131.2529985999
 30
0.0
 11
119.7249152542
 21
131.2529985999
 31
0.0
  0
LINE
  5
91
330
1F
100
AcDbEntity
  8
A_ACHSEN
  6
DOT_CENTER
 62
     2
100
AcDbLine
 10
120.0249152542
 20
131.2529985999
 30
0.0
 11
112.7249152542
 21
131.2529985999
 31
0.0
  0
LINE
  5
92
330
1F
100
AcDbEntity
  8
0
  6
Continuous
 62
     7
100
AcDbLine
 10
120.0249152542
 20
131.2529985999
 30
0.0
 11
123.7249152542
 21
131.2529985999
 31
0.0
  0
LINE
  5
93
330
1F
100
AcDbEntity
  8
A_RUNDUNGEN
  6
Continuous
 62
     7
100
AcDbLine
 10
120.0249152542
 20
131.2529985999
 30
0.0
 11
127.6006511855
 21
131.2529985999
 31
0.0
  0
LINE
  5
94
330
1F
100
AcDbEntity
  8
A_ACHSEN
  6
DOT_CENTER
 62
     2
100
AcDbLine
 10
127.6006511855
 20
131.2529985999
 30
0.0
 11
127.7249152542
 21
131.2529985999
 31
0.0
  0
LINE
  5
95
330
1F
100
AcDbEntity
  8
0
  6
Continuous
 62
     7
100
AcDbLine
 10
128.4749152542
 20
132.0029985999
 30
0.0
 11
127.7249152542
 21
132.0029985999
 31
0.0
  0
LINE
  5
96
330
1F
100
AcDbEntity
  8
A_RUNDUNGEN
  6
Continuous
 62
     7
100
AcDbLine
 10
127.6006511855
 20
125.2529985999
 30
0.0
 11
127.8127832217
 21
125.1651306324
 31
0.0
  0
LINE
  5
97
330
1F
100
AcDbEntity
  8
A_ACHSEN
  6
Continuous
 62
     7
100
AcDbLine
 10
131.5249152542
 20
134.2529985999
 30
0.0
 11
130.7249152542
 21
134.2529985999
 31
0.0
  0
LINE
  5
98
330
1F
100
AcDbEntity
  8
0
  6
Continuous
 62
     7
100
AcDbLine
 10
136.7249152542
 20
134.7529985999
 30
0.0
 11
135.2249152542
 21
134.7529985999
 31
0.0
  0
LINE
  5
99
330
1F
100
AcDbEntity
  8
0
  6
Continuous
 62
     7
100
AcDbLine
 10
132.7249152542
 20
137.8779985999
 30
0.0
 11
134.7249152542
 21
137.8779985999
 31
0.0
  0
LINE
  5
9A
330
1F
100
AcDbEntity
  8
0
  6
Continuous
 62
     2
100
AcDbLine
 10
132.7249152542
 20
138.2529985999
 30
0.0
 11
130.7249152542
 21
138.2529985999
 31
0.0
  0
LINE
  5
9B
330
1F
100
AcDbEntity
  8
0
  6
Continuous
 62
     2
100
AcDbLine
 10
119.7249152542
 20
138.2529985999
 30
0.0
 11
115.7249152542
 21
138.2529985999
 31
0.0
  0
LINE
  5
9C
330
1F
100
AcDbEntity
  8
A_FASEN
  6
Continuous
 62
     7
100
AcDbLine
 10
116.7249152542
 20
123.2529985999
 30
0.0
 11
115.7249152542
 21
124.2529985999
 31
0.0
  0
LINE
  5
9D
330
1F
100
AcDbEntity
  8
0
  6
Continuous
 62
     7
100
AcDbLine
 10
134.7249152542
 20
142.7329985999
 30
0.0
 11
132.7249152542
 21
142.6529985999
 31
0.0
  0
LINE
  5
9E
330
1F
100
AcDbEntity
  8
A_ACHSEN
  6
Continuous
 62
     7
100
AcDbLine
 10
131.7249152542
 20
139.2529985999
 30
0.0
 11
130.7249152542
 21
139.2529985999
 31
0.0
  0
LINE
  5
9F
330
1F
100
AcDbEntity
  8
A_ACHSEN
  6
Continuous
 62
     7
100
AcDbLine
 10
119.7249152542
 20
139.2529985999
 30
0.0
 11
116.7249152542
 21
139.2529985999
 31
0.0
  0
LINE
  5
A0
330
1F
100
AcDbEntity
  8
A_FASEN
  6
Continuous
 62
     7
100
AcDbLine
 10
116.7249152542
 20
139.2529985999
 30
0.0
 11
119.7249152542
 21
139.2529985999
 31
0.0
  0
LINE
  5
A1
330
1F
100
AcDbEntity
  8
A_FASEN
  6
Continuous
 62
     7
100
AcDbLine
 10
130.7249152542
 20
139.2529985999
 30
0.0
 11
131.7249152542
 21
139.2529985999
 31
0.0
  0
LINE
  5
A2
330
1F
100
AcDbEntity
  8
0
  6
Continuous
 62
     7
100
AcDbLine
 10
127.7249152542
 20
140.6529985999
 30
0.0
 11
124.4749152542
 21
140.6529985999
 31
0.0
  0
LINE
  5
A3
330
1F
100
AcDbEntity
  8
A_ACHSEN
  6
Continuous
 62
     7
100
AcDbLine
 10
124.4749152542
 20
140.6529985999
 30
0.0
 11
127.7249152542
 21
140.6529985999
 31
0.0
  0
LINE
  5
A4
330
1F
100
AcDbEntity
  8
0
  6
Continuous
 62
     7
100
AcDbLine
 10
124.4749152542
 20
141.2529985999
 30
0.0
 11
123.7249152542
 21
141.2529985999
 31
0.0
  0
LINE
  5
A5
330
1F
100
AcDbEntity
  8
0
  6
Continuous
 62
     7
100
AcDbLine
 10
130.7249152542
 20
142.2529985999
 30
0.0
 11
127.7249152542
 21
142.2529985999
 31
0.0
  0
LINE
  5
A6
330
1F
100
AcDbEntity
  8
0
  6
Continuous
 62
     7
100
AcDbLine
 10
119.7249152542
 20
142.2529985999
 30
0.0
 11
123.7249152542
 21
142.2529985999
 31
0.0
  0
LINE
  5
A7
330
1F
100
AcDbEntity
  8
0
  6
Continuous
 62
     7
100
AcDbLine
 10
119.7249152542
 20
143.0529985999
 30
0.0
 11
123.7249152542
 21
143.0529985999
 31
0.0
  0
LINE
  5
A8
330
1F
100
AcDbEntity
  8
0
  6
Continuous
 62
     7
100
AcDbLine
 10
120.7249152542
 20
144.6529985999
 30
0.0
 11
117.7249152542
 21
143.8491510226
 31
0.0
  0
LINE
  5
A9
330
1F
100
AcDbEntity
  8
0
  6
Continuous
 62
     7
100
AcDbLine
 10
132.7249152542
 20
144.6529985999
 30
0.0
 11
120.7249152542
 21
144.6529985999
 31
0.0
  0
LINE
  5
AA
330
1F
100
AcDbEntity
  8
0
  6
Continuous
 62
     7
100
AcDbLine
 10
116.2249152542
 20
144.7529985999
 30
0.0
 11
132.7249152542
 21
144.7529985999
 31
0.0
  0
LINE
  5
AB
330
1F
100
AcDbEntity
  8
0
  6
Continuous
 62
     7
100
AcDbLine
 10
134.7249152542
 20
146.7529985999
 30
0.0
 11
126.2229542814
 21
146.7529985999
 31
0.0
  0
LINE
  5
AC
330
1F
100
AcDbEntity
  8
0
  6
Continuous
 62
     7
100
AcDbLine
 10
116.2249152542
 20
146.7529985999
 30
0.0
 11
121.2249152542
 21
146.7529985999
 31
0.0
  0
LINE
  5
AD
330
1F
100
AcDbEntity
  8
0
  6
Continuous
 62
     7
100
AcDbLine
 10
134.7249152542
 20
148.2529985999
 30
0.0
 11
131.9894057253
 21
148.2529985999
 31
0.0
  0
LINE
  5
AE
330
1F
100
AcDbEntity
  8
0
  6
Continuous
 62
     7
100
AcDbLine
 10
126.0249152542
 20
144.7529985999
 30
0.0
 11
121.0249152542
 21
145.7529985999
 31
0.0
  0
LINE
  5
AF
330
1F
100
AcDbEntity
  8
0
  6
Continuous
 62
     7
100
AcDbLine
 10
126.2229542814
 20
146.7529985999
 30
0.0
 11
121.4171475245
 21
147.7141599513
 31
0.0
  0
LINE
  5
B0
330
1F
100
AcDbEntity
  8
A_ACHSEN
  6
Continuous
 62
     7
100
AcDbLine
 10
130.7249152542
 20
122.2529985999
 30
0.0
 11
127.8127832199
 21
125.1651306343
 31
0.0
  0
LINE
  5
B1
330
1F
100
AcDbEntity
  8
0
  6
Continuous
 62
     7
100
AcDbLine
 10
128.4749152542
 20
124.5029985999
 30
0.0
 11
130.7249152542
 21
122.2529985999
 31
0.0
  0
LINE
  5
B2
330
1F
100
AcDbEntity
  8
A_RUNDUNGEN
  6
Continuous
 62
     7
100
AcDbLine
 10
127.8127832199
 20
125.1651306343
 30
0.0
 11
130.7249152542
 21
122.2529985999
 31
0.0
  0
LINE
  5
B3
330
1F
100
AcDbEntity
  8
0
  6
Continuous
 62
     7
100
AcDbLine
 10
130.9633452953
 20
146.9339207376
 30
0.0
 11
128.7249152542
 21
147.748642644
 31
0.0
  0
LINE
  5
B4
330
1F
100
AcDbEntity
  8
0
  6
Continuous
 62
     7
100
AcDbLine
 10
131.4763755103
 20
148.3434596687
 30
0.0
 11
129.2379454692
 21
149.1581815752
 31
0.0
  0
LINE
  5
B5
330
1F
100
AcDbEntity
  8
A_RUNDUNGEN
  6
Continuous
 62
     7
100
AcDbLine
 10
124.4749152542
 20
135.2507476779
 30
0.0
 11
126.7070059615
 21
133.3778011886
 31
0.0
  0
LINE
  5
B6
330
1F
100
AcDbEntity
  8
A_RUNDUNGEN
  6
Continuous
 62
     7
100
AcDbLine
 10
127.1890966688
 20
133.952334521
 30
0.0
 11
124.4749152542
 21
136.2298031449
 31
0.0
  0
LINE
  5
B7
330
1F
100
AcDbEntity
  8
A_FASEN
  6
Continuous
 62
     7
100
AcDbLine
 10
132.7249152542
 20
138.2529985999
 30
0.0
 11
131.7249152542
 21
139.2529985999
 31
0.0
  0
LINE
  5
B8
330
1F
100
AcDbEntity
  8
DEFAULT_2
  6
DASHED
 62
     2
100
AcDbLine
 10
127.8815395813
 20
128.2529985999
 30
0.0
 11
129.5482062479
 21
125.366247254
 31
0.0
  0
LINE
  5
B9
330
1F
100
AcDbEntity
  8
0
  6
Continuous
 62
     7
100
AcDbLine
 10
113.7249152542
 20
144.2529985999
 30
0.0
 11
113.7249152542
 21
117.2529985999
 31
0.0
  0
LINE
  5
BA
330
1F
100
AcDbEntity
  8
0
  6
Continuous
 62
     7
100
AcDbLine
 10
115.7249152542
 20
144.2529985999
 30
0.0
 11
115.7249152542
 21
117.2529985999
 31
0.0
  0
LINE
  5
BB
330
1F
100
AcDbEntity
  8
A_FASEN
  6
Continuous
 62
     7
100
AcDbLine
 10
116.7249152542
 20
123.2529985999
 30
0.0
 11
116.7249152542
 21
139.2529985999
 31
0.0
  0
LINE
  5
BC
330
1F
100
AcDbEntity
  8
0
  6
Continuous
 62
     7
100
AcDbLine
 10
117.7249152542
 20
143.8491510226
 30
0.0
 11
117.7249152542
 21
139.2529985999
 31
0.0
  0
LINE
  5
BD
330
1F
100
AcDbEntity
  8
0
  6
Continuous
 62
     7
100
AcDbLine
 10
117.7249152542
 20
123.2529985999
 30
0.0
 11
117.7249152542
 21
116.7529985999
 31
0.0
  0
LINE
  5
BE
330
1F
100
AcDbEntity
  8
0
  6
Continuous
 62
     7
100
AcDbLine
 10
118.4249152542
 20
114.7529985999
 30
0.0
 11
118.4249152542
 21
116.7529985999
 31
0.0
  0
LINE
  5
BF
330
1F
100
AcDbEntity
  8
0
  6
Continuous
 62
     7
100
AcDbLine
 10
119.7249152542
 20
119.4529985999
 30
0.0
 11
119.7249152542
 21
143.0529985999
 31
0.0
  0
LINE
  5
C0
330
1F
100
AcDbEntity
  8
A_ACHSEN
  6
Continuous
 62
     7
100
AcDbLine
 10
120.0249152542
 20
131.2529985999
 30
0.0
 11
120.0249152542
 21
125.2529985999
 31
0.0
  0
LINE
  5
C1
330
1F
100
AcDbEntity
  8
0
  6
Continuous
 62
     7
100
AcDbLine
 10
120.0249152542
 20
125.7529985999
 30
0.0
 11
120.0249152542
 21
130.7529985999
 31
0.0
  0
LINE
  5
C2
330
1F
100
AcDbEntity
  8
0
  6
Continuous
 62
     7
100
AcDbLine
 10
121.0249152542
 20
144.7529985999
 30
0.0
 11
121.0249152542
 21
146.7529985999
 31
0.0
  0
LINE
  5
C3
330
1F
100
AcDbEntity
  8
0
  6
Continuous
 62
     7
100
AcDbLine
 10
123.7249152542
 20
143.0529985999
 30
0.0
 11
123.7249152542
 21
131.2529985999
 31
0.0
  0
LINE
  5
C4
330
1F
100
AcDbEntity
  8
0
  6
Continuous
 62
     7
100
AcDbLine
 10
123.7249152542
 20
125.2529985999
 30
0.0
 11
123.7249152542
 21
114.7529985999
 31
0.0
  0
LINE
  5
C5
330
1F
100
AcDbEntity
  8
0
  6
Continuous
 62
     7
100
AcDbLine
 10
124.4749152542
 20
141.2529985999
 30
0.0
 11
124.4749152542
 21
131.2529985999
 31
0.0
  0
LINE
  5
C6
330
1F
100
AcDbEntity
  8
0
  6
Continuous
 62
     7
100
AcDbLine
 10
124.4749152542
 20
114.7529985999
 30
0.0
 11
124.4749152542
 21
125.2529985999
 31
0.0
  0
LINE
  5
C7
330
1F
100
AcDbEntity
  8
0
  6
Continuous
 62
     7
100
AcDbLine
 10
126.7249152542
 20
113.7529985999
 30
0.0
 11
126.7249152542
 21
114.5029985999
 31
0.0
  0
LINE
  5
C8
330
1F
100
AcDbEntity
  8
A_RUNDUNGEN
  6
Continuous
 62
     7
100
AcDbLine
 10
126.9749152542
 20
132.8032678563
 30
0.0
 11
126.9749152542
 21
131.2529985999
 31
0.0
  0
LINE
  5
C9
330
1F
100
AcDbEntity
  8
A_RUNDUNGEN
  6
Continuous
 62
     7
100
AcDbLine
 10
126.9749152542
 20
125.2529985999
 30
0.0
 11
126.9749152542
 21
123.7027293435
 31
0.0
  0
LINE
  5
CA
330
1F
100
AcDbEntity
  8
DEFAULT_2
  6
Continuous
 62
     7
100
AcDbLine
 10
127.7249152542
 20
130.7529985999
 30
0.0
 11
127.7249152542
 21
125.7529985999
 31
0.0
  0
LINE
  5
CB
330
1F
100
AcDbEntity
  8
0
  6
Continuous
 62
     7
100
AcDbLine
 10
127.7249152542
 20
113.7529985999
 30
0.0
 11
127.7249152542
 21
114.5029985999
 31
0.0
  0
LINE
  5
CC
330
1F
100
AcDbEntity
  8
0
  6
Continuous
 62
     7
100
AcDbLine
 10
127.7249152542
 20
120.2529985999
 30
0.0
 11
127.7249152542
 21
124.7529985999
 31
0.0
  0
LINE
  5
CD
330
1F
100
AcDbEntity
  8
0
  6
Continuous
 62
     7
100
AcDbLine
 10
127.7249152542
 20
131.3044704638
 30
0.0
 11
127.7249152542
 21
142.2529985999
 31
0.0
  0
LINE
  5
CE
330
1F
100
AcDbEntity
  8
A_ACHSEN
  6
Continuous
 62
     7
100
AcDbLine
 10
130.7249152542
 20
134.2529985999
 30
0.0
 11
130.7249152542
 21
122.2529985999
 31
0.0
  0
LINE
  5
CF
330
1F
100
AcDbEntity
  8
0
  6
Continuous
 62
     7
100
AcDbLine
 10
130.7249152542
 20
120.2529985999
 30
0.0
 11
130.7249152542
 21
122.2529985999
 31
0.0
  0
LINE
  5
D0
330
1F
100
AcDbEntity
  8
0
  6
Continuous
 62
     7
100
AcDbLine
 10
130.7249152542
 20
134.2529985999
 30
0.0
 11
130.7249152542
 21
142.2529985999
 31
0.0
  0
LINE
  5
D1
330
1F
100
AcDbEntity
  8
A_ACHSEN
  6
Continuous
 62
     7
100
AcDbLine
 10
131.5249152542
 20
134.2529985999
 30
0.0
 11
131.5249152542
 21
122.2529985999
 31
0.0
  0
LINE
  5
D2
330
1F
100
AcDbEntity
  8
A_FASEN
  6
Continuous
 62
     7
100
AcDbLine
 10
131.7249152542
 20
133.6344482187295
 30
0.0
 11
131.7249152542
 21
139.2529985999
 31
0.0
  0
LINE
  5
D3
330
1F
100
AcDbEntity
  8
0
  6
Continuous
 62
     7
100
AcDbLine
 10
121.0249152542
 20
145.7529985999
 30
0.0
 11
121.4171475245
 21
147.7141599513
 31
0.0
  0
LINE
  5
D4
330
1F
100
AcDbEntity
  8
0
  6
Continuous
 62
     7
100
AcDbLine
 10
132.7249152542
 20
146.7529985999
 30
0.0
 11
132.7249152542
 21
144.7529985999
 31
0.0
  0
LINE
  5
D5
330
1F
100
AcDbEntity
  8
0
  6
Continuous
 62
     7
100
AcDbLine
 10
132.7249152542
 20
116.2529985999
 30
0.0
 11
132.7249152542
 21
114.7529985999
 31
0.0
  0
LINE
  5
D6
330
1F
100
AcDbEntity
  8
0
  6
Continuous
 62
     7
100
AcDbLine
 10
132.7249152542
 20
124.2529985999
 30
0.0
 11
132.7249152542
 21
138.2529985999
 31
0.0
  0
LINE
  5
D7
330
1F
100
AcDbEntity
  8
A_FASEN
  6
Continuous
 62
     7
100
AcDbLine
 10
132.7249152542
 20
124.2529985999
 30
0.0
 11
132.7249152542
 21
138.2529985999
 31
0.0
  0
LINE
  5
D8
330
1F
100
AcDbEntity
  8
0
  6
Continuous
 62
     7
100
AcDbLine
 10
132.7249152542
 20
142.6529985999
 30
0.0
 11
132.7249152542
 21
144.6529985999
 31
0.0
  0
LINE
  5
D9
330
1F
100
AcDbEntity
  8
0
  6
Continuous
 62
     7
100
AcDbLine
 10
135.2249152542
 20
116.7529985999
 30
0.0
 11
135.2249152542
 21
124.6279985999
 31
0.0
  0
LINE
  5
DA
330
1F
100
AcDbEntity
  8
0
  6
Continuous
 62
     7
100
AcDbLine
 10
128.7249152542
 20
147.748642644
 30
0.0
 11
129.2379454692
 21
149.1581815752
 31
0.0
  0
LINE
  5
DB
330
1F
100
AcDbEntity
  8
A_FASEN
  6
Continuous
 62
     7
100
AcDbLine
 10
116.7249152542
 20
139.2529985999
 30
0.0
 11
115.7249152542
 21
138.2529985999
 31
0.0
  0
LINE
  5
DC
330
1F
100
AcDbEntity
  8
DEFAULT_2
  6
DASHED
 62
     2
100
AcDbLine
 10
127.8815395813
 20
128.2529985999
 30
0.0
 11
129.5482062479
 21
131.1397499459
 31
0.0
  0
LINE
  5
DD
330
1F
100
AcDbEntity
  8
A_ACHSEN
  6
Continuous
 62
     7
100
AcDbLine
 10
130.7249152542
 20
134.2529985999
 30
0.0
 11
127.8127832199
 21
131.3408665656
 31
0.0
  0
LINE
  5
DE
330
1F
100
AcDbEntity
  8
0
  6
Continuous
 62
     7
100
AcDbLine
 10
128.4749152542
 20
132.0029985999
 30
0.0
 11
130.7249152542
 21
134.2529985999
 31
0.0
  0
LINE
  5
DF
330
1F
100
AcDbEntity
  8
A_RUNDUNGEN
  6
Continuous
 62
     7
100
AcDbLine
 10
127.8127832199
 20
131.3408665656
 30
0.0
 11
130.7249152542
 21
134.2529985999
 31
0.0
  0
LINE
  5
E0
330
1F
100
AcDbEntity
  8
A_FASEN
  6
Continuous
 62
     7
100
AcDbLine
 10
132.7249152542
 20
124.2529985999
 30
0.0
 11
131.8597193231
 21
123.3878026687
 31
0.0
  0
LINE
  5
E1
330
1F
100
AcDbEntity
  8
A_RUNDUNGEN
  6
Continuous
 62
     7
100
AcDbLine
 10
126.7070059615
 20
123.1281960112
 30
0.0
 11
124.4749152542
 21
121.255249522
 31
0.0
  0
LINE
  5
E2
330
1F
100
AcDbEntity
  8
A_RUNDUNGEN
  6
Continuous
 62
     7
100
AcDbLine
 10
124.4749152542
 20
120.276194055
 30
0.0
 11
127.1890966688
 21
122.5536626789
 31
0.0
  0
LINE
  5
E3
330
1F
100
AcDbEntity
  8
A_RUNDUNGEN
  6
Continuous
 62
     7
100
AcDbLine
 10
127.6006511855
 20
131.2529985999
 30
0.0
 11
127.8127832236
 21
131.3408665692
 31
0.0
  0
LINE
  5
E4
330
1F
100
AcDbEntity
  8
1
  6
Continuous
 62
     7
100
AcDbLine
 10
127.7249152542
 20
130.7529985999
 30
0.0
 11
127.7249152542
 21
131.2529985999
 31
0.0
  0
LINE
  5
E5
330
1F
100
AcDbEntity
  8
A_ACHSEN
  6
DOT_CENTER
 62
     2
100
AcDbLine
 10
127.7249152542
 20
131.2529985999
 30
0.0
 11
141.2249152542
 21
131.2529985999
 31
0.0
  0
LINE
  5
E6
330
1F
100
AcDbEntity
  8
1
  6
Continuous
 62
     7
100
AcDbLine
 10
127.7249152542
 20
125.7529985999
 30
0.0
 11
127.7249152542
 21
124.7529985999
 31
0.0
  0
LINE
  5
E7
330
1F
100
AcDbEntity
  8
0
  6
Continuous
 62
     7
100
AcDbLine
 10
127.7249152542
 20
124.7529985999
 30
0.0
 11
127.7249152542
 21
125.2015267367
 31
0.0
  0
LINE
  5
E8
330
1F
100
AcDbEntity
  8
1
  6
Continuous
 62
     7
100
AcDbLine
 10
108.7249152542
 20
123.2529985999
 30
0.0
 11
107.2249152542
 21
123.2529985999
 31
0.0
  0
LINE
  5
E9
330
1F
100
AcDbEntity
  8
1
  6
Continuous
 62
     7
100
AcDbLine
 10
107.2249152542
 20
123.2529985999
 30
0.0
 11
107.2249152542
 21
114.7529985999
 31
0.0
  0
LINE
  5
EA
330
1F
100
AcDbEntity
  8
1
  6
Continuous
 62
     7
100
AcDbLine
 10
108.7249152542
 20
123.2529985999
 30
0.0
 11
108.7249152542
 21
115.2529985999
 31
0.0
  0
LINE
  5
EB
330
1F
100
AcDbEntity
  8
1
  6
Continuous
 62
     7
100
AcDbLine
 10
109.2249152542
 20
114.7529985999
 30
0.0
 11
121.4249152542
 21
114.7529985999
 31
0.0
  0
LINE
  5
EC
330
1F
100
AcDbEntity
  8
1
  6
Continuous
 62
     7
100
AcDbLine
 10
121.2249152542
 20
113.2529985999
 30
0.0
 11
108.7249152542
 21
113.2529985999
 31
0.0
  0
LINE
  5
ED
330
1F
100
AcDbEntity
  8
1
  6
Continuous
 62
     7
100
AcDbLine
 10
131.2249152542
 20
113.2529985999
 30
0.0
 11
121.2249152542
 21
113.2529985999
 31
0.0
  0
LINE
  5
EE
330
1F
100
AcDbEntity
  8
1
  6
Continuous
 62
     7
100
AcDbLine
 10
136.7249152542
 20
113.2529985999
 30
0.0
 11
131.4249152542
 21
113.2529985999
 31
0.0
  0
LINE
  5
EF
330
1F
100
AcDbEntity
  8
1
  6
Continuous
 62
     7
100
AcDbLine
 10
131.4249152542
 20
113.2529985999
 30
0.0
 11
131.2249152542
 21
113.2529985999
 31
0.0
  0
LINE
  5
F0
330
1F
100
AcDbEntity
  8
1
  6
Continuous
 62
     7
100
AcDbLine
 10
138.2249152542
 20
125.2529985999
 30
0.0
 11
138.2249152542
 21
114.7529985999
 31
0.0
  0
LINE
  5
F1
330
1F
100
AcDbEntity
  8
1
  6
Continuous
 62
     7
100
AcDbLine
 10
136.7249152542
 20
125.2529985999
 30
0.0
 11
138.2249152542
 21
125.2529985999
 31
0.0
  0
LINE
  5
F2
330
1F
100
AcDbEntity
  8
1
  6
Continuous
 62
     7
100
AcDbLine
 10
138.2249152542
 20
131.2529985999
 30
0.0
 11
138.2249152542
 21
125.2529985999
 31
0.0
  0
LINE
  5
F3
330
1F
100
AcDbEntity
  8
1
  6
Continuous
 62
     7
100
AcDbLine
 10
138.2249152542
 20
131.2529985999
 30
0.0
 11
136.7249152542
 21
131.2529985999001
 31
0.0
  0
LINE
  5
F4
330
1F
100
AcDbEntity
  8
1
  6
Continuous
 62
     7
100
AcDbLine
 10
131.2249152542
 20
114.7529985999
 30
0.0
 11
131.2249152542
 21
113.2529985999
 31
0.0
  0
LINE
  5
F5
330
1F
100
AcDbEntity
  8
1
  6
Continuous
 62
     7
100
AcDbLine
 10
121.2249152542
 20
114.7529985999
 30
0.0
 11
121.2249152542
 21
113.2529985999
 31
0.0
  0
LINE
  5
F6
330
1F
100
AcDbEntity
  8
1
  6
Continuous
 62
     7
100
AcDbLine
 10
141.2249152542
 20
170.7529985999
 30
0.0
 11
145.49437567263
 21
170.7529985999
 31
0.0
  0
LINE
  5
F7
330
1F
100
AcDbEntity
  8
1
  6
Continuous
 62
     7
100
AcDbLine
 10
148.3921531514972
 20
167.9765414645924
 30
0.0
 11
149.2354020178776
 21
171.1235890773488
 31
0.0
  0
LINE
  5
F8
330
1F
100
AcDbEntity
  8
1
  6
Continuous
 62
     7
100
AcDbLine
 10
145.49437567263
 20
171.7529985999
 30
0.0
 11
148.752439104733
 21
171.7529985999
 31
0.0
  0
LINE
  5
F9
330
1F
100
AcDbEntity
  8
1
  6
Continuous
 62
     7
100
AcDbLine
 10
141.2249152542
 20
171.7529985999
 30
0.0
 11
145.49437567263
 21
171.7529985999
 31
0.0
  0
LINE
  5
FA
330
1F
100
AcDbEntity
  8
1
  6
Continuous
 62
     7
100
AcDbLine
 10
138.2249152542
 20
171.2529985999
 30
0.0
 11
138.2249152542
 21
168.7529985999
 31
0.0
  0
LINE
  5
FB
330
1F
100
AcDbEntity
  8
1
  6
Continuous
 62
     7
100
AcDbLine
 10
138.7249152542
 20
171.7529985999
 30
0.0
 11
141.2249152542
 21
171.7529985999
 31
0.0
  0
LINE
  5
FC
330
1F
100
AcDbEntity
  8
1
  6
Continuous
 62
     7
100
AcDbLine
 10
138.2249152542
 20
173.2529985999
 30
0.0
 11
148.752439104733
 21
173.2529985999
 31
0.0
  0
LINE
  5
FD
330
1F
100
AcDbEntity
  8
1
  6
Continuous
 62
     7
100
AcDbLine
 10
147.5152864376902
 20
155.1097351961303
 30
0.0
 11
147.5152864376901
 21
154.5029985999
 31
0.0
  0
LINE
  5
FE
330
1F
100
AcDbEntity
  8
1
  6
Continuous
 62
     7
100
AcDbLine
 10
147.2813308808091
 20
155.7525228058169
 30
0.0
 11
145.6924900485822
 21
157.6460295756837
 31
0.0
  0
LINE
  5
FF
330
1F
100
AcDbEntity
  8
1
  6
Continuous
 62
     7
100
AcDbLine
 10
145.192786590657
 20
159.9000462126564
 30
0.0
 11
147.4262273252081
 21
168.2353605096949
 31
0.0
  0
LINE
  5
100
330
1F
100
AcDbEntity
  8
1
  6
Continuous
 62
     7
100
AcDbLine
 10
148.5152864376901
 20
155.1097351961303
 30
0.0
 11
148.5152864376901
 21
154.5029985999
 31
0.0
  0
LINE
  5
101
330
1F
100
AcDbEntity
  8
1
  6
Continuous
 62
     7
100
AcDbLine
 10
148.0473753239281
 20
156.3953104155034
 30
0.0
 11
146.4585344917012
 21
158.2888171853702
 31
0.0
  0
LINE
  5
102
330
1F
100
AcDbEntity
  8
1
  6
Continuous
 62
     7
100
AcDbLine
 10
146.158712416946
 20
159.6412271675538
 30
0.0
 11
148.3921531514972
 21
167.9765414645924
 31
0.0
  0
LINE
  5
103
330
1F
100
AcDbEntity
  8
1
  6
Continuous
 62
     7
100
AcDbLine
 10
150.6842907573112
 20
170.735360509695
 30
0.0
 11
147.7762509296557
 21
159.8824081224513
 31
0.0
  0
LINE
  5
104
330
1F
100
AcDbEntity
  8
1
  6
Continuous
 62
     7
100
AcDbLine
 10
148.2592138428002
 20
159.2529985999
 30
0.0
 11
150.2700771949379
 21
159.2529985999
 31
0.0
  0
LINE
  5
105
330
1F
100
AcDbEntity
  8
1
  6
Continuous
 62
     7
100
AcDbLine
 10
150.7700771949379
 20
159.7529985999
 30
0.0
 11
150.7700771949379
 21
188.3477709958645
 31
0.0
  0
LINE
  5
106
330
1F
100
AcDbEntity
  8
1
  6
Continuous
 62
     7
100
AcDbLine
 10
147.6076011563797
 20
157.7529985999
 30
0.0
 11
150.7700771949379
 21
157.7529985999
 31
0.0
  0
LINE
  5
107
330
1F
100
AcDbEntity
  8
1
  6
Continuous
 62
     7
100
AcDbLine
 10
152.2700771949379
 20
188.3477709958645
 30
0.0
 11
152.2700771949379
 21
159.2529985999
 31
0.0
  0
LINE
  5
108
330
1F
100
AcDbEntity
  8
1
  6
Continuous
 62
     7
100
AcDbLine
 10
147.2652864376901
 20
153.2529985999
 30
0.0
 11
141.2249152542
 21
153.2529985999
 31
0.0
  0
LINE
  5
109
330
1F
100
AcDbEntity
  8
1
  6
Continuous
 62
     7
100
AcDbLine
 10
147.2652864376901
 20
154.2529985999
 30
0.0
 11
141.2249152542
 21
154.2529985999
 31
0.0
  0
LINE
  5
10A
330
1F
100
AcDbEntity
  8
1
  6
Continuous
 62
     7
100
AcDbLine
 10
139.2249152542
 20
168.7529985999
 30
0.0
 11
139.2249152542
 21
156.2529985999
 31
0.0
  0
LINE
  5
10B
330
1F
100
AcDbEntity
  8
1
  6
Continuous
 62
     7
100
AcDbLine
 10
138.2249152542
 20
168.7529985999
 30
0.0
 11
138.2249152542
 21
156.2529985999
 31
0.0
  0
LINE
  5
10C
330
1F
100
AcDbEntity
  8
1
  6
Continuous
 62
     7
100
AcDbLine
 10
136.7249152542
 20
171.7529985999
 30
0.0
 11
136.7249152542
 21
146.7529985999
 31
0.0
  0
LINE
  5
10D
330
1F
100
AcDbEntity
  8
1
  6
Continuous
 62
     7
100
AcDbLine
 10
138.2249152542
 20
156.2529985999
 30
0.0
 11
138.2249152542
 21
131.2529985999
 31
0.0
  0
ARC
  5
10E
330
1F
100
AcDbEntity
  8
0
  6
Continuous
 62
     7
100
AcDbCircle
 10
134.7249152542
 20
124.1279985999
 30
0.0
 40
0.5
100
AcDbArc
 50
0.0
 51
90.0
  0
ARC
  5
10F
330
1F
100
AcDbEntity
  8
0
  6
Continuous
 62
     7
100
AcDbCircle
 10
114.0249152542
 20
128.2529985999
 30
0.0
 40
18.50000000000001
100
AcDbArc
 50
341.0753555839487
 51
351.0228466106505
  0
ARC
  5
110
330
1F
100
AcDbEntity
  8
0
  6
Continuous
 62
     7
100
AcDbCircle
 10
114.0249152542
 20
128.2529985999
 30
0.0
 40
18.5
100
AcDbArc
 50
16.91119674294089
 51
18.92464441605122
  0
ARC
  5
111
330
1F
100
AcDbEntity
  8
0
  6
Continuous
 62
     7
100
AcDbCircle
 10
114.0249152542
 20
128.2529985999
 30
0.0
 40
18.33030277981853
100
AcDbArc
 50
355.4837060743633
 51
4.51629392563664
  0
ARC
  5
112
330
1F
100
AcDbEntity
  8
0
  6
Continuous
 62
     7
100
AcDbCircle
 10
116.2249152542
 20
144.2529985999
 30
0.0
 40
2.5
100
AcDbArc
 50
90.0
 51
180.0
  0
ARC
  5
113
330
1F
100
AcDbEntity
  8
0
  6
Continuous
 62
     7
100
AcDbCircle
 10
116.2249152542
 20
117.2529985999
 30
0.0
 40
2.5
100
AcDbArc
 50
180.0
 51
270.0
  0
ARC
  5
114
330
1F
100
AcDbEntity
  8
0
  6
Continuous
 62
     7
100
AcDbCircle
 10
116.2249152542
 20
144.2529985999
 30
0.0
 40
0.5
100
AcDbArc
 50
90.0
 51
180.0
  0
ARC
  5
115
330
1F
100
AcDbEntity
  8
0
  6
Continuous
 62
     7
100
AcDbCircle
 10
116.2249152542
 20
117.2529985999
 30
0.0
 40
0.5
100
AcDbArc
 50
180.0
 51
270.0
  0
ARC
  5
116
330
1F
100
AcDbEntity
  8
DEFAULT_2
  6
Continuous
 62
     7
100
AcDbCircle
 10
127.6879531905
 20
130.4250916829
 30
0.0
 40
4.667584610176886
100
AcDbArc
 50
351.0180664126957
 51
354.5825928254015
  0
ARC
  5
117
330
1F
100
AcDbEntity
  8
DEFAULT_2
  6
Continuous
 62
     7
100
AcDbCircle
 10
127.688035084
 20
130.4110439788
 30
0.0
 40
4.667501934499785
100
AcDbArc
 50
5.40897403340349
 51
8.9819517903266
  0
ARC
  5
118
330
1F
100
AcDbEntity
  8
DEFAULT_2
  6
Continuous
 62
     7
100
AcDbCircle
 10
127.7398102465
 20
130.4197772258
 30
0.0
 40
4.615457457578744
100
AcDbArc
 50
354.5874945044728
 51
356.3567424929974
  0
ARC
  5
119
330
1F
100
AcDbEntity
  8
DEFAULT_2
  6
Continuous
 62
     7
100
AcDbCircle
 10
127.7494561621
 20
130.4171381806
 30
0.0
 40
4.605779894400447
100
AcDbArc
 50
1.80696728399566
 51
5.40552499909403
  0
ARC
  5
11A
330
1F
100
AcDbEntity
  8
DEFAULT_2
  6
Continuous
 62
     7
100
AcDbCircle
 10
127.7602973769
 20
130.4184431832
 30
0.0
 40
4.594926960606382
100
AcDbArc
 50
356.3571104934135
 51
358.1914761746011
  0
ARC
  5
11B
330
1F
100
AcDbEntity
  8
DEFAULT_2
  6
Continuous
 62
     7
100
AcDbCircle
 10
127.7706733463
 20
130.4180705693
 30
0.0
 40
4.584544400444358
100
AcDbArc
 50
358.1920381709777
 51
1.8039287299001
  0
ARC
  5
11C
330
1F
100
AcDbEntity
  8
0
  6
Continuous
 62
     7
100
AcDbCircle
 10
134.2603134176
 20
115.0342485999
 30
0.0
 40
2.78125000000004
100
AcDbArc
 50
80.38378096790377
 51
154.0107664161944
  0
ARC
  5
11D
330
1F
100
AcDbEntity
  8
0
  6
Continuous
 62
     7
100
AcDbCircle
 10
134.7249152542
 20
116.7529985999
 30
0.0
 40
2.0
100
AcDbArc
 50
270.0
 51
0.0
  0
ARC
  5
11E
330
1F
100
AcDbEntity
  8
A_RUNDUNGEN
  6
Continuous
 62
     7
100
AcDbCircle
 10
126.2249152542
 20
123.7027293435
 30
0.0
 40
1.499999999985012
100
AcDbArc
 50
310.0000000039806
 51
355.8693864285144
  0
ARC
  5
11F
330
1F
100
AcDbEntity
  8
A_RUNDUNGEN
  6
Continuous
 62
     7
100
AcDbCircle
 10
126.2249152542
 20
132.8032678563
 30
0.0
 40
1.500000000000145
100
AcDbArc
 50
4.13061357148506
 51
49.99999999847471
  0
ARC
  5
120
330
1F
100
AcDbEntity
  8
0
  6
Continuous
 62
     7
100
AcDbCircle
 10
124.7249152542
 20
114.7529985999
 30
0.0
 40
1.0
100
AcDbArc
 50
180.0
 51
270.0
  0
ARC
  5
121
330
1F
100
AcDbEntity
  8
A_RUNDUNGEN
  6
Continuous
 62
     7
100
AcDbCircle
 10
126.2249152542
 20
132.8032678563
 30
0.0
 40
0.75
100
AcDbArc
 50
0.0
 51
49.99999999601836
  0
ARC
  5
122
330
1F
100
AcDbEntity
  8
A_RUNDUNGEN
  6
Continuous
 62
     7
100
AcDbCircle
 10
126.2249152542
 20
123.7027293435
 30
0.0
 40
0.7499999999925006
100
AcDbArc
 50
310.000000003981
 51
0.0
  0
ARC
  5
123
330
1F
100
AcDbEntity
  8
0
  6
Continuous
 62
     7
100
AcDbCircle
 10
134.7249152542
 20
138.3779985999
 30
0.0
 40
0.5
100
AcDbArc
 50
270.0
 51
0.0
  0
ARC
  5
124
330
1F
100
AcDbEntity
  8
0
  6
Continuous
 62
     7
100
AcDbCircle
 10
134.7249152542
 20
116.7529985999
 30
0.0
 40
0.5
100
AcDbArc
 50
270.0
 51
0.0
  0
ARC
  5
125
330
1F
100
AcDbEntity
  8
0
  6
Continuous
 62
     7
100
AcDbCircle
 10
124.7249152542
 20
114.7529985999
 30
0.0
 40
0.25
100
AcDbArc
 50
180.0
 51
270.0
  0
ARC
  5
126
330
1F
100
AcDbEntity
  8
0
  6
Continuous
 62
     7
100
AcDbCircle
 10
131.9894057253
 20
149.7529985999
 30
0.0
 40
2.999999999953613
100
AcDbArc
 50
249.9999999992102
 51
270.0
  0
ARC
  5
127
330
1F
100
AcDbEntity
  8
0
  6
Continuous
 62
     7
100
AcDbCircle
 10
134.7249152542
 20
146.2529985999
 30
0.0
 40
2.0
100
AcDbArc
 50
0.0
 51
90.0
  0
ARC
  5
128
330
1F
100
AcDbEntity
  8
0
  6
Continuous
 62
     7
100
AcDbCircle
 10
131.9894057253
 20
149.7529985999
 30
0.0
 40
1.50000000002379
100
AcDbArc
 50
249.9999999998628
 51
270.0
  0
ARC
  5
129
330
1F
100
AcDbEntity
  8
0
  6
Continuous
 62
     7
100
AcDbCircle
 10
134.7249152542
 20
146.2529985999
 30
0.0
 40
0.5
100
AcDbArc
 50
0.0
 51
90.0
  0
ARC
  5
12A
330
1F
100
AcDbEntity
  8
0
  6
Continuous
 62
     7
100
AcDbCircle
 10
127.7459627635
 20
126.0879350905
 30
0.0
 40
4.609189378911229
100
AcDbArc
 50
350.9917970145407
 51
9.00820298423166
  0
ARC
  5
12B
330
1F
100
AcDbEntity
  8
0
  6
Continuous
 62
     7
100
AcDbCircle
 10
114.0249152542
 20
128.2529985999
 30
0.0
 40
18.50000000000129
100
AcDbArc
 50
8.97715338965549
 51
16.91119674294089
  0
ARC
  5
12C
330
1F
100
AcDbEntity
  8
0
  6
Continuous
 62
     7
100
AcDbCircle
 10
135.7249152542
 20
115.7529985999
 30
0.0
 40
1.0
100
AcDbArc
 50
270.0
 51
0.0
  0
ARC
  5
12D
330
1F
100
AcDbEntity
  8
1
  6
Continuous
 62
     7
100
AcDbCircle
 10
145.49437567263
 20
168.7529985999
 30
0.0
 40
1.999999999999951
100
AcDbArc
 50
344.9999999999984
 51
90.0
  0
ARC
  5
12E
330
1F
100
AcDbEntity
  8
1
  6
Continuous
 62
     7
100
AcDbCircle
 10
141.2249152542
 20
168.7529985999
 30
0.0
 40
2.0
100
AcDbArc
 50
90.0
 51
180.0
  0
ARC
  5
12F
330
1F
100
AcDbEntity
  8
1
  6
Continuous
 62
     7
100
AcDbCircle
 10
145.49437567263
 20
168.7529985999
 30
0.0
 40
3.000000000000002
100
AcDbArc
 50
344.9999999999994
 51
90.0
  0
ARC
  5
130
330
1F
100
AcDbEntity
  8
1
  6
Continuous
 62
     7
100
AcDbCircle
 10
141.2249152542
 20
168.7529985999
 30
0.0
 40
3.0
100
AcDbArc
 50
90.0
 51
180.0
  0
SPLINE
  5
131
330
1F
100
AcDbEntity
  8
DEFAULT_2
  6
DASHED
 62
     2
100
AcDbSpline
210
0.0
220
0.0
230
1.0
 70
     8
 71
     3
 72
    15
 73
    11
 74
     9
 42
0.000000001
 43
0.0000000001
 44
0.00000001
 40
0.0
 40
0.0
 40
0.0
 40
0.0
 40
0.1964490618123614
 40
0.3929796520016502
 40
0.5784898249869116
 40
0.7637173957827693
 40
0.9489457005518865
 40
1.13445657093333
 40
1.330984437536591
 40
1.527430830569613
 40
1.527430830569613
 40
1.527430830569613
 40
1.527430830569613
 10
129.5482062479
 20
129.6963742729
 30
0.0
 10
129.5165956864194
 20
129.7537703613933
 30
0.0
 10
129.4533614576218
 20
129.8685863650813
 30
0.0
 10
129.3819962371612
 20
130.048425363968
 30
0.0
 10
129.336452421316
 20
130.2325629581094
 30
0.0
 10
129.3201035714001
 20
130.4180644960696
 30
0.0
 10
129.336452353699
 20
130.6035662860596
 30
0.0
 10
129.3819964580142
 20
130.7877034178267
 30
0.0
 10
129.453362354193
 20
130.9675404490866
 30
0.0
 10
129.5165959823553
 20
131.0823547171807
 30
0.0
 10
129.5482062479
 20
131.1397499459
 30
0.0
 11
129.5482062479
 21
129.6963742729
 31
0.0
 11
129.4570616400645
 21
129.8703998312217
 31
0.0
 11
129.3849919278685
 21
130.0532391867354
 31
0.0
 11
129.3411526978726
 21
130.2334949677363
 31
0.0
 11
129.3255503968704
 21
130.4180642543964
 31
0.0
 11
129.3411527291676
 21
130.6026342750021
 31
0.0
 11
129.3849925986482
 21
130.7828906182011
 31
0.0
 11
129.4570623319891
 21
130.9657270378453
 31
0.0
 11
129.5482062479
 21
131.1397499459
 31
0.0
  0
SPLINE
  5
132
330
1F
100
AcDbEntity
  8
DEFAULT_2
  6
DASHED
 62
     2
100
AcDbSpline
210
0.0
220
0.0
230
1.0
 70
     8
 71
     3
 72
    15
 73
    11
 74
     9
 42
0.000000001
 43
0.0000000001
 44
0.00000001
 40
0.0
 40
0.0
 40
0.0
 40
0.0
 40
0.3662165259198558
 40
0.7324927859650389
 40
1.098836784549649
 40
1.465140146693391
 40
1.831444853957155
 40
2.197790172614654
 40
2.564060884471592
 40
2.930271896869906
 40
2.930271896869906
 40
2.930271896869906
 40
2.930271896869906
 10
129.5482062479
 20
126.8096229269
 30
0.0
 10
129.5159355546373
 20
126.9273831684055
 30
0.0
 10
129.451388918539
 20
127.162922863156
 30
0.0
 10
129.3806715630445
 20
127.5226939969944
 30
0.0
 10
129.3358493409805
 20
127.8865799160083
 30
0.0
 10
129.3204012623742
 20
128.2530033362714
 30
0.0
 10
129.3358491931045
 20
128.6194272103701
 30
0.0
 10
129.3806717279219
 20
128.9833121551237
 30
0.0
 10
129.451389904489
 20
129.3430798075999
 30
0.0
 10
129.5159358822777
 20
129.5786158513282
 30
0.0
 10
129.5482062479
 20
129.6963742729
 30
0.0
 11
129.5482062479
 21
126.8096229269
 31
0.0
 11
129.4557449427884
 21
127.1639750841924
 31
0.0
 11
129.3849919278761
 21
127.5233527546764
 31
0.0
 11
129.3407441851561
 21
127.8870147722481
 31
0.0
 11
129.3255503969133
 21
128.2530028900488
 31
0.0
 11
129.3407441552391
 21
128.6189923553701
 31
0.0
 11
129.3849925986222
 21
128.9826556174982
 31
0.0
 11
129.4557456982315
 21
129.3420276166145
 31
0.0
 11
129.5482062479
 21
129.6963742729
 31
0.0
  0
SPLINE
  5
133
330
1F
100
AcDbEntity
  8
DEFAULT_2
  6
DASHED
 62
     2
100
AcDbSpline
210
0.0
220
0.0
230
1.0
 70
     8
 71
     3
 72
    15
 73
    11
 74
     9
 42
0.000000001
 43
0.0000000001
 44
0.00000001
 40
0.0
 40
0.0
 40
0.0
 40
0.0
 40
0.1964490618103849
 40
0.3929796519851176
 40
0.5784898249402077
 40
0.7637173957177136
 40
0.9489457005051826
 40
1.134456570916811
 40
1.330984437522954
 40
1.527430830480456
 40
1.527430830480456
 40
1.527430830480456
 40
1.527430830480456
 10
129.5482062479
 20
125.366247254
 30
0.0
 10
129.5165956864197
 20
125.4236433424927
 30
0.0
 10
129.4533614576247
 20
125.5384593461757
 30
0.0
 10
129.3819962371641
 20
125.7182983450453
 30
0.0
 10
129.3364524213143
 20
125.9024359391641
 30
0.0
 10
129.3201035714002
 20
126.0879374771146
 30
0.0
 10
129.3364523537004
 20
126.2734392671145
 30
0.0
 10
129.3819964580114
 20
126.4575763988994
 30
0.0
 10
129.4533623541732
 20
126.6374134301528
 30
0.0
 10
129.516595982353
 20
126.7522276982104
 30
0.0
 10
129.5482062479
 20
126.8096229269
 30
0.0
 11
129.5482062479
 21
125.366247254
 31
0.0
 11
129.4570616400645
 21
125.5402728123195
 31
0.0
 11
129.3849919278685
 21
125.7231121678175
 31
0.0
 11
129.3411526978726
 21
125.9033679487873
 31
0.0
 11
129.3255503968704
 21
126.0879372354291
 31
0.0
 11
129.3411527291676
 21
126.2725072560532
 31
0.0
 11
129.3849925986482
 21
126.4527635992832
 31
0.0
 11
129.4570623319891
 21
126.6356000189305
 31
0.0
 11
129.5482062479
 21
126.8096229269
 31
0.0
  0
SPLINE
  5
134
330
1F
100
AcDbEntity
  8
0
  6
Continuous
 62
     7
100
AcDbSpline
210
0.0
220
0.0
230
1.0
 70
     8
 71
     3
 72
    25
 73
    21
 74
    19
 42
0.000000001
 43
0.0000000001
 44
0.00000001
 40
0.0
 40
0.0
 40
0.0
 40
0.0
 40
0.0957059254671867
 40
0.1914070650784745
 40
0.2346331673448547
 40
0.2778676434924844
 40
0.3157940658602044
 40
0.3536962151724339
 40
0.3847649595004133
 40
0.4159015654369612
 40
0.4391343413513597
 40
0.4622014152804904
 40
0.4703999974732571
 40
0.4787606625670208
 40
0.4849241044471323
 40
0.4907375442880471
 40
0.4940766196152933
 40
0.4980588693120104
 40
0.4997343317694964
 40
0.5009312804938885
 40
0.5009312804938885
 40
0.5009312804938885
 40
0.5009312804938885
 10
134.7249152542
 20
142.7329985999
 30
0.0
 10
134.7568069248762
 20
142.7338093510988
 30
0.0
 10
134.8205886717998
 20
142.7354307996233
 30
0.0
 10
134.8987724158272
 20
142.7374991652939
 30
0.0
 10
134.959468988717
 20
142.7392067789358
 30
0.0
 10
135.0009132071222
 20
142.7404328560986
 30
0.0
 10
135.040581451397
 20
142.7416757996141
 30
0.0
 10
135.0761931168184
 20
142.7428944573682
 30
0.0
 10
135.1095383063203
 20
142.7441617819255
 30
0.0
 10
135.1379924038673
 20
142.745362320576
 30
0.0
 10
135.1637770081475
 20
142.7465598994523
 30
0.0
 10
135.1819125523777
 20
142.7476249430372
 30
0.0
 10
135.1950866366662
 20
142.748592789861
 30
0.0
 10
135.2026356205888
 20
142.7491893035636
 30
0.0
 10
135.2093980558823
 20
142.7497299906264
 30
0.0
 10
135.2144574644816
 20
142.7503293852914
 30
0.0
 10
135.2188014992152
 20
142.7511008491774
 30
0.0
 10
135.221626476183
 20
142.7517640086132
 30
0.0
 10
135.2241192983054
 20
142.7518157447889
 30
0.0
 10
135.2246811307267
 20
142.7526506817136
 30
0.0
 10
135.2249152542
 20
142.7529985999
 30
0.0
 11
134.7249152542
 21
142.7329985999
 31
0.0
 11
134.8205898439972
 21
142.7354473162407
 31
0.0
 11
134.9162569703894
 21
142.737998599933
 31
0.0
 11
134.9594658938818
 21
142.7392171429513
 31
0.0
 11
135.0026813748453
 21
142.7404985999101
 31
0.0
 11
135.0405889445304
 21
142.7416942893413
 31
0.0
 11
135.0784686448341
 21
142.7429985999235
 31
0.0
 11
135.1095148230334
 21
142.744182530705
 31
0.0
 11
135.1406236029688
 21
142.7454985999243
 31
0.0
 11
135.1638297800567
 21
142.7466100043363
 31
0.0
 11
135.1868550205336
 21
142.7479985999217
 31
0.0
 11
135.1950317896967
 21
142.7485962582258
 31
0.0
 11
135.2033669663678
 21
142.749248599893
 31
0.0
 11
135.2095075343238
 21
142.7497791090698
 31
0.0
 11
135.2152762789715
 21
142.7504985999022
 31
0.0
 11
135.2185633014291
 21
142.7510858881007
 31
0.0
 11
135.2224900207788
 21
142.7517485999074
 31
0.0
 11
135.2241290584788
 21
142.7520960617586
 31
0.0
 11
135.2249152542
 21
142.7529985999
 31
0.0
  0
SPLINE
  5
135
330
1F
100
AcDbEntity
  8
0
  6
Continuous
 62
     7
100
AcDbSpline
210
0.0
220
0.0
230
1.0
 70
     8
 71
     3
 72
    15
 73
    11
 74
     9
 42
0.000000001
 43
0.0000000001
 44
0.00000001
 40
0.0
 40
0.0
 40
0.0
 40
0.0
 40
0.1257713736824018
 40
0.2516732236506573
 40
0.373537716609222
 40
0.4951104472694071
 40
0.6210408716043015
 40
0.7472467610211585
 40
0.8874916358316898
 40
1.02745713260685
 40
1.02745713260685
 40
1.02745713260685
 40
1.02745713260685
 10
135.2249152542
 20
116.9669543619
 30
0.0
 10
135.2241841595484
 20
117.0088925569684
 30
0.0
 10
135.2227211971739
 20
117.0928124536266
 30
0.0
 10
135.2072394905525
 20
117.2166465722929
 30
0.0
 10
135.1781082189791
 20
117.3365976151288
 30
0.0
 10
135.1308724596898
 20
117.4509913913029
 30
0.0
 10
135.0614297033079
 20
117.5554567027114
 30
0.0
 10
134.9689598996889
 20
117.6488836400518
 30
0.0
 10
134.855916873365
 20
117.7258908178946
 30
0.0
 10
134.7685534278187
 20
117.7595872560597
 30
0.0
 10
134.724915254204
 20
117.776418670469
 30
0.0
 11
135.2249152542
 21
116.9669543619
 31
0.0
 11
135.2204823076296
 21
117.0926475894587
 31
0.0
 11
135.2046776540973
 21
117.2175535099748
 31
0.0
 11
135.175095426077
 21
117.3357729951739
 31
0.0
 11
135.1279699338214
 21
117.4478404619108
 31
0.0
 11
135.0583459645839
 21
117.5527736549783
 31
0.0
 11
134.9697288418984
 21
117.6426342829901
 31
0.0
 11
134.8534784534055
 21
117.7210847303142
 31
0.0
 11
134.724915254204
 21
117.776418670469
 31
0.0
  0
SPLINE
  5
136
330
1F
100
AcDbEntity
  8
1
  6
Continuous
 62
     2
100
AcDbSpline
210
0.0
220
0.0
230
1.0
 70
     8
 71
     3
 72
    21
 73
    17
 74
    15
 42
0.000000001
 43
0.0000000001
 44
0.00000001
 40
0.0
 40
0.0
 40
0.0
 40
0.0
 40
0.2055941564286536
 40
0.3664905680066645
 40
0.5282493038341044
 40
0.6720983006440865
 40
0.7797807317417782
 40
0.8857064081459938
 40
0.9882327206686479
 40
1.10959816932695
 40
1.203206967296623
 40
1.293002542214438
 40
1.416894133293642
 40
1.532052433856532
 40
1.636514906618169
 40
1.75943115457204
 40
1.75943115457204
 40
1.75943115457204
 40
1.75943115457204
 10
150.7700771949379
 20
188.3477709958645
 30
0.0
 10
150.8225062532134
 20
188.3041907991825
 30
0.0
 10
150.9159658884148
 20
188.2265050734775
 30
0.0
 10
151.11578730717
 20
188.1940329417685
 30
0.0
 10
151.2136928277378
 20
188.3240384691522
 30
0.0
 10
151.3431760562815
 20
188.4189133968066
 30
0.0
 10
151.4506925830332
 20
188.3482006882419
 30
0.0
 10
151.5502384198581
 20
188.2898149291144
 30
0.0
 10
151.6528498805382
 20
188.3638370257243
 30
0.0
 10
151.7119388197981
 20
188.4397156995262
 30
0.0
 10
151.800177981231
 20
188.5233308540508
 30
0.0
 10
151.8978405815627
 20
188.4499129806334
 30
0.0
 10
151.9577857248135
 20
188.3677458113456
 30
0.0
 10
152.0449550396942
 20
188.2780505346327
 30
0.0
 10
152.1687022763876
 20
188.2906316515471
 30
0.0
 10
152.2345053871605
 20
188.3277211720687
 30
0.0
 10
152.2700771949379
 20
188.3477709958645
 30
0.0
 11
150.7700771949379
 21
188.3477709958645
 31
0.0
 11
150.9415803365386
 21
188.2343883110663
 31
0.0
 11
151.1019498168328
 21
188.2213774053981
 31
0.0
 11
151.2263069766798
 21
188.3248239358286
 31
0.0
 11
151.3534772676699
 21
188.3920567470371
 31
0.0
 11
151.4519865465645
 21
188.3485661960622
 31
0.0
 11
151.5511059790409
 21
188.3112086378396
 31
0.0
 11
151.6411195781447
 21
188.360292206189
 31
0.0
 11
151.7241906763186
 21
188.4487725125674
 31
0.0
 11
151.802633429878
 21
188.499854225967
 31
0.0
 11
151.8818906178849
 21
188.4576458921228
 31
0.0
 11
151.9639666695883
 21
188.3648415393561
 31
0.0
 11
152.054160880714
 21
188.2932423913513
 31
0.0
 11
152.1585864287995
 21
188.296019535275
 31
0.0
 11
152.2700771949379
 21
188.3477709958645
 31
0.0
  0
XLINE
  5
137
330
1F
100
AcDbEntity
  8
1
  6
DOT_CENTER
 62
     3
 60
     1
100
AcDbXline
 10
110.7249152542
 20
128.2529985999
 30
0.0
 11
1.0
 21
0.0
 31
0.0
  0
XLINE
  5
138
330
1F
100
AcDbEntity
  8
1
  6
DOT_CENTER
 62
     3
 60
     1
100
AcDbXline
 10
110.7249152542
 20
128.2529985999
 30
0.0
 11
1.0
 21
0.0
 31
0.0
  0
ARC
  5
139
330
1F
100
AcDbEntity
  8
1
  6
Continuous
 62
     7
100
AcDbCircle
 10
109.2249152542
 20
115.2529985999
 30
0.0
 40
0.5
100
AcDbArc
 50
180.0
 51
270.0
  0
ARC
  5
13A
330
1F
100
AcDbEntity
  8
1
  6
Continuous
 62
     7
100
AcDbCircle
 10
108.7249152542
 20
114.7529985999
 30
0.0
 40
1.5
100
AcDbArc
 50
180.0
 51
270.0
  0
ARC
  5
13B
330
1F
100
AcDbEntity
  8
1
  6
Continuous
 62
     7
100
AcDbCircle
 10
136.7249152542
 20
114.7529985999
 30
0.0
 40
1.5
100
AcDbArc
 50
270.0
 51
0.0
  0
ARC
  5
13C
330
1F
100
AcDbEntity
  8
1
  6
Continuous
 62
     7
100
AcDbCircle
 10
138.7249152542
 20
171.2529985999
 30
0.0
 40
0.5
100
AcDbArc
 50
90.0
 51
180.0
  0
ARC
  5
13D
330
1F
100
AcDbEntity
  8
1
  6
Continuous
 62
     7
100
AcDbCircle
 10
148.752439104733
 20
171.2529985999
 30
0.0
 40
2.000000000000039
100
AcDbArc
 50
345.0000000000016
 51
90.0
  0
ARC
  5
13E
330
1F
100
AcDbEntity
  8
1
  6
Continuous
 62
     7
100
AcDbCircle
 10
148.752439104733
 20
171.2529985999
 30
0.0
 40
0.5000000000000207
100
AcDbArc
 50
345.0000000000095
 51
90.0
  0
ARC
  5
13F
330
1F
100
AcDbEntity
  8
1
  6
Continuous
 62
     7
100
AcDbCircle
 10
138.2249152542
 20
171.7529985999
 30
0.0
 40
1.5
100
AcDbArc
 50
90.0
 51
180.0
  0
ARC
  5
140
330
1F
100
AcDbEntity
  8
1
  6
Continuous
 62
     7
100
AcDbCircle
 10
147.2652864376901
 20
154.5029985999
 30
0.0
 40
0.25
100
AcDbArc
 50
270.0
 51
0.0
  0
ARC
  5
141
330
1F
100
AcDbEntity
  8
1
  6
Continuous
 62
     7
100
AcDbCircle
 10
146.5152864376901
 20
155.1097351961303
 30
0.0
 40
1.000000000000114
100
AcDbArc
 50
0.0
 51
40.00000000000279
  0
ARC
  5
142
330
1F
100
AcDbEntity
  8
1
  6
Continuous
 62
     7
100
AcDbCircle
 10
147.6076011563797
 20
159.2529985999
 30
0.0
 40
2.500000000000064
100
AcDbArc
 50
164.9999999999978
 51
219.9999999999979
  0
ARC
  5
143
330
1F
100
AcDbEntity
  8
1
  6
Continuous
 62
     7
100
AcDbCircle
 10
146.5152864376901
 20
155.1097351961303
 30
0.0
 40
2.0
100
AcDbArc
 50
0.0
 51
39.99999999999967
  0
ARC
  5
144
330
1F
100
AcDbEntity
  8
1
  6
Continuous
 62
     7
100
AcDbCircle
 10
147.2652864376901
 20
154.5029985999
 30
0.0
 40
1.25
100
AcDbArc
 50
270.0
 51
0.0
  0
ARC
  5
145
330
1F
100
AcDbEntity
  8
1
  6
Continuous
 62
     7
100
AcDbCircle
 10
147.6076011563797
 20
159.2529985999
 30
0.0
 40
1.500000000000101
100
AcDbArc
 50
164.9999999999998
 51
219.9999999999987
  0
ARC
  5
146
330
1F
100
AcDbEntity
  8
1
  6
Continuous
 62
     7
100
AcDbCircle
 10
147.6076011563797
 20
159.2529985999
 30
0.0
 40
1.500000000000033
100
AcDbArc
 50
219.9999999999987
 51
270.0
  0
ARC
  5
147
330
1F
100
AcDbEntity
  8
1
  6
Continuous
 62
     7
100
AcDbCircle
 10
148.2592138428002
 20
159.7529985999
 30
0.0
 40
0.4999999999999677
100
AcDbArc
 50
164.9999999999944
 51
270.0
  0
ARC
  5
148
330
1F
100
AcDbEntity
  8
1
  6
Continuous
 62
     7
100
AcDbCircle
 10
150.2700771949379
 20
159.7529985999
 30
0.0
 40
0.5
100
AcDbArc
 50
270.0
 51
0.0
  0
ARC
  5
149
330
1F
100
AcDbEntity
  8
1
  6
Continuous
 62
     7
100
AcDbCircle
 10
150.7700771949379
 20
159.2529985999
 30
0.0
 40
1.5
100
AcDbArc
 50
270.0
 51
0.0
  0
ARC
  5
14A
330
1F
100
AcDbEntity
  8
1
  6
Continuous
 62
     7
100
AcDbCircle
 10
141.2249152542
 20
156.2529985999
 30
0.0
 40
3.0
100
AcDbArc
 50
180.0
 51
270.0
  0
ARC
  5
14B
330
1F
100
AcDbEntity
  8
1
  6
Continuous
 62
     7
100
AcDbCircle
 10
141.2249152542
 20
156.2529985999
 30
0.0
 40
2.0
100
AcDbArc
 50
180.0
 51
270.0
  0
DIMENSION
  5
157
330
1F
100
AcDbEntity
  8
1
100
AcDbDimension
280
     0
  2
*D2
 10
138.2249152542
 20
103.188158536473
 30
0.0
 11
130.030909952818
 21
106.938158536473
 31
0.0
 70
    32
  1
<>
 71
     5
 42
-1.0
 73
     0
 74
     0
 75
     0
 53
0.00013888888889
  3
ME10_DIM_10
100
AcDbAlignedDimension
 13
123.7249152542
 23
114.7529985999
 33
0.0
 14
138.2249152542
 24
114.7529985999
 34
0.0
100
AcDbRotatedDimension
  0
DIMENSION
  5
162
330
1F
100
AcDbEntity
  8
1
100
AcDbDimension
280
     0
  2
*D3
 10
158.103730934242
 20
113.2529985999
 30
0.0
 11
154.353730934242
 21
121.569127479321
 31
0.0
 70
    32
  1
<>
 71
     5
 42
-1.0
 73
     0
 74
     0
 75
     0
 53
90.0
  3
ME10_DIM_11
100
AcDbAlignedDimension
 13
141.2249152542
 23
131.2529985999
 33
0.0
 14
136.7249152542
 24
113.2529985999
 34
0.0
 50
90.0
100
AcDbRotatedDimension
  0
DIMENSION
  5
16D
330
1F
100
AcDbEntity
  8
1
100
AcDbDimension
280
     0
  2
*D4
 10
148.039115355722
 20
113.2529985999
 30
0.0
 11
144.289115355722
 21
120.730409514444
 31
0.0
 70
    32
  1
<>
 71
     5
 42
-1.0
 73
     0
 74
     0
 75
     0
 53
90.0
  3
ME10_DIM_12
100
AcDbAlignedDimension
 13
141.2249152542
 23
128.2529985999
 33
0.0
 14
136.7249152542
 24
113.2529985999
 34
0.0
 50
90.0
100
AcDbRotatedDimension
  0
DIMENSION
  5
178
330
1F
100
AcDbEntity
  8
1
100
AcDbDimension
280
     0
  2
*D5
 10
97.0637012682177
 20
114.7529985999
 30
0.0
 11
93.3137012682177
 21
130.608643322992
 31
0.0
 70
    32
  1
<>
 71
     5
 42
-1.0
 73
     0
 74
     0
 75
     0
 53
90.0
  3
ME10_DIM_13
100
AcDbAlignedDimension
 13
116.2249152542
 23
146.7529985999
 33
0.0
 14
121.4249152542
 24
114.7529985999
 34
0.0
 50
90.0
100
AcDbRotatedDimension
  0
DIMENSION
  5
183
330
1F
100
AcDbEntity
  8
1
100
AcDbDimension
280
     0
  2
*D6
 10
136.7249152542
 20
157.541691364121
 30
0.0
 11
125.607319574203
 21
161.291691364121
 31
0.0
 70
    32
  1
<>
 71
     5
 42
-1.0
 73
     0
 74
     0
 75
     0
 53
0.00013888888889
  3
ME10_DIM_14
100
AcDbAlignedDimension
 13
113.7249152542
 23
144.2529985999
 33
0.0
 14
136.7249152542
 24
146.7529985999
 34
0.0
100
AcDbRotatedDimension
  0
ENDSEC
  0
SECTION
  2
OBJECTS
  0
DICTIONARY
  5
C
330
0
100
AcDbDictionary
281
     1
  3
ACAD_GROUP
350
D
  3
ACAD_LAYOUT
350
1A
  3
ACAD_MATERIAL
350
3B
  3
ACAD_MLEADERSTYLE
350
185
  3
ACAD_MLINESTYLE
350
17
  3
ACAD_PLOTSETTINGS
350
19
  3
ACAD_PLOTSTYLENAME
350
E
  3
ACAD_TABLESTYLE
350
184
  3
ACAD_VISUALSTYLE
350
2A
  0
DICTIONARY
  5
D
102
{ACAD_REACTORS
330
C
102
}
330
C
100
AcDbDictionary
281
     1
  0
DICTIONARY
  5
1A
102
{ACAD_REACTORS
330
C
102
}
330
C
100
AcDbDictionary
281
     1
  3
Layout1
350
1E
  3
Layout2
350
26
  3
Model
350
22
  0
DICTIONARY
  5
3B
102
{ACAD_REACTORS
330
C
102
}
330
C
100
AcDbDictionary
281
     1
  3
ByBlock
350
3D
  3
ByLayer
350
3C
  3
Global
350
3E
  0
DICTIONARY
  5
185
102
{ACAD_REACTORS
330
C
102
}
330
C
100
AcDbDictionary
281
     1
  0
DICTIONARY
  5
17
102
{ACAD_REACTORS
330
C
102
}
330
C
100
AcDbDictionary
281
     1
  3
Standard
350
18
  0
DICTIONARY
  5
19
102
{ACAD_REACTORS
330
C
102
}
330
C
100
AcDbDictionary
281
     1
  0
ACDBDICTIONARYWDFLT
  5
E
102
{ACAD_REACTORS
330
C
102
}
330
C
100
AcDbDictionary
281
     1
  3
Normal
350
F
100
AcDbDictionaryWithDefault
340
F
  0
DICTIONARY
  5
184
102
{ACAD_REACTORS
330
C
102
}
330
C
100
AcDbDictionary
281
     1
  0
DICTIONARY
  5
2A
102
{ACAD_REACTORS
330
C
102
}
330
C
100
AcDbDictionary
281
     1
  3
2dWireframe
350
2F
  3
3D Hidden
350
31
  3
3dWireframe
350
30
  3
Basic
350
32
  3
Brighten
350
36
  3
ColorChange
350
3A
  3
Conceptual
350
34
  3
Dim
350
35
  3
Facepattern
350
39
  3
Flat
350
2B
  3
FlatWithEdges
350
2C
  3
Gouraud
350
2D
  3
GouraudWithEdges
350
2E
  3
Linepattern
350
38
  3
Realistic
350
33
  3
Thicken
350
37
  0
LAYOUT
  5
1E
102
{ACAD_REACTORS
330
1A
102
}
330
1A
100
AcDbPlotSettings
  1

  2
none_device
  4

  6

 40
0.0
 41
0.0
 42
0.0
 43
0.0
 44
0.0
 45
0.0
 46
0.0
 47
0.0
 48
0.0
 49
0.0
140
0.0
141
0.0
142
1.0
143
1.0
 70
   688
 72
     0
 73
     0
 74
     5
  7

 75
    16
 76
     0
 77
     2
 78
   300
147
1.0
148
0.0
149
0.0
100
AcDbLayout
  1
Layout1
 70
     1
 71
     1
 10
0.0
 20
0.0
 11
12.0
 21
9.0
 12
0.0
 22
0.0
 32
0.0
 14
1.00000000000000E+20
 24
1.00000000000000E+20
 34
1.00000000000000E+20
 15
-1.00000000000000E+20
 25
-1.00000000000000E+20
 35
-1.00000000000000E+20
146
0.0
 13
0.0
 23
0.0
 33
0.0
 16
1.0
 26
0.0
 36
0.0
 17
0.0
 27
1.0
 37
0.0
 76
     0
330
1B
  0
LAYOUT
  5
26
102
{ACAD_REACTORS
330
1A
102
}
330
1A
100
AcDbPlotSettings
  1

  2
none_device
  4

  6

 40
0.0
 41
0.0
 42
0.0
 43
0.0
 44
0.0
 45
0.0
 46
0.0
 47
0.0
 48
0.0
 49
0.0
140
0.0
141
0.0
142
1.0
143
1.0
 70
   688
 72
     0
 73
     0
 74
     5
  7

 75
    16
 76
     0
 77
     2
 78
   300
147
1.0
148
0.0
149
0.0
100
AcDbLayout
  1
Layout2
 70
     1
 71
     2
 10
0.0
 20
0.0
 11
0.0
 21
0.0
 12
0.0
 22
0.0
 32
0.0
 14
0.0
 24
0.0
 34
0.0
 15
0.0
 25
0.0
 35
0.0
146
0.0
 13
0.0
 23
0.0
 33
0.0
 16
1.0
 26
0.0
 36
0.0
 17
0.0
 27
1.0
 37
0.0
 76
     0
330
23
  0
LAYOUT
  5
22
102
{ACAD_REACTORS
330
1A
102
}
330
1A
100
AcDbPlotSettings
  1

  2
none_device
  4

  6

 40
0.0
 41
0.0
 42
0.0
 43
0.0
 44
0.0
 45
0.0
 46
0.0
 47
0.0
 48
0.0
 49
0.0
140
0.0
141
0.0
142
1.0
143
1.0
 70
  1712
 72
     0
 73
     0
 74
     0
  7

 75
     0
 76
     0
 77
     2
 78
   300
147
1.0
148
0.0
149
0.0
100
AcDbLayout
  1
Model
 70
     1
 71
     0
 10
0.0
 20
0.0
 11
12.0
 21
9.0
 12
0.0
 22
0.0
 32
0.0
 14
91.5637012682177
 24
101.188158536473
 34
0.0
 15
160.103730934242
 25
188.507536372548
 35
0.0
146
0.0
 13
0.0
 23
0.0
 33
0.0
 16
1.0
 26
0.0
 36
0.0
 17
0.0
 27
1.0
 37
0.0
 76
     0
330
1F
331
29
  0
MATERIAL
  5
3D
102
{ACAD_REACTORS
330
3B
102
}
330
3B
100
AcDbMaterial
  1
ByBlock
 72
     1
 94
      127
  0
MATERIAL
  5
3C
102
{ACAD_REACTORS
330
3B
102
}
330
3B
100
AcDbMaterial
  1
ByLayer
 72
     1
 94
      127
  0
MATERIAL
  5
3E
102
{ACAD_REACTORS
330
3B
102
}
330
3B
100
AcDbMaterial
  1
Global
 72
     1
 94
      127
  0
MLINESTYLE
  5
18
102
{ACAD_REACTORS
330
17
102
}
330
17
100
AcDbMlineStyle
  2
Standard
 70
     0
  3

 62
   256
 51
90.0
 52
90.0
 71
     2
 49
0.5
 62
   256
  6
BYLAYER
 49
-0.5
 62
   256
  6
BYLAYER
  0
ACDBPLACEHOLDER
  5
F
102
{ACAD_REACTORS
330
E
102
}
330
E
  0
VISUALSTYLE
  5
2F
102
{ACAD_REACTORS
330
2A
102
}
330
2A
100
AcDbVisualStyle
  2
2dWireframe
 70
     4
177
     2
291
     0
 71
     0
176
     1
 72
     2
176
     1
 73
     0
176
     1
 90
        0
176
     1
 40
-0.6
176
     1
 41
-30.0
176
     1
 62
     5
 63
     7
421
 16777215
176
     1
 74
     1
176
     1
 91
        4
176
     1
 64
     7
176
     1
 65
   257
176
     1
 75
     1
176
     1
175
     1
176
     1
 42
1.0
176
     1
 92
        0
176
     1
 66
   257
176
     1
 43
1.0
176
     1
 76
     1
176
     1
 77
     6
176
     1
 78
     2
176
     1
 67
     7
176
     1
 79
     5
176
     1
170
     0
176
     1
171
     0
176
     1
290
     0
176
     1
 93
        1
176
     1
 44
0.0
176
     1
173
     0
176
     1
  0
VISUALSTYLE
  5
31
102
{ACAD_REACTORS
330
2A
102
}
330
2A
100
AcDbVisualStyle
  2
3D Hidden
 70
     6
177
     2
291
     0
 71
     1
176
     1
 72
     2
176
     1
 73
     2
176
     1
 90
        0
176
     1
 40
-0.6
176
     1
 41
-30.0
176
     1
 62
     5
 63
     7
421
 16777215
176
     1
 74
     2
176
     1
 91
        2
176
     1
 64
     7
176
     1
 65
   257
176
     1
 75
     2
176
     1
175
     1
176
     1
 42
40.0
176
     1
 92
        0
176
     1
 66
   257
176
     1
 43
1.0
176
     1
 76
     1
176
     1
 77
     6
176
     1
 78
     2
176
     1
 67
     7
176
     1
 79
     3
176
     1
170
     0
176
     1
171
     0
176
     1
290
     0
176
     1
 93
        1
176
     1
 44
0.0
176
     1
173
     0
176
     1
  0
VISUALSTYLE
  5
30
102
{ACAD_REACTORS
330
2A
102
}
330
2A
100
AcDbVisualStyle
  2
3dWireframe
 70
     5
177
     2
291
     0
 71
     0
176
     1
 72
     2
176
     1
 73
     0
176
     1
 90
        0
176
     1
 40
-0.6
176
     1
 41
-30.0
176
     1
 62
     5
 63
     7
421
 16777215
176
     1
 74
     1
176
     1
 91
        4
176
     1
 64
     7
176
     1
 65
   257
176
     1
 75
     1
176
     1
175
     1
176
     1
 42
1.0
176
     1
 92
        0
176
     1
 66
   257
176
     1
 43
1.0
176
     1
 76
     1
176
     1
 77
     6
176
     1
 78
     2
176
     1
 67
     7
176
     1
 79
     5
176
     1
170
     0
176
     1
171
     0
176
     1
290
     0
176
     1
 93
        1
176
     1
 44
0.0
176
     1
173
     0
176
     1
  0
VISUALSTYLE
  5
32
102
{ACAD_REACTORS
330
2A
102
}
330
2A
100
AcDbVisualStyle
  2
Basic
 70
     7
177
     2
291
     1
 71
     1
176
     1
 72
     0
176
     1
 73
     1
176
     1
 90
        0
176
     1
 40
-0.6
176
     1
 41
-30.0
176
     1
 62
     5
 63
     7
421
 16777215
176
     1
 74
     0
176
     1
 91
        4
176
     1
 64
     7
176
     1
 65
   257
176
     1
 75
     1
176
     1
175
     1
176
     1
 42
1.0
176
     1
 92
        8
176
     1
 66
     7
176
     1
 43
1.0
176
     1
 76
     1
176
     1
 77
     6
176
     1
 78
     2
176
     1
 67
     7
176
     1
 79
     5
176
     1
170
     0
176
     1
171
     0
176
     1
290
     0
176
     1
 93
        1
176
     1
 44
0.0
176
     1
173
     0
176
     1
  0
VISUALSTYLE
  5
36
102
{ACAD_REACTORS
330
2A
102
}
330
2A
100
AcDbVisualStyle
  2
Brighten
 70
    12
177
     2
291
     1
 71
     2
176
     1
 72
     2
176
     1
 73
     0
176
     1
 90
        0
176
     1
 40
-0.6
176
     1
 41
-30.0
176
     1
 62
     5
 63
     7
421
 16777215
176
     1
 74
     1
176
     1
 91
        4
176
     1
 64
     7
176
     1
 65
   257
176
     1
 75
     1
176
     1
175
     1
176
     1
 42
1.0
176
     1
 92
        8
176
     1
 66
     7
176
     1
 43
1.0
176
     1
 76
     1
176
     1
 77
     6
176
     1
 78
     2
176
     1
 67
     7
176
     1
 79
     5
176
     1
170
     0
176
     1
171
     0
176
     1
290
     0
176
     1
 93
        1
176
     1
 44
50.0
176
     1
173
     0
176
     1
  0
VISUALSTYLE
  5
3A
102
{ACAD_REACTORS
330
2A
102
}
330
2A
100
AcDbVisualStyle
  2
ColorChange
 70
    16
177
     2
291
     1
 71
     2
176
     1
 72
     2
176
     1
 73
     3
176
     1
 90
        0
176
     1
 40
-0.6
176
     1
 41
-30.0
176
     1
 62
     5
 63
     8
421
  8421504
176
     1
 74
     1
176
     1
 91
        4
176
     1
 64
     7
176
     1
 65
   257
176
     1
 75
     1
176
     1
175
     1
176
     1
 42
1.0
176
     1
 92
        8
176
     1
 66
     8
424
  8421504
176
     1
 43
1.0
176
     1
 76
     1
176
     1
 77
     6
176
     1
 78
     2
176
     1
 67
     7
176
     1
 79
     5
176
     1
170
     0
176
     1
171
     0
176
     1
290
     0
176
     1
 93
        1
176
     1
 44
0.0
176
     1
173
     0
176
     1
  0
VISUALSTYLE
  5
34
102
{ACAD_REACTORS
330
2A
102
}
330
2A
100
AcDbVisualStyle
  2
Conceptual
 70
     9
177
     2
291
     0
 71
     3
176
     1
 72
     2
176
     1
 73
     0
176
     1
 90
        0
176
     1
 40
-0.6
176
     1
 41
-30.0
176
     1
 62
     5
 63
     7
421
 16777215
176
     1
 74
     2
176
     1
 91
        2
176
     1
 64
     7
176
     1
 65
   257
176
     1
 75
     1
176
     1
175
     1
176
     1
 42
40.0
176
     1
 92
        8
176
     1
 66
     7
176
     1
 43
1.0
176
     1
 76
     1
176
     1
 77
     6
176
     1
 78
     2
176
     1
 67
     7
176
     1
 79
     3
176
     1
170
     0
176
     1
171
     0
176
     1
290
     0
176
     1
 93
        1
176
     1
 44
0.0
176
     1
173
     0
176
     1
  0
VISUALSTYLE
  5
35
102
{ACAD_REACTORS
330
2A
102
}
330
2A
100
AcDbVisualStyle
  2
Dim
 70
    11
177
     2
291
     1
 71
     2
176
     1
 72
     2
176
     1
 73
     0
176
     1
 90
        0
176
     1
 40
-0.6
176
     1
 41
-30.0
176
     1
 62
     5
 63
     7
421
 16777215
176
     1
 74
     1
176
     1
 91
        4
176
     1
 64
     7
176
     1
 65
   257
176
     1
 75
     1
176
     1
175
     1
176
     1
 42
1.0
176
     1
 92
        8
176
     1
 66
     7
176
     1
 43
1.0
176
     1
 76
     1
176
     1
 77
     6
176
     1
 78
     2
176
     1
 67
     7
176
     1
 79
     5
176
     1
170
     0
176
     1
171
     0
176
     1
290
     0
176
     1
 93
        1
176
     1
 44
-50.0
176
     1
173
     0
176
     1
  0
VISUALSTYLE
  5
39
102
{ACAD_REACTORS
330
2A
102
}
330
2A
100
AcDbVisualStyle
  2
Facepattern
 70
    15
177
     2
291
     1
 71
     2
176
     1
 72
     2
176
     1
 73
     0
176
     1
 90
        0
176
     1
 40
-0.6
176
     1
 41
-30.0
176
     1
 62
     5
 63
     7
421
 16777215
176
     1
 74
     1
176
     1
 91
        4
176
     1
 64
     7
176
     1
 65
   257
176
     1
 75
     1
176
     1
175
     1
176
     1
 42
1.0
176
     1
 92
        8
176
     1
 66
     7
176
     1
 43
1.0
176
     1
 76
     1
176
     1
 77
     6
176
     1
 78
     2
176
     1
 67
     7
176
     1
 79
     5
176
     1
170
     0
176
     1
171
     0
176
     1
290
     0
176
     1
 93
        1
176
     1
 44
0.0
176
     1
173
     0
176
     1
  0
VISUALSTYLE
  5
2B
102
{ACAD_REACTORS
330
2A
102
}
330
2A
100
AcDbVisualStyle
  2
Flat
 70
     0
177
     2
291
     1
 71
     2
176
     1
 72
     1
176
     1
 73
     1
176
     1
 90
        2
176
     1
 40
-0.6
176
     1
 41
30.0
176
     1
 62
     5
 63
     7
421
 16777215
176
     1
 74
     0
176
     1
 91
        4
176
     1
 64
     7
176
     1
 65
   257
176
     1
 75
     1
176
     1
175
     1
176
     1
 42
1.0
176
     1
 92
        8
176
     1
 66
     7
176
     1
 43
1.0
176
     1
 76
     1
176
     1
 77
     6
176
     1
 78
     2
176
     1
 67
     7
176
     1
 79
     5
176
     1
170
     0
176
     1
171
     0
176
     1
290
     0
176
     1
 93
       13
176
     1
 44
0.0
176
     1
173
     0
176
     1
  0
VISUALSTYLE
  5
2C
102
{ACAD_REACTORS
330
2A
102
}
330
2A
100
AcDbVisualStyle
  2
FlatWithEdges
 70
     1
177
     2
291
     1
 71
     2
176
     1
 72
     1
176
     1
 73
     1
176
     1
 90
        2
176
     1
 40
-0.6
176
     1
 41
30.0
176
     1
 62
     5
 63
     7
421
 16777215
176
     1
 74
     1
176
     1
 91
        4
176
     1
 64
     7
176
     1
 65
   257
176
     1
 75
     1
176
     1
175
     1
176
     1
 42
1.0
176
     1
 92
        0
176
     1
 66
   257
176
     1
 43
1.0
176
     1
 76
     1
176
     1
 77
     6
176
     1
 78
     2
176
     1
 67
     7
176
     1
 79
     5
176
     1
170
     0
176
     1
171
     0
176
     1
290
     0
176
     1
 93
       13
176
     1
 44
0.0
176
     1
173
     0
176
     1
  0
VISUALSTYLE
  5
2D
102
{ACAD_REACTORS
330
2A
102
}
330
2A
100
AcDbVisualStyle
  2
Gouraud
 70
     2
177
     2
291
     1
 71
     2
176
     1
 72
     2
176
     1
 73
     1
176
     1
 90
        2
176
     1
 40
-0.6
176
     1
 41
30.0
176
     1
 62
     5
 63
     7
421
 16777215
176
     1
 74
     0
176
     1
 91
        4
176
     1
 64
     7
176
     1
 65
   257
176
     1
 75
     1
176
     1
175
     1
176
     1
 42
1.0
176
     1
 92
        0
176
     1
 66
     7
176
     1
 43
1.0
176
     1
 76
     1
176
     1
 77
     6
176
     1
 78
     2
176
     1
 67
     7
176
     1
 79
     5
176
     1
170
     0
176
     1
171
     0
176
     1
290
     0
176
     1
 93
       13
176
     1
 44
0.0
176
     1
173
     0
176
     1
  0
VISUALSTYLE
  5
2E
102
{ACAD_REACTORS
330
2A
102
}
330
2A
100
AcDbVisualStyle
  2
GouraudWithEdges
 70
     3
177
     2
291
     1
 71
     2
176
     1
 72
     2
176
     1
 73
     1
176
     1
 90
        2
176
     1
 40
-0.6
176
     1
 41
30.0
176
     1
 62
     5
 63
     7
421
 16777215
176
     1
 74
     1
176
     1
 91
        4
176
     1
 64
     7
176
     1
 65
   257
176
     1
 75
     1
176
     1
175
     1
176
     1
 42
1.0
176
     1
 92
        0
176
     1
 66
   257
176
     1
 43
1.0
176
     1
 76
     1
176
     1
 77
     6
176
     1
 78
     2
176
     1
 67
     7
176
     1
 79
     5
176
     1
170
     0
176
     1
171
     0
176
     1
290
     0
176
     1
 93
       13
176
     1
 44
0.0
176
     1
173
     0
176
     1
  0
VISUALSTYLE
  5
38
102
{ACAD_REACTORS
330
2A
102
}
330
2A
100
AcDbVisualStyle
  2
Linepattern
 70
    14
177
     2
291
     1
 71
     2
176
     1
 72
     2
176
     1
 73
     0
176
     1
 90
        0
176
     1
 40
-0.6
176
     1
 41
-30.0
176
     1
 62
     5
 63
     7
421
 16777215
176
     1
 74
     1
176
     1
 91
        4
176
     1
 64
     7
176
     1
 65
   257
176
     1
 75
     7
176
     1
175
     7
176
     1
 42
1.0
176
     1
 92
        8
176
     1
 66
     7
176
     1
 43
1.0
176
     1
 76
     1
176
     1
 77
     6
176
     1
 78
     2
176
     1
 67
     7
176
     1
 79
     5
176
     1
170
     0
176
     1
171
     0
176
     1
290
     0
176
     1
 93
        1
176
     1
 44
0.0
176
     1
173
     0
176
     1
  0
VISUALSTYLE
  5
33
102
{ACAD_REACTORS
330
2A
102
}
330
2A
100
AcDbVisualStyle
  2
Realistic
 70
     8
177
     2
291
     0
 71
     2
176
     1
 72
     2
176
     1
 73
     0
176
     1
 90
        0
176
     1
 40
-0.6
176
     1
 41
-30.0
176
     1
 62
     5
 63
     7
421
 16777215
176
     1
 74
     1
176
     1
 91
        0
176
     1
 64
     7
176
     1
 65
   257
176
     1
 75
     1
176
     1
175
     1
176
     1
 42
1.0
176
     1
 92
        8
176
     1
 66
     8
424
  7895160
176
     1
 43
1.0
176
     1
 76
     1
176
     1
 77
     6
176
     1
 78
     2
176
     1
 67
     7
176
     1
 79
     5
176
     1
170
     0
176
     1
171
     0
176
     1
290
     0
176
     1
 93
       13
176
     1
 44
0.0
176
     1
173
     0
176
     1
  0
VISUALSTYLE
  5
37
102
{ACAD_REACTORS
330
2A
102
}
330
2A
100
AcDbVisualStyle
  2
Thicken
 70
    13
177
     2
291
     1
 71
     2
176
     1
 72
     2
176
     1
 73
     0
176
     1
 90
        0
176
     1
 40
-0.6
176
     1
 41
-30.0
176
     1
 62
     5
 63
     7
421
 16777215
176
     1
 74
     1
176
     1
 91
        4
176
     1
 64
     7
176
     1
 65
   257
176
     1
 75
     1
176
     1
175
     1
176
     1
 42
1.0
176
     1
 92
       12
176
     1
 66
     7
176
     1
 43
1.0
176
     1
 76
     1
176
     1
 77
     6
176
     1
 78
     2
176
     1
 67
     7
176
     1
 79
     5
176
     1
170
     0
176
     1
171
     0
176
     1
290
     0
176
     1
 93
        1
176
     1
 44
0.0
176
     1
173
     0
176
     1
  0
ENDSEC
  0
EOF
