  0
SECTION
  2
HEADER
  9
$ACADVER
  1
AC1018
  9
$ACADMAINTVER
 70
     0
  9
$DWGCODEPAGE
  3
ANSI_1252
  9
$INSBASE
 10
0.0
 20
0.0
 30
0.0
  9
$EXTMIN
 10
40.3489290148681
 20
80.2693403392854
 30
0.0
  9
$EXTMAX
 10
101.7716376412606
 20
272.7955242407
 30
0.0
  9
$LIMMIN
 10
0.0
 20
0.0
  9
$LIMMAX
 10
12.0
 20
9.0
  9
$ORTHOMODE
 70
     0
  9
$REGENMODE
 70
     1
  9
$FILLMODE
 70
     1
  9
$QTEXTMODE
 70
     0
  9
$MIRRTEXT
 70
     1
  9
$LTSCALE
 40
1.0
  9
$ATTMODE
 70
     1
  9
$TEXTSIZE
 40
0.2
  9
$TRACEWID
 40
0.05
  9
$TEXTSTYLE
  7
Standard
  9
$CLAYER
  8
0
  9
$CELTYPE
  6
ByLayer
  9
$CECOLOR
 62
   256
  9
$CELTSCALE
 40
1.0
  9
$DISPSILH
 70
     0
  9
$DIMSCALE
 40
1.0
  9
$DIMASZ
 40
0.18
  9
$DIMEXO
 40
0.0625
  9
$DIMDLI
 40
0.38
  9
$DIMRND
 40
0.0
  9
$DIMDLE
 40
0.0
  9
$DIMEXE
 40
0.18
  9
$DIMTP
 40
0.0
  9
$DIMTM
 40
0.0
  9
$DIMTXT
 40
0.18
  9
$DIMCEN
 40
0.09
  9
$DIMTSZ
 40
0.0
  9
$DIMTOL
 70
     0
  9
$DIMLIM
 70
     0
  9
$DIMTIH
 70
     1
  9
$DIMTOH
 70
     1
  9
$DIMSE1
 70
     0
  9
$DIMSE2
 70
     0
  9
$DIMTAD
 70
     0
  9
$DIMZIN
 70
     0
  9
$DIMBLK
  1

  9
$DIMASO
 70
     1
  9
$DIMSHO
 70
     1
  9
$DIMPOST
  1

  9
$DIMAPOST
  1

  9
$DIMALT
 70
     0
  9
$DIMALTD
 70
     2
  9
$DIMALTF
 40
25.4
  9
$DIMLFAC
 40
1.0
  9
$DIMTOFL
 70
     0
  9
$DIMTVP
 40
0.0
  9
$DIMTIX
 70
     0
  9
$DIMSOXD
 70
     0
  9
$DIMSAH
 70
     0
  9
$DIMBLK1
  1

  9
$DIMBLK2
  1

  9
$DIMSTYLE
  2
Standard
  9
$DIMCLRD
 70
     0
  9
$DIMCLRE
 70
     0
  9
$DIMCLRT
 70
     0
  9
$DIMTFAC
 40
1.0
  9
$DIMGAP
 40
0.09
  9
$DIMJUST
 70
     0
  9
$DIMSD1
 70
     0
  9
$DIMSD2
 70
     0
  9
$DIMTOLJ
 70
     1
  9
$DIMTZIN
 70
     0
  9
$DIMALTZ
 70
     0
  9
$DIMALTTZ
 70
     0
  9
$DIMUPT
 70
     0
  9
$DIMDEC
 70
     4
  9
$DIMTDEC
 70
     4
  9
$DIMALTU
 70
     2
  9
$DIMALTTD
 70
     2
  9
$DIMTXSTY
  7
Standard
  9
$DIMAUNIT
 70
     0
  9
$DIMADEC
 70
     0
  9
$DIMALTRND
 40
0.0
  9
$DIMAZIN
 70
     0
  9
$DIMDSEP
 70
    46
  9
$DIMATFIT
 70
     3
  9
$DIMFRAC
 70
     0
  9
$DIMLDRBLK
  1

  9
$DIMLUNIT
 70
     2
  9
$DIMLWD
 70
    -2
  9
$DIMLWE
 70
    -2
  9
$DIMTMOVE
 70
     0
  9
$LUNITS
 70
     2
  9
$LUPREC
 70
     4
  9
$SKETCHINC
 40
0.1
  9
$FILLETRAD
 40
0.5
  9
$AUNITS
 70
     0
  9
$AUPREC
 70
     0
  9
$MENU
  1
.
  9
$ELEVATION
 40
0.0
  9
$PELEVATION
 40
0.0
  9
$THICKNESS
 40
0.0
  9
$LIMCHECK
 70
     0
  9
$CHAMFERA
 40
0.5
  9
$CHAMFERB
 40
0.5
  9
$CHAMFERC
 40
1.0
  9
$CHAMFERD
 40
0.0
  9
$SKPOLY
 70
     0
  9
$TDCREATE
 40
2456629.345534294
  9
$TDUCREATE
 40
2456629.303867627
  9
$TDUPDATE
 40
2456629.345534306
  9
$TDUUPDATE
 40
2456629.303867639
  9
$TDINDWG
 40
0.0000000116
  9
$TDUSRTIMER
 40
0.0000000116
  9
$USRTIMER
 70
     1
  9
$ANGBASE
 50
0.0
  9
$ANGDIR
 70
     0
  9
$PDMODE
 70
     0
  9
$PDSIZE
 40
0.0
  9
$PLINEWID
 40
0.0
  9
$SPLFRAME
 70
     0
  9
$SPLINETYPE
 70
     6
  9
$SPLINESEGS
 70
     8
  9
$HANDSEED
  5
15F
  9
$SURFTAB1
 70
     6
  9
$SURFTAB2
 70
     6
  9
$SURFTYPE
 70
     6
  9
$SURFU
 70
     6
  9
$SURFV
 70
     6
  9
$UCSBASE
  2

  9
$UCSNAME
  2

  9
$UCSORG
 10
0.0
 20
0.0
 30
0.0
  9
$UCSXDIR
 10
1.0
 20
0.0
 30
0.0
  9
$UCSYDIR
 10
0.0
 20
1.0
 30
0.0
  9
$UCSORTHOREF
  2

  9
$UCSORTHOVIEW
 70
     0
  9
$UCSORGTOP
 10
0.0
 20
0.0
 30
0.0
  9
$UCSORGBOTTOM
 10
0.0
 20
0.0
 30
0.0
  9
$UCSORGLEFT
 10
0.0
 20
0.0
 30
0.0
  9
$UCSORGRIGHT
 10
0.0
 20
0.0
 30
0.0
  9
$UCSORGFRONT
 10
0.0
 20
0.0
 30
0.0
  9
$UCSORGBACK
 10
0.0
 20
0.0
 30
0.0
  9
$PUCSBASE
  2

  9
$PUCSNAME
  2

  9
$PUCSORG
 10
0.0
 20
0.0
 30
0.0
  9
$PUCSXDIR
 10
1.0
 20
0.0
 30
0.0
  9
$PUCSYDIR
 10
0.0
 20
1.0
 30
0.0
  9
$PUCSORTHOREF
  2

  9
$PUCSORTHOVIEW
 70
     0
  9
$PUCSORGTOP
 10
0.0
 20
0.0
 30
0.0
  9
$PUCSORGBOTTOM
 10
0.0
 20
0.0
 30
0.0
  9
$PUCSORGLEFT
 10
0.0
 20
0.0
 30
0.0
  9
$PUCSORGRIGHT
 10
0.0
 20
0.0
 30
0.0
  9
$PUCSORGFRONT
 10
0.0
 20
0.0
 30
0.0
  9
$PUCSORGBACK
 10
0.0
 20
0.0
 30
0.0
  9
$USERI1
 70
     0
  9
$USERI2
 70
     0
  9
$USERI3
 70
     0
  9
$USERI4
 70
     0
  9
$USERI5
 70
     0
  9
$USERR1
 40
14.5
  9
$USERR2
 40
0.0
  9
$USERR3
 40
0.0
  9
$USERR4
 40
0.0
  9
$USERR5
 40
0.0
  9
$WORLDVIEW
 70
     1
  9
$SHADEDGE
 70
     3
  9
$SHADEDIF
 70
    70
  9
$TILEMODE
 70
     1
  9
$MAXACTVP
 70
    64
  9
$PINSBASE
 10
0.0
 20
0.0
 30
0.0
  9
$PLIMCHECK
 70
     0
  9
$PEXTMIN
 10
1.00000000000000E+20
 20
1.00000000000000E+20
 30
1.00000000000000E+20
  9
$PEXTMAX
 10
-1.00000000000000E+20
 20
-1.00000000000000E+20
 30
-1.00000000000000E+20
  9
$PLIMMIN
 10
0.0
 20
0.0
  9
$PLIMMAX
 10
12.0
 20
9.0
  9
$UNITMODE
 70
     0
  9
$VISRETAIN
 70
     1
  9
$PLINEGEN
 70
     0
  9
$PSLTSCALE
 70
     1
  9
$TREEDEPTH
 70
  3020
  9
$CMLSTYLE
  2
Standard
  9
$CMLJUST
 70
     0
  9
$CMLSCALE
 40
1.0
  9
$PROXYGRAPHICS
 70
     1
  9
$MEASUREMENT
 70
     1
  9
$CELWEIGHT
370
    -1
  9
$ENDCAPS
280
     0
  9
$JOINSTYLE
280
     0
  9
$LWDISPLAY
290
     0
  9
$INSUNITS
 70
     1
  9
$HYPERLINKBASE
  1

  9
$STYLESHEET
  1

  9
$XEDIT
290
     1
  9
$CEPSNTYPE
380
     0
  9
$PSTYLEMODE
290
     1
  9
$FINGERPRINTGUID
  2
{3704B625-E0F8-43E1-9D00-55629A4B8400}
  9
$VERSIONGUID
  2
{FAEB1C32-E019-11D5-929B-00C0DF256EC4}
  9
$EXTNAMES
290
     1
  9
$PSVPSCALE
 40
0.0
  9
$OLESTARTUP
290
     0
  9
$SORTENTS
280
   127
  9
$INDEXCTL
280
     0
  9
$HIDETEXT
280
     1
  9
$XCLIPFRAME
290
     0
  9
$HALOGAP
280
     0
  9
$OBSCOLOR
 70
   257
  9
$OBSLTYPE
280
     0
  9
$INTERSECTIONDISPLAY
280
     0
  9
$INTERSECTIONCOLOR
 70
   257
  9
$DIMASSOC
280
     2
  9
$PROJECTNAME
  1

  0
ENDSEC
  0
SECTION
  2
CLASSES
  0
CLASS
  1
ACDBDICTIONARYWDFLT
  2
AcDbDictionaryWithDefault
  3
ObjectDBX Classes
 90
        0
 91
        3
280
     0
281
     0
  0
CLASS
  1

  2
exOdDbCircle
  3

 90
        0
 91
        3
280
     0
281
     1
  0
CLASS
  1

  2
exOdDbSpline
  3

 90
        0
 91
        3
280
     0
281
     1
  0
ENDSEC
  0
SECTION
  2
TABLES
  0
TABLE
  2
VPORT
  5
8
330
0
100
AcDbSymbolTable
 70
     1
  0
VPORT
  5
29
330
8
100
AcDbSymbolTableRecord
100
AcDbViewportTableRecord
  2
*Active
 70
     0
 10
0.0
 20
0.0
 11
1.0
 21
1.0
 12
71.06028332806434
 22
176.5324322899927
 13
0.0
 23
0.0
 14
0.5
 24
0.5
 15
0.5
 25
0.5
 16
0.0
 26
0.0
 36
1.0
 17
0.0
 27
0.0
 37
0.0
 40
211.778802291556
 41
1.60267857142857
 42
50.0
 43
0.0
 44
0.0
 50
0.0
 51
0.0
 71
     0
 72
   100
 73
     1
 74
     3
 75
     0
 76
     0
 77
     0
 78
     0
281
     0
 65
     1
110
0.0
120
0.0
130
0.0
111
1.0
121
0.0
131
0.0
112
0.0
122
1.0
132
0.0
 79
     0
146
0.0
  0
ENDTAB
  0
TABLE
  2
LTYPE
  5
5
330
0
100
AcDbSymbolTable
 70
     8
  0
LTYPE
  5
14
330
5
100
AcDbSymbolTableRecord
100
AcDbLinetypeTableRecord
  2
ByBlock
 70
     0
  3

 72
    65
 73
     0
 40
0.0
  0
LTYPE
  5
15
330
5
100
AcDbSymbolTableRecord
100
AcDbLinetypeTableRecord
  2
ByLayer
 70
     0
  3

 72
    65
 73
     0
 40
0.0
  0
LTYPE
  5
16
330
5
100
AcDbSymbolTableRecord
100
AcDbLinetypeTableRecord
  2
Continuous
 70
     0
  3
Solid line
 72
    65
 73
     0
 40
0.0
  0
LTYPE
  5
2A
330
5
100
AcDbSymbolTableRecord
100
AcDbLinetypeTableRecord
  2
DASHED
 70
     0
  3
Dashed
 72
    65
 73
     2
 40
15.0
 49
7.0
 74
     0
 49
-8.0
 74
     0
  0
LTYPE
  5
2B
330
5
100
AcDbSymbolTableRecord
100
AcDbLinetypeTableRecord
  2
DOTTED
 70
     0
  3
Dotted
 72
    65
 73
     2
 40
1.0
 49
0.0
 74
     0
 49
-1.0
 74
     0
  0
LTYPE
  5
2C
330
5
100
AcDbSymbolTableRecord
100
AcDbLinetypeTableRecord
  2
DOT_CENTER
 70
     0
  3
Dot_Center
 72
    65
 73
     4
 40
14.0
 49
12.0
 74
     0
 49
-1.0
 74
     0
 49
0.0
 74
     0
 49
-1.0
 74
     0
  0
LTYPE
  5
2D
330
5
100
AcDbSymbolTableRecord
100
AcDbLinetypeTableRecord
  2
LONG_DASHED
 70
     0
  3
Long_Dashed
 72
    65
 73
     2
 40
15.0
 49
10.0
 74
     0
 49
-5.0
 74
     0
  0
LTYPE
  5
2E
330
5
100
AcDbSymbolTableRecord
100
AcDbLinetypeTableRecord
  2
DASH_CENTER
 70
     0
  3
Dash_Center
 72
    65
 73
     4
 40
14.0
 49
11.0
 74
     0
 49
-1.0
 74
     0
 49
1.0
 74
     0
 49
-1.0
 74
     0
  0
LTYPE
  5
2F
330
5
100
AcDbSymbolTableRecord
100
AcDbLinetypeTableRecord
  2
PHANTOM
 70
     0
  3
Phantom
 72
    65
 73
     6
 40
13.0
 49
10.0
 74
     0
 49
-1.0
 74
     0
 49
0.0
 74
     0
 49
-1.0
 74
     0
 49
0.0
 74
     0
 49
-1.0
 74
     0
  0
LTYPE
  5
30
330
5
100
AcDbSymbolTableRecord
100
AcDbLinetypeTableRecord
  2
CENTER_DASH_DASH
 70
     0
  3
Center_Dash_Dash
 72
    65
 73
     6
 40
14.0
 49
9.0
 74
     0
 49
-1.0
 74
     0
 49
1.0
 74
     0
 49
-1.0
 74
     0
 49
1.0
 74
     0
 49
-1.0
 74
     0
  0
ENDTAB
  0
TABLE
  2
LAYER
  5
2
330
0
100
AcDbSymbolTable
 70
     4
  0
LAYER
  5
10
330
2
100
AcDbSymbolTableRecord
100
AcDbLayerTableRecord
  2
0
 70
     0
 62
     7
  6
Continuous
370
    -3
390
F
  0
LAYER
  5
31
330
2
100
AcDbSymbolTableRecord
100
AcDbLayerTableRecord
  2
1
 70
     0
 62
     7
  6
Continuous
370
    -3
390
F
  0
LAYER
  5
32
330
2
100
AcDbSymbolTableRecord
100
AcDbLayerTableRecord
  2
A_ACHSEN
 70
     0
 62
     7
  6
Continuous
370
    -3
390
F
  0
LAYER
  5
33
330
2
100
AcDbSymbolTableRecord
100
AcDbLayerTableRecord
  2
A_RUNDUNGEN
 70
     0
 62
     7
  6
Continuous
370
    -3
390
F
  0
ENDTAB
  0
TABLE
  2
STYLE
  5
3
330
0
100
AcDbSymbolTable
 70
     2
  0
STYLE
  5
11
330
3
100
AcDbSymbolTableRecord
100
AcDbTextStyleTableRecord
  2
Standard
 70
     0
 40
0.0
 41
1.0
 50
0.0
 71
     0
 42
0.2
  3
txt
  4

  0
STYLE
  5
138
330
3
100
AcDbSymbolTableRecord
100
AcDbTextStyleTableRecord
  2
CONVERTER_11
 70
     0
 40
0.0
 41
0.9
 50
0.0
 71
     0
 42
0.2
  3
txt.shx
  4

  0
ENDTAB
  0
TABLE
  2
VIEW
  5
6
330
0
100
AcDbSymbolTable
 70
     0
  0
ENDTAB
  0
TABLE
  2
UCS
  5
7
330
0
100
AcDbSymbolTable
 70
     0
  0
ENDTAB
  0
TABLE
  2
APPID
  5
9
330
0
100
AcDbSymbolTable
 70
     1
  0
APPID
  5
12
330
9
100
AcDbSymbolTableRecord
100
AcDbRegAppTableRecord
  2
ACAD
 70
     0
  0
ENDTAB
  0
TABLE
  2
DIMSTYLE
  5
A
330
0
100
AcDbSymbolTable
 70
     5
100
AcDbDimStyleTable
  0
DIMSTYLE
105
27
330
A
100
AcDbSymbolTableRecord
100
AcDbDimStyleTableRecord
  2
Standard
 70
     0
340
11
  0
DIMSTYLE
105
13C
102
{ACAD_REACTORS
330
13D
102
}
330
A
100
AcDbSymbolTableRecord
100
AcDbDimStyleTableRecord
  2
ME10_DIM_10
 70
     0
 41
3.5
 42
0.0
 44
2.0
 73
     0
 74
     0
 77
     1
 78
     8
140
3.5
147
2.0
172
     1
173
     1
176
     2
177
     2
178
     2
271
     3
340
138
  0
DIMSTYLE
105
147
102
{ACAD_REACTORS
330
148
102
}
330
A
100
AcDbSymbolTableRecord
100
AcDbDimStyleTableRecord
  2
ME10_DIM_11
 70
     0
 41
3.5
 42
0.0
 44
2.0
 73
     0
 74
     0
 77
     1
 78
     8
140
3.5
147
2.0
172
     1
173
     1
176
     2
177
     2
178
     2
271
     3
340
138
  0
DIMSTYLE
105
152
102
{ACAD_REACTORS
330
153
102
}
330
A
100
AcDbSymbolTableRecord
100
AcDbDimStyleTableRecord
  2
ME10_DIM_12
 70
     0
 41
3.5
 42
0.0
 44
2.0
 73
     0
 74
     0
 77
     1
 78
     8
140
3.5
147
2.0
172
     1
173
     1
176
     2
177
     2
178
     2
271
     3
340
138
  0
DIMSTYLE
105
15D
102
{ACAD_REACTORS
330
15E
102
}
330
A
100
AcDbSymbolTableRecord
100
AcDbDimStyleTableRecord
  2
ME10_DIM_13
 70
     0
 41
3.5
 42
0.0
 44
2.0
 73
     0
 74
     0
 77
     1
 78
     8
140
3.5
147
2.0
172
     1
173
     1
176
     2
177
     2
178
     2
271
     3
340
138
  0
ENDTAB
  0
TABLE
  2
BLOCK_RECORD
  5
1
330
0
100
AcDbSymbolTable
 70
     5
  0
BLOCK_RECORD
  5
1F
330
1
100
AcDbSymbolTableRecord
100
AcDbBlockTableRecord
  2
*Model_Space
340
22
  0
BLOCK_RECORD
  5
1B
330
1
100
AcDbSymbolTableRecord
100
AcDbBlockTableRecord
  2
*Paper_Space
340
1E
  0
BLOCK_RECORD
  5
23
330
1
100
AcDbSymbolTableRecord
100
AcDbBlockTableRecord
  2
*Paper_Space0
340
26
  0
BLOCK_RECORD
  5
132
330
1
100
AcDbSymbolTableRecord
100
AcDbBlockTableRecord
  2
*D1
340
0
  0
BLOCK_RECORD
  5
13E
330
1
100
AcDbSymbolTableRecord
100
AcDbBlockTableRecord
  2
*D2
340
0
  0
BLOCK_RECORD
  5
149
330
1
100
AcDbSymbolTableRecord
100
AcDbBlockTableRecord
  2
*D3
340
0
  0
BLOCK_RECORD
  5
154
330
1
100
AcDbSymbolTableRecord
100
AcDbBlockTableRecord
  2
*D4
340
0
  0
ENDTAB
  0
ENDSEC
  0
SECTION
  2
BLOCKS
  0
BLOCK
  5
20
330
1F
100
AcDbEntity
  8
0
100
AcDbBlockBegin
  2
*Model_Space
 70
     0
 71
     0
 10
0.0
 20
0.0
 30
0.0
  3
*Model_Space
  1

  0
ENDBLK
  5
21
330
1F
100
AcDbEntity
  8
0
100
AcDbBlockEnd
  0
BLOCK
  5
1C
330
1B
100
AcDbEntity
 67
     1
  8
0
100
AcDbBlockBegin
  2
*Paper_Space
 70
     0
 71
     0
 10
0.0
 20
0.0
 30
0.0
  3
*Paper_Space
  1

  0
ENDBLK
  5
1D
330
1B
100
AcDbEntity
 67
     1
  8
0
100
AcDbBlockEnd
  0
BLOCK
  5
24
330
23
100
AcDbEntity
  8
0
100
AcDbBlockBegin
  2
*Paper_Space0
 70
     0
 71
     0
 10
0.0
 20
0.0
 30
0.0
  3
*Paper_Space0
  1

  0
ENDBLK
  5
25
330
23
100
AcDbEntity
  8
0
100
AcDbBlockEnd
  0
BLOCK
  5
13A
330
132
100
AcDbEntity
  8
0
100
AcDbBlockBegin
  2
*D1
 70
     1
 71
     0
 10
0.0
 20
0.0
 30
0.0
  3
*D1
  1

  0
LINE
  5
133
330
132
100
AcDbEntity
  8
1
  6
Continuous
 62
     2
100
AcDbLine
 10
99.7716376412606
 20
101.7955242407
 30
0.0
 11
99.7716376412606
 21
263.7955242407
 31
0.0
  0
LINE
  5
134
330
132
100
AcDbEntity
  8
1
  6
Continuous
 62
     2
100
AcDbLine
 10
78.6761428335
 20
263.7955242407
 30
0.0
 11
101.7716376412606
 21
263.7955242407
 31
0.0
  0
LINE
  5
135
330
132
100
AcDbEntity
  8
1
  6
Continuous
 62
     2
100
AcDbLine
 10
78.6761428335
 20
101.7955242407
 30
0.0
 11
101.7716376412606
 21
101.7955242407
 31
0.0
  0
SOLID
  5
136
330
132
100
AcDbEntity
  8
1
 62
     2
100
AcDbTrace
 10
99.31085389970471
 20
105.2955242407
 30
0.0
 11
100.2324213828165
 21
105.2955242407
 31
0.0
 12
99.7716376412606
 22
101.7955242407
 32
0.0
 13
99.7716376412606
 23
101.7955242407
 33
0.0
  0
SOLID
  5
137
330
132
100
AcDbEntity
  8
1
 62
     2
100
AcDbTrace
 10
100.2324213828165
 20
260.2955242407
 30
0.0
 11
99.31085389970471
 21
260.2955242407
 31
0.0
 12
99.7716376412606
 22
263.7955242407
 32
0.0
 13
99.7716376412606
 23
263.7955242407
 33
0.0
  0
MTEXT
  5
139
330
132
100
AcDbEntity
  8
1
 62
     2
100
AcDbMText
 10
97.7716376412606
 20
178.304346742729
 30
0.0
 40
3.5
 41
0.0
 71
     7
 72
     1
  1
162
  7
CONVERTER_11
 11
0.0
 21
1.0
 31
0.0
 73
     1
 44
0.60024009603842
  0
ENDBLK
  5
13B
330
132
100
AcDbEntity
  8
0
100
AcDbBlockEnd
  0
BLOCK
  5
145
330
13E
100
AcDbEntity
  8
0
100
AcDbBlockBegin
  2
*D2
 70
     1
 71
     0
 10
0.0
 20
0.0
 30
0.0
  3
*D2
  1

  0
LINE
  5
13F
330
13E
100
AcDbEntity
  8
1
  6
Continuous
 62
     2
100
AcDbLine
 10
89.8446811899276
 20
258.7955242407
 30
0.0
 11
89.8446811899276
 21
106.7955242407
 31
0.0
  0
LINE
  5
140
330
13E
100
AcDbEntity
  8
1
  6
Continuous
 62
     2
100
AcDbLine
 10
68.6761428335
 20
106.7955242407
 30
0.0
 11
91.8446811899276
 21
106.7955242407
 31
0.0
  0
LINE
  5
141
330
13E
100
AcDbEntity
  8
1
  6
Continuous
 62
     2
100
AcDbLine
 10
68.6761428335
 20
258.7955242407
 30
0.0
 11
91.8446811899276
 21
258.7955242407
 31
0.0
  0
SOLID
  5
142
330
13E
100
AcDbEntity
  8
1
 62
     2
100
AcDbTrace
 10
90.30546493148348
 20
255.2955242407
 30
0.0
 11
89.38389744837171
 21
255.2955242407
 31
0.0
 12
89.8446811899276
 22
258.7955242407
 32
0.0
 13
89.8446811899276
 23
258.7955242407
 33
0.0
  0
SOLID
  5
143
330
13E
100
AcDbEntity
  8
1
 62
     2
100
AcDbTrace
 10
89.38389744837171
 20
110.2955242407
 30
0.0
 11
90.30546493148348
 21
110.2955242407
 31
0.0
 12
89.8446811899276
 22
106.7955242407
 32
0.0
 13
89.8446811899276
 23
106.7955242407
 33
0.0
  0
MTEXT
  5
144
330
13E
100
AcDbEntity
  8
1
 62
     2
100
AcDbMText
 10
87.8446811899276
 20
178.399798247069
 30
0.0
 40
3.5
 41
0.0
 71
     7
 72
     1
  1
152
  7
CONVERTER_11
 11
0.0
 21
1.0
 31
0.0
 73
     1
 44
0.60024009603842
  0
ENDBLK
  5
146
330
13E
100
AcDbEntity
  8
0
100
AcDbBlockEnd
  0
BLOCK
  5
150
330
149
100
AcDbEntity
  8
0
100
AcDbBlockBegin
  2
*D3
 70
     1
 71
     0
 10
0.0
 20
0.0
 30
0.0
  3
*D3
  1

  0
LINE
  5
14A
330
149
100
AcDbEntity
  8
1
  6
Continuous
 62
     2
100
AcDbLine
 10
45.8489290148681
 20
272.7955242407
 30
0.0
 11
45.8489290148681
 21
92.7955242407
 31
0.0
  0
LINE
  5
14B
330
149
100
AcDbEntity
  8
1
  6
Continuous
 62
     2
100
AcDbLine
 10
67.6761428335
 20
92.7955242407
 30
0.0
 11
43.8489290148681
 21
92.7955242407
 31
0.0
  0
LINE
  5
14C
330
149
100
AcDbEntity
  8
1
  6
Continuous
 62
     2
100
AcDbLine
 10
67.6761428335
 20
272.7955242407
 30
0.0
 11
43.8489290148681
 21
272.7955242407
 31
0.0
  0
SOLID
  5
14D
330
149
100
AcDbEntity
  8
1
 62
     2
100
AcDbTrace
 10
46.30971275642398
 20
269.2955242407
 30
0.0
 11
45.38814527331221
 21
269.2955242407
 31
0.0
 12
45.8489290148681
 22
272.7955242407
 32
0.0
 13
45.8489290148681
 23
272.7955242407
 33
0.0
  0
SOLID
  5
14E
330
149
100
AcDbEntity
  8
1
 62
     2
100
AcDbTrace
 10
45.38814527331221
 20
96.2955242407
 30
0.0
 11
46.30971275642398
 21
96.2955242407
 31
0.0
 12
45.8489290148681
 22
92.7955242407
 32
0.0
 13
45.8489290148681
 23
92.7955242407
 33
0.0
  0
MTEXT
  5
14F
330
149
100
AcDbEntity
  8
1
 62
     2
100
AcDbMText
 10
43.8489290148681
 20
178.247324939627
 30
0.0
 40
3.5
 41
0.0
 71
     7
 72
     1
  1
180
  7
CONVERTER_11
 11
0.0
 21
1.0
 31
0.0
 73
     1
 44
0.60024009603842
  0
ENDBLK
  5
151
330
149
100
AcDbEntity
  8
0
100
AcDbBlockEnd
  0
BLOCK
  5
15B
330
154
100
AcDbEntity
  8
0
100
AcDbBlockBegin
  2
*D4
 70
     1
 71
     0
 10
0.0
 20
0.0
 30
0.0
  3
*D4
  1

  0
LINE
  5
155
330
154
100
AcDbEntity
  8
1
  6
Continuous
 62
     2
100
AcDbLine
 10
55.67614283350001
 20
82.2693403392854
 30
0.0
 11
79.6761428335
 21
82.2693403392854
 31
0.0
  0
LINE
  5
156
330
154
100
AcDbEntity
  8
1
  6
Continuous
 62
     2
100
AcDbLine
 10
79.6761428335
 20
104.7955242407
 30
0.0
 11
79.6761428335
 21
80.2693403392854
 31
0.0
  0
LINE
  5
157
330
154
100
AcDbEntity
  8
1
  6
Continuous
 62
     2
100
AcDbLine
 10
55.67614283350001
 20
104.7955242407
 30
0.0
 11
55.67614283350001
 21
80.2693403392854
 31
0.0
  0
SOLID
  5
158
330
154
100
AcDbEntity
  8
1
 62
     2
100
AcDbTrace
 10
59.17614283350001
 20
82.73012408084129
 30
0.0
 11
59.17614283350001
 21
81.80855659772952
 31
0.0
 12
55.67614283350001
 22
82.2693403392854
 32
0.0
 13
55.67614283350001
 23
82.2693403392854
 33
0.0
  0
SOLID
  5
159
330
154
100
AcDbEntity
  8
1
 62
     2
100
AcDbTrace
 10
76.1761428335
 20
81.80855659772952
 30
0.0
 11
76.1761428335
 21
82.73012408084129
 31
0.0
 12
79.6761428335
 22
82.2693403392854
 32
0.0
 13
79.6761428335
 23
82.2693403392854
 33
0.0
  0
MTEXT
  5
15A
330
154
100
AcDbEntity
  8
1
 62
     2
100
AcDbMText
 10
65.0511428335
 20
84.2693403392854
 30
0.0
 40
3.5
 41
0.0
 71
     7
 72
     1
  1
24
  7
CONVERTER_11
 11
0.9999999999970621
 21
2.424068405545307E-6
 31
0.0
 73
     1
 44
0.60024009603842
  0
ENDBLK
  5
15C
330
154
100
AcDbEntity
  8
0
100
AcDbBlockEnd
  0
ENDSEC
  0
SECTION
  2
ENTITIES
  0
LINE
  5
34
330
1F
100
AcDbEntity
  8
A_ACHSEN
  6
DOT_CENTER
 62
     2
100
AcDbLine
 10
72.6761428335
 20
101.7955242407
 30
0.0
 11
66.6761428335
 21
101.7955242407
 31
0.0
  0
LINE
  5
35
330
1F
100
AcDbEntity
  8
A_ACHSEN
  6
DOT_CENTER
 62
     2
100
AcDbLine
 10
72.6761428335
 20
101.7955242407
 30
0.0
 11
78.6761428335
 21
101.7955242407
 31
0.0
  0
LINE
  5
36
330
1F
100
AcDbEntity
  8
A_ACHSEN
  6
DOT_CENTER
 62
     2
100
AcDbLine
 10
62.6761428335
 20
106.7955242407
 30
0.0
 11
56.6761428335
 21
106.7955242407
 31
0.0
  0
LINE
  5
37
330
1F
100
AcDbEntity
  8
A_ACHSEN
  6
DOT_CENTER
 62
     2
100
AcDbLine
 10
62.6761428335
 20
106.7955242407
 30
0.0
 11
68.6761428335
 21
106.7955242407
 31
0.0
  0
LINE
  5
38
330
1F
100
AcDbEntity
  8
A_ACHSEN
  6
DOT_CENTER
 62
     2
100
AcDbLine
 10
67.6761428335
 20
123.7955242407
 30
0.0
 11
58.3761428335
 21
123.7955242407
 31
0.0
  0
LINE
  5
39
330
1F
100
AcDbEntity
  8
A_ACHSEN
  6
DOT_CENTER
 62
     2
100
AcDbLine
 10
67.6761428335
 20
123.7955242407
 30
0.0
 11
76.9761428335
 21
123.7955242407
 31
0.0
  0
LINE
  5
3A
330
1F
100
AcDbEntity
  8
0
  6
Continuous
 62
     7
100
AcDbLine
 10
55.6761428335
 20
126.7955242407
 30
0.0
 11
56.6761428335
 21
126.7955242407
 31
0.0
  0
LINE
  5
3B
330
1F
100
AcDbEntity
  8
A_RUNDUNGEN
  6
Continuous
 62
     7
100
AcDbLine
 10
79.6761428335
 20
247.8375839774
 30
0.0
 11
79.5131180254
 21
247.7332629308
 31
0.0
  0
LINE
  5
3C
330
1F
100
AcDbEntity
  8
A_ACHSEN
  6
DOT_CENTER
 62
     2
100
AcDbLine
 10
67.6761428335
 20
134.7955242407
 30
0.0
 11
61.5761428335
 21
134.7955242407
 31
0.0
  0
LINE
  5
3D
330
1F
100
AcDbEntity
  8
A_ACHSEN
  6
DOT_CENTER
 62
     2
100
AcDbLine
 10
67.6761428335
 20
134.7955242407
 30
0.0
 11
70.67614283350001
 21
134.7955242407
 31
0.0
  0
LINE
  5
3E
330
1F
100
AcDbEntity
  8
A_RUNDUNGEN
  6
Continuous
 62
     7
100
AcDbLine
 10
78.8563847397
 20
245.6546744926
 30
0.0
 11
77.7000312803
 21
244.4983210333
 31
0.0
  0
LINE
  5
3F
330
1F
100
AcDbEntity
  8
A_RUNDUNGEN
  6
Continuous
 62
     7
100
AcDbLine
 10
79.3366418955
 20
117.3727834995
 30
0.0
 11
79.6761428335
 21
117.0332825615
 31
0.0
  0
LINE
  5
40
330
1F
100
AcDbEntity
  8
A_RUNDUNGEN
  6
Continuous
 62
     7
100
AcDbLine
 10
77.7003620668
 20
121.0923966616
 30
0.0
 11
78.8563847397
 21
119.9363739887
 31
0.0
  0
LINE
  5
41
330
1F
100
AcDbEntity
  8
A_ACHSEN
  6
DOT_CENTER
 62
     2
100
AcDbLine
 10
64.6761428335
 20
154.7955242407
 30
0.0
 11
58.4261428335
 21
154.7955242407
 31
0.0
  0
LINE
  5
42
330
1F
100
AcDbEntity
  8
A_ACHSEN
  6
DOT_CENTER
 62
     2
100
AcDbLine
 10
64.6761428335
 20
154.7955242407
 30
0.0
 11
70.9261428335
 21
154.7955242407
 31
0.0
  0
LINE
  5
43
330
1F
100
AcDbEntity
  8
A_RUNDUNGEN
  6
Continuous
 62
     7
100
AcDbLine
 10
55.6761428335
 20
104.7955242407
 30
0.0
 11
55.6761428335
 21
117.0332825615
 31
0.0
  0
LINE
  5
44
330
1F
100
AcDbEntity
  8
0
  6
Continuous
 62
     7
100
AcDbLine
 10
55.6761428335
 20
124.2955242407
 30
0.0
 11
55.6761428335
 21
241.2955242407
 31
0.0
  0
LINE
  5
45
330
1F
100
AcDbEntity
  8
A_RUNDUNGEN
  6
Continuous
 62
     7
100
AcDbLine
 10
55.6761428335
 20
248.5577659198
 30
0.0
 11
55.6761428335
 21
260.7955242407
 31
0.0
  0
LINE
  5
46
330
1F
100
AcDbEntity
  8
0
  6
Continuous
 62
     7
100
AcDbLine
 10
69.7486442141
 20
199.5398349043
 30
0.0
 11
69.3956220717
 21
199.3613547814
 31
0.0
  0
LINE
  5
47
330
1F
100
AcDbEntity
  8
0
  6
Continuous
 62
     7
100
AcDbLine
 10
64.6459712294
 20
197.393984986
 30
0.0
 11
64.2701423734
 21
197.2705651404
 31
0.0
  0
LINE
  5
48
330
1F
100
AcDbEntity
  8
0
  6
Continuous
 62
     7
100
AcDbLine
 10
70.7063144377
 20
196.1970634953
 30
0.0
 11
71.0821432937
 21
196.3204833409
 31
0.0
  0
LINE
  5
49
330
1F
100
AcDbEntity
  8
A_ACHSEN
  6
DOT_CENTER
 62
     2
100
AcDbLine
 10
67.6761428335
 20
168.7955242407
 30
0.0
 11
59.1761428335
 21
168.7955242407
 31
0.0
  0
LINE
  5
4A
330
1F
100
AcDbEntity
  8
A_ACHSEN
  6
DOT_CENTER
 62
     2
100
AcDbLine
 10
67.6761428335
 20
168.7955242407
 30
0.0
 11
76.1761428335
 21
168.7955242407
 31
0.0
  0
LINE
  5
4B
330
1F
100
AcDbEntity
  8
0
  6
Continuous
 62
     7
100
AcDbLine
 10
64.2701423734
 20
168.3204833409
 30
0.0
 11
64.6459712294
 21
168.1970634953
 31
0.0
  0
LINE
  5
4C
330
1F
100
AcDbEntity
  8
0
  6
Continuous
 62
     7
100
AcDbLine
 10
71.0821432937
 20
169.2705651404
 30
0.0
 11
70.7063144377
 21
169.393984986
 31
0.0
  0
LINE
  5
4D
330
1F
100
AcDbEntity
  8
0
  6
Continuous
 62
     7
100
AcDbLine
 10
69.3956220717
 20
166.2296936999
 30
0.0
 11
69.7486442141
 21
166.051213577
 31
0.0
  0
LINE
  5
4E
330
1F
100
AcDbEntity
  8
0
  6
Continuous
 62
     7
100
AcDbLine
 10
56.6761428335
 20
239.2955242407
 30
0.0
 11
56.6761428335
 21
238.7955242407
 31
0.0
  0
LINE
  5
4F
330
1F
100
AcDbEntity
  8
0
  6
Continuous
 62
     7
100
AcDbLine
 10
56.6761428335
 20
126.7955242407
 30
0.0
 11
56.6761428335
 21
126.2955242407
 31
0.0
  0
LINE
  5
50
330
1F
100
AcDbEntity
  8
A_RUNDUNGEN
  6
Continuous
 62
     7
100
AcDbLine
 10
57.3099983537
 20
246.6945834963
 30
0.0
 11
57.3099866252
 21
244.9051863364
 31
0.0
  0
LINE
  5
51
330
1F
100
AcDbEntity
  8
A_RUNDUNGEN
  6
Continuous
 62
     7
100
AcDbLine
 10
57.3099866252
 20
120.6858621449
 30
0.0
 11
57.3099866252
 21
118.8964351027
 31
0.0
  0
LINE
  5
52
330
1F
100
AcDbEntity
  8
0
  6
Continuous
 62
     7
100
AcDbLine
 10
67.2011019338
 20
200.2015247008
 30
0.0
 11
67.0776820882
 21
199.8256958448
 31
0.0
  0
LINE
  5
53
330
1F
100
AcDbEntity
  8
0
  6
Continuous
 62
     7
100
AcDbLine
 10
65.1103122928
 20
195.0760450025
 30
0.0
 11
64.9318321699
 21
194.7230228601
 31
0.0
  0
LINE
  5
54
330
1F
100
AcDbEntity
  8
0
  6
Continuous
 62
     7
100
AcDbLine
 10
65.603641453
 20
194.051213577
 30
0.0
 11
65.9566635954
 21
194.2296936999
 31
0.0
  0
LINE
  5
55
330
1F
100
AcDbEntity
  8
0
  6
Continuous
 62
     7
100
AcDbLine
 10
65.9566635954
 20
171.3613547814
 30
0.0
 11
65.603641453
 21
171.5398349043
 31
0.0
  0
LINE
  5
56
330
1F
100
AcDbEntity
  8
0
  6
Continuous
 62
     7
100
AcDbLine
 10
64.9318321699
 20
170.8680256212
 30
0.0
 11
65.1103122928
 21
170.5150034788
 31
0.0
  0
LINE
  5
57
330
1F
100
AcDbEntity
  8
0
  6
Continuous
 62
     7
100
AcDbLine
 10
67.0776820882
 20
165.7653526365
 30
0.0
 11
67.2011019338
 21
165.3895237805
 31
0.0
  0
LINE
  5
58
330
1F
100
AcDbEntity
  8
A_ACHSEN
  6
DOT_CENTER
 62
     2
100
AcDbLine
 10
62.6761428335
 20
258.7955242407
 30
0.0
 11
62.6761428335
 21
252.7955242407
 31
0.0
  0
LINE
  5
59
330
1F
100
AcDbEntity
  8
A_ACHSEN
  6
DOT_CENTER
 62
     2
100
AcDbLine
 10
62.6761428335
 20
106.7955242407
 30
0.0
 11
62.6761428335
 21
100.7955242407
 31
0.0
  0
LINE
  5
5A
330
1F
100
AcDbEntity
  8
A_ACHSEN
  6
DOT_CENTER
 62
     2
100
AcDbLine
 10
62.6761428335
 20
106.7955242407
 30
0.0
 11
62.6761428335
 21
112.7955242407
 31
0.0
  0
LINE
  5
5B
330
1F
100
AcDbEntity
  8
A_ACHSEN
  6
DOT_CENTER
 62
     2
100
AcDbLine
 10
62.6761428335
 20
258.7955242407
 30
0.0
 11
62.6761428335
 21
264.7955242407
 31
0.0
  0
LINE
  5
5C
330
1F
100
AcDbEntity
  8
A_ACHSEN
  6
DOT_CENTER
 62
     2
100
AcDbLine
 10
64.6761428335
 20
210.7955242407
 30
0.0
 11
64.6761428335
 21
204.5455242407
 31
0.0
  0
LINE
  5
5D
330
1F
100
AcDbEntity
  8
A_ACHSEN
  6
DOT_CENTER
 62
     2
100
AcDbLine
 10
64.6761428335
 20
182.7955242407
 30
0.0
 11
64.6761428335
 21
176.3554375699
 31
0.0
  0
LINE
  5
5E
330
1F
100
AcDbEntity
  8
A_ACHSEN
  6
DOT_CENTER
 62
     2
100
AcDbLine
 10
64.6761428335
 20
154.7955242407
 30
0.0
 11
64.6761428335
 21
148.5455242407
 31
0.0
  0
LINE
  5
5F
330
1F
100
AcDbEntity
  8
A_ACHSEN
  6
DOT_CENTER
 62
     2
100
AcDbLine
 10
64.6761428335
 20
154.7955242407
 30
0.0
 11
64.6761428335
 21
161.0455242407
 31
0.0
  0
LINE
  5
60
330
1F
100
AcDbEntity
  8
A_ACHSEN
  6
DOT_CENTER
 62
     2
100
AcDbLine
 10
64.6761428335
 20
182.7955242407
 30
0.0
 11
64.6761428335
 21
189.2356109114
 31
0.0
  0
LINE
  5
61
330
1F
100
AcDbEntity
  8
A_ACHSEN
  6
DOT_CENTER
 62
     2
100
AcDbLine
 10
64.6761428335
 20
210.7955242407
 30
0.0
 11
64.6761428335
 21
217.0455242407
 31
0.0
  0
LINE
  5
62
330
1F
100
AcDbEntity
  8
A_ACHSEN
  6
DOT_CENTER
 62
     2
100
AcDbLine
 10
67.6761428335
 20
241.7955242407
 30
0.0
 11
67.6761428335
 21
232.4955242407
 31
0.0
  0
LINE
  5
63
330
1F
100
AcDbEntity
  8
A_ACHSEN
  6
DOT_CENTER
 62
     2
100
AcDbLine
 10
67.6761428335
 20
230.7955242407
 30
0.0
 11
67.6761428335
 21
224.6955242407
 31
0.0
  0
LINE
  5
64
330
1F
100
AcDbEntity
  8
A_ACHSEN
  6
DOT_CENTER
 62
     2
100
AcDbLine
 10
67.6761428335
 20
196.7955242407
 30
0.0
 11
67.6761428335
 21
188.2955242407
 31
0.0
  0
LINE
  5
65
330
1F
100
AcDbEntity
  8
A_ACHSEN
  6
DOT_CENTER
 62
     2
100
AcDbLine
 10
67.6761428335
 20
168.7955242407
 30
0.0
 11
67.6761428335
 21
160.2955242407
 31
0.0
  0
LINE
  5
66
330
1F
100
AcDbEntity
  8
A_ACHSEN
  6
DOT_CENTER
 62
     2
100
AcDbLine
 10
67.6761428335
 20
134.7955242407
 30
0.0
 11
67.6761428335
 21
128.6955242407
 31
0.0
  0
LINE
  5
67
330
1F
100
AcDbEntity
  8
A_ACHSEN
  6
DOT_CENTER
 62
     2
100
AcDbLine
 10
67.6761428335
 20
123.7955242407
 30
0.0
 11
67.6761428335
 21
114.4955242407
 31
0.0
  0
LINE
  5
68
330
1F
100
AcDbEntity
  8
A_ACHSEN
  6
DOT_CENTER
 62
     2
100
AcDbLine
 10
67.6761428335
 20
123.7955242407
 30
0.0
 11
67.6761428335
 21
128.6955242407
 31
0.0
  0
LINE
  5
69
330
1F
100
AcDbEntity
  8
A_ACHSEN
  6
DOT_CENTER
 62
     2
100
AcDbLine
 10
67.6761428335
 20
134.7955242407
 30
0.0
 11
67.6761428335
 21
140.8955242407
 31
0.0
  0
LINE
  5
6A
330
1F
100
AcDbEntity
  8
A_ACHSEN
  6
DOT_CENTER
 62
     2
100
AcDbLine
 10
67.6761428335
 20
168.7955242407
 30
0.0
 11
67.6761428335
 21
177.2955242407
 31
0.0
  0
LINE
  5
6B
330
1F
100
AcDbEntity
  8
A_ACHSEN
  6
DOT_CENTER
 62
     2
100
AcDbLine
 10
67.6761428335
 20
196.7955242407
 30
0.0
 11
67.6761428335
 21
205.2955242407
 31
0.0
  0
LINE
  5
6C
330
1F
100
AcDbEntity
  8
A_ACHSEN
  6
DOT_CENTER
 62
     2
100
AcDbLine
 10
67.6761428335
 20
230.7955242407
 30
0.0
 11
67.6761428335
 21
232.4955242407
 31
0.0
  0
LINE
  5
6D
330
1F
100
AcDbEntity
  8
A_ACHSEN
  6
DOT_CENTER
 62
     2
100
AcDbLine
 10
67.6761428335
 20
241.7955242407
 30
0.0
 11
67.6761428335
 21
251.0955242407
 31
0.0
  0
LINE
  5
6E
330
1F
100
AcDbEntity
  8
0
  6
Continuous
 62
     7
100
AcDbLine
 10
68.1511837333
 20
193.3895237805
 30
0.0
 11
68.2746035788
 21
193.7653526365
 31
0.0
  0
LINE
  5
6F
330
1F
100
AcDbEntity
  8
0
  6
Continuous
 62
     7
100
AcDbLine
 10
70.2419733743
 20
198.5150034788
 30
0.0
 11
70.4204534972
 21
198.8680256212
 31
0.0
  0
LINE
  5
70
330
1F
100
AcDbEntity
  8
A_ACHSEN
  6
DOT_CENTER
 62
     2
100
AcDbLine
 10
64.6761428335
 20
182.7955242407
 30
0.0
 11
54.0623229622
 21
182.7955242407
 31
0.0
  0
LINE
  5
71
330
1F
100
AcDbEntity
  8
A_ACHSEN
  6
DOT_CENTER
 62
     2
100
AcDbLine
 10
64.6761428335
 20
182.7955242407
 30
0.0
 11
81.9170369809
 21
182.7955242407
 31
0.0
  0
LINE
  5
72
330
1F
100
AcDbEntity
  8
0
  6
Continuous
 62
     7
100
AcDbLine
 10
70.4204534972
 20
166.7230228601
 30
0.0
 11
70.2419733743
 21
167.0760450025
 31
0.0
  0
LINE
  5
73
330
1F
100
AcDbEntity
  8
0
  6
Continuous
 62
     7
100
AcDbLine
 10
68.2746035788
 20
171.8256958448
 30
0.0
 11
68.1511837333
 21
172.2015247008
 31
0.0
  0
LINE
  5
74
330
1F
100
AcDbEntity
  8
A_ACHSEN
  6
DOT_CENTER
 62
     2
100
AcDbLine
 10
72.6761428335
 20
263.7955242407
 30
0.0
 11
72.6761428335
 21
257.7955242407
 31
0.0
  0
LINE
  5
75
330
1F
100
AcDbEntity
  8
A_ACHSEN
  6
DOT_CENTER
 62
     2
100
AcDbLine
 10
72.6761428335
 20
101.7955242407
 30
0.0
 11
72.6761428335
 21
95.7955242407
 31
0.0
  0
LINE
  5
76
330
1F
100
AcDbEntity
  8
A_ACHSEN
  6
DOT_CENTER
 62
     2
100
AcDbLine
 10
72.6761428335
 20
101.7955242407
 30
0.0
 11
72.6761428335
 21
107.7955242407
 31
0.0
  0
LINE
  5
77
330
1F
100
AcDbEntity
  8
A_ACHSEN
  6
DOT_CENTER
 62
     2
100
AcDbLine
 10
72.6761428335
 20
263.7955242407
 30
0.0
 11
72.6761428335
 21
269.7955242407
 31
0.0
  0
LINE
  5
78
330
1F
100
AcDbEntity
  8
0
  6
Continuous
 62
     7
100
AcDbLine
 10
67.2011019338
 20
172.2015247008
 30
0.0
 11
67.0776820882
 21
171.8256958448
 31
0.0
  0
LINE
  5
79
330
1F
100
AcDbEntity
  8
0
  6
Continuous
 62
     7
100
AcDbLine
 10
68.1511837333
 20
165.3895237805
 30
0.0
 11
68.2746035788
 21
165.7653526365
 31
0.0
  0
LINE
  5
7A
330
1F
100
AcDbEntity
  8
0
  6
Continuous
 62
     7
100
AcDbLine
 10
65.1103122928
 20
167.0760450025
 30
0.0
 11
64.9318321699
 21
166.7230228601
 31
0.0
  0
LINE
  5
7B
330
1F
100
AcDbEntity
  8
0
  6
Continuous
 62
     7
100
AcDbLine
 10
64.9318321699
 20
198.8680256212
 30
0.0
 11
65.1103122928
 21
198.5150034788
 31
0.0
  0
LINE
  5
7C
330
1F
100
AcDbEntity
  8
0
  6
Continuous
 62
     7
100
AcDbLine
 10
67.0776820882
 20
193.7653526365
 30
0.0
 11
67.2011019338
 21
193.3895237805
 31
0.0
  0
LINE
  5
7D
330
1F
100
AcDbEntity
  8
0
  6
Continuous
 62
     7
100
AcDbLine
 10
68.2746035788
 20
199.8256958448
 30
0.0
 11
68.1511837333
 21
200.2015247008
 31
0.0
  0
LINE
  5
7E
330
1F
100
AcDbEntity
  8
A_RUNDUNGEN
  6
Continuous
 62
     7
100
AcDbLine
 10
78.0422874836
 20
118.896464551
 30
0.0
 11
78.0422990419
 21
120.6858621449
 31
0.0
  0
LINE
  5
7F
330
1F
100
AcDbEntity
  8
0
  6
Continuous
 62
     7
100
AcDbLine
 10
78.6761428335
 20
239.2955242407
 30
0.0
 11
78.6761428335
 21
126.2955242407
 31
0.0
  0
LINE
  5
80
330
1F
100
AcDbEntity
  8
A_RUNDUNGEN
  6
Continuous
 62
     7
100
AcDbLine
 10
79.6761428335
 20
260.7955242407
 30
0.0
 11
79.6761428335
 21
247.8375839774
 31
0.0
  0
LINE
  5
81
330
1F
100
AcDbEntity
  8
0
  6
Continuous
 62
     7
100
AcDbLine
 10
79.6761428335
 20
241.2955242407
 30
0.0
 11
79.6761428335
 21
233.9713475128
 31
0.0
  0
LINE
  5
82
330
1F
100
AcDbEntity
  8
0
  6
Continuous
 62
     7
100
AcDbLine
 10
79.6761428335
 20
225.6197009685
 30
0.0
 11
79.6761428335
 21
139.9713475128
 31
0.0
  0
LINE
  5
83
330
1F
100
AcDbEntity
  8
0
  6
Continuous
 62
     7
100
AcDbLine
 10
79.6761428335
 20
131.6197009685
 30
0.0
 11
79.6761428335
 21
124.2955242407
 31
0.0
  0
LINE
  5
84
330
1F
100
AcDbEntity
  8
A_RUNDUNGEN
  6
Continuous
 62
     7
100
AcDbLine
 10
79.6761428335
 20
104.7955242407
 30
0.0
 11
79.6761428335
 21
117.0332825615
 31
0.0
  0
LINE
  5
85
330
1F
100
AcDbEntity
  8
0
  6
Continuous
 62
     7
100
AcDbLine
 10
70.2419733743
 20
170.5150034788
 30
0.0
 11
70.4204534972
 21
170.8680256212
 31
0.0
  0
LINE
  5
86
330
1F
100
AcDbEntity
  8
0
  6
Continuous
 62
     7
100
AcDbLine
 10
69.7486442141
 20
171.5398349043
 30
0.0
 11
69.3956220717
 21
171.3613547814
 31
0.0
  0
LINE
  5
87
330
1F
100
AcDbEntity
  8
0
  6
Continuous
 62
     7
100
AcDbLine
 10
64.6459712294
 20
169.393984986
 30
0.0
 11
64.2701423734
 21
169.2705651404
 31
0.0
  0
LINE
  5
88
330
1F
100
AcDbEntity
  8
0
  6
Continuous
 62
     7
100
AcDbLine
 10
64.2701423734
 20
196.3204833409
 30
0.0
 11
64.6459712294
 21
196.1970634953
 31
0.0
  0
LINE
  5
89
330
1F
100
AcDbEntity
  8
0
  6
Continuous
 62
     7
100
AcDbLine
 10
69.3956220717
 20
194.2296936999
 30
0.0
 11
69.7486442141
 21
194.051213577
 31
0.0
  0
LINE
  5
8A
330
1F
100
AcDbEntity
  8
0
  6
Continuous
 62
     7
100
AcDbLine
 10
70.4204534972
 20
194.7230228601
 30
0.0
 11
70.2419733743
 21
195.0760450025
 31
0.0
  0
LINE
  5
8B
330
1F
100
AcDbEntity
  8
0
  6
Continuous
 62
     7
100
AcDbLine
 10
65.603641453
 20
166.051213577
 30
0.0
 11
65.9566635954
 21
166.2296936999
 31
0.0
  0
LINE
  5
8C
330
1F
100
AcDbEntity
  8
0
  6
Continuous
 62
     7
100
AcDbLine
 10
70.7063144377
 20
168.1970634953
 30
0.0
 11
71.0821432937
 21
168.3204833409
 31
0.0
  0
LINE
  5
8D
330
1F
100
AcDbEntity
  8
A_ACHSEN
  6
DOT_CENTER
 62
     2
100
AcDbLine
 10
67.6761428335
 20
196.7955242407
 30
0.0
 11
59.1761428335
 21
196.7955242407
 31
0.0
  0
LINE
  5
8E
330
1F
100
AcDbEntity
  8
A_ACHSEN
  6
DOT_CENTER
 62
     2
100
AcDbLine
 10
67.6761428335
 20
196.7955242407
 30
0.0
 11
76.1761428335
 21
196.7955242407
 31
0.0
  0
LINE
  5
8F
330
1F
100
AcDbEntity
  8
0
  6
Continuous
 62
     7
100
AcDbLine
 10
71.0821432937
 20
197.2705651404
 30
0.0
 11
70.7063144377
 21
197.393984986
 31
0.0
  0
LINE
  5
90
330
1F
100
AcDbEntity
  8
0
  6
Continuous
 62
     7
100
AcDbLine
 10
65.9566635954
 20
199.3613547814
 30
0.0
 11
65.603641453
 21
199.5398349043
 31
0.0
  0
LINE
  5
91
330
1F
100
AcDbEntity
  8
A_ACHSEN
  6
DOT_CENTER
 62
     2
100
AcDbLine
 10
64.6761428335
 20
210.7955242407
 30
0.0
 11
58.4261428335
 21
210.7955242407
 31
0.0
  0
LINE
  5
92
330
1F
100
AcDbEntity
  8
A_ACHSEN
  6
DOT_CENTER
 62
     2
100
AcDbLine
 10
64.6761428335
 20
210.7955242407
 30
0.0
 11
70.9261428335
 21
210.7955242407
 31
0.0
  0
LINE
  5
93
330
1F
100
AcDbEntity
  8
A_RUNDUNGEN
  6
Continuous
 62
     7
100
AcDbLine
 10
56.4959009274
 20
119.9363739887
 30
0.0
 11
57.6519250677
 21
121.0923981291
 31
0.0
  0
LINE
  5
94
330
1F
100
AcDbEntity
  8
A_RUNDUNGEN
  6
Continuous
 62
     7
100
AcDbLine
 10
57.6519247508
 20
244.4986506692
 30
0.0
 11
56.4959009274
 21
245.6546744926
 31
0.0
  0
LINE
  5
95
330
1F
100
AcDbEntity
  8
A_RUNDUNGEN
  6
Continuous
 62
     7
100
AcDbLine
 10
55.6761428335
 20
117.0332825615
 30
0.0
 11
56.014607782
 21
117.37174751
 31
0.0
  0
LINE
  5
96
330
1F
100
AcDbEntity
  8
A_RUNDUNGEN
  6
Continuous
 62
     7
100
AcDbLine
 10
55.6761428335
 20
248.5577659198
 30
0.0
 11
56.0149403857
 21
248.2189683676
 31
0.0
  0
LINE
  5
97
330
1F
100
AcDbEntity
  8
A_ACHSEN
  6
DOT_CENTER
 62
     2
100
AcDbLine
 10
67.6761428335
 20
230.7955242407
 30
0.0
 11
61.5761428335
 21
230.7955242407
 31
0.0
  0
LINE
  5
98
330
1F
100
AcDbEntity
  8
A_ACHSEN
  6
DOT_CENTER
 62
     2
100
AcDbLine
 10
67.6761428335
 20
230.7955242407
 30
0.0
 11
73.7761428335
 21
230.7955242407
 31
0.0
  0
LINE
  5
99
330
1F
100
AcDbEntity
  8
0
  6
Continuous
 62
     7
100
AcDbLine
 10
56.6761428335
 20
238.7955242407
 30
0.0
 11
55.6761428335
 21
238.7955242407
 31
0.0
  0
LINE
  5
9A
330
1F
100
AcDbEntity
  8
A_ACHSEN
  6
DOT_CENTER
 62
     2
100
AcDbLine
 10
67.6761428335
 20
241.7955242407
 30
0.0
 11
58.3761428335
 21
241.7955242407
 31
0.0
  0
LINE
  5
9B
330
1F
100
AcDbEntity
  8
A_ACHSEN
  6
DOT_CENTER
 62
     2
100
AcDbLine
 10
67.6761428335
 20
241.7955242407
 30
0.0
 11
76.9761428335
 21
241.7955242407
 31
0.0
  0
LINE
  5
9C
330
1F
100
AcDbEntity
  8
A_ACHSEN
  6
DOT_CENTER
 62
     2
100
AcDbLine
 10
62.6761428335
 20
258.7955242407
 30
0.0
 11
56.6761428335
 21
258.7955242407
 31
0.0
  0
LINE
  5
9D
330
1F
100
AcDbEntity
  8
A_ACHSEN
  6
DOT_CENTER
 62
     2
100
AcDbLine
 10
62.6761428335
 20
258.7955242407
 30
0.0
 11
68.6761428335
 21
258.7955242407
 31
0.0
  0
LINE
  5
9E
330
1F
100
AcDbEntity
  8
A_ACHSEN
  6
DOT_CENTER
 62
     2
100
AcDbLine
 10
72.6761428335
 20
263.7955242407
 30
0.0
 11
66.6761428335
 21
263.7955242407
 31
0.0
  0
LINE
  5
9F
330
1F
100
AcDbEntity
  8
A_ACHSEN
  6
DOT_CENTER
 62
     2
100
AcDbLine
 10
72.6761428335
 20
263.7955242407
 30
0.0
 11
78.6761428335
 21
263.7955242407
 31
0.0
  0
LINE
  5
A0
330
1F
100
AcDbEntity
  8
A_ACHSEN
  6
DOT_CENTER
 62
     2
100
AcDbLine
 10
70.67614283350001
 20
134.7955242407
 30
0.0
 11
73.7761428335
 21
134.7955242407
 31
0.0
  0
ARC
  5
A1
330
1F
100
AcDbEntity
  8
0
  6
Continuous
 62
     7
100
AcDbCircle
 10
67.6761428335
 20
104.7955242407
 30
0.0
 40
11.99999999999999
100
AcDbArc
 50
180.0
 51
-90.0
  0
ARC
  5
A2
330
1F
100
AcDbEntity
  8
0
  6
Continuous
 62
     7
100
AcDbCircle
 10
67.6761428335
 20
260.7955242407
 30
0.0
 40
12.0
100
AcDbArc
 50
0.0
 51
90.0
  0
ARC
  5
A3
330
1F
100
AcDbEntity
  8
A_RUNDUNGEN
  6
Continuous
 62
     7
100
AcDbCircle
 10
-673.684086797
 20
79.9503937405
 30
0.0
 40
753.6020434666
100
AcDbArc
 50
2.87953633360002
 51
3.04153139845212
  0
ARC
  5
A4
330
1F
100
AcDbEntity
  8
0
  6
Continuous
 62
     7
100
AcDbCircle
 10
64.6801428335
 20
123.7955242407
 30
0.0
 40
0.9800000000002989
100
AcDbArc
 50
-46.58798839531666
 51
46.58798839531609
  0
ARC
  5
A5
330
1F
100
AcDbEntity
  8
0
  6
Continuous
 62
     7
100
AcDbCircle
 10
66.1781428335
 20
121.2009121309
 30
0.0
 40
0.9799999999999701
100
AcDbArc
 50
13.41201160468977
 51
106.5879883952976
  0
ARC
  5
A6
330
1F
100
AcDbEntity
  8
0
  6
Continuous
 62
     7
100
AcDbCircle
 10
66.1781428335
 20
126.3901363504
 30
0.0
 40
0.9800000000002201
100
AcDbArc
 50
-106.5879883952978
 51
-13.41201160468977
  0
ARC
  5
A7
330
1F
100
AcDbEntity
  8
0
  6
Continuous
 62
     7
100
AcDbCircle
 10
65.7384921506
 20
124.914227384
 30
0.0
 40
0.5600000000239217
100
AcDbArc
 50
73.41201160385049
 51
-133.4120116077845
  0
ARC
  5
A8
330
1F
100
AcDbEntity
  8
0
  6
Continuous
 62
     7
100
AcDbCircle
 10
65.7384921506
 20
122.6768210973
 30
0.0
 40
0.5600000000188775
100
AcDbArc
 50
133.4120116007539
 51
-73.41201160385049
  0
ARC
  5
A9
330
1F
100
AcDbEntity
  8
A_RUNDUNGEN
  6
Continuous
 62
     7
100
AcDbCircle
 10
62.0815307238
 20
153.2975242407
 30
0.0
 40
0.9799999999998341
100
AcDbArc
 50
-16.58799308817672
 51
76.58798661939434
  0
ARC
  5
AA
330
1F
100
AcDbEntity
  8
A_RUNDUNGEN
  6
Continuous
 62
     7
100
AcDbCircle
 10
62.0815307238
 20
156.2935242407
 30
0.0
 40
0.9799999999997391
100
AcDbArc
 50
-76.587993088196
 51
16.58798661938029
  0
ARC
  5
AB
330
1F
100
AcDbEntity
  8
A_RUNDUNGEN
  6
Continuous
 62
     7
100
AcDbCircle
 10
63.5574396902
 20
156.7331749235
 30
0.0
 40
0.560000000000192
100
AcDbArc
 50
43.41201160471618
 51
-163.4120116046618
  0
ARC
  5
AC
330
1F
100
AcDbEntity
  8
A_RUNDUNGEN
  6
Continuous
 62
     7
100
AcDbCircle
 10
62.4387365468
 20
154.7955242407
 30
0.0
 40
0.5599999999996728
100
AcDbArc
 50
103.4120116047107
 51
-103.4120116047114
  0
ARC
  5
AD
330
1F
100
AcDbEntity
  8
A_RUNDUNGEN
  6
Continuous
 62
     7
100
AcDbCircle
 10
63.5574396902
 20
152.8578735578
 30
0.0
 40
0.5600000000000745
100
AcDbArc
 50
163.412011604659
 51
-43.41201160471618
  0
ARC
  5
AE
330
1F
100
AcDbEntity
  8
A_RUNDUNGEN
  6
Continuous
 62
     7
100
AcDbCircle
 10
62.0815307238
 20
181.2975242407
 30
0.0
 40
0.9799999999998341
100
AcDbArc
 50
-16.58799308817672
 51
76.58798661939434
  0
ARC
  5
AF
330
1F
100
AcDbEntity
  8
0
  6
Continuous
 62
     7
100
AcDbCircle
 10
64.3963704931
 20
167.4369980558
 30
0.0
 40
0.8000000000284231
100
AcDbArc
 50
-26.82014330991594
 51
71.82014330467399
  0
ARC
  5
B0
330
1F
100
AcDbEntity
  8
0
  6
Continuous
 62
     7
100
AcDbCircle
 10
64.3963704931
 20
170.1540504256
 30
0.0
 40
0.8000000000224036
100
AcDbArc
 50
-71.82014330690825
 51
26.8201433035252
  0
ARC
  5
B1
330
1F
100
AcDbEntity
  8
A_RUNDUNGEN
  6
Continuous
 62
     7
100
AcDbCircle
 10
63.5574396902
 20
180.8578735578
 30
0.0
 40
0.5600000000000745
100
AcDbArc
 50
163.412011604659
 51
-43.41201160471618
  0
ARC
  5
B2
330
1F
100
AcDbEntity
  8
0
  6
Continuous
 62
     7
100
AcDbCircle
 10
64.4261428335
 20
168.7955242407
 30
0.0
 40
0.499999999939212
100
AcDbArc
 50
108.1798566853505
 51
-108.1798566817767
  0
ARC
  5
B3
330
1F
100
AcDbEntity
  8
A_RUNDUNGEN
  6
Continuous
 62
     7
100
AcDbCircle
 10
64.6761428335
 20
151.7995242407
 30
0.0
 40
0.9800000000000578
100
AcDbArc
 50
43.41200691180733
 51
136.587986619396
  0
ARC
  5
B4
330
1F
100
AcDbEntity
  8
A_RUNDUNGEN
  6
Continuous
 62
     7
100
AcDbCircle
 10
64.6761428335
 20
157.7915242407
 30
0.0
 40
0.9800000000001198
100
AcDbArc
 50
-136.5879930881961
 51
-43.41201338060343
  0
ARC
  5
B5
330
1F
100
AcDbEntity
  8
A_RUNDUNGEN
  6
Continuous
 62
     7
100
AcDbCircle
 10
65.7948459769
 20
156.7331749235
 30
0.0
 40
0.5600000000001549
100
AcDbArc
 50
-16.58798839533553
 51
136.5879883952838
  0
ARC
  5
B6
330
1F
100
AcDbEntity
  8
A_RUNDUNGEN
  6
Continuous
 62
     7
100
AcDbCircle
 10
65.7948459769
 20
152.8578735578
 30
0.0
 40
0.560000000000192
100
AcDbArc
 50
-136.5879883952838
 51
16.58798839533831
  0
ARC
  5
B7
330
1F
100
AcDbEntity
  8
0
  6
Continuous
 62
     7
100
AcDbCircle
 10
65.3780457947
 20
166.4974272018
 30
0.0
 40
0.5000000000009585
100
AcDbArc
 50
153.1798566907157
 51
-63.17985669071646
  0
ARC
  5
B8
330
1F
100
AcDbEntity
  8
A_RUNDUNGEN
  6
Continuous
 62
     7
100
AcDbCircle
 10
67.2707549433
 20
156.2935242407
 30
0.0
 40
0.9799999999998341
100
AcDbArc
 50
163.4120069118233
 51
-103.4120133806057
  0
ARC
  5
B9
330
1F
100
AcDbEntity
  8
A_RUNDUNGEN
  6
Continuous
 62
     7
100
AcDbCircle
 10
67.2707549433
 20
153.2975242407
 30
0.0
 40
0.9799999999997407
100
AcDbArc
 50
103.4120069118044
 51
-163.4120133806198
  0
ARC
  5
BA
330
1F
100
AcDbEntity
  8
A_RUNDUNGEN
  6
Continuous
 62
     7
100
AcDbCircle
 10
66.9135491202
 20
154.7955242407
 30
0.0
 40
0.5599999999996434
100
AcDbArc
 50
-76.58798839528936
 51
76.58798839529003
  0
ARC
  5
BB
330
1F
100
AcDbEntity
  8
0
  6
Continuous
 62
     7
100
AcDbCircle
 10
66.3176166486
 20
165.5157519002
 30
0.0
 40
0.8000000000224171
100
AcDbArc
 50
18.17985669309143
 51
116.8201433035247
  0
ARC
  5
BC
330
1F
100
AcDbEntity
  8
A_RUNDUNGEN
  6
Continuous
 62
     7
100
AcDbCircle
 10
64.6761428335
 20
179.7995242407
 30
0.0
 40
0.9800000000000578
100
AcDbArc
 50
43.41200691180733
 51
136.587986619396
  0
ARC
  5
BD
330
1F
100
AcDbEntity
  8
A_RUNDUNGEN
  6
Continuous
 62
     7
100
AcDbCircle
 10
67.2707549433
 20
181.2975242407
 30
0.0
 40
0.9799999999997407
100
AcDbArc
 50
103.4120069118044
 51
-163.4120133806198
  0
ARC
  5
BE
330
1F
100
AcDbEntity
  8
0
  6
Continuous
 62
     7
100
AcDbCircle
 10
66.3176166486
 20
172.0752965811
 30
0.0
 40
0.7999999999832904
100
AcDbArc
 50
-116.8201433035247
 51
-18.1798566930895
  0
ARC
  5
BF
330
1F
100
AcDbEntity
  8
A_RUNDUNGEN
  6
Continuous
 62
     7
100
AcDbCircle
 10
65.7948459769
 20
180.8578735578
 30
0.0
 40
0.560000000000192
100
AcDbArc
 50
-136.5879883952838
 51
16.58798839533831
  0
ARC
  5
C0
330
1F
100
AcDbEntity
  8
0
  6
Continuous
 62
     7
100
AcDbCircle
 10
65.3780457947
 20
171.0936212795
 30
0.0
 40
0.5000000000009458
100
AcDbArc
 50
63.179856690715
 51
-153.1798566907128
  0
ARC
  5
C1
330
1F
100
AcDbEntity
  8
A_RUNDUNGEN
  6
Continuous
 62
     7
100
AcDbCircle
 10
62.0815307238
 20
184.2935242407
 30
0.0
 40
0.9799999999997391
100
AcDbArc
 50
-76.587993088196
 51
16.58798661938029
  0
ARC
  5
C2
330
1F
100
AcDbEntity
  8
A_RUNDUNGEN
  6
Continuous
 62
     7
100
AcDbCircle
 10
62.4387365468
 20
182.7955242407
 30
0.0
 40
0.5599999999996728
100
AcDbArc
 50
103.4120116047107
 51
-103.4120116047114
  0
ARC
  5
C3
330
1F
100
AcDbEntity
  8
A_RUNDUNGEN
  6
Continuous
 62
     7
100
AcDbCircle
 10
62.0815307238
 20
209.2975242407
 30
0.0
 40
0.9799999999998341
100
AcDbArc
 50
-16.58799308817672
 51
76.58798661939434
  0
ARC
  5
C4
330
1F
100
AcDbEntity
  8
A_RUNDUNGEN
  6
Continuous
 62
     7
100
AcDbCircle
 10
62.0815307238
 20
212.2935242407
 30
0.0
 40
0.9799999999997391
100
AcDbArc
 50
-76.587993088196
 51
16.58798661938029
  0
ARC
  5
C5
330
1F
100
AcDbEntity
  8
A_RUNDUNGEN
  6
Continuous
 62
     7
100
AcDbCircle
 10
62.4387365468
 20
210.7955242407
 30
0.0
 40
0.5599999999996728
100
AcDbArc
 50
103.4120116047107
 51
-103.4120116047114
  0
ARC
  5
C6
330
1F
100
AcDbEntity
  8
0
  6
Continuous
 62
     7
100
AcDbCircle
 10
64.3963704931
 20
195.4369980558
 30
0.0
 40
0.8000000000284231
100
AcDbArc
 50
-26.82014330991594
 51
71.82014330467399
  0
ARC
  5
C7
330
1F
100
AcDbEntity
  8
A_RUNDUNGEN
  6
Continuous
 62
     7
100
AcDbCircle
 10
63.5574396902
 20
184.7331749235
 30
0.0
 40
0.560000000000192
100
AcDbArc
 50
43.41201160471618
 51
-163.4120116046618
  0
ARC
  5
C8
330
1F
100
AcDbEntity
  8
0
  6
Continuous
 62
     7
100
AcDbCircle
 10
64.4261428335
 20
196.7955242407
 30
0.0
 40
0.499999999939212
100
AcDbArc
 50
108.1798566853505
 51
-108.1798566817767
  0
ARC
  5
C9
330
1F
100
AcDbEntity
  8
0
  6
Continuous
 62
     7
100
AcDbCircle
 10
64.3963704931
 20
198.1540504256
 30
0.0
 40
0.8000000000224036
100
AcDbArc
 50
-71.82014330690825
 51
26.8201433035252
  0
ARC
  5
CA
330
1F
100
AcDbEntity
  8
A_RUNDUNGEN
  6
Continuous
 62
     7
100
AcDbCircle
 10
63.5574396902
 20
212.7331749235
 30
0.0
 40
0.560000000000192
100
AcDbArc
 50
43.41201160471618
 51
-163.4120116046618
  0
ARC
  5
CB
330
1F
100
AcDbEntity
  8
A_RUNDUNGEN
  6
Continuous
 62
     7
100
AcDbCircle
 10
63.5574396902
 20
208.8578735578
 30
0.0
 40
0.5600000000000745
100
AcDbArc
 50
163.412011604659
 51
-43.41201160471618
  0
ARC
  5
CC
330
1F
100
AcDbEntity
  8
A_RUNDUNGEN
  6
Continuous
 62
     7
100
AcDbCircle
 10
64.6761428335
 20
185.7915242407
 30
0.0
 40
0.9800000000001198
100
AcDbArc
 50
-136.5879930881961
 51
-43.41201338060343
  0
ARC
  5
CD
330
1F
100
AcDbEntity
  8
A_RUNDUNGEN
  6
Continuous
 62
     7
100
AcDbCircle
 10
65.7948459769
 20
184.7331749235
 30
0.0
 40
0.5600000000001549
100
AcDbArc
 50
-16.58798839533553
 51
136.5879883952838
  0
ARC
  5
CE
330
1F
100
AcDbEntity
  8
0
  6
Continuous
 62
     7
100
AcDbCircle
 10
65.3780457947
 20
194.4974272018
 30
0.0
 40
0.5000000000009585
100
AcDbArc
 50
153.1798566907157
 51
-63.17985669071646
  0
ARC
  5
CF
330
1F
100
AcDbEntity
  8
A_RUNDUNGEN
  6
Continuous
 62
     7
100
AcDbCircle
 10
64.6761428335
 20
207.7995242407
 30
0.0
 40
0.9800000000000578
100
AcDbArc
 50
43.41200691180733
 51
136.587986619396
  0
ARC
  5
D0
330
1F
100
AcDbEntity
  8
A_RUNDUNGEN
  6
Continuous
 62
     7
100
AcDbCircle
 10
64.6761428335
 20
213.7915242407
 30
0.0
 40
0.9800000000001198
100
AcDbArc
 50
-136.5879930881961
 51
-43.41201338060343
  0
ARC
  5
D1
330
1F
100
AcDbEntity
  8
A_RUNDUNGEN
  6
Continuous
 62
     7
100
AcDbCircle
 10
65.7948459769
 20
212.7331749235
 30
0.0
 40
0.5600000000001549
100
AcDbArc
 50
-16.58798839533553
 51
136.5879883952838
  0
ARC
  5
D2
330
1F
100
AcDbEntity
  8
A_RUNDUNGEN
  6
Continuous
 62
     7
100
AcDbCircle
 10
65.7948459769
 20
208.8578735578
 30
0.0
 40
0.560000000000192
100
AcDbArc
 50
-136.5879883952838
 51
16.58798839533831
  0
ARC
  5
D3
330
1F
100
AcDbEntity
  8
0
  6
Continuous
 62
     7
100
AcDbCircle
 10
65.3780457947
 20
199.0936212795
 30
0.0
 40
0.5000000000009458
100
AcDbArc
 50
63.179856690715
 51
-153.1798566907128
  0
ARC
  5
D4
330
1F
100
AcDbEntity
  8
A_RUNDUNGEN
  6
Continuous
 62
     7
100
AcDbCircle
 10
67.2707549433
 20
184.2935242407
 30
0.0
 40
0.9799999999998341
100
AcDbArc
 50
163.4120069118233
 51
-103.4120133806057
  0
ARC
  5
D5
330
1F
100
AcDbEntity
  8
0
  6
Continuous
 62
     7
100
AcDbCircle
 10
66.3176166486
 20
193.5157519002
 30
0.0
 40
0.8000000000224171
100
AcDbArc
 50
18.17985669309143
 51
116.8201433035247
  0
ARC
  5
D6
330
1F
100
AcDbEntity
  8
A_RUNDUNGEN
  6
Continuous
 62
     7
100
AcDbCircle
 10
66.9135491202
 20
182.7955242407
 30
0.0
 40
0.5599999999996434
100
AcDbArc
 50
-76.58798839528936
 51
76.58798839529003
  0
ARC
  5
D7
330
1F
100
AcDbEntity
  8
A_RUNDUNGEN
  6
Continuous
 62
     7
100
AcDbCircle
 10
67.2707549433
 20
212.2935242407
 30
0.0
 40
0.9799999999998341
100
AcDbArc
 50
163.4120069118233
 51
-103.4120133806057
  0
ARC
  5
D8
330
1F
100
AcDbEntity
  8
A_RUNDUNGEN
  6
Continuous
 62
     7
100
AcDbCircle
 10
67.2707549433
 20
209.2975242407
 30
0.0
 40
0.9799999999997407
100
AcDbArc
 50
103.4120069118044
 51
-163.4120133806198
  0
ARC
  5
D9
330
1F
100
AcDbEntity
  8
0
  6
Continuous
 62
     7
100
AcDbCircle
 10
66.3176166486
 20
200.0752965811
 30
0.0
 40
0.7999999999832904
100
AcDbArc
 50
-116.8201433035247
 51
-18.1798566930895
  0
ARC
  5
DA
330
1F
100
AcDbEntity
  8
A_RUNDUNGEN
  6
Continuous
 62
     7
100
AcDbCircle
 10
66.9135491202
 20
210.7955242407
 30
0.0
 40
0.5599999999996434
100
AcDbArc
 50
-76.58798839528936
 51
76.58798839529003
  0
ARC
  5
DB
330
1F
100
AcDbEntity
  8
0
  6
Continuous
 62
     7
100
AcDbCircle
 10
64.6801428335
 20
241.7955242407
 30
0.0
 40
0.9800000000002782
100
AcDbArc
 50
-46.58798839531551
 51
46.58798839531666
  0
ARC
  5
DC
330
1F
100
AcDbEntity
  8
0
  6
Continuous
 62
     7
100
AcDbCircle
 10
66.1781428335
 20
239.2009121309
 30
0.0
 40
0.9799999999999701
100
AcDbArc
 50
13.41201160468977
 51
106.5879883952981
  0
ARC
  5
DD
330
1F
100
AcDbEntity
  8
0
  6
Continuous
 62
     7
100
AcDbCircle
 10
66.1781428335
 20
244.3901363504
 30
0.0
 40
0.9800000000002337
100
AcDbArc
 50
-106.5879883952976
 51
-13.41201160468977
  0
ARC
  5
DE
330
1F
100
AcDbEntity
  8
0
  6
Continuous
 62
     7
100
AcDbCircle
 10
65.7384921506
 20
242.914227384
 30
0.0
 40
0.5600000000239352
100
AcDbArc
 50
73.4120116038509
 51
-133.4120116077854
  0
ARC
  5
DF
330
1F
100
AcDbEntity
  8
0
  6
Continuous
 62
     7
100
AcDbCircle
 10
65.7384921506
 20
240.6768210973
 30
0.0
 40
0.5600000000188878
100
AcDbArc
 50
133.4120116007529
 51
-73.4120116038509
  0
ARC
  5
E0
330
1F
100
AcDbEntity
  8
0
  6
Continuous
 62
     7
100
AcDbCircle
 10
67.6761428335
 20
104.7955242407
 30
0.0
 40
12.0
100
AcDbArc
 50
-90.0
 51
0.0
  0
ARC
  5
E1
330
1F
100
AcDbEntity
  8
0
  6
Continuous
 62
     2
100
AcDbCircle
 10
67.6761428335
 20
123.7955242407
 30
0.0
 40
5.385000000000369
100
AcDbArc
 50
-104.9999999999992
 51
-165.0000000000006
  0
ARC
  5
E2
330
1F
100
AcDbEntity
  8
0
  6
Continuous
 62
     7
100
AcDbCircle
 10
69.1741428335
 20
121.2009121309
 30
0.0
 40
0.9800000000002337
100
AcDbArc
 50
73.4120116047024
 51
166.5879883953104
  0
ARC
  5
E3
330
1F
100
AcDbEntity
  8
0
  6
Continuous
 62
     7
100
AcDbCircle
 10
70.6721428335
 20
123.7955242407
 30
0.0
 40
0.9800000000002885
100
AcDbArc
 50
133.4120116046839
 51
-133.4120116046834
  0
ARC
  5
E4
330
1F
100
AcDbEntity
  8
0
  6
Continuous
 62
     7
100
AcDbCircle
 10
67.6761428335
 20
121.5581179539
 30
0.0
 40
0.5599999999951855
100
AcDbArc
 50
-166.5879883972523
 51
-13.41201160274771
  0
ARC
  5
E5
330
1F
100
AcDbEntity
  8
0
  6
Continuous
 62
     7
100
AcDbCircle
 10
69.6137935164
 20
122.6768210973
 30
0.0
 40
0.5600000000239176
100
AcDbArc
 50
-106.5879883961481
 51
46.58798839924506
  0
ARC
  5
E6
330
1F
100
AcDbEntity
  8
0
  6
Continuous
 62
     7
100
AcDbCircle
 10
69.6137935164
 20
124.914227384
 30
0.0
 40
0.5599999999462533
100
AcDbArc
 50
-46.58798839221451
 51
106.587988395311
  0
ARC
  5
E7
330
1F
100
AcDbEntity
  8
0
  6
Continuous
 62
     7
100
AcDbCircle
 10
67.6761428335
 20
126.2955242407
 30
0.0
 40
10.99999999999999
100
AcDbArc
 50
180.0
 51
0.0
  0
ARC
  5
E8
330
1F
100
AcDbEntity
  8
0
  6
Continuous
 62
     7
100
AcDbCircle
 10
82.4261428335
 20
135.7955242407
 30
0.0
 40
4.999999999981211
100
AcDbArc
 50
123.3670129693735
 51
138.7479962682958
  0
ARC
  5
E9
330
1F
100
AcDbEntity
  8
0
  6
Continuous
 62
     7
100
AcDbCircle
 10
82.4261428335
 20
135.7955242407
 30
0.0
 40
5.000000000000268
100
AcDbArc
 50
-138.7479962682958
 51
-123.3670129687436
  0
ARC
  5
EA
330
1F
100
AcDbEntity
  8
0
  6
Continuous
 62
     7
100
AcDbCircle
 10
69.1741428335
 20
126.3901363504
 30
0.0
 40
0.979999999999984
100
AcDbArc
 50
-166.5879883953104
 51
-73.41201160422384
  0
ARC
  5
EB
330
1F
100
AcDbEntity
  8
0
  6
Continuous
 62
     7
100
AcDbCircle
 10
70.9559151739
 20
167.4369980558
 30
0.0
 40
0.7999999998962022
100
AcDbArc
 50
108.1798566885205
 51
-153.1798566868521
  0
ARC
  5
EC
330
1F
100
AcDbEntity
  8
0
  6
Continuous
 62
     7
100
AcDbCircle
 10
69.0346690184
 20
165.5157519002
 30
0.0
 40
0.8000000000284168
100
AcDbArc
 50
63.17985669008269
 51
161.8201433069082
  0
ARC
  5
ED
330
1F
100
AcDbEntity
  8
0
  6
Continuous
 62
     7
100
AcDbCircle
 10
69.0346690184
 20
172.0752965811
 30
0.0
 40
0.8000000000223947
100
AcDbArc
 50
-161.8201433069102
 51
-63.17985669008269
  0
ARC
  5
EE
330
1F
100
AcDbEntity
  8
0
  6
Continuous
 62
     7
100
AcDbCircle
 10
70.9559151739
 20
170.1540504256
 30
0.0
 40
0.7999999998940525
100
AcDbArc
 50
153.1798566932429
 51
-108.1798566862862
  0
ARC
  5
EF
330
1F
100
AcDbEntity
  8
0
  6
Continuous
 62
     7
100
AcDbCircle
 10
67.6761428335
 20
126.0329305274
 30
0.0
 40
0.5599999999951855
100
AcDbArc
 50
13.41201160274771
 51
166.5879883972523
  0
ARC
  5
F0
330
1F
100
AcDbEntity
  8
0
  6
Continuous
 62
     7
100
AcDbCircle
 10
69.9742398724
 20
166.4974272018
 30
0.0
 40
0.5000000000009776
100
AcDbArc
 50
-116.820143309285
 51
26.82014330928428
  0
ARC
  5
F1
330
1F
100
AcDbEntity
  8
0
  6
Continuous
 62
     7
100
AcDbCircle
 10
67.6761428335
 20
165.5455242407
 30
0.0
 40
0.4999999999703812
100
AcDbArc
 50
-161.8201433037627
 51
-18.17985669266146
  0
ARC
  5
F2
330
1F
100
AcDbEntity
  8
0
  6
Continuous
 62
     7
100
AcDbCircle
 10
69.9742398724
 20
171.0936212795
 30
0.0
 40
0.5000000000009713
100
AcDbArc
 50
-26.82014330928718
 51
116.8201433092865
  0
ARC
  5
F3
330
1F
100
AcDbEntity
  8
0
  6
Continuous
 62
     7
100
AcDbCircle
 10
70.9261428335
 20
168.7955242407
 30
0.0
 40
0.5000000000653865
100
AcDbArc
 50
-71.82014330733443
 51
71.82014330376062
  0
ARC
  5
F4
330
1F
100
AcDbEntity
  8
0
  6
Continuous
 62
     7
100
AcDbCircle
 10
67.6761428335
 20
172.0455242407
 30
0.0
 40
0.5000000000342172
100
AcDbArc
 50
18.17985668177877
 51
161.8201433146454
  0
ARC
  5
F5
330
1F
100
AcDbEntity
  8
A_RUNDUNGEN
  6
Continuous
 62
     7
100
AcDbCircle
 10
809.034593088
 20
79.9504854773
 30
0.0
 40
753.6002617295406
100
AcDbArc
 50
176.958468388226
 51
177.1204638362
  0
ARC
  5
F6
330
1F
100
AcDbEntity
  8
A_RUNDUNGEN
  6
Continuous
 62
     7
100
AcDbCircle
 10
342.8487692317
 20
238.4435018645
 30
0.0
 40
264.883721327
100
AcDbArc
 50
178.233318888
 51
178.6027246829001
  0
ARC
  5
F7
330
1F
100
AcDbEntity
  8
A_RUNDUNGEN
  6
Continuous
 62
     7
100
AcDbCircle
 10
177.9504459106
 20
233.2677717162
 30
0.0
 40
99.8652508118999
100
AcDbArc
 50
171.8563807466003
 51
172.8749010284993
  0
ARC
  5
F8
330
1F
100
AcDbEntity
  8
A_RUNDUNGEN
  6
Continuous
 62
     7
100
AcDbCircle
 10
89.5747583244
 20
233.2067958839
 30
0.0
 40
17.82096895060036
100
AcDbArc
 50
123.7415539804993
 51
124.1168111779994
  0
ARC
  5
F9
330
1F
100
AcDbEntity
  8
A_RUNDUNGEN
  6
Continuous
 62
     7
100
AcDbCircle
 10
88.8287057064
 20
234.3072367745
 30
0.0
 40
16.49147112934802
100
AcDbArc
 50
124.115294946758
 51
124.8194061219996
  0
ARC
  5
FA
330
1F
100
AcDbEntity
  8
0
  6
Continuous
 62
     7
100
AcDbCircle
 10
67.6761428335
 20
239.2955242407
 30
0.0
 40
11.0
100
AcDbArc
 50
0.0
 51
180.0
  0
ARC
  5
FB
330
1F
100
AcDbEntity
  8
A_RUNDUNGEN
  6
Continuous
 62
     7
100
AcDbCircle
 10
85.1531420018
 20
239.4248934525
 30
0.0
 40
10.19011588900017
100
AcDbArc
 50
127.028661024699
 51
127.2416267627987
  0
ARC
  5
FC
330
1F
100
AcDbEntity
  8
0
  6
Continuous
 62
     7
100
AcDbCircle
 10
82.4261428335
 20
229.7955242407
 30
0.0
 40
4.999999999981211
100
AcDbArc
 50
123.3670129693735
 51
138.7479962682958
  0
ARC
  5
FD
330
1F
100
AcDbEntity
  8
0
  6
Continuous
 62
     7
100
AcDbCircle
 10
82.4261428335
 20
229.7955242407
 30
0.0
 40
5.000000000000268
100
AcDbArc
 50
-138.7479962682958
 51
-123.3670129687436
  0
ARC
  5
FE
330
1F
100
AcDbEntity
  8
0
  6
Continuous
 62
     7
100
AcDbCircle
 10
69.1741428335
 20
239.2009121309
 30
0.0
 40
0.9800000000002065
100
AcDbArc
 50
73.41201160470193
 51
166.5879883953104
  0
ARC
  5
FF
330
1F
100
AcDbEntity
  8
0
  6
Continuous
 62
     7
100
AcDbCircle
 10
70.9559151739
 20
195.4369980558
 30
0.0
 40
0.7999999998962022
100
AcDbArc
 50
108.1798566885205
 51
-153.1798566868521
  0
ARC
  5
100
330
1F
100
AcDbEntity
  8
0
  6
Continuous
 62
     7
100
AcDbCircle
 10
69.0346690184
 20
193.5157519002
 30
0.0
 40
0.8000000000284168
100
AcDbArc
 50
63.17985669008269
 51
161.8201433069082
  0
ARC
  5
101
330
1F
100
AcDbEntity
  8
0
  6
Continuous
 62
     7
100
AcDbCircle
 10
69.0346690184
 20
200.0752965811
 30
0.0
 40
0.8000000000223947
100
AcDbArc
 50
-161.8201433069102
 51
-63.17985669008269
  0
ARC
  5
102
330
1F
100
AcDbEntity
  8
0
  6
Continuous
 62
     7
100
AcDbCircle
 10
70.9559151739
 20
198.1540504256
 30
0.0
 40
0.7999999998940525
100
AcDbArc
 50
153.1798566932429
 51
-108.1798566862862
  0
ARC
  5
103
330
1F
100
AcDbEntity
  8
0
  6
Continuous
 62
     7
100
AcDbCircle
 10
67.6761428335
 20
239.5581179539
 30
0.0
 40
0.5599999999951821
100
AcDbArc
 50
-166.5879883972537
 51
-13.4120116027463
  0
ARC
  5
104
330
1F
100
AcDbEntity
  8
0
  6
Continuous
 62
     7
100
AcDbCircle
 10
69.9742398724
 20
194.4974272018
 30
0.0
 40
0.5000000000009776
100
AcDbArc
 50
-116.820143309285
 51
26.82014330928428
  0
ARC
  5
105
330
1F
100
AcDbEntity
  8
0
  6
Continuous
 62
     7
100
AcDbCircle
 10
67.6761428335
 20
193.5455242407
 30
0.0
 40
0.4999999999703812
100
AcDbArc
 50
-161.8201433037627
 51
-18.17985669266146
  0
ARC
  5
106
330
1F
100
AcDbEntity
  8
0
  6
Continuous
 62
     7
100
AcDbCircle
 10
69.9742398724
 20
199.0936212795
 30
0.0
 40
0.5000000000009713
100
AcDbArc
 50
-26.82014330928718
 51
116.8201433092865
  0
ARC
  5
107
330
1F
100
AcDbEntity
  8
0
  6
Continuous
 62
     7
100
AcDbCircle
 10
70.9261428335
 20
196.7955242407
 30
0.0
 40
0.5000000000653865
100
AcDbArc
 50
-71.82014330733443
 51
71.82014330376062
  0
ARC
  5
108
330
1F
100
AcDbEntity
  8
0
  6
Continuous
 62
     7
100
AcDbCircle
 10
67.6761428335
 20
200.0455242407
 30
0.0
 40
0.5000000000342172
100
AcDbArc
 50
18.17985668177877
 51
161.8201433146454
  0
ARC
  5
109
330
1F
100
AcDbEntity
  8
0
  6
Continuous
 62
     7
100
AcDbCircle
 10
67.6761428335
 20
260.7955242407
 30
0.0
 40
12.0
100
AcDbArc
 50
90.0
 51
180.0
  0
ARC
  5
10A
330
1F
100
AcDbEntity
  8
0
  6
Continuous
 62
     2
100
AcDbCircle
 10
67.6761428335
 20
241.7955242407
 30
0.0
 40
5.385000000000343
100
AcDbArc
 50
-104.9999999999993
 51
-165.0000000000009
  0
ARC
  5
10B
330
1F
100
AcDbEntity
  8
0
  6
Continuous
 62
     7
100
AcDbCircle
 10
70.6721428335
 20
241.7955242407
 30
0.0
 40
0.9800000000002989
100
AcDbArc
 50
133.4120116046834
 51
-133.4120116046845
  0
ARC
  5
10C
330
1F
100
AcDbEntity
  8
0
  6
Continuous
 62
     7
100
AcDbCircle
 10
69.1741428335
 20
244.3901363504
 30
0.0
 40
0.979999999999984
100
AcDbArc
 50
-166.5879883953104
 51
-73.4120116047024
  0
ARC
  5
10D
330
1F
100
AcDbEntity
  8
0
  6
Continuous
 62
     7
100
AcDbCircle
 10
69.6137935164
 20
240.6768210973
 30
0.0
 40
0.5600000000239312
100
AcDbArc
 50
-106.5879883961477
 51
46.58798839924606
  0
ARC
  5
10E
330
1F
100
AcDbEntity
  8
0
  6
Continuous
 62
     7
100
AcDbCircle
 10
69.6137935164
 20
242.914227384
 30
0.0
 40
0.5599999999462429
100
AcDbArc
 50
-46.58798839221352
 51
106.5879883961477
  0
ARC
  5
10F
330
1F
100
AcDbEntity
  8
0
  6
Continuous
 62
     7
100
AcDbCircle
 10
67.6761428335
 20
244.0329305274
 30
0.0
 40
0.5599999999951888
100
AcDbArc
 50
13.41201160274913
 51
166.5879883972509
  0
ARC
  5
110
330
1F
100
AcDbEntity
  8
A_RUNDUNGEN
  6
Continuous
 62
     7
100
AcDbCircle
 10
809.0350051306
 20
285.6405842924
 30
0.0
 40
753.6006743213
100
AcDbArc
 50
-177.1204637934
 51
-176.9584684341851
  0
CIRCLE
  5
111
330
1F
100
AcDbEntity
  8
A_RUNDUNGEN
  6
Continuous
 62
     7
100
AcDbCircle
 10
62.6761428335
 20
106.7955242407
 30
0.0
 40
2.999999999999993
  0
CIRCLE
  5
112
330
1F
100
AcDbEntity
  8
A_RUNDUNGEN
  6
Continuous
 62
     7
100
AcDbCircle
 10
64.6761428335
 20
154.7955242407
 30
0.0
 40
5.0
  0
CIRCLE
  5
113
330
1F
100
AcDbEntity
  8
A_RUNDUNGEN
  6
Continuous
 62
     7
100
AcDbCircle
 10
62.6761428335
 20
258.7955242407
 30
0.0
 40
2.999999999999993
  0
CIRCLE
  5
114
330
1F
100
AcDbEntity
  8
A_RUNDUNGEN
  6
Continuous
 62
     7
100
AcDbCircle
 10
64.6761428335
 20
182.7955242407
 30
0.0
 40
5.0
  0
CIRCLE
  5
115
330
1F
100
AcDbEntity
  8
A_RUNDUNGEN
  6
Continuous
 62
     7
100
AcDbCircle
 10
64.6761428335
 20
210.7955242407
 30
0.0
 40
5.0
  0
CIRCLE
  5
116
330
1F
100
AcDbEntity
  8
0
  6
Continuous
 62
     7
100
AcDbCircle
 10
67.6761428335
 20
123.7955242407
 30
0.0
 40
7.0
  0
CIRCLE
  5
117
330
1F
100
AcDbEntity
  8
0
  6
Continuous
 62
     7
100
AcDbCircle
 10
67.6761428335
 20
123.7955242407
 30
0.0
 40
3.950000000000003
  0
CIRCLE
  5
118
330
1F
100
AcDbEntity
  8
A_ACHSEN
  6
Continuous
 62
     7
100
AcDbCircle
 10
72.6761428335
 20
101.7955242407
 30
0.0
 40
3.0
  0
CIRCLE
  5
119
330
1F
100
AcDbEntity
  8
A_ACHSEN
  6
Continuous
 62
     7
100
AcDbCircle
 10
67.6761428335
 20
168.7955242407
 30
0.0
 40
5.5
  0
CIRCLE
  5
11A
330
1F
100
AcDbEntity
  8
A_ACHSEN
  6
Continuous
 62
     7
100
AcDbCircle
 10
67.6761428335
 20
196.7955242407
 30
0.0
 40
5.5
  0
CIRCLE
  5
11B
330
1F
100
AcDbEntity
  8
0
  6
Continuous
 62
     7
100
AcDbCircle
 10
67.6761428335
 20
241.7955242407
 30
0.0
 40
7.0
  0
CIRCLE
  5
11C
330
1F
100
AcDbEntity
  8
0
  6
Continuous
 62
     7
100
AcDbCircle
 10
67.6761428335
 20
241.7955242407
 30
0.0
 40
3.950000000000003
  0
CIRCLE
  5
11D
330
1F
100
AcDbEntity
  8
A_ACHSEN
  6
Continuous
 62
     7
100
AcDbCircle
 10
72.6761428335
 20
263.7955242407
 30
0.0
 40
3.0
  0
CIRCLE
  5
11E
330
1F
100
AcDbEntity
  8
1
  6
Continuous
 62
     7
100
AcDbCircle
 10
67.6761428335
 20
134.7955242407
 30
0.0
 40
3.000000000000014
  0
CIRCLE
  5
11F
330
1F
100
AcDbEntity
  8
1
  6
Continuous
 62
     7
100
AcDbCircle
 10
67.6761428335
 20
230.7955242407
 30
0.0
 40
3.000000000000014
  0
SPLINE
  5
120
330
1F
100
AcDbEntity
  8
A_RUNDUNGEN
  6
Continuous
 62
     7
100
AcDbSpline
210
0.0
220
0.0
230
1.0
 70
     8
 71
     3
 72
    19
 73
    15
 74
    13
 42
0.0000000001
 43
0.0000000001
 44
0.00000001
 40
0.0
 40
0.0
 40
0.0
 40
0.0
 40
0.0993033516260229
 40
0.1986252240244201
 40
0.287010116616606
 40
0.375333753755686
 40
0.4119172280325281
 40
0.4485635101619823
 40
0.4783120780701139
 40
0.5079060049848964
 40
0.5290048735263545
 40
0.550446275799007
 40
0.5625478307662516
 40
0.5742915239025982
 40
0.5742915239025982
 40
0.5742915239025982
 40
0.5742915239025982
 10
79.3366596653
 20
117.3727657297
 30
0.0
 10
79.31336284587256
 20
117.3962815310047
 30
0.0
 10
79.26676486199725
 20
117.4433175194761
 30
0.0
 10
79.20087854051889
 20
117.5126935264728
 30
0.0
 10
79.13853210239432
 20
117.5803653477823
 30
0.0
 10
79.09157190513258
 20
117.6337596995115
 30
0.0
 10
79.05687841086178
 20
117.6749485569129
 30
0.0
 10
79.03517370598267
 20
117.7015419030067
 30
0.0
 10
79.01533996862429
 20
117.7266565159386
 30
0.0
 10
78.99941712896651
 20
117.7482269920007
 30
0.0
 10
78.98590384870815
 20
117.7681573247816
 30
0.0
 10
78.97655241183625
 20
117.7837044425891
 30
0.0
 10
78.96866937652266
 20
117.7967752506
 30
0.0
 10
78.96716960860984
 20
117.8046469731539
 30
0.0
 10
78.9664309786712
 20
117.808523766288
 30
0.0
 11
79.3366596653
 21
117.3727657297
 31
0.0
 11
79.26701950640584
 21
117.4435569997363
 31
0.0
 11
79.19856191848363
 21
117.5155180516505
 31
0.0
 11
79.13877022597113
 21
117.5806090859411
 31
0.0
 11
79.080518801457
 21
117.6470006247059
 31
0.0
 11
79.05696463299583
 21
117.6749926188876
 31
0.0
 11
79.03380369791071
 21
117.7033919336662
 31
0.0
 11
79.0154374931802
 21
117.7267940663977
 31
0.0
 11
78.99791886102255
 21
117.7506456499418
 31
0.0
 11
78.9861374860653
 21
117.768148834162
 31
0.0
 11
78.974913838704
 21
117.7864180287618
 31
0.0
 11
78.9692898673546
 21
117.7971333719148
 31
0.0
 11
78.9664309786712
 21
117.808523766288
 31
0.0
  0
SPLINE
  5
121
330
1F
100
AcDbEntity
  8
A_RUNDUNGEN
  6
Continuous
 62
     7
100
AcDbSpline
210
0.0
220
0.0
230
1.0
 70
     8
 71
     3
 72
    19
 73
    15
 74
    13
 42
0.0000000001
 43
0.0000000001
 44
0.00000001
 40
0.0
 40
0.0
 40
0.0
 40
0.0
 40
0.0117360770276633
 40
0.0238285743493298
 40
0.0452566700126721
 40
0.0663435603161932
 40
0.0959396749835445
 40
0.1256899702486039
 40
0.162344524384313
 40
0.1989364348881931
 40
0.2872660070764281
 40
0.375656640285477
 40
0.4749847092340328
 40
0.574294323723507
 40
0.574294323723507
 40
0.574294323723507
 40
0.574294323723507
 10
56.3858546874471
 20
117.808523764801
 30
0.0
 10
56.38511724640577
 20
117.8046494387956
 30
0.0
 10
56.383619968513
 20
117.7967831249452
 30
0.0
 10
56.37575092006241
 20
117.7837161673538
 30
0.0
 10
56.36640944434527
 20
117.7681760903198
 30
0.0
 10
56.35290179146309
 20
117.7482512688458
 30
0.0
 10
56.33698046562537
 20
117.7266829745905
 30
0.0
 10
56.31714299748599
 20
117.7015661287047
 30
0.0
 10
56.29543290204859
 20
117.6749692492454
 30
0.0
 10
56.26073242926432
 20
117.6337764059765
 30
0.0
 10
56.21376698678108
 20
117.5803777770873
 30
0.0
 10
56.15141675882292
 20
117.512701339553
 30
0.0
 10
56.0855253895627
 20
117.4433217575021
 30
0.0
 10
56.03892435456255
 20
117.3962829489186
 30
0.0
 10
56.0156260018
 20
117.3727657297
 30
0.0
 11
56.3858546874471
 21
117.808523764801
 31
0.0
 11
56.38300052010375
 21
117.7971400381363
 31
0.0
 11
56.37738641530596
 21
117.7864297478138
 31
0.0
 11
56.36617556015209
 21
117.7681683127531
 31
0.0
 11
56.35440248031818
 21
117.7506739841321
 31
0.0
 11
56.33688266825943
 21
117.7268205527473
 31
0.0
 11
56.31851442057441
 21
117.7034178275782
 31
0.0
 11
56.29534672512009
 21
117.6750133521171
 31
0.0
 11
56.2717857525303
 21
117.6470160578738
 31
0.0
 11
56.21352901207265
 21
117.5806212876414
 31
0.0
 11
56.15373330051531
 21
117.5155261502005
 31
0.0
 11
56.08527086325794
 21
117.443561158949
 31
0.0
 11
56.0156260018
 21
117.3727657297
 31
0.0
  0
SPLINE
  5
122
330
1F
100
AcDbEntity
  8
A_RUNDUNGEN
  6
Continuous
 62
     7
100
AcDbSpline
210
0.0
220
0.0
230
1.0
 70
     8
 71
     3
 72
    19
 73
    15
 74
    13
 42
0.0000000001
 43
0.0000000001
 44
0.00000001
 40
0.0
 40
0.0
 40
0.0
 40
0.0
 40
0.0993083919393622
 40
0.1986352420478596
 40
0.2870272989401605
 40
0.3753583111625359
 40
0.4119512661941689
 40
0.4486068224238688
 40
0.4783586078789391
 40
0.5079563005359095
 40
0.5290424933246425
 40
0.5504697553073965
 40
0.5625600590128854
 40
0.574294120194797
 40
0.574294120194797
 40
0.574294120194797
 40
0.574294120194797
 10
56.0156260018
 20
248.2182827516
 30
0.0
 10
56.03892405189251
 20
248.1947658056234
 30
0.0
 10
56.08552448242003
 20
248.1477275426421
 30
0.0
 10
56.15141539499843
 20
248.0783479968206
 30
0.0
 10
56.21376627182454
 20
248.0106714145415
 30
0.0
 10
56.26073240612636
 20
247.9572716438684
 30
0.0
 10
56.2954328902942
 20
247.9160772881153
 30
0.0
 10
56.31714312444743
 20
247.8894789992742
 30
0.0
 10
56.33698082785944
 20
247.8643606101058
 30
0.0
 10
56.35290281029569
 20
247.8427918508764
 30
0.0
 10
56.36641189788486
 20
247.8228679886406
 30
0.0
 10
56.37575332906336
 20
247.8073293070913
 30
0.0
 10
56.38362069512284
 20
247.7942633449653
 30
0.0
 10
56.38511748385494
 20
247.7863983908662
 30
0.0
 10
56.3858546875807
 20
247.782524715617
 30
0.0
 11
56.0156260018
 21
248.2182827516
 31
0.0
 11
56.08526992767665
 21
248.1474881169299
 31
0.0
 11
56.15373142019052
 21
248.0755239091927
 31
0.0
 11
56.21352821007738
 21
248.0104278291196
 31
0.0
 11
56.27178553560853
 21
247.9440316564725
 31
0.0
 11
56.29534669638032
 21
247.9160331554227
 31
0.0
 11
56.3185143940665
 21
247.8876273886415
 31
0.0
 11
56.33688313394131
 21
247.8642231554095
 31
0.0
 11
56.35440425452669
 21
247.8403687272242
 31
0.0
 11
56.36617794428054
 21
247.8228756498533
 31
0.0
 11
56.37738876625647
 21
247.8046151726771
 31
0.0
 11
56.38300138766915
 21
247.7939065815201
 31
0.0
 11
56.3858546875807
 21
247.782524715617
 31
0.0
  0
SPLINE
  5
123
330
1F
100
AcDbEntity
  8
A_RUNDUNGEN
  6
Continuous
 62
     7
100
AcDbSpline
210
0.0
220
0.0
230
1.0
 70
     8
 71
     3
 72
    21
 73
    17
 74
    15
 42
0.0000000001
 43
0.0000000001
 44
0.00000001
 40
0.0
 40
0.0
 40
0.0
 40
0.0
 40
0.0093439161087558
 40
0.0191398121992253
 40
0.0374187933439048
 40
0.0552372571559606
 40
0.081278311156941
 40
0.1075363884334055
 40
0.1407956387062635
 40
0.1739702581141122
 40
0.2130654134122231
 40
0.2521898283715204
 40
0.2959141782652854
 40
0.3396290051346138
 40
0.4348786692286538
 40
0.5301338330913659
 40
0.5301338330913659
 40
0.5301338330913659
 40
0.5301338330913659
 10
79.0922241039
 20
247.4141725223
 30
0.0
 10
79.09321064776559
 20
247.4171669615527
 30
0.0
 10
79.09523145618186
 20
247.4233006858148
 30
0.0
 10
79.10390612996316
 20
247.4325516275687
 30
0.0
 10
79.11415252901216
 20
247.443785003979
 30
0.0
 10
79.1290470461878
 20
247.4582410044984
 30
0.0
 10
79.1465327300551
 20
247.4737417388945
 30
0.0
 10
79.16855102935168
 20
247.4918784948037
 30
0.0
 10
79.19272163505947
 20
247.5111246144012
 30
0.0
 10
79.22060744228685
 20
247.5325697668166
 30
0.0
 10
79.25039138140994
 20
247.5547453178143
 30
0.0
 10
79.28331891142878
 20
247.5785803184906
 30
0.0
 10
79.31775449935964
 20
247.6029540436725
 30
0.0
 10
79.36781356412078
 20
247.63763116564
 30
0.0
 10
79.43255899851664
 20
247.6812706163681
 30
0.0
 10
79.48591360959952
 20
247.7157072452672
 30
0.0
 10
79.5125916853
 20
247.7329260568
 30
0.0
 11
79.0922241039
 21
247.4141725223
 31
0.0
 11
79.09575961976688
 21
247.4228217358944
 31
0.0
 11
79.1019102627314
 21
247.4304459847977
 31
0.0
 11
79.11440745389636
 21
247.443785451229
 31
0.0
 11
79.12714615970832
 21
247.4562443045815
 31
0.0
 11
79.14658197450419
 21
247.4735759403007
 31
0.0
 11
79.1667888454167
 21
247.4903440347119
 31
0.0
 11
79.19280173190928
 21
247.5110685965899
 31
0.0
 11
79.21909056589439
 21
247.5313035312466
 31
0.0
 11
79.25043529386303
 21
247.5546688730235
 31
0.0
 11
79.28211487789157
 21
247.5776280498748
 31
0.0
 11
79.31779931963008
 21
247.6028954080953
 31
0.0
 11
79.35372561080366
 21
247.62780098359
 31
0.0
 11
79.43273078921838
 21
247.6810051215277
 31
0.0
 11
79.5125916853
 21
247.7329260568
 31
0.0
  0
SPLINE
  5
124
330
1F
100
AcDbEntity
  8
A_RUNDUNGEN
  6
Continuous
 62
     7
100
AcDbSpline
210
0.0
220
0.0
230
1.0
 70
     8
 71
     3
 72
    19
 73
    15
 74
    13
 42
0.0000000001
 43
0.0000000001
 44
0.00000001
 40
0.0
 40
0.0
 40
0.0
 40
0.0
 40
0.0103605895588358
 40
0.0210565081417999
 40
0.0400183249024981
 40
0.0586600545872127
 40
0.0852565936176523
 40
0.1119998137744254
 40
0.1455439913066324
 40
0.1790272304161677
 40
0.2617935702480301
 40
0.344622378830792
 40
0.439264524200686
 40
0.5338871830916827
 40
0.5338871830916827
 40
0.5338871830916827
 40
0.5338871830916827
 10
57.3099866252
 20
120.6858621449
 30
0.0
 10
57.31048070198105
 20
120.6893106125104
 30
0.0
 10
57.31148484674556
 20
120.696319160229
 30
0.0
 10
57.31806698674402
 20
120.708106228289
 30
0.0
 10
57.32599378621508
 20
120.7220432911078
 30
0.0
 10
57.33773628216879
 20
120.73997543048
 30
0.0
 10
57.35171136109557
 20
120.7594755955216
 30
0.0
 10
57.36939691383988
 20
120.7824173460094
 30
0.0
 10
57.38893745925292
 20
120.8068139705007
 30
0.0
 10
57.42082954531604
 20
120.8452359077883
 30
0.0
 10
57.46440461031355
 20
120.8952983847742
 30
0.0
 10
57.52299224066962
 20
120.9592752329848
 30
0.0
 10
57.58534131742977
 20
121.0251541586569
 30
0.0
 10
57.62973200774746
 20
121.0699850108627
 30
0.0
 10
57.6519250677
 20
121.0923981291
 30
0.0
 11
57.3099866252
 21
120.6858621449
 31
0.0
 11
57.31206422759454
 21
120.6960122869826
 31
0.0
 11
57.31670603689543
 21
120.7056484833664
 31
0.0
 11
57.32622595149844
 21
120.7220473162766
 31
0.0
 11
57.33636768175951
 21
120.7376889080419
 31
0.0
 11
57.35180761659539
 21
120.7593449534025
 31
0.0
 11
57.36806988620761
 21
120.780575554228
 31
0.0
 11
57.38902603729596
 21
120.8067681405431
 31
0.0
 11
57.41039449174115
 21
120.8325463572365
 31
0.0
 11
57.46464938542191
 21
120.8950497453115
 31
0.0
 11
57.52048786185428
 21
120.9562271601061
 31
0.0
 11
57.58560120462852
 21
121.024910406047
 31
0.0
 11
57.6519250677
 21
121.0923981291
 31
0.0
  0
SPLINE
  5
125
330
1F
100
AcDbEntity
  8
A_RUNDUNGEN
  6
Continuous
 62
     7
100
AcDbSpline
210
0.0
220
0.0
230
1.0
 70
     8
 71
     3
 72
    19
 73
    15
 74
    13
 42
0.0000000001
 43
0.0000000001
 44
0.00000001
 40
0.0
 40
0.0
 40
0.0
 40
0.0
 40
0.0946224480448778
 40
0.1892643818145003
 40
0.2720937943238711
 40
0.3548607484129635
 40
0.3883443517820641
 40
0.4218888746772149
 40
0.4486323393174358
 40
0.475229165726832
 40
0.493870071278087
 40
0.5128309812129369
 40
0.5235257083511078
 40
0.5338852047030053
 40
0.5338852047030053
 40
0.5338852047030053
 40
0.5338852047030053
 10
77.7003620668
 20
121.0923966616
 30
0.0
 10
77.72255507086591
 20
121.0699835868802
 30
0.0
 10
77.76694564923216
 20
121.0251528218868
 30
0.0
 10
77.8292947522487
 20
120.9592738386772
 30
0.0
 10
77.8878826936679
 20
120.8952968207077
 30
0.0
 10
77.93145804127411
 20
120.845233885333
 30
0.0
 10
77.96335018182566
 20
120.8068114189923
 30
0.0
 10
77.98289075017003
 20
120.7824144052953
 30
0.0
 10
78.00057631653247
 20
120.7594722959531
 30
0.0
 10
78.01455138903312
 20
120.7399722558839
 30
0.0
 10
78.02629400649707
 20
120.7220407724145
 30
0.0
 10
78.03422031609466
 20
120.7081045314992
 30
0.0
 10
78.04080131161886
 20
120.6963180722928
 30
0.0
 10
78.04180512613766
 20
120.689310260635
 30
0.0
 10
78.0422990419
 20
120.6858621449
 30
0.0
 11
77.7003620668
 21
121.0923966616
 31
0.0
 11
77.76668576333122
 21
121.0249090705003
 31
0.0
 11
77.83179896409939
 21
120.9562259815091
 31
0.0
 11
77.88763788766958
 21
120.8950481571675
 31
0.0
 11
77.94189306094869
 21
120.8325441983997
 31
0.0
 11
77.96326160106827
 21
120.80676557959
 31
0.0
 11
77.984217784669
 21
120.7805725769909
 31
0.0
 11
78.00048008580252
 21
120.759341692346
 31
0.0
 11
78.01592028789548
 21
120.7376854845898
 31
0.0
 11
78.02606180431557
 21
120.7220447363829
 31
0.0
 11
78.03558112566614
 21
120.7056466076305
 31
0.0
 11
78.0402220089496
 21
120.6960112876612
 31
0.0
 11
78.0422990419
 21
120.6858621449
 31
0.0
  0
SPLINE
  5
126
330
1F
100
AcDbEntity
  8
A_RUNDUNGEN
  6
Continuous
 62
     7
100
AcDbSpline
210
0.0
220
0.0
230
1.0
 70
     8
 71
     3
 72
    19
 73
    15
 74
    13
 42
0.0000000001
 43
0.0000000001
 44
0.00000001
 40
0.0
 40
0.0
 40
0.0
 40
0.0
 40
0.0101530506927947
 40
0.0206369949649222
 40
0.0394555391359405
 40
0.0579525277616232
 40
0.0844506187142097
 40
0.1110973989069013
 40
0.1445767699153421
 40
0.1779942075355639
 40
0.2606808023485599
 40
0.3434293255424902
 40
0.4380040125008314
 40
0.5325595481995105
 40
0.5325595481995105
 40
0.5325595481995105
 40
0.5325595481995105
 10
78.0438103012
 20
244.9025951876
 30
0.0
 10
78.04324186117435
 20
244.899229043221
 30
0.0
 10
78.04208645534594
 20
244.8923870499422
 30
0.0
 10
78.03531975713524
 20
244.8809270503297
 30
0.0
 10
78.02723494601304
 20
244.8672746685284
 30
0.0
 10
78.01533912414594
 20
244.8496008164582
 30
0.0
 10
78.00121450393883
 20
244.8303492274358
 30
0.0
 10
77.9833662094335
 20
244.8076445054315
 30
0.0
 10
77.96369232236115
 20
244.7834531954354
 30
0.0
 10
77.93162421910017
 20
244.7452699656206
 30
0.0
 10
77.88790695508574
 20
244.6954339474753
 30
0.0
 10
77.82924708322417
 20
244.6316272166218
 30
0.0
 10
77.76689966635192
 20
244.565846234805
 30
0.0
 10
77.72253961322285
 20
244.5210482898602
 30
0.0
 10
77.7003618326
 20
244.4986515855
 30
0.0
 11
78.0438103012
 21
244.9025951876
 31
0.0
 11
78.04152797016874
 21
244.8927019877418
 31
0.0
 11
78.03675801517655
 21
244.8833660026908
 31
0.0
 11
78.02701661292741
 21
244.8672649876005
 31
0.0
 11
78.01674897754081
 21
244.8518794667518
 31
0.0
 11
78.00112640733919
 21
244.8304765668448
 31
0.0
 11
77.98472352844686
 21
244.8094766511621
 31
0.0
 11
77.96361118841507
 21
244.7834932452748
 31
0.0
 11
77.94213411426637
 21
244.757891283961
 31
0.0
 11
77.88768257334068
 21
244.6956650623773
 31
0.0
 11
77.83177171437433
 21
244.6346626530772
 31
0.0
 11
77.76664807870415
 21
244.5660821639395
 31
0.0
 11
77.7003618326
 21
244.4986515855
 31
0.0
  0
SPLINE
  5
127
330
1F
100
AcDbEntity
  8
A_RUNDUNGEN
  6
Continuous
 62
     7
100
AcDbSpline
210
0.0
220
0.0
230
1.0
 70
     8
 71
     3
 72
    19
 73
    15
 74
    13
 42
0.0000000001
 43
0.0000000001
 44
0.00000001
 40
0.0
 40
0.0
 40
0.0
 40
0.0
 40
0.0946226552070069
 40
0.189264793679208
 40
0.2720944918011933
 40
0.3548617407037391
 40
0.3883456056445817
 40
0.4218903803738329
 40
0.448633983534783
 40
0.4752309727294228
 40
0.4938718101251739
 40
0.5128325959097597
 40
0.5235272965108811
 40
0.533886821787555
 40
0.533886821787555
 40
0.533886821787555
 40
0.533886821787555
 10
57.6519247508
 20
244.4986506692
 30
0.0
 10
57.6297316972593
 20
244.5210637920985
 30
0.0
 10
57.5853410205202
 20
244.5658946528666
 30
0.0
 10
57.52299174922447
 20
244.6317737969317
 30
0.0
 10
57.46440362672599
 20
244.6957510039416
 30
0.0
 10
57.42082807269657
 20
244.7458141311694
 30
0.0
 10
57.3889357213402
 20
244.7842367725492
 30
0.0
 10
57.36939499172112
 20
244.8086339356759
 30
0.0
 10
57.35170929491004
 20
244.8315761769553
 30
0.0
 10
57.33773415926098
 20
244.8510762684512
 30
0.0
 10
57.32599152612121
 20
244.8690077264759
 30
0.0
 10
57.31806527794536
 20
244.8829439320269
 30
0.0
 10
57.31148447792074
 20
244.8947304288928
 30
0.0
 10
57.3104805822268
 20
244.9017382210323
 30
0.0
 10
57.3099866252
 20
244.9051863364
 30
0.0
 11
57.6519247508
 21
244.4986506692
 31
0.0
 11
57.58560090537991
 21
244.5661384044348
 31
0.0
 11
57.52048755659374
 21
244.6348216351715
 31
0.0
 11
57.46464843175648
 21
244.6959996625048
 31
0.0
 11
57.41039303240515
 21
244.7585038154238
 31
0.0
 11
57.38902430043227
 21
244.7842826149546
 31
0.0
 11
57.36806793376028
 21
244.8104757935999
 31
0.0
 11
57.35180553056734
 21
244.8317067745575
 31
0.0
 11
57.33636521412004
 21
244.8533631007054
 31
0.0
 11
57.326223725698
 21
244.8690037858375
 31
0.0
 11
57.3167045355522
 21
244.8854018472027
 31
0.0
 11
57.31206374322257
 21
244.8950371815249
 31
0.0
 11
57.3099866252
 21
244.9051863364
 31
0.0
  0
SPLINE
  5
128
330
1F
100
AcDbEntity
  8
A_RUNDUNGEN
  6
Continuous
 62
     7
100
AcDbSpline
210
0.0
220
0.0
230
1.0
 70
     8
 71
     3
 72
    21
 73
    17
 74
    15
 42
0.0000000001
 43
0.0000000001
 44
0.00000001
 40
0.0
 40
0.0
 40
0.0
 40
0.0
 40
0.0588759548095136
 40
0.1187105292776048
 40
0.213259178276229
 40
0.3070605540502731
 40
0.4361552689967676
 40
0.5655624353809449
 40
0.728157626611421
 40
0.8906325705523368
 40
1.084081854257968
 40
1.277573067739415
 40
1.499299583112486
 40
1.721013561279406
 40
2.236050390791365
 40
2.751101514000077
 40
2.751101514000077
 40
2.751101514000077
 40
2.751101514000077
 10
78.0422874836
 20
118.896464551
 30
0.0
 10
78.04425108249985
 20
118.8768380750944
 30
0.0
 10
78.04821025166227
 20
118.8372655645484
 30
0.0
 10
78.0748299848407
 20
118.770771200865
 30
0.0
 10
78.10923337050087
 20
118.6956861158208
 30
0.0
 10
78.16044426328074
 20
118.6029417533097
 30
0.0
 10
78.2216213132868
 20
118.5026947928134
 30
0.0
 10
78.29922772802644
 20
118.3856990347897
 30
0.0
 10
78.38611907994748
 20
118.2615886170633
 30
0.0
 10
78.48839567677663
 20
118.1222435709724
 30
0.0
 10
78.59938326113212
 20
117.9765562499156
 30
0.0
 10
78.72487681801482
 20
117.8171264278939
 30
0.0
 10
78.8583695070336
 20
117.6520258701219
 30
0.0
 10
79.06221380782638
 20
117.4060070586589
 30
0.0
 10
79.33327663513131
 20
117.0887199012642
 30
0.0
 10
79.56185304345385
 20
116.8324873445987
 30
0.0
 10
79.6761428335
 20
116.7043692885
 30
0.0
 11
78.0422874836
 21
118.896464551
 31
0.0
 11
78.05084928425434
 21
118.8382144555126
 31
0.0
 11
78.07081680590696
 21
118.7818098955832
 31
0.0
 11
78.11041444116961
 21
118.6959526052168
 31
0.0
 11
78.15523724902432
 21
118.6135534911856
 31
0.0
 11
78.22225345819278
 21
118.5032164025172
 31
0.0
 11
78.29350667487957
 21
118.3951923597149
 31
0.0
 11
78.38663473180635
 21
118.261909347953
 31
0.0
 11
78.48263932543234
 21
118.1308321744585
 31
0.0
 11
78.59977783512964
 21
117.9768802504298
 31
0.0
 11
78.71936274737016
 21
117.8247674683931
 31
0.0
 11
78.85871449132716
 21
117.6523037357546
 31
0.0
 11
79.0000890717838
 21
117.4815105388312
 31
0.0
 11
79.33465427852133
 21
117.0899379935801
 31
0.0
 11
79.6761428335
 21
116.7043692885
 31
0.0
  0
SPLINE
  5
129
330
1F
100
AcDbEntity
  8
A_RUNDUNGEN
  6
Continuous
 62
     7
100
AcDbSpline
210
0.0
220
0.0
230
1.0
 70
     8
 71
     3
 72
    21
 73
    17
 74
    15
 42
0.0000000001
 43
0.0000000001
 44
0.00000001
 40
0.0
 40
0.0
 40
0.0
 40
0.0
 40
0.5150383699903222
 40
1.030062443098583
 40
1.251771735985778
 40
1.473493572639873
 40
1.666981335129541
 40
1.860427149537071
 40
2.022900065386517
 40
2.185493279798286
 40
2.314901357236974
 40
2.443996834671289
 40
2.537801995615907
 40
2.632354795399932
 40
2.692191339644504
 40
2.751068892182792
 40
2.751068892182792
 40
2.751068892182792
 40
2.751068892182792
 10
55.6761428335
 20
116.7043692074
 30
0.0
 10
55.79042982079979
 20
116.8324840667928
 30
0.0
 10
56.01900062292202
 20
117.0887102292551
 30
0.0
 10
56.29005708693747
 20
117.4059895817075
 30
0.0
 10
56.49389690402511
 20
117.6520025321999
 30
0.0
 10
56.62738710874936
 20
117.8170996047016
 30
0.0
 10
56.75287853482296
 20
117.976526182905
 30
0.0
 10
56.8638646115223
 20
118.1222109020864
 30
0.0
 10
56.96614007529982
 20
118.2615536882926
 30
0.0
 10
57.05303132495959
 20
118.3856629148551
 30
0.0
 10
57.13063841484907
 20
118.5026581013021
 30
0.0
 10
57.19181747525995
 20
118.6029059487086
 30
0.0
 10
57.24303129663902
 20
118.6956520175393
 30
0.0
 10
57.27743818862807
 20
118.7707390116795
 30
0.0
 10
57.30406257769561
 20
118.8372344234469
 30
0.0
 10
57.30802260594845
 20
118.876808103816
 30
0.0
 10
57.3099866252
 20
118.8964351027
 30
0.0
 11
55.6761428335
 21
116.7043692074
 31
0.0
 11
56.01762303684338
 21
117.089928273286
 31
0.0
 11
56.35218018483793
 21
117.4814909254973
 31
0.0
 11
56.49355193512146
 21
117.6522803829422
 31
0.0
 11
56.63290095337948
 21
117.824740302807
 31
0.0
 11
56.75248398318956
 21
117.9768501749873
 31
0.0
 11
56.8696207106448
 21
118.1307990957138
 31
0.0
 11
56.96562445344997
 21
118.2618743784792
 31
0.0
 11
57.05875193430848
 21
118.3951553811829
 31
0.0
 11
57.13000637552755
 21
118.5031797076697
 31
0.0
 11
57.19702421274389
 21
118.6135166996028
 31
0.0
 11
57.24185029954052
 21
118.6959183389211
 31
0.0
 11
57.28145243469268
 21
118.781778124842
 31
0.0
 11
57.3014231752623
 21
118.8381836347523
 31
0.0
 11
57.3099866252
 21
118.8964351027
 31
0.0
  0
SPLINE
  5
12A
330
1F
100
AcDbEntity
  8
A_RUNDUNGEN
  6
Continuous
 62
     7
100
AcDbSpline
210
0.0
220
0.0
230
1.0
 70
     8
 71
     3
 72
    21
 73
    17
 74
    15
 42
0.0000000001
 43
0.0000000001
 44
0.00000001
 40
0.0
 40
0.0
 40
0.0
 40
0.0
 40
0.0588758565377432
 40
0.118710316124933
 40
0.2132587548096304
 40
0.3070599363611584
 40
0.4361545938996741
 40
0.5655616964050318
 40
0.7281569374798722
 40
0.8906319334940916
 40
1.084081305043818
 40
1.277572605561799
 40
1.499299245689965
 40
1.721013348881605
 40
2.236050554007582
 40
2.751102052730282
 40
2.751102052730282
 40
2.751102052730282
 40
2.751102052730282
 10
57.3099983537
 20
246.6945834963
 30
0.0
 10
57.30803477188145
 20
246.714209939659
 30
0.0
 10
57.30407563766032
 20
246.7537823795788
 30
0.0
 10
57.27745610970874
 20
246.8202766670549
 30
0.0
 10
57.24305287886187
 20
246.895361637691
 30
0.0
 10
57.19184211382409
 20
246.9881058943267
 30
0.0
 10
57.13066515090004
 20
247.0883527855153
 30
0.0
 10
57.05305876594609
 20
247.2053485347961
 30
0.0
 10
56.96616741462505
 20
247.3294589685474
 30
0.0
 10
56.86389078280789
 20
247.4688040674429
 30
0.0
 10
56.75290315501884
 20
247.6144914505208
 30
0.0
 10
56.62740953753609
 20
247.7739213519716
 30
0.0
 10
56.49391677626736
 20
247.9390219957324
 30
0.0
 10
56.290072336284
 20
248.1850409626108
 30
0.0
 10
56.01900930476058
 20
248.5023283297967
 30
0.0
 10
55.7904327145028
 20
248.7585610596966
 30
0.0
 10
55.6761428335
 20
248.8866792024
 30
0.0
 11
57.3099983537
 21
246.6945834963
 31
0.0
 11
57.3014366224268
 21
246.7528335026576
 31
0.0
 11
57.28146924365159
 21
246.8092379912993
 31
0.0
 11
57.24187180527286
 21
246.8950951408651
 31
0.0
 11
57.19704914270093
 21
246.9774941128273
 31
0.0
 11
57.13003300176491
 21
247.0878311757709
 31
0.0
 11
57.05877983784323
 21
247.1958551768539
 31
0.0
 11
56.96565176202105
 21
247.3291382362195
 31
0.0
 11
56.86964714095093
 21
247.4602154541599
 31
0.0
 11
56.75250858043648
 21
247.614167449904
 31
0.0
 11
56.63292361537389
 21
247.7662803011268
 31
0.0
 11
56.49357179141099
 21
247.9387441295104
 31
0.0
 11
56.3521971270557
 21
248.1095374192864
 31
0.0
 11
56.01763165950952
 21
248.5011102357453
 31
0.0
 11
55.6761428335
 21
248.8866792024
 31
0.0
  0
SPLINE
  5
12B
330
1F
100
AcDbEntity
  8
A_RUNDUNGEN
  6
Continuous
 62
     7
100
AcDbSpline
210
0.0
220
0.0
230
1.0
 70
     8
 71
     3
 72
    11
 73
     7
 74
     5
 42
0.0000000001
 43
0.0000000001
 44
0.00000001
 40
0.0
 40
0.0
 40
0.0
 40
0.0
 40
0.0639201825572934
 40
0.1278410531433891
 40
0.3080544009510103
 40
0.4882637608502046
 40
0.4882637608502046
 40
0.4882637608502046
 40
0.4882637608502046
 10
79.4122132505822
 20
247.846006653679
 30
0.0
 10
79.39473803116431
 20
247.8338166620408
 30
0.0
 10
79.35978740422748
 20
247.809436547553
 30
0.0
 10
79.27589701086367
 20
247.7502204472186
 30
0.0
 10
79.16090728576984
 20
247.6678361155344
 30
0.0
 10
79.06464006001883
 20
247.5959538711177
 30
0.0
 10
79.0165069797192
 20
247.560013146581
 30
0.0
 11
79.4122132505822
 21
247.846006653679
 31
0.0
 11
79.35982172408808
 21
247.8093881107018
 31
0.0
 11
79.30758860128333
 21
247.7725427775028
 31
0.0
 11
79.16125647681577
 21
247.6673583676464
 31
0.0
 11
79.0165069797192
 21
247.560013146581
 31
0.0
  0
SPLINE
  5
12C
330
1F
100
AcDbEntity
  8
A_RUNDUNGEN
  6
Continuous
 62
     7
100
AcDbSpline
210
0.0
220
0.0
230
1.0
 70
     8
 71
     3
 72
    17
 73
    13
 74
    11
 42
0.0000000001
 43
0.0000000001
 44
0.00000001
 40
0.0
 40
0.0
 40
0.0
 40
0.0
 40
0.2477632222186831
 40
0.4954575912219985
 40
0.688115481106732
 40
0.8810688285514234
 40
1.016189925806093
 40
1.150790115633699
 40
1.196390712666396
 40
1.242179739414954
 40
1.274824161069186
 40
1.307136293715229
 40
1.307136293715229
 40
1.307136293715229
 40
1.307136293715229
 10
78.9863115801936
 20
247.537147416868
 30
0.0
 10
78.9208915972695
 20
247.4867306716598
 30
0.0
 10
78.79006981158595
 20
247.3859111920193
 30
0.0
 10
78.61384488261614
 20
247.2389874890268
 30
0.0
 10
78.45655066135413
 20
247.0981226751445
 30
0.0
 10
78.33283910626211
 20
246.9762526682056
 30
0.0
 10
78.22861880191331
 20
246.8624492675089
 30
0.0
 10
78.16513211264144
 20
246.7783452610529
 30
0.0
 10
78.12576943181493
 20
246.7140088855455
 30
0.0
 10
78.10770724728714
 20
246.6768143591939
 30
0.0
 10
78.09455644412103
 20
246.6420522708179
 30
0.0
 10
78.09213913628102
 20
246.6204514584713
 30
0.0
 10
78.0909366653
 20
246.6097063024
 30
0.0
 11
78.9863115801936
 21
247.537147416868
 31
0.0
 11
78.7910359393247
 21
247.3846546682948
 31
0.0
 11
78.60082682915802
 21
247.2259946706723
 31
0.0
 11
78.45766339899045
 21
247.0970710700497
 31
0.0
 11
78.32049744193154
 21
246.9613636844209
 31
0.0
 11
78.23012041968667
 21
246.8609161619354
 31
0.0
 11
78.14994366654764
 21
246.7528009485855
 31
0.0
 11
78.12645199995825
 21
246.7137169870336
 31
0.0
 11
78.10651149691398
 21
246.6724979221616
 31
0.0
 11
78.09585460287046
 21
246.6416419847348
 31
0.0
 11
78.0909366653
 21
246.6097063024
 31
0.0
  0
SPLINE
  5
12D
330
1F
100
AcDbEntity
  8
0
  6
Continuous
 62
     7
100
AcDbSpline
210
0.0
220
0.0
230
1.0
 70
     8
 71
     3
 72
     9
 73
     5
 74
     3
 42
0.0000000001
 43
0.0000000001
 44
0.00000001
 40
0.0
 40
0.0
 40
0.0
 40
0.0
 40
2.227626560944727
 40
4.454778627996763
 40
4.454778627996763
 40
4.454778627996763
 40
4.454778627996763
 10
79.6761428335
 20
241.2955242407
 30
0.0
 10
79.64106633764894
 20
242.0412273610418
 30
0.0
 10
79.57092081738895
 20
243.5324747638023
 30
0.0
 10
79.0945465188378
 20
244.9473248165265
 30
0.0
 10
78.8563847397
 20
245.6546744926
 30
0.0
 11
79.6761428335
 21
241.2955242407
 31
0.0
 11
79.46933451580509
 21
243.5135301953265
 31
0.0
 11
78.8563847397
 21
245.6546744926
 31
0.0
  0
SPLINE
  5
12E
330
1F
100
AcDbEntity
  8
0
  6
Continuous
 62
     7
100
AcDbSpline
210
0.0
220
0.0
230
1.0
 70
     8
 71
     3
 72
     9
 73
     5
 74
     3
 42
0.0000000001
 43
0.0000000001
 44
0.00000001
 40
0.0
 40
0.0
 40
0.0
 40
0.0
 40
2.227626561109135
 40
4.454778628093309
 40
4.454778628093309
 40
4.454778628093309
 40
4.454778628093309
 10
78.8563847397
 20
119.9363739887
 30
0.0
 10
79.09459042604729
 20
120.6438777380346
 30
0.0
 10
79.57095105989687
 20
122.0587345353347
 30
0.0
 10
79.64108139890857
 20
123.5499806181983
 30
0.0
 10
79.6761428335
 20
124.2955242407
 30
0.0
 11
78.8563847397
 21
119.9363739887
 31
0.0
 11
79.46942258937212
 21
122.0779866265569
 31
0.0
 11
79.6761428335
 21
124.2955242407
 31
0.0
  0
SPLINE
  5
12F
330
1F
100
AcDbEntity
  8
0
  6
Continuous
 62
     7
100
AcDbSpline
210
0.0
220
0.0
230
1.0
 70
     8
 71
     3
 72
     9
 73
     5
 74
     3
 42
0.0000000001
 43
0.0000000001
 44
0.00000001
 40
0.0
 40
0.0
 40
0.0
 40
0.0
 40
2.227626560825461
 40
4.454778627769871
 40
4.454778627769871
 40
4.454778627769871
 40
4.454778627769871
 10
55.6761428335
 20
124.2955242407
 30
0.0
 10
55.71121932934481
 20
123.5498211203982
 30
0.0
 10
55.78136484959243
 20
122.058573717714
 30
0.0
 10
56.25773914809453
 20
120.6437236650543
 30
0.0
 10
56.4959009272084
 20
119.936373989011
 30
0.0
 11
55.6761428335
 21
124.2955242407
 31
0.0
 11
55.8829511511664
 21
122.0775182861906
 31
0.0
 11
56.4959009272084
 21
119.936373989011
 31
0.0
  0
SPLINE
  5
130
330
1F
100
AcDbEntity
  8
0
  6
Continuous
 62
     7
100
AcDbSpline
210
0.0
220
0.0
230
1.0
 70
     8
 71
     3
 72
     9
 73
     5
 74
     3
 42
0.0000000001
 43
0.0000000001
 44
0.00000001
 40
0.0
 40
0.0
 40
0.0
 40
0.0
 40
2.22762656091705
 40
4.454778627769888
 40
4.454778627769888
 40
4.454778627769888
 40
4.454778627769888
 10
56.4959009272084
 20
245.654674492389
 30
0.0
 10
56.25769524088503
 20
244.9471707431142
 30
0.0
 10
55.78133460707674
 20
243.5323139459145
 30
0.0
 10
55.71120426808295
 20
242.0410678631582
 30
0.0
 10
55.6761428335
 20
241.2955242407
 30
0.0
 11
56.4959009272084
 21
245.654674492389
 31
0.0
 11
55.88286307759937
 21
243.5130618547139
 31
0.0
 11
55.6761428335
 21
241.2955242407
 31
0.0
  0
XLINE
  5
131
330
1F
100
AcDbEntity
  8
1
  6
DOT_CENTER
 62
     3
 60
     1
100
AcDbXline
 10
64.6761428335
 20
182.7955242407
 30
0.0
 11
1.0
 21
0.0
 31
0.0
  0
DIMENSION
  5
13D
330
1F
100
AcDbEntity
  8
1
100
AcDbDimension
  2
*D1
 10
99.7716376412606
 20
101.7955242407
 30
0.0
 11
96.0216376412606
 21
181.979346742729
 31
0.0
 70
    32
  1
<>
 71
     5
 42
-1.0
 53
90.0
  3
ME10_DIM_10
100
AcDbAlignedDimension
 13
78.6761428335
 23
263.7955242407
 33
0.0
 14
78.6761428335
 24
101.7955242407
 34
0.0
 50
90.0
100
AcDbRotatedDimension
  0
DIMENSION
  5
148
330
1F
100
AcDbEntity
  8
1
100
AcDbDimension
  2
*D2
 10
89.8446811899276
 20
258.7955242407
 30
0.0
 11
86.0946811899276
 21
182.074798247069
 31
0.0
 70
    32
  1
<>
 71
     5
 42
-1.0
 53
90.0
  3
ME10_DIM_11
100
AcDbAlignedDimension
 13
68.6761428335
 23
106.7955242407
 33
0.0
 14
68.6761428335
 24
258.7955242407
 34
0.0
 50
90.0
100
AcDbRotatedDimension
  0
DIMENSION
  5
153
330
1F
100
AcDbEntity
  8
1
100
AcDbDimension
  2
*D3
 10
45.8489290148681
 20
272.7955242407
 30
0.0
 11
42.0989290148681
 21
181.922324939627
 31
0.0
 70
    32
  1
<>
 71
     5
 42
-1.0
 53
90.0
  3
ME10_DIM_12
100
AcDbAlignedDimension
 13
67.6761428335
 23
92.7955242407
 33
0.0
 14
67.6761428335
 24
272.7955242407
 34
0.0
 50
90.0
100
AcDbRotatedDimension
  0
DIMENSION
  5
15E
330
1F
100
AcDbEntity
  8
1
100
AcDbDimension
  2
*D4
 10
55.67614283350001
 20
82.2693403392854
 30
0.0
 11
67.6761428335
 21
86.0193403392854
 31
0.0
 70
    32
  1
<>
 71
     5
 42
-1.0
 53
0.00013888888889
  3
ME10_DIM_13
100
AcDbAlignedDimension
 13
79.6761428335
 23
104.7955242407
 33
0.0
 14
55.6761428335
 24
104.7955242407
 34
0.0
100
AcDbRotatedDimension
  0
ENDSEC
  0
SECTION
  2
OBJECTS
  0
DICTIONARY
  5
C
330
0
100
AcDbDictionary
281
     1
  3
ACAD_GROUP
350
D
  3
ACAD_LAYOUT
350
1A
  3
ACAD_MLINESTYLE
350
17
  3
ACAD_PLOTSETTINGS
350
19
  3
ACAD_PLOTSTYLENAME
350
E
  0
DICTIONARY
  5
D
102
{ACAD_REACTORS
330
C
102
}
330
C
100
AcDbDictionary
281
     1
  0
DICTIONARY
  5
1A
102
{ACAD_REACTORS
330
C
102
}
330
C
100
AcDbDictionary
281
     1
  3
Layout1
350
1E
  3
Layout2
350
26
  3
Model
350
22
  0
DICTIONARY
  5
17
102
{ACAD_REACTORS
330
C
102
}
330
C
100
AcDbDictionary
281
     1
  3
Standard
350
18
  0
DICTIONARY
  5
19
102
{ACAD_REACTORS
330
C
102
}
330
C
100
AcDbDictionary
281
     1
  0
ACDBDICTIONARYWDFLT
  5
E
102
{ACAD_REACTORS
330
C
102
}
330
C
100
AcDbDictionary
281
     1
  3
Normal
350
F
100
AcDbDictionaryWithDefault
340
F
  0
LAYOUT
  5
1E
102
{ACAD_REACTORS
330
1A
102
}
330
1A
100
AcDbPlotSettings
  1

  2

  4

  6

 40
0.0
 41
0.0
 42
0.0
 43
0.0
 44
0.0
 45
0.0
 46
0.0
 47
0.0
 48
0.0
 49
0.0
140
0.0
141
0.0
142
1.0
143
1.0
 70
   688
 72
     0
 73
     0
 74
     5
  7

 75
    16
 76
     0
 77
     2
 78
   300
147
1.0
148
0.0
149
0.0
100
AcDbLayout
  1
Layout1
 70
     1
 71
     1
 10
0.0
 20
0.0
 11
0.0
 21
0.0
 12
0.0
 22
0.0
 32
0.0
 14
0.0
 24
0.0
 34
0.0
 15
0.0
 25
0.0
 35
0.0
146
0.0
 13
0.0
 23
0.0
 33
0.0
 16
1.0
 26
0.0
 36
0.0
 17
0.0
 27
1.0
 37
0.0
 76
     0
330
1B
  0
LAYOUT
  5
26
102
{ACAD_REACTORS
330
1A
102
}
330
1A
100
AcDbPlotSettings
  1

  2

  4

  6

 40
0.0
 41
0.0
 42
0.0
 43
0.0
 44
0.0
 45
0.0
 46
0.0
 47
0.0
 48
0.0
 49
0.0
140
0.0
141
0.0
142
1.0
143
1.0
 70
   688
 72
     0
 73
     0
 74
     5
  7

 75
    16
 76
     0
 77
     2
 78
   300
147
1.0
148
0.0
149
0.0
100
AcDbLayout
  1
Layout2
 70
     1
 71
     2
 10
0.0
 20
0.0
 11
0.0
 21
0.0
 12
0.0
 22
0.0
 32
0.0
 14
0.0
 24
0.0
 34
0.0
 15
0.0
 25
0.0
 35
0.0
146
0.0
 13
0.0
 23
0.0
 33
0.0
 16
1.0
 26
0.0
 36
0.0
 17
0.0
 27
1.0
 37
0.0
 76
     0
330
23
  0
LAYOUT
  5
22
102
{ACAD_REACTORS
330
1A
102
}
330
1A
100
AcDbPlotSettings
  1

  2

  4

  6

 40
0.0
 41
0.0
 42
0.0
 43
0.0
 44
0.0
 45
0.0
 46
0.0
 47
0.0
 48
0.0
 49
0.0
140
0.0
141
0.0
142
1.0
143
1.0
 70
  1712
 72
     0
 73
     0
 74
     0
  7

 75
     0
 76
     0
 77
     2
 78
   300
147
1.0
148
0.0
149
0.0
100
AcDbLayout
  1
Model
 70
     1
 71
     0
 10
0.0
 20
0.0
 11
0.0
 21
0.0
 12
0.0
 22
0.0
 32
0.0
 14
40.3489290148681
 24
80.2693403392854
 34
0.0
 15
101.7716376412606
 25
272.7955242407
 35
0.0
146
0.0
 13
0.0
 23
0.0
 33
0.0
 16
1.0
 26
0.0
 36
0.0
 17
0.0
 27
1.0
 37
0.0
 76
     0
330
1F
  0
MLINESTYLE
  5
18
102
{ACAD_REACTORS
330
17
102
}
330
17
100
AcDbMlineStyle
  2
Standard
 70
     0
  3

 62
   256
 51
90.0
 52
90.0
 71
     2
 49
0.5
 62
   256
  6
BYLAYER
 49
-0.5
 62
   256
  6
BYLAYER
  0
ACDBPLACEHOLDER
  5
F
102
{ACAD_REACTORS
330
E
102
}
330
E
  0
ENDSEC
  0
EOF
