  0
SECTION
  2
HEADER
  9
$ACADVER
  1
AC1018
  9
$ACADMAINTVER
 70
     0
  9
$DWGCODEPAGE
  3
ANSI_1252
  9
$INSBASE
 10
0.0
 20
0.0
 30
0.0
  9
$EXTMIN
 10
28.7727105436156
 20
86.6652358281036
 30
0.0
  9
$EXTMAX
 10
92.2367300625565
 20
288.8967581776
 30
0.0
  9
$LIMMIN
 10
0.0
 20
0.0
  9
$LIMMAX
 10
12.0
 20
9.0
  9
$ORTHOMODE
 70
     0
  9
$REGENMODE
 70
     1
  9
$FILLMODE
 70
     1
  9
$QTEXTMODE
 70
     0
  9
$MIRRTEXT
 70
     1
  9
$LTSCALE
 40
1.0
  9
$ATTMODE
 70
     1
  9
$TEXTSIZE
 40
0.2
  9
$TRACEWID
 40
0.05
  9
$TEXTSTYLE
  7
Standard
  9
$CLAYER
  8
0
  9
$CELTYPE
  6
ByLayer
  9
$CECOLOR
 62
   256
  9
$CELTSCALE
 40
1.0
  9
$DISPSILH
 70
     0
  9
$DIMSCALE
 40
1.0
  9
$DIMASZ
 40
0.18
  9
$DIMEXO
 40
0.0625
  9
$DIMDLI
 40
0.38
  9
$DIMRND
 40
0.0
  9
$DIMDLE
 40
0.0
  9
$DIMEXE
 40
0.18
  9
$DIMTP
 40
0.0
  9
$DIMTM
 40
0.0
  9
$DIMTXT
 40
0.18
  9
$DIMCEN
 40
0.09
  9
$DIMTSZ
 40
0.0
  9
$DIMTOL
 70
     0
  9
$DIMLIM
 70
     0
  9
$DIMTIH
 70
     1
  9
$DIMTOH
 70
     1
  9
$DIMSE1
 70
     0
  9
$DIMSE2
 70
     0
  9
$DIMTAD
 70
     0
  9
$DIMZIN
 70
     0
  9
$DIMBLK
  1

  9
$DIMASO
 70
     1
  9
$DIMSHO
 70
     1
  9
$DIMPOST
  1

  9
$DIMAPOST
  1

  9
$DIMALT
 70
     0
  9
$DIMALTD
 70
     2
  9
$DIMALTF
 40
25.4
  9
$DIMLFAC
 40
1.0
  9
$DIMTOFL
 70
     0
  9
$DIMTVP
 40
0.0
  9
$DIMTIX
 70
     0
  9
$DIMSOXD
 70
     0
  9
$DIMSAH
 70
     0
  9
$DIMBLK1
  1

  9
$DIMBLK2
  1

  9
$DIMSTYLE
  2
Standard
  9
$DIMCLRD
 70
     0
  9
$DIMCLRE
 70
     0
  9
$DIMCLRT
 70
     0
  9
$DIMTFAC
 40
1.0
  9
$DIMGAP
 40
0.09
  9
$DIMJUST
 70
     0
  9
$DIMSD1
 70
     0
  9
$DIMSD2
 70
     0
  9
$DIMTOLJ
 70
     1
  9
$DIMTZIN
 70
     0
  9
$DIMALTZ
 70
     0
  9
$DIMALTTZ
 70
     0
  9
$DIMUPT
 70
     0
  9
$DIMDEC
 70
     4
  9
$DIMTDEC
 70
     4
  9
$DIMALTU
 70
     2
  9
$DIMALTTD
 70
     2
  9
$DIMTXSTY
  7
Standard
  9
$DIMAUNIT
 70
     0
  9
$DIMADEC
 70
     0
  9
$DIMALTRND
 40
0.0
  9
$DIMAZIN
 70
     0
  9
$DIMDSEP
 70
    46
  9
$DIMATFIT
 70
     3
  9
$DIMFRAC
 70
     0
  9
$DIMLDRBLK
  1

  9
$DIMLUNIT
 70
     2
  9
$DIMLWD
 70
    -2
  9
$DIMLWE
 70
    -2
  9
$DIMTMOVE
 70
     0
  9
$LUNITS
 70
     2
  9
$LUPREC
 70
     4
  9
$SKETCHINC
 40
0.1
  9
$FILLETRAD
 40
0.5
  9
$AUNITS
 70
     0
  9
$AUPREC
 70
     0
  9
$MENU
  1
.
  9
$ELEVATION
 40
0.0
  9
$PELEVATION
 40
0.0
  9
$THICKNESS
 40
0.0
  9
$LIMCHECK
 70
     0
  9
$CHAMFERA
 40
0.5
  9
$CHAMFERB
 40
0.5
  9
$CHAMFERC
 40
1.0
  9
$CHAMFERD
 40
0.0
  9
$SKPOLY
 70
     0
  9
$TDCREATE
 40
2456629.348044236
  9
$TDUCREATE
 40
2456629.306377569
  9
$TDUPDATE
 40
2456629.348044248
  9
$TDUUPDATE
 40
2456629.306377581
  9
$TDINDWG
 40
0.0000000116
  9
$TDUSRTIMER
 40
0.0000000116
  9
$USRTIMER
 70
     1
  9
$ANGBASE
 50
0.0
  9
$ANGDIR
 70
     0
  9
$PDMODE
 70
     0
  9
$PDSIZE
 40
0.0
  9
$PLINEWID
 40
0.0
  9
$SPLFRAME
 70
     0
  9
$SPLINETYPE
 70
     6
  9
$SPLINESEGS
 70
     8
  9
$HANDSEED
  5
14E
  9
$SURFTAB1
 70
     6
  9
$SURFTAB2
 70
     6
  9
$SURFTYPE
 70
     6
  9
$SURFU
 70
     6
  9
$SURFV
 70
     6
  9
$UCSBASE
  2

  9
$UCSNAME
  2

  9
$UCSORG
 10
0.0
 20
0.0
 30
0.0
  9
$UCSXDIR
 10
1.0
 20
0.0
 30
0.0
  9
$UCSYDIR
 10
0.0
 20
1.0
 30
0.0
  9
$UCSORTHOREF
  2

  9
$UCSORTHOVIEW
 70
     0
  9
$UCSORGTOP
 10
0.0
 20
0.0
 30
0.0
  9
$UCSORGBOTTOM
 10
0.0
 20
0.0
 30
0.0
  9
$UCSORGLEFT
 10
0.0
 20
0.0
 30
0.0
  9
$UCSORGRIGHT
 10
0.0
 20
0.0
 30
0.0
  9
$UCSORGFRONT
 10
0.0
 20
0.0
 30
0.0
  9
$UCSORGBACK
 10
0.0
 20
0.0
 30
0.0
  9
$PUCSBASE
  2

  9
$PUCSNAME
  2

  9
$PUCSORG
 10
0.0
 20
0.0
 30
0.0
  9
$PUCSXDIR
 10
1.0
 20
0.0
 30
0.0
  9
$PUCSYDIR
 10
0.0
 20
1.0
 30
0.0
  9
$PUCSORTHOREF
  2

  9
$PUCSORTHOVIEW
 70
     0
  9
$PUCSORGTOP
 10
0.0
 20
0.0
 30
0.0
  9
$PUCSORGBOTTOM
 10
0.0
 20
0.0
 30
0.0
  9
$PUCSORGLEFT
 10
0.0
 20
0.0
 30
0.0
  9
$PUCSORGRIGHT
 10
0.0
 20
0.0
 30
0.0
  9
$PUCSORGFRONT
 10
0.0
 20
0.0
 30
0.0
  9
$PUCSORGBACK
 10
0.0
 20
0.0
 30
0.0
  9
$USERI1
 70
     0
  9
$USERI2
 70
     0
  9
$USERI3
 70
     0
  9
$USERI4
 70
     0
  9
$USERI5
 70
     0
  9
$USERR1
 40
14.5
  9
$USERR2
 40
0.0
  9
$USERR3
 40
0.0
  9
$USERR4
 40
0.0
  9
$USERR5
 40
0.0
  9
$WORLDVIEW
 70
     1
  9
$SHADEDGE
 70
     3
  9
$SHADEDIF
 70
    70
  9
$TILEMODE
 70
     1
  9
$MAXACTVP
 70
    64
  9
$PINSBASE
 10
0.0
 20
0.0
 30
0.0
  9
$PLIMCHECK
 70
     0
  9
$PEXTMIN
 10
1.00000000000000E+20
 20
1.00000000000000E+20
 30
1.00000000000000E+20
  9
$PEXTMAX
 10
-1.00000000000000E+20
 20
-1.00000000000000E+20
 30
-1.00000000000000E+20
  9
$PLIMMIN
 10
0.0
 20
0.0
  9
$PLIMMAX
 10
12.0
 20
9.0
  9
$UNITMODE
 70
     0
  9
$VISRETAIN
 70
     1
  9
$PLINEGEN
 70
     0
  9
$PSLTSCALE
 70
     1
  9
$TREEDEPTH
 70
  3020
  9
$CMLSTYLE
  2
Standard
  9
$CMLJUST
 70
     0
  9
$CMLSCALE
 40
1.0
  9
$PROXYGRAPHICS
 70
     1
  9
$MEASUREMENT
 70
     1
  9
$CELWEIGHT
370
    -1
  9
$ENDCAPS
280
     0
  9
$JOINSTYLE
280
     0
  9
$LWDISPLAY
290
     0
  9
$INSUNITS
 70
     1
  9
$HYPERLINKBASE
  1

  9
$STYLESHEET
  1

  9
$XEDIT
290
     1
  9
$CEPSNTYPE
380
     0
  9
$PSTYLEMODE
290
     1
  9
$FINGERPRINTGUID
  2
{8FB2974F-EB3C-4798-AD0A-F58BD2D675F7}
  9
$VERSIONGUID
  2
{FAEB1C32-E019-11D5-929B-00C0DF256EC4}
  9
$EXTNAMES
290
     1
  9
$PSVPSCALE
 40
0.0
  9
$OLESTARTUP
290
     0
  9
$SORTENTS
280
   127
  9
$INDEXCTL
280
     0
  9
$HIDETEXT
280
     1
  9
$XCLIPFRAME
290
     0
  9
$HALOGAP
280
     0
  9
$OBSCOLOR
 70
   257
  9
$OBSLTYPE
280
     0
  9
$INTERSECTIONDISPLAY
280
     0
  9
$INTERSECTIONCOLOR
 70
   257
  9
$DIMASSOC
280
     2
  9
$PROJECTNAME
  1

  0
ENDSEC
  0
SECTION
  2
CLASSES
  0
CLASS
  1
ACDBDICTIONARYWDFLT
  2
AcDbDictionaryWithDefault
  3
ObjectDBX Classes
 90
        0
 91
        3
280
     0
281
     0
  0
CLASS
  1

  2
exOdDbCircle
  3

 90
        0
 91
        3
280
     0
281
     1
  0
ENDSEC
  0
SECTION
  2
TABLES
  0
TABLE
  2
VPORT
  5
8
330
0
100
AcDbSymbolTable
 70
     1
  0
VPORT
  5
29
330
8
100
AcDbSymbolTableRecord
100
AcDbViewportTableRecord
  2
*Active
 70
     0
 10
0.0
 20
0.0
 11
1.0
 21
1.0
 12
60.50472030308605
 22
187.7809970028518
 13
0.0
 23
0.0
 14
0.5
 24
0.5
 15
0.5
 25
0.5
 16
0.0
 26
0.0
 36
1.0
 17
0.0
 27
0.0
 37
0.0
 40
222.4546745844461
 41
1.60267857142857
 42
50.0
 43
0.0
 44
0.0
 50
0.0
 51
0.0
 71
     0
 72
   100
 73
     1
 74
     3
 75
     0
 76
     0
 77
     0
 78
     0
281
     0
 65
     1
110
0.0
120
0.0
130
0.0
111
1.0
121
0.0
131
0.0
112
0.0
122
1.0
132
0.0
 79
     0
146
0.0
  0
ENDTAB
  0
TABLE
  2
LTYPE
  5
5
330
0
100
AcDbSymbolTable
 70
     8
  0
LTYPE
  5
14
330
5
100
AcDbSymbolTableRecord
100
AcDbLinetypeTableRecord
  2
ByBlock
 70
     0
  3

 72
    65
 73
     0
 40
0.0
  0
LTYPE
  5
15
330
5
100
AcDbSymbolTableRecord
100
AcDbLinetypeTableRecord
  2
ByLayer
 70
     0
  3

 72
    65
 73
     0
 40
0.0
  0
LTYPE
  5
16
330
5
100
AcDbSymbolTableRecord
100
AcDbLinetypeTableRecord
  2
Continuous
 70
     0
  3
Solid line
 72
    65
 73
     0
 40
0.0
  0
LTYPE
  5
2A
330
5
100
AcDbSymbolTableRecord
100
AcDbLinetypeTableRecord
  2
DASHED
 70
     0
  3
Dashed
 72
    65
 73
     2
 40
15.0
 49
7.0
 74
     0
 49
-8.0
 74
     0
  0
LTYPE
  5
2B
330
5
100
AcDbSymbolTableRecord
100
AcDbLinetypeTableRecord
  2
DOTTED
 70
     0
  3
Dotted
 72
    65
 73
     2
 40
1.0
 49
0.0
 74
     0
 49
-1.0
 74
     0
  0
LTYPE
  5
2C
330
5
100
AcDbSymbolTableRecord
100
AcDbLinetypeTableRecord
  2
DOT_CENTER
 70
     0
  3
Dot_Center
 72
    65
 73
     4
 40
14.0
 49
12.0
 74
     0
 49
-1.0
 74
     0
 49
0.0
 74
     0
 49
-1.0
 74
     0
  0
LTYPE
  5
2D
330
5
100
AcDbSymbolTableRecord
100
AcDbLinetypeTableRecord
  2
LONG_DASHED
 70
     0
  3
Long_Dashed
 72
    65
 73
     2
 40
15.0
 49
10.0
 74
     0
 49
-5.0
 74
     0
  0
LTYPE
  5
2E
330
5
100
AcDbSymbolTableRecord
100
AcDbLinetypeTableRecord
  2
DASH_CENTER
 70
     0
  3
Dash_Center
 72
    65
 73
     4
 40
14.0
 49
11.0
 74
     0
 49
-1.0
 74
     0
 49
1.0
 74
     0
 49
-1.0
 74
     0
  0
LTYPE
  5
2F
330
5
100
AcDbSymbolTableRecord
100
AcDbLinetypeTableRecord
  2
PHANTOM
 70
     0
  3
Phantom
 72
    65
 73
     6
 40
13.0
 49
10.0
 74
     0
 49
-1.0
 74
     0
 49
0.0
 74
     0
 49
-1.0
 74
     0
 49
0.0
 74
     0
 49
-1.0
 74
     0
  0
LTYPE
  5
30
330
5
100
AcDbSymbolTableRecord
100
AcDbLinetypeTableRecord
  2
CENTER_DASH_DASH
 70
     0
  3
Center_Dash_Dash
 72
    65
 73
     6
 40
14.0
 49
9.0
 74
     0
 49
-1.0
 74
     0
 49
1.0
 74
     0
 49
-1.0
 74
     0
 49
1.0
 74
     0
 49
-1.0
 74
     0
  0
ENDTAB
  0
TABLE
  2
LAYER
  5
2
330
0
100
AcDbSymbolTable
 70
     3
  0
LAYER
  5
10
330
2
100
AcDbSymbolTableRecord
100
AcDbLayerTableRecord
  2
0
 70
     0
 62
     7
  6
Continuous
370
    -3
390
F
  0
LAYER
  5
31
330
2
100
AcDbSymbolTableRecord
100
AcDbLayerTableRecord
  2
1
 70
     0
 62
     7
  6
Continuous
370
    -3
390
F
  0
LAYER
  5
32
330
2
100
AcDbSymbolTableRecord
100
AcDbLayerTableRecord
  2
A_ACHSEN
 70
     0
 62
     7
  6
Continuous
370
    -3
390
F
  0
ENDTAB
  0
TABLE
  2
STYLE
  5
3
330
0
100
AcDbSymbolTable
 70
     2
  0
STYLE
  5
11
330
3
100
AcDbSymbolTableRecord
100
AcDbTextStyleTableRecord
  2
Standard
 70
     0
 40
0.0
 41
1.0
 50
0.0
 71
     0
 42
0.2
  3
txt
  4

  0
STYLE
  5
127
330
3
100
AcDbSymbolTableRecord
100
AcDbTextStyleTableRecord
  2
CONVERTER_11
 70
     0
 40
0.0
 41
0.9
 50
0.0
 71
     0
 42
0.2
  3
txt.shx
  4

  0
ENDTAB
  0
TABLE
  2
VIEW
  5
6
330
0
100
AcDbSymbolTable
 70
     0
  0
ENDTAB
  0
TABLE
  2
UCS
  5
7
330
0
100
AcDbSymbolTable
 70
     0
  0
ENDTAB
  0
TABLE
  2
APPID
  5
9
330
0
100
AcDbSymbolTable
 70
     1
  0
APPID
  5
12
330
9
100
AcDbSymbolTableRecord
100
AcDbRegAppTableRecord
  2
ACAD
 70
     0
  0
ENDTAB
  0
TABLE
  2
DIMSTYLE
  5
A
330
0
100
AcDbSymbolTable
 70
     5
100
AcDbDimStyleTable
  0
DIMSTYLE
105
27
330
A
100
AcDbSymbolTableRecord
100
AcDbDimStyleTableRecord
  2
Standard
 70
     0
340
11
  0
DIMSTYLE
105
12B
102
{ACAD_REACTORS
330
12C
102
}
330
A
100
AcDbSymbolTableRecord
100
AcDbDimStyleTableRecord
  2
ME10_DIM_10
 70
     0
 41
3.5
 42
0.0
 44
2.0
 73
     0
 74
     0
 77
     1
 78
     8
140
3.5
147
2.0
172
     1
173
     1
176
     2
177
     2
178
     2
271
     3
340
127
  0
DIMSTYLE
105
136
102
{ACAD_REACTORS
330
137
102
}
330
A
100
AcDbSymbolTableRecord
100
AcDbDimStyleTableRecord
  2
ME10_DIM_11
 70
     0
 41
3.5
 42
0.0
 44
2.0
 73
     0
 74
     0
 77
     1
 78
     8
140
3.5
147
2.0
172
     1
173
     1
176
     2
177
     2
178
     2
271
     3
340
127
  0
DIMSTYLE
105
141
102
{ACAD_REACTORS
330
142
102
}
330
A
100
AcDbSymbolTableRecord
100
AcDbDimStyleTableRecord
  2
ME10_DIM_12
 70
     0
 41
3.5
 42
0.0
 44
2.0
 73
     0
 74
     0
 77
     1
 78
     8
140
3.5
147
2.0
172
     1
173
     1
176
     2
177
     2
178
     2
271
     3
340
127
  0
DIMSTYLE
105
14C
102
{ACAD_REACTORS
330
14D
102
}
330
A
100
AcDbSymbolTableRecord
100
AcDbDimStyleTableRecord
  2
ME10_DIM_13
 70
     0
 41
3.5
 42
0.0
 44
2.0
 73
     0
 74
     0
 77
     1
 78
     8
140
3.5
147
2.0
172
     1
173
     1
176
     2
177
     2
178
     2
271
     3
340
127
  0
ENDTAB
  0
TABLE
  2
BLOCK_RECORD
  5
1
330
0
100
AcDbSymbolTable
 70
     5
  0
BLOCK_RECORD
  5
1F
330
1
100
AcDbSymbolTableRecord
100
AcDbBlockTableRecord
  2
*Model_Space
340
22
  0
BLOCK_RECORD
  5
1B
330
1
100
AcDbSymbolTableRecord
100
AcDbBlockTableRecord
  2
*Paper_Space
340
1E
  0
BLOCK_RECORD
  5
23
330
1
100
AcDbSymbolTableRecord
100
AcDbBlockTableRecord
  2
*Paper_Space0
340
26
  0
BLOCK_RECORD
  5
121
330
1
100
AcDbSymbolTableRecord
100
AcDbBlockTableRecord
  2
*D1
340
0
  0
BLOCK_RECORD
  5
12D
330
1
100
AcDbSymbolTableRecord
100
AcDbBlockTableRecord
  2
*D2
340
0
  0
BLOCK_RECORD
  5
138
330
1
100
AcDbSymbolTableRecord
100
AcDbBlockTableRecord
  2
*D3
340
0
  0
BLOCK_RECORD
  5
143
330
1
100
AcDbSymbolTableRecord
100
AcDbBlockTableRecord
  2
*D4
340
0
  0
ENDTAB
  0
ENDSEC
  0
SECTION
  2
BLOCKS
  0
BLOCK
  5
20
330
1F
100
AcDbEntity
  8
0
100
AcDbBlockBegin
  2
*Model_Space
 70
     0
 71
     0
 10
0.0
 20
0.0
 30
0.0
  3
*Model_Space
  1

  0
ENDBLK
  5
21
330
1F
100
AcDbEntity
  8
0
100
AcDbBlockEnd
  0
BLOCK
  5
1C
330
1B
100
AcDbEntity
 67
     1
  8
0
100
AcDbBlockBegin
  2
*Paper_Space
 70
     0
 71
     0
 10
0.0
 20
0.0
 30
0.0
  3
*Paper_Space
  1

  0
ENDBLK
  5
1D
330
1B
100
AcDbEntity
 67
     1
  8
0
100
AcDbBlockEnd
  0
BLOCK
  5
24
330
23
100
AcDbEntity
  8
0
100
AcDbBlockBegin
  2
*Paper_Space0
 70
     0
 71
     0
 10
0.0
 20
0.0
 30
0.0
  3
*Paper_Space0
  1

  0
ENDBLK
  5
25
330
23
100
AcDbEntity
  8
0
100
AcDbBlockEnd
  0
BLOCK
  5
129
330
121
100
AcDbEntity
  8
0
100
AcDbBlockBegin
  2
*D1
 70
     1
 71
     0
 10
0.0
 20
0.0
 30
0.0
  3
*D1
  1

  0
LINE
  5
122
330
121
100
AcDbEntity
  8
1
  6
Continuous
 62
     2
100
AcDbLine
 10
34.2727105436156
 20
258.8967581776
 30
0.0
 11
34.2727105436156
 21
138.8967581776
 31
0.0
  0
LINE
  5
123
330
121
100
AcDbEntity
  8
1
  6
Continuous
 62
     2
100
AcDbLine
 10
46.9420473456
 20
258.8967581776
 30
0.0
 11
32.2727105436156
 21
258.8967581776
 31
0.0
  0
LINE
  5
124
330
121
100
AcDbEntity
  8
1
  6
Continuous
 62
     2
100
AcDbLine
 10
46.9420473456
 20
138.8967581776
 30
0.0
 11
32.2727105436156
 21
138.8967581776
 31
0.0
  0
SOLID
  5
125
330
121
100
AcDbEntity
  8
1
 62
     2
100
AcDbTrace
 10
34.73349428517149
 20
255.3967581776
 30
0.0
 11
33.81192680205972
 21
255.3967581776
 31
0.0
 12
34.2727105436156
 22
258.8967581776
 32
0.0
 13
34.2727105436156
 23
258.8967581776
 33
0.0
  0
SOLID
  5
126
330
121
100
AcDbEntity
  8
1
 62
     2
100
AcDbTrace
 10
33.81192680205972
 20
142.3967581776
 30
0.0
 11
34.73349428517149
 21
142.3967581776
 31
0.0
 12
34.2727105436156
 22
138.8967581776
 32
0.0
 13
34.2727105436156
 23
138.8967581776
 33
0.0
  0
MTEXT
  5
128
330
121
100
AcDbEntity
  8
1
 62
     2
100
AcDbMText
 10
32.2727105436156
 20
192.75465999102
 30
0.0
 40
3.5
 41
0.0
 71
     7
 72
     1
  1
120
  7
CONVERTER_11
 11
0.0
 21
1.0
 31
0.0
 73
     1
 44
0.60024009603842
  0
ENDBLK
  5
12A
330
121
100
AcDbEntity
  8
0
100
AcDbBlockEnd
  0
BLOCK
  5
134
330
12D
100
AcDbEntity
  8
0
100
AcDbBlockBegin
  2
*D2
 70
     1
 71
     0
 10
0.0
 20
0.0
 30
0.0
  3
*D2
  1

  0
LINE
  5
12E
330
12D
100
AcDbEntity
  8
1
  6
Continuous
 62
     2
100
AcDbLine
 10
90.2367300625565
 20
288.8967581776
 30
0.0
 11
90.2367300625565
 21
108.8967581776
 31
0.0
  0
LINE
  5
12F
330
12D
100
AcDbEntity
  8
1
  6
Continuous
 62
     2
100
AcDbLine
 10
63.9420473456
 20
288.8967581776
 30
0.0
 11
92.2367300625565
 21
288.8967581776
 31
0.0
  0
LINE
  5
130
330
12D
100
AcDbEntity
  8
1
  6
Continuous
 62
     2
100
AcDbLine
 10
63.9420473456
 20
108.8967581776
 30
0.0
 11
92.2367300625565
 21
108.8967581776
 31
0.0
  0
SOLID
  5
131
330
12D
100
AcDbEntity
  8
1
 62
     2
100
AcDbTrace
 10
90.69751380411239
 20
285.3967581776
 30
0.0
 11
89.77594632100062
 21
285.3967581776
 31
0.0
 12
90.2367300625565
 22
288.8967581776
 32
0.0
 13
90.2367300625565
 23
288.8967581776
 33
0.0
  0
SOLID
  5
132
330
12D
100
AcDbEntity
  8
1
 62
     2
100
AcDbTrace
 10
89.77594632100062
 20
112.3967581776
 30
0.0
 11
90.69751380411239
 21
112.3967581776
 31
0.0
 12
90.2367300625565
 22
108.8967581776
 32
0.0
 13
90.2367300625565
 23
108.8967581776
 33
0.0
  0
MTEXT
  5
133
330
12D
100
AcDbEntity
  8
1
 62
     2
100
AcDbMText
 10
88.2367300625565
 20
195.05420339581
 30
0.0
 40
3.5
 41
0.0
 71
     7
 72
     1
  1
180
  7
CONVERTER_11
 11
0.0
 21
1.0
 31
0.0
 73
     1
 44
0.60024009603842
  0
ENDBLK
  5
135
330
12D
100
AcDbEntity
  8
0
100
AcDbBlockEnd
  0
BLOCK
  5
13F
330
138
100
AcDbEntity
  8
0
100
AcDbBlockBegin
  2
*D3
 70
     1
 71
     0
 10
0.0
 20
0.0
 30
0.0
  3
*D3
  1

  0
LINE
  5
139
330
138
100
AcDbEntity
  8
1
  6
Continuous
 62
     2
100
AcDbLine
 10
51.9420473456
 20
98.358707652549
 30
0.0
 11
75.9420473456
 21
98.358707652549
 31
0.0
  0
LINE
  5
13A
330
138
100
AcDbEntity
  8
1
  6
Continuous
 62
     2
100
AcDbLine
 10
51.9420473456
 20
120.8967581776
 30
0.0
 11
51.9420473456
 21
96.358707652549
 31
0.0
  0
LINE
  5
13B
330
138
100
AcDbEntity
  8
1
  6
Continuous
 62
     2
100
AcDbLine
 10
75.9420473456
 20
120.8967581776
 30
0.0
 11
75.9420473456
 21
96.358707652549
 31
0.0
  0
SOLID
  5
13C
330
138
100
AcDbEntity
  8
1
 62
     2
100
AcDbTrace
 10
55.4420473456
 20
98.81949139410489
 30
0.0
 11
55.4420473456
 21
97.89792391099311
 31
0.0
 12
51.9420473456
 22
98.358707652549
 32
0.0
 13
51.9420473456
 23
98.358707652549
 33
0.0
  0
SOLID
  5
13D
330
138
100
AcDbEntity
  8
1
 62
     2
100
AcDbTrace
 10
72.4420473456
 20
97.89792391099311
 30
0.0
 11
72.4420473456
 21
98.81949139410489
 31
0.0
 12
75.9420473456
 22
98.358707652549
 32
0.0
 13
75.9420473456
 23
98.358707652549
 33
0.0
  0
MTEXT
  5
13E
330
138
100
AcDbEntity
  8
1
 62
     2
100
AcDbMText
 10
61.3170473456
 20
100.358707652549
 30
0.0
 40
3.5
 41
0.0
 71
     7
 72
     1
  1
24
  7
CONVERTER_11
 11
0.9999999999970621
 21
2.424068405545307E-6
 31
0.0
 73
     1
 44
0.60024009603842
  0
ENDBLK
  5
140
330
138
100
AcDbEntity
  8
0
100
AcDbBlockEnd
  0
BLOCK
  5
14A
330
143
100
AcDbEntity
  8
0
100
AcDbBlockBegin
  2
*D4
 70
     1
 71
     0
 10
0.0
 20
0.0
 30
0.0
  3
*D4
  1

  0
LINE
  5
144
330
143
100
AcDbEntity
  8
1
  6
Continuous
 62
     2
100
AcDbLine
 10
46.9420473456
 20
88.6652358281036
 30
0.0
 11
75.9420473456
 21
88.6652358281036
 31
0.0
  0
LINE
  5
145
330
143
100
AcDbEntity
  8
1
  6
Continuous
 62
     2
100
AcDbLine
 10
46.9420473456
 20
138.8967581776
 30
0.0
 11
46.9420473456
 21
86.6652358281036
 31
0.0
  0
LINE
  5
146
330
143
100
AcDbEntity
  8
1
  6
Continuous
 62
     2
100
AcDbLine
 10
75.9420473456
 20
120.8967581776
 30
0.0
 11
75.9420473456
 21
86.6652358281036
 31
0.0
  0
SOLID
  5
147
330
143
100
AcDbEntity
  8
1
 62
     2
100
AcDbTrace
 10
50.4420473456
 20
89.12601956965949
 30
0.0
 11
50.4420473456
 21
88.20445208654772
 31
0.0
 12
46.9420473456
 22
88.6652358281036
 32
0.0
 13
46.9420473456
 23
88.6652358281036
 33
0.0
  0
SOLID
  5
148
330
143
100
AcDbEntity
  8
1
 62
     2
100
AcDbTrace
 10
72.4420473456
 20
88.20445208654772
 30
0.0
 11
72.4420473456
 21
89.12601956965949
 31
0.0
 12
75.9420473456
 22
88.6652358281036
 32
0.0
 13
75.9420473456
 23
88.6652358281036
 33
0.0
  0
MTEXT
  5
149
330
143
100
AcDbEntity
  8
1
 62
     2
100
AcDbMText
 10
59.1196389170863
 20
90.6652358281036
 30
0.0
 40
3.5
 41
0.0
 71
     7
 72
     1
  1
29
  7
CONVERTER_11
 11
0.9999999999970621
 21
2.424068405545307E-6
 31
0.0
 73
     1
 44
0.60024009603842
  0
ENDBLK
  5
14B
330
143
100
AcDbEntity
  8
0
100
AcDbBlockEnd
  0
ENDSEC
  0
SECTION
  2
ENTITIES
  0
POINT
  5
33
330
1F
100
AcDbEntity
  8
1
 62
     3
 60
     1
100
AcDbPoint
 10
50.9420473456
 20
258.8967581776
 30
0.0
  0
POINT
  5
34
330
1F
100
AcDbEntity
  8
1
 62
     3
 60
     1
100
AcDbPoint
 10
50.9420473456
 20
138.8967581776
 30
0.0
  0
POINT
  5
35
330
1F
100
AcDbEntity
  8
1
 62
     3
 60
     1
100
AcDbPoint
 10
46.9420473456
 20
153.8967581776
 30
0.0
  0
POINT
  5
36
330
1F
100
AcDbEntity
  8
1
 62
     3
 60
     1
100
AcDbPoint
 10
46.9420473456
 20
243.8967581776
 30
0.0
  0
LINE
  5
37
330
1F
100
AcDbEntity
  8
0
  6
Continuous
 62
     7
100
AcDbLine
 10
55.7166120968
 20
274.1058822739
 30
0.0
 11
55.2712287213
 21
273.388108539
 31
0.0
  0
LINE
  5
38
330
1F
100
AcDbEntity
  8
0
  6
Continuous
 62
     7
100
AcDbLine
 10
55.2712287213
 20
124.4054078161
 30
0.0
 11
55.7166120968
 21
123.6876340812
 31
0.0
  0
LINE
  5
39
330
1F
100
AcDbEntity
  8
0
  6
Continuous
 62
     7
100
AcDbLine
 10
58.4131669458
 20
278.8301051782
 30
0.0
 11
58.014248345
 21
278.0855049931
 31
0.0
  0
LINE
  5
3A
330
1F
100
AcDbEntity
  8
0
  6
Continuous
 62
     7
100
AcDbLine
 10
59.4709277453
 20
270.963411177
 30
0.0
 11
59.8698463462
 21
271.708011362
 31
0.0
  0
LINE
  5
3B
330
1F
100
AcDbEntity
  8
0
  6
Continuous
 62
     7
100
AcDbLine
 10
62.1674825944
 20
275.6876340812
 30
0.0
 11
62.6128659699
 21
276.4054078161
 31
0.0
  0
LINE
  5
3C
330
1F
100
AcDbEntity
  8
0
  6
Continuous
 62
     7
100
AcDbLine
 10
65.7166120968
 20
279.1058822739
 30
0.0
 11
65.2712287213
 21
278.388108539
 31
0.0
  0
LINE
  5
3D
330
1F
100
AcDbEntity
  8
0
  6
Continuous
 62
     7
100
AcDbLine
 10
71.2396835938
 20
115.4988872657
 30
0.0
 11
72.0839855701
 21
115.4720608155
 31
0.0
  0
LINE
  5
3E
330
1F
100
AcDbEntity
  8
0
  6
Continuous
 62
     7
100
AcDbLine
 10
62.6128659699
 20
121.388108539
 30
0.0
 11
62.1674825944
 21
122.1058822739
 31
0.0
  0
LINE
  5
3F
330
1F
100
AcDbEntity
  8
0
  6
Continuous
 62
     7
100
AcDbLine
 10
65.2712287213
 20
119.4054078161
 30
0.0
 11
65.7166120968
 21
118.6876340812
 31
0.0
  0
LINE
  5
40
330
1F
100
AcDbEntity
  8
0
  6
Continuous
 62
     7
100
AcDbLine
 10
58.014248345
 20
119.708011362
 30
0.0
 11
58.4131669458
 21
118.963411177
 31
0.0
  0
LINE
  5
41
330
1F
100
AcDbEntity
  8
0
  6
Continuous
 62
     7
100
AcDbLine
 10
59.8698463462
 20
126.0855049931
 30
0.0
 11
59.4709277453
 21
126.8301051782
 31
0.0
  0
LINE
  5
42
330
1F
100
AcDbEntity
  8
0
  6
Continuous
 62
     7
100
AcDbLine
 10
68.4131669458
 20
283.8301051782
 30
0.0
 11
68.014248345
 21
283.0855049931
 31
0.0
  0
LINE
  5
43
330
1F
100
AcDbEntity
  8
0
  6
Continuous
 62
     7
100
AcDbLine
 10
69.4709277453
 20
275.963411177
 30
0.0
 11
69.8698463462
 21
276.708011362
 31
0.0
  0
LINE
  5
44
330
1F
100
AcDbEntity
  8
0
  6
Continuous
 62
     7
100
AcDbLine
 10
72.1674825944
 20
280.6876340812
 30
0.0
 11
72.6128659699
 21
281.4054078161
 31
0.0
  0
LINE
  5
45
330
1F
100
AcDbEntity
  8
0
  6
Continuous
 62
     7
100
AcDbLine
 10
65.800109121
 20
115.4720608155
 30
0.0
 11
66.6444110974
 21
115.4988872657
 31
0.0
  0
LINE
  5
46
330
1F
100
AcDbEntity
  8
0
  6
Continuous
 62
     7
100
AcDbLine
 10
72.0839855701
 20
120.3214555396
 30
0.0
 11
71.2396835938
 21
120.2946290895
 31
0.0
  0
LINE
  5
47
330
1F
100
AcDbEntity
  8
0
  6
Continuous
 62
     7
100
AcDbLine
 10
55.800109121
 20
120.4720608155
 30
0.0
 11
56.6444110974
 21
120.4988872657
 31
0.0
  0
LINE
  5
48
330
1F
100
AcDbEntity
  8
A_ACHSEN
  6
DOT_CENTER
 62
     2
100
AcDbLine
 10
68.9420473456
 20
117.8967581776
 30
0.0
 11
60.6920473456
 21
117.8967581776
 31
0.0
  0
LINE
  5
49
330
1F
100
AcDbEntity
  8
A_ACHSEN
  6
DOT_CENTER
 62
     2
100
AcDbLine
 10
68.9420473456
 20
117.8967581776
 30
0.0
 11
77.1920473456
 21
117.8967581776
 31
0.0
  0
LINE
  5
4A
330
1F
100
AcDbEntity
  8
A_ACHSEN
  6
DOT_CENTER
 62
     2
100
AcDbLine
 10
58.9420473456
 20
122.8967581776
 30
0.0
 11
50.6920473456
 21
122.8967581776
 31
0.0
  0
LINE
  5
4B
330
1F
100
AcDbEntity
  8
A_ACHSEN
  6
DOT_CENTER
 62
     2
100
AcDbLine
 10
58.9420473456
 20
122.8967581776
 30
0.0
 11
67.1920473456
 21
122.8967581776
 31
0.0
  0
LINE
  5
4C
330
1F
100
AcDbEntity
  8
0
  6
Continuous
 62
     7
100
AcDbLine
 10
66.6444110974
 20
120.2946290895
 30
0.0
 11
65.800109121
 21
120.3214555396
 31
0.0
  0
LINE
  5
4D
330
1F
100
AcDbEntity
  8
0
  6
Continuous
 62
     7
100
AcDbLine
 10
61.2396835938
 20
120.4988872657
 30
0.0
 11
62.0839855701
 21
120.4720608155
 31
0.0
  0
LINE
  5
4E
330
1F
100
AcDbEntity
  8
0
  6
Continuous
 62
     7
100
AcDbLine
 10
56.6444110974
 20
125.2946290895
 30
0.0
 11
55.800109121
 21
125.3214555396
 31
0.0
  0
LINE
  5
4F
330
1F
100
AcDbEntity
  8
0
  6
Continuous
 62
     7
100
AcDbLine
 10
72.6128659699
 20
116.388108539
 30
0.0
 11
72.1674825944
 21
117.1058822739
 31
0.0
  0
LINE
  5
50
330
1F
100
AcDbEntity
  8
0
  6
Continuous
 62
     7
100
AcDbLine
 10
68.014248345
 20
114.708011362
 30
0.0
 11
68.4131669458
 21
113.963411177
 31
0.0
  0
LINE
  5
51
330
1F
100
AcDbEntity
  8
0
  6
Continuous
 62
     7
100
AcDbLine
 10
69.8698463462
 20
121.0855049931
 30
0.0
 11
69.4709277453
 21
121.8301051782
 31
0.0
  0
LINE
  5
52
330
1F
100
AcDbEntity
  8
0
  6
Continuous
 62
     7
100
AcDbLine
 10
46.9420473456
 20
138.8967581776
 30
0.0
 11
46.9420473456
 21
153.8967581776
 31
0.0
  0
LINE
  5
53
330
1F
100
AcDbEntity
  8
0
  6
Continuous
 62
     7
100
AcDbLine
 10
60.1143771664
 20
246.6291063095
 30
0.0
 11
59.3622596285
 21
245.4423346
 31
0.0
  0
LINE
  5
54
330
1F
100
AcDbEntity
  8
0
  6
Continuous
 62
     7
100
AcDbLine
 10
65.3964709232
 20
251.4765458947
 30
0.0
 11
64.2096992136
 21
250.7244283568
 31
0.0
  0
LINE
  5
55
330
1F
100
AcDbEntity
  8
0
  6
Continuous
 62
     7
100
AcDbLine
 10
62.0839855701
 20
125.3214555396
 30
0.0
 11
61.2396835938
 21
125.2946290895
 31
0.0
  0
LINE
  5
56
330
1F
100
AcDbEntity
  8
0
  6
Continuous
 62
     7
100
AcDbLine
 10
64.2096992136
 20
147.0690879984
 30
0.0
 11
65.3964709232
 21
146.3169704605
 31
0.0
  0
LINE
  5
57
330
1F
100
AcDbEntity
  8
0
  6
Continuous
 62
     7
100
AcDbLine
 10
59.3622596285
 20
152.3511817552
 30
0.0
 11
60.1143771664
 21
151.1644100456
 31
0.0
  0
LINE
  5
58
330
1F
100
AcDbEntity
  8
0
  6
Continuous
 62
     7
100
AcDbLine
 10
51.9420473456
 20
276.8967581776
 30
0.0
 11
51.9420473456
 21
258.8967581776
 31
0.0
  0
LINE
  5
59
330
1F
100
AcDbEntity
  8
0
  6
Continuous
 62
     7
100
AcDbLine
 10
51.9420473456
 20
138.8967581776
 30
0.0
 11
51.9420473456
 21
120.8967581776
 31
0.0
  0
LINE
  5
5A
330
1F
100
AcDbEntity
  8
0
  6
Continuous
 62
     7
100
AcDbLine
 10
61.7320811689
 20
251.1635899032
 30
0.0
 11
61.4247342566
 21
249.7925881683
 31
0.0
  0
LINE
  5
5B
330
1F
100
AcDbEntity
  8
0
  6
Continuous
 62
     7
100
AcDbLine
 10
67.7697175248
 20
247.1644100456
 30
0.0
 11
68.5218350627
 21
248.3511817552
 31
0.0
  0
LINE
  5
5C
330
1F
100
AcDbEntity
  8
0
  6
Continuous
 62
     7
100
AcDbLine
 10
62.487623768
 20
242.3169704605
 30
0.0
 11
63.6743954775
 21
243.0690879984
 31
0.0
  0
LINE
  5
5D
330
1F
100
AcDbEntity
  8
0
  6
Continuous
 62
     7
100
AcDbLine
 10
46.9420473456
 20
138.8967581776
 30
0.0
 11
50.9420473456
 21
138.8967581776
 31
0.0
  0
LINE
  5
5E
330
1F
100
AcDbEntity
  8
0
  6
Continuous
 62
     7
100
AcDbLine
 10
59.67521562
 20
148.6867920009
 30
0.0
 11
61.0462173548
 21
148.3794450886
 31
0.0
  0
LINE
  5
5F
330
1F
100
AcDbEntity
  8
0
  6
Continuous
 62
     7
100
AcDbLine
 10
63.6743954775
 20
154.7244283568
 30
0.0
 11
62.487623768
 21
155.4765458947
 31
0.0
  0
LINE
  5
60
330
1F
100
AcDbEntity
  8
0
  6
Continuous
 62
     7
100
AcDbLine
 10
68.5218350627
 20
149.4423346
 30
0.0
 11
67.7697175248
 21
150.6291063095
 31
0.0
  0
LINE
  5
61
330
1F
100
AcDbEntity
  8
0
  6
Continuous
 62
     7
100
AcDbLine
 10
61.4247342566
 20
148.0009281868
 30
0.0
 11
61.7320811689
 21
146.629926452
 31
0.0
  0
LINE
  5
62
330
1F
100
AcDbEntity
  8
A_ACHSEN
  6
DOT_CENTER
 62
     2
100
AcDbLine
 10
58.9420473456
 20
274.8967581776
 30
0.0
 11
58.9420473456
 21
266.6467581776
 31
0.0
  0
LINE
  5
63
330
1F
100
AcDbEntity
  8
A_ACHSEN
  6
DOT_CENTER
 62
     2
100
AcDbLine
 10
58.9420473456
 20
122.8967581776
 30
0.0
 11
58.9420473456
 21
114.6467581776
 31
0.0
  0
LINE
  5
64
330
1F
100
AcDbEntity
  8
A_ACHSEN
  6
DOT_CENTER
 62
     2
100
AcDbLine
 10
58.9420473456
 20
122.8967581776
 30
0.0
 11
58.9420473456
 21
131.1467581776
 31
0.0
  0
LINE
  5
65
330
1F
100
AcDbEntity
  8
A_ACHSEN
  6
DOT_CENTER
 62
     2
100
AcDbLine
 10
58.9420473456
 20
274.8967581776
 30
0.0
 11
58.9420473456
 21
283.1467581776
 31
0.0
  0
LINE
  5
66
330
1F
100
AcDbEntity
  8
A_ACHSEN
  6
DOT_CENTER
 62
     2
100
AcDbLine
 10
60.9420473456
 20
226.8967581776
 30
0.0
 11
60.9420473456
 21
218.6467581776
 31
0.0
  0
LINE
  5
67
330
1F
100
AcDbEntity
  8
A_ACHSEN
  6
DOT_CENTER
 62
     2
100
AcDbLine
 10
60.9420473456
 20
198.8967581776
 30
0.0
 11
60.9420473456
 21
190.6467581776
 31
0.0
  0
LINE
  5
68
330
1F
100
AcDbEntity
  8
A_ACHSEN
  6
DOT_CENTER
 62
     2
100
AcDbLine
 10
60.9420473456
 20
170.8967581776
 30
0.0
 11
60.9420473456
 21
162.6467581776
 31
0.0
  0
LINE
  5
69
330
1F
100
AcDbEntity
  8
A_ACHSEN
  6
DOT_CENTER
 62
     2
100
AcDbLine
 10
60.9420473456
 20
170.8967581776
 30
0.0
 11
60.9420473456
 21
179.1467581776
 31
0.0
  0
LINE
  5
6A
330
1F
100
AcDbEntity
  8
A_ACHSEN
  6
DOT_CENTER
 62
     2
100
AcDbLine
 10
60.9420473456
 20
198.8967581776
 30
0.0
 11
60.9420473456
 21
207.1467581776
 31
0.0
  0
LINE
  5
6B
330
1F
100
AcDbEntity
  8
A_ACHSEN
  6
DOT_CENTER
 62
     2
100
AcDbLine
 10
60.9420473456
 20
226.8967581776
 30
0.0
 11
60.9420473456
 21
235.1467581776
 31
0.0
  0
LINE
  5
6C
330
1F
100
AcDbEntity
  8
0
  6
Continuous
 62
     7
100
AcDbLine
 10
66.1520135223
 20
242.629926452
 30
0.0
 11
66.4593604345
 21
244.0009281868
 31
0.0
  0
LINE
  5
6D
330
1F
100
AcDbEntity
  8
A_ACHSEN
  6
DOT_CENTER
 62
     2
100
AcDbLine
 10
63.9420473456
 20
139.8967581776
 30
0.0
 11
56.8920473456
 21
139.8967581776
 31
0.0
  0
LINE
  5
6E
330
1F
100
AcDbEntity
  8
A_ACHSEN
  6
DOT_CENTER
 62
     2
100
AcDbLine
 10
63.9420473456
 20
139.8967581776
 30
0.0
 11
70.9920473456
 21
139.8967581776
 31
0.0
  0
LINE
  5
6F
330
1F
100
AcDbEntity
  8
0
  6
Continuous
 62
     7
100
AcDbLine
 10
68.2088790712
 20
153.1067243543
 30
0.0
 11
66.8378773363
 21
153.4140712665
 31
0.0
  0
LINE
  5
70
330
1F
100
AcDbEntity
  8
0
  6
Continuous
 62
     7
100
AcDbLine
 10
66.4593604345
 20
153.7925881683
 30
0.0
 11
66.1520135223
 21
155.1635899032
 31
0.0
  0
LINE
  5
71
330
1F
100
AcDbEntity
  8
A_ACHSEN
  6
DOT_CENTER
 62
     2
100
AcDbLine
 10
63.9420473456
 20
257.8967581776
 30
0.0
 11
63.9420473456
 21
250.8467581776
 31
0.0
  0
LINE
  5
72
330
1F
100
AcDbEntity
  8
A_ACHSEN
  6
DOT_CENTER
 62
     2
100
AcDbLine
 10
63.9420473456
 20
246.8967581776
 30
0.0
 11
63.9420473456
 21
237.7467581776
 31
0.0
  0
LINE
  5
73
330
1F
100
AcDbEntity
  8
A_ACHSEN
  6
DOT_CENTER
 62
     2
100
AcDbLine
 10
63.9420473456
 20
150.8967581776
 30
0.0
 11
63.9420473456
 21
141.7467581776
 31
0.0
  0
LINE
  5
74
330
1F
100
AcDbEntity
  8
A_ACHSEN
  6
DOT_CENTER
 62
     2
100
AcDbLine
 10
63.9420473456
 20
139.8967581776
 30
0.0
 11
63.9420473456
 21
132.8467581776
 31
0.0
  0
LINE
  5
75
330
1F
100
AcDbEntity
  8
A_ACHSEN
  6
DOT_CENTER
 62
     2
100
AcDbLine
 10
63.9420473456
 20
139.8967581776
 30
0.0
 11
63.9420473456
 21
141.7467581776
 31
0.0
  0
LINE
  5
76
330
1F
100
AcDbEntity
  8
A_ACHSEN
  6
DOT_CENTER
 62
     2
100
AcDbLine
 10
63.9420473456
 20
150.8967581776
 30
0.0
 11
63.9420473456
 21
160.0467581776
 31
0.0
  0
LINE
  5
77
330
1F
100
AcDbEntity
  8
A_ACHSEN
  6
DOT_CENTER
 62
     2
100
AcDbLine
 10
63.9420473456
 20
246.8967581776
 30
0.0
 11
63.9420473456
 21
250.8467581776
 31
0.0
  0
LINE
  5
78
330
1F
100
AcDbEntity
  8
A_ACHSEN
  6
DOT_CENTER
 62
     2
100
AcDbLine
 10
63.9420473456
 20
257.8967581776
 30
0.0
 11
63.9420473456
 21
264.9467581776
 31
0.0
  0
LINE
  5
79
330
1F
100
AcDbEntity
  8
A_ACHSEN
  6
DOT_CENTER
 62
     2
100
AcDbLine
 10
68.9420473456
 20
279.8967581776
 30
0.0
 11
68.9420473456
 21
271.6467581776
 31
0.0
  0
LINE
  5
7A
330
1F
100
AcDbEntity
  8
A_ACHSEN
  6
DOT_CENTER
 62
     2
100
AcDbLine
 10
68.9420473456
 20
117.8967581776
 30
0.0
 11
68.9420473456
 21
109.6467581776
 31
0.0
  0
LINE
  5
7B
330
1F
100
AcDbEntity
  8
A_ACHSEN
  6
DOT_CENTER
 62
     2
100
AcDbLine
 10
68.9420473456
 20
117.8967581776
 30
0.0
 11
68.9420473456
 21
126.1467581776
 31
0.0
  0
LINE
  5
7C
330
1F
100
AcDbEntity
  8
A_ACHSEN
  6
DOT_CENTER
 62
     2
100
AcDbLine
 10
68.9420473456
 20
279.8967581776
 30
0.0
 11
68.9420473456
 21
288.1467581776
 31
0.0
  0
LINE
  5
7D
330
1F
100
AcDbEntity
  8
A_ACHSEN
  6
DOT_CENTER
 62
     2
100
AcDbLine
 10
63.9420473456
 20
150.8967581776
 30
0.0
 11
54.7920473456
 21
150.8967581776
 31
0.0
  0
LINE
  5
7E
330
1F
100
AcDbEntity
  8
A_ACHSEN
  6
DOT_CENTER
 62
     2
100
AcDbLine
 10
63.9420473456
 20
150.8967581776
 30
0.0
 11
73.0920473456
 21
150.8967581776
 31
0.0
  0
LINE
  5
7F
330
1F
100
AcDbEntity
  8
0
  6
Continuous
 62
     7
100
AcDbLine
 10
75.9420473456
 20
120.8967581776
 30
0.0
 11
75.9420473456
 21
276.8967581776
 31
0.0
  0
LINE
  5
80
330
1F
100
AcDbEntity
  8
0
  6
Continuous
 62
     7
100
AcDbLine
 10
61.7320811689
 20
155.1635899032
 30
0.0
 11
61.4247342566
 21
153.7925881683
 31
0.0
  0
LINE
  5
81
330
1F
100
AcDbEntity
  8
0
  6
Continuous
 62
     7
100
AcDbLine
 10
66.8378773363
 20
148.3794450886
 30
0.0
 11
68.2088790712
 21
148.6867920009
 31
0.0
  0
LINE
  5
82
330
1F
100
AcDbEntity
  8
0
  6
Continuous
 62
     7
100
AcDbLine
 10
61.4247342566
 20
244.0009281868
 30
0.0
 11
61.7320811689
 21
242.629926452
 31
0.0
  0
LINE
  5
83
330
1F
100
AcDbEntity
  8
0
  6
Continuous
 62
     7
100
AcDbLine
 10
66.1520135223
 20
146.629926452
 30
0.0
 11
66.4593604345
 21
148.0009281868
 31
0.0
  0
LINE
  5
84
330
1F
100
AcDbEntity
  8
0
  6
Continuous
 62
     7
100
AcDbLine
 10
61.0462173548
 20
153.4140712665
 30
0.0
 11
59.67521562
 21
153.1067243543
 31
0.0
  0
LINE
  5
85
330
1F
100
AcDbEntity
  8
0
  6
Continuous
 62
     7
100
AcDbLine
 10
66.4593604345
 20
249.7925881683
 30
0.0
 11
66.1520135223
 21
251.1635899032
 31
0.0
  0
LINE
  5
86
330
1F
100
AcDbEntity
  8
A_ACHSEN
  6
DOT_CENTER
 62
     2
100
AcDbLine
 10
60.9420473456
 20
170.8967581776
 30
0.0
 11
52.6920473456
 21
170.8967581776
 31
0.0
  0
LINE
  5
87
330
1F
100
AcDbEntity
  8
A_ACHSEN
  6
DOT_CENTER
 62
     2
100
AcDbLine
 10
60.9420473456
 20
170.8967581776
 30
0.0
 11
69.1920473456
 21
170.8967581776
 31
0.0
  0
LINE
  5
88
330
1F
100
AcDbEntity
  8
0
  6
Continuous
 62
     7
100
AcDbLine
 10
58.4131669458
 20
126.8301051782
 30
0.0
 11
58.014248345
 21
126.0855049931
 31
0.0
  0
LINE
  5
89
330
1F
100
AcDbEntity
  8
0
  6
Continuous
 62
     7
100
AcDbLine
 10
60.1143771664
 20
150.6291063095
 30
0.0
 11
59.3622596285
 21
149.4423346
 31
0.0
  0
LINE
  5
8A
330
1F
100
AcDbEntity
  8
0
  6
Continuous
 62
     7
100
AcDbLine
 10
67.7697175248
 20
151.1644100456
 30
0.0
 11
68.5218350627
 21
152.3511817552
 31
0.0
  0
LINE
  5
8B
330
1F
100
AcDbEntity
  8
0
  6
Continuous
 62
     7
100
AcDbLine
 10
59.3622596285
 20
248.3511817552
 30
0.0
 11
60.1143771664
 21
247.1644100456
 31
0.0
  0
LINE
  5
8C
330
1F
100
AcDbEntity
  8
0
  6
Continuous
 62
     7
100
AcDbLine
 10
68.5218350627
 20
245.4423346
 30
0.0
 11
67.7697175248
 21
246.6291063095
 31
0.0
  0
LINE
  5
8D
330
1F
100
AcDbEntity
  8
0
  6
Continuous
 62
     7
100
AcDbLine
 10
58.014248345
 20
271.708011362
 30
0.0
 11
58.4131669458
 21
270.963411177
 31
0.0
  0
LINE
  5
8E
330
1F
100
AcDbEntity
  8
0
  6
Continuous
 62
     7
100
AcDbLine
 10
59.4709277453
 20
118.963411177
 30
0.0
 11
59.8698463462
 21
119.708011362
 31
0.0
  0
LINE
  5
8F
330
1F
100
AcDbEntity
  8
0
  6
Continuous
 62
     7
100
AcDbLine
 10
55.7166120968
 20
122.1058822739
 30
0.0
 11
55.2712287213
 21
121.388108539
 31
0.0
  0
LINE
  5
90
330
1F
100
AcDbEntity
  8
0
  6
Continuous
 62
     7
100
AcDbLine
 10
55.2712287213
 20
276.4054078161
 30
0.0
 11
55.7166120968
 21
275.6876340812
 31
0.0
  0
LINE
  5
91
330
1F
100
AcDbEntity
  8
0
  6
Continuous
 62
     7
100
AcDbLine
 10
59.8698463462
 20
278.0855049931
 30
0.0
 11
59.4709277453
 21
278.8301051782
 31
0.0
  0
LINE
  5
92
330
1F
100
AcDbEntity
  8
0
  6
Continuous
 62
     7
100
AcDbLine
 10
68.4131669458
 20
121.8301051782
 30
0.0
 11
68.014248345
 21
121.0855049931
 31
0.0
  0
LINE
  5
93
330
1F
100
AcDbEntity
  8
0
  6
Continuous
 62
     7
100
AcDbLine
 10
69.4709277453
 20
113.963411177
 30
0.0
 11
69.8698463462
 21
114.708011362
 31
0.0
  0
LINE
  5
94
330
1F
100
AcDbEntity
  8
0
  6
Continuous
 62
     7
100
AcDbLine
 10
62.1674825944
 20
123.6876340812
 30
0.0
 11
62.6128659699
 21
124.4054078161
 31
0.0
  0
LINE
  5
95
330
1F
100
AcDbEntity
  8
0
  6
Continuous
 62
     7
100
AcDbLine
 10
65.7166120968
 20
117.1058822739
 30
0.0
 11
65.2712287213
 21
116.388108539
 31
0.0
  0
LINE
  5
96
330
1F
100
AcDbEntity
  8
A_ACHSEN
  6
DOT_CENTER
 62
     2
100
AcDbLine
 10
60.9420473456
 20
198.8967581776
 30
0.0
 11
45.1437511397
 21
198.8967581776
 31
0.0
  0
LINE
  5
97
330
1F
100
AcDbEntity
  8
A_ACHSEN
  6
DOT_CENTER
 62
     2
100
AcDbLine
 10
60.9420473456
 20
198.8967581776
 30
0.0
 11
79.5624427285
 21
198.8967581776
 31
0.0
  0
LINE
  5
98
330
1F
100
AcDbEntity
  8
0
  6
Continuous
 62
     7
100
AcDbLine
 10
62.6128659699
 20
273.388108539
 30
0.0
 11
62.1674825944
 21
274.1058822739
 31
0.0
  0
LINE
  5
99
330
1F
100
AcDbEntity
  8
0
  6
Continuous
 62
     7
100
AcDbLine
 10
65.2712287213
 20
281.4054078161
 30
0.0
 11
65.7166120968
 21
280.6876340812
 31
0.0
  0
LINE
  5
9A
330
1F
100
AcDbEntity
  8
0
  6
Continuous
 62
     7
100
AcDbLine
 10
68.014248345
 20
276.708011362
 30
0.0
 11
68.4131669458
 21
275.963411177
 31
0.0
  0
LINE
  5
9B
330
1F
100
AcDbEntity
  8
0
  6
Continuous
 62
     7
100
AcDbLine
 10
69.8698463462
 20
283.0855049931
 30
0.0
 11
69.4709277453
 21
283.8301051782
 31
0.0
  0
LINE
  5
9C
330
1F
100
AcDbEntity
  8
0
  6
Continuous
 62
     7
100
AcDbLine
 10
72.1674825944
 20
118.6876340812
 30
0.0
 11
72.6128659699
 21
119.4054078161
 31
0.0
  0
LINE
  5
9D
330
1F
100
AcDbEntity
  8
0
  6
Continuous
 62
     7
100
AcDbLine
 10
72.6128659699
 20
278.388108539
 30
0.0
 11
72.1674825944
 21
279.1058822739
 31
0.0
  0
LINE
  5
9E
330
1F
100
AcDbEntity
  8
0
  6
Continuous
 62
     7
100
AcDbLine
 10
65.3964709232
 20
155.4765458947
 30
0.0
 11
64.2096992136
 21
154.7244283568
 31
0.0
  0
LINE
  5
9F
330
1F
100
AcDbEntity
  8
0
  6
Continuous
 62
     7
100
AcDbLine
 10
62.487623768
 20
146.3169704605
 30
0.0
 11
63.6743954775
 21
147.0690879984
 31
0.0
  0
LINE
  5
A0
330
1F
100
AcDbEntity
  8
0
  6
Continuous
 62
     7
100
AcDbLine
 10
64.2096992136
 20
243.0690879984
 30
0.0
 11
65.3964709232
 21
242.3169704605
 31
0.0
  0
LINE
  5
A1
330
1F
100
AcDbEntity
  8
0
  6
Continuous
 62
     7
100
AcDbLine
 10
63.6743954775
 20
250.7244283568
 30
0.0
 11
62.487623768
 21
251.4765458947
 31
0.0
  0
LINE
  5
A2
330
1F
100
AcDbEntity
  8
A_ACHSEN
  6
DOT_CENTER
 62
     2
100
AcDbLine
 10
60.9420473456
 20
226.8967581776
 30
0.0
 11
52.6920473456
 21
226.8967581776
 31
0.0
  0
LINE
  5
A3
330
1F
100
AcDbEntity
  8
A_ACHSEN
  6
DOT_CENTER
 62
     2
100
AcDbLine
 10
60.9420473456
 20
226.8967581776
 30
0.0
 11
69.1920473456
 21
226.8967581776
 31
0.0
  0
LINE
  5
A4
330
1F
100
AcDbEntity
  8
0
  6
Continuous
 62
     7
100
AcDbLine
 10
59.67521562
 20
244.6867920009
 30
0.0
 11
61.0462173548
 21
244.3794450886
 31
0.0
  0
LINE
  5
A5
330
1F
100
AcDbEntity
  8
0
  6
Continuous
 62
     7
100
AcDbLine
 10
68.2088790712
 20
249.1067243543
 30
0.0
 11
66.8378773363
 21
249.4140712665
 31
0.0
  0
LINE
  5
A6
330
1F
100
AcDbEntity
  8
A_ACHSEN
  6
DOT_CENTER
 62
     2
100
AcDbLine
 10
63.9420473456
 20
246.8967581776
 30
0.0
 11
54.7920473456
 21
246.8967581776
 31
0.0
  0
LINE
  5
A7
330
1F
100
AcDbEntity
  8
A_ACHSEN
  6
DOT_CENTER
 62
     2
100
AcDbLine
 10
63.9420473456
 20
246.8967581776
 30
0.0
 11
73.0920473456
 21
246.8967581776
 31
0.0
  0
LINE
  5
A8
330
1F
100
AcDbEntity
  8
0
  6
Continuous
 62
     7
100
AcDbLine
 10
66.8378773363
 20
244.3794450886
 30
0.0
 11
68.2088790712
 21
244.6867920009
 31
0.0
  0
LINE
  5
A9
330
1F
100
AcDbEntity
  8
0
  6
Continuous
 62
     7
100
AcDbLine
 10
61.0462173548
 20
249.4140712665
 30
0.0
 11
59.67521562
 21
249.1067243543
 31
0.0
  0
LINE
  5
AA
330
1F
100
AcDbEntity
  8
A_ACHSEN
  6
DOT_CENTER
 62
     2
100
AcDbLine
 10
63.9420473456
 20
257.8967581776
 30
0.0
 11
56.8920473456
 21
257.8967581776
 31
0.0
  0
LINE
  5
AB
330
1F
100
AcDbEntity
  8
A_ACHSEN
  6
DOT_CENTER
 62
     2
100
AcDbLine
 10
63.9420473456
 20
257.8967581776
 30
0.0
 11
70.9920473456
 21
257.8967581776
 31
0.0
  0
LINE
  5
AC
330
1F
100
AcDbEntity
  8
0
  6
Continuous
 62
     7
100
AcDbLine
 10
51.9420473456
 20
258.8967581776
 30
0.0
 11
50.9420473456
 21
258.8967581776
 31
0.0
  0
LINE
  5
AD
330
1F
100
AcDbEntity
  8
0
  6
Continuous
 62
     7
100
AcDbLine
 10
55.800109121
 20
272.4720608155
 30
0.0
 11
56.6444110974
 21
272.4988872657
 31
0.0
  0
LINE
  5
AE
330
1F
100
AcDbEntity
  8
A_ACHSEN
  6
DOT_CENTER
 62
     2
100
AcDbLine
 10
58.9420473456
 20
274.8967581776
 30
0.0
 11
50.6920473456
 21
274.8967581776
 31
0.0
  0
LINE
  5
AF
330
1F
100
AcDbEntity
  8
A_ACHSEN
  6
DOT_CENTER
 62
     2
100
AcDbLine
 10
58.9420473456
 20
274.8967581776
 30
0.0
 11
67.1920473456
 21
274.8967581776
 31
0.0
  0
LINE
  5
B0
330
1F
100
AcDbEntity
  8
0
  6
Continuous
 62
     7
100
AcDbLine
 10
61.2396835938
 20
272.4988872657
 30
0.0
 11
62.0839855701
 21
272.4720608155
 31
0.0
  0
LINE
  5
B1
330
1F
100
AcDbEntity
  8
0
  6
Continuous
 62
     7
100
AcDbLine
 10
62.0839855701
 20
277.3214555396
 30
0.0
 11
61.2396835938
 21
277.2946290895
 31
0.0
  0
LINE
  5
B2
330
1F
100
AcDbEntity
  8
0
  6
Continuous
 62
     7
100
AcDbLine
 10
65.800109121
 20
277.4720608155
 30
0.0
 11
66.6444110974
 21
277.4988872657
 31
0.0
  0
LINE
  5
B3
330
1F
100
AcDbEntity
  8
A_ACHSEN
  6
DOT_CENTER
 62
     2
100
AcDbLine
 10
68.9420473456
 20
279.8967581776
 30
0.0
 11
60.6920473456
 21
279.8967581776
 31
0.0
  0
LINE
  5
B4
330
1F
100
AcDbEntity
  8
A_ACHSEN
  6
DOT_CENTER
 62
     2
100
AcDbLine
 10
68.9420473456
 20
279.8967581776
 30
0.0
 11
77.1920473456
 21
279.8967581776
 31
0.0
  0
LINE
  5
B5
330
1F
100
AcDbEntity
  8
0
  6
Continuous
 62
     7
100
AcDbLine
 10
56.6444110974
 20
277.2946290895
 30
0.0
 11
55.800109121
 21
277.3214555396
 31
0.0
  0
LINE
  5
B6
330
1F
100
AcDbEntity
  8
0
  6
Continuous
 62
     7
100
AcDbLine
 10
71.2396835938
 20
277.4988872657
 30
0.0
 11
72.0839855701
 21
277.4720608155
 31
0.0
  0
LINE
  5
B7
330
1F
100
AcDbEntity
  8
0
  6
Continuous
 62
     7
100
AcDbLine
 10
66.6444110974
 20
282.2946290895
 30
0.0
 11
65.800109121
 21
282.3214555396
 31
0.0
  0
LINE
  5
B8
330
1F
100
AcDbEntity
  8
0
  6
Continuous
 62
     7
100
AcDbLine
 10
72.0839855701
 20
282.3214555396
 30
0.0
 11
71.2396835938
 21
282.2946290895
 31
0.0
  0
LINE
  5
B9
330
1F
100
AcDbEntity
  8
1
  6
DASHED
 62
     2
100
AcDbLine
 10
50.9420473456
 20
258.8967581776
 30
0.0
 11
50.9420473456
 21
243.8967581776
 31
0.0
  0
LINE
  5
BA
330
1F
100
AcDbEntity
  8
0
  6
Continuous
 62
     7
100
AcDbLine
 10
50.9420473456
 20
138.8967581776
 30
0.0
 11
51.9420473456
 21
138.8967581776
 31
0.0
  0
LINE
  5
BB
330
1F
100
AcDbEntity
  8
0
  6
Continuous
 62
     7
100
AcDbLine
 10
50.9420473456
 20
258.8967581776
 30
0.0
 11
46.9420473456
 21
258.8967581776
 31
0.0
  0
LINE
  5
BC
330
1F
100
AcDbEntity
  8
1
  6
DASHED
 62
     2
100
AcDbLine
 10
46.9420473456
 20
153.8967581776
 30
0.0
 11
50.9420473456
 21
153.8967581776
 31
0.0
  0
LINE
  5
BD
330
1F
100
AcDbEntity
  8
0
  6
Continuous
 62
     7
100
AcDbLine
 10
46.9420473456
 20
153.8967581776
 30
0.0
 11
46.9420473456
 21
243.8967581776
 31
0.0
  0
LINE
  5
BE
330
1F
100
AcDbEntity
  8
1
  6
DASHED
 62
     2
100
AcDbLine
 10
50.9420473456
 20
153.8967581776
 30
0.0
 11
50.9420473456
 21
138.8967581776
 31
0.0
  0
LINE
  5
BF
330
1F
100
AcDbEntity
  8
1
  6
DASHED
 62
     2
100
AcDbLine
 10
46.9420473456
 20
243.8967581776
 30
0.0
 11
50.9420473456
 21
243.8967581776
 31
0.0
  0
LINE
  5
C0
330
1F
100
AcDbEntity
  8
1
  6
DASHED
 62
     2
100
AcDbLine
 10
50.9420473456
 20
243.8967581776
 30
0.0
 11
50.9420473456
 21
153.8967581776
 31
0.0
  0
LINE
  5
C1
330
1F
100
AcDbEntity
  8
0
  6
Continuous
 62
     7
100
AcDbLine
 10
46.9420473456
 20
243.8967581776
 30
0.0
 11
46.9420473456
 21
258.8967581776
 31
0.0
  0
ARC
  5
C2
330
1F
100
AcDbEntity
  8
0
  6
Continuous
 62
     7
100
AcDbCircle
 10
56.6920473456
 20
126.7938724946
 30
0.0
 40
1.499999999959461
100
AcDbArc
 50
-91.81987663931791
 51
-28.1801233612763
  0
ARC
  5
C3
330
1F
100
AcDbEntity
  8
0
  6
Continuous
 62
     7
100
AcDbCircle
 10
61.1920473456
 20
126.7938724946
 30
0.0
 40
1.49999999999857
100
AcDbArc
 50
-151.8198766387238
 51
-88.18012336068209
  0
ARC
  5
C4
330
1F
100
AcDbEntity
  8
0
  6
Continuous
 62
     7
100
AcDbCircle
 10
54.4420473456
 20
122.8967581776
 30
0.0
 40
1.500000000018273
100
AcDbArc
 50
-31.81987664097346
 51
31.81987663772729
  0
ARC
  5
C5
330
1F
100
AcDbEntity
  8
0
  6
Continuous
 62
     7
100
AcDbCircle
 10
56.6920473456
 20
118.9996438605
 30
0.0
 40
1.499999999998564
100
AcDbArc
 50
28.1801233612763
 51
91.8198766391966
  0
ARC
  5
C6
330
1F
100
AcDbEntity
  8
0
  6
Continuous
 62
     7
100
AcDbCircle
 10
61.1920473456
 20
118.9996438605
 30
0.0
 40
1.500000000059426
100
AcDbArc
 50
88.1801233608034
 51
151.8198766387238
  0
ARC
  5
C7
330
1F
100
AcDbEntity
  8
0
  6
Continuous
 62
     7
100
AcDbCircle
 10
63.4420473456
 20
122.8967581776
 30
0.0
 40
1.499999999965546
100
AcDbArc
 50
148.1801233622729
 51
-148.1801233590267
  0
ARC
  5
C8
330
1F
100
AcDbEntity
  8
0
  6
Continuous
 62
     7
100
AcDbCircle
 10
55.7810546218
 20
124.7217581776
 30
0.0
 40
0.5999999999412686
100
AcDbArc
 50
88.18012336819679
 51
-148.1801233584114
  0
ARC
  5
C9
330
1F
100
AcDbEntity
  8
0
  6
Continuous
 62
     7
100
AcDbCircle
 10
62.1030400694
 20
124.7217581776
 30
0.0
 40
0.6000000000348448
100
AcDbArc
 50
-31.81987664158893
 51
91.81987664134854
  0
ARC
  5
CA
330
1F
100
AcDbEntity
  8
0
  6
Continuous
 62
     7
100
AcDbCircle
 10
58.9420473456
 20
126.5467581776
 30
0.0
 40
0.5999999999465416
100
AcDbArc
 50
28.18012336398247
 51
151.8198766405272
  0
ARC
  5
CB
330
1F
100
AcDbEntity
  8
0
  6
Continuous
 62
     7
100
AcDbCircle
 10
55.7810546218
 20
121.0717581776
 30
0.0
 40
0.5999999999821248
100
AcDbArc
 50
148.1801233665257
 51
-88.18012336850006
  0
ARC
  5
CC
330
1F
100
AcDbEntity
  8
0
  6
Continuous
 62
     7
100
AcDbCircle
 10
58.9420473456
 20
119.2467581776
 30
0.0
 40
0.6000000000346899
100
AcDbArc
 50
-151.8198766405272
 51
-28.18012336398247
  0
ARC
  5
CD
330
1F
100
AcDbEntity
  8
0
  6
Continuous
 62
     7
100
AcDbCircle
 10
62.1030400694
 20
121.0717581776
 30
0.0
 40
0.600000000044396
100
AcDbArc
 50
-91.81987664104527
 51
31.81987663347466
  0
ARC
  5
CE
330
1F
100
AcDbEntity
  8
0
  6
Continuous
 62
     7
100
AcDbCircle
 10
59.7845894493
 20
149.1746827319
 30
0.0
 40
0.5000000000343907
100
AcDbArc
 50
147.6354876047735
 51
-102.6354876127948
  0
ARC
  5
CF
330
1F
100
AcDbEntity
  8
0
  6
Continuous
 62
     7
100
AcDbCircle
 10
60.9368435255
 20
147.8915543575
 30
0.0
 40
0.5000000000290293
100
AcDbArc
 50
12.63548761028646
 51
77.36451238971159
  0
ARC
  5
D0
330
1F
100
AcDbEntity
  8
0
  6
Continuous
 62
     7
100
AcDbCircle
 10
62.2199718999
 20
146.7393002813
 30
0.0
 40
0.4999999999314564
100
AcDbArc
 50
-167.364512387207
 51
-57.63548760477551
  0
ARC
  5
D1
330
1F
100
AcDbEntity
  8
0
  6
Continuous
 62
     7
100
AcDbCircle
 10
59.6920473456
 20
150.8967581776
 30
0.0
 40
0.5000000000343695
100
AcDbArc
 50
-32.36451239522424
 51
32.36451238554636
  0
ARC
  5
D2
330
1F
100
AcDbEntity
  8
0
  6
Continuous
 62
     7
100
AcDbCircle
 10
62.2199718999
 20
155.0542160739
 30
0.0
 40
0.5000000000343793
100
AcDbArc
 50
57.63548760477551
 51
167.3645123872038
  0
ARC
  5
D3
330
1F
100
AcDbEntity
  8
0
  6
Continuous
 62
     7
100
AcDbCircle
 10
60.9368435255
 20
153.9019619976
 30
0.0
 40
0.5000000000290463
100
AcDbArc
 50
-77.36451238971232
 51
-12.63548761028964
  0
ARC
  5
D4
330
1F
100
AcDbEntity
  8
0
  6
Continuous
 62
     7
100
AcDbCircle
 10
59.7845894493
 20
152.6188336232
 30
0.0
 40
0.5000000000290463
100
AcDbArc
 50
102.6354876102877
 51
-147.6354876144541
  0
ARC
  5
D5
330
1F
100
AcDbEntity
  8
0
  6
Continuous
 62
     7
100
AcDbCircle
 10
56.6920473456
 20
278.7938724946
 30
0.0
 40
1.499999999959475
100
AcDbArc
 50
-91.8198766393179
 51
-28.1801233612763
  0
ARC
  5
D6
330
1F
100
AcDbEntity
  8
0
  6
Continuous
 62
     7
100
AcDbCircle
 10
61.1920473456
 20
278.7938724946
 30
0.0
 40
1.49999999999857
100
AcDbArc
 50
-151.8198766387238
 51
-88.1801233606821
  0
ARC
  5
D7
330
1F
100
AcDbEntity
  8
0
  6
Continuous
 62
     7
100
AcDbCircle
 10
54.4420473456
 20
274.8967581776
 30
0.0
 40
1.500000000018266
100
AcDbArc
 50
-31.819876640973
 51
31.8198766377259
  0
ARC
  5
D8
330
1F
100
AcDbEntity
  8
0
  6
Continuous
 62
     7
100
AcDbCircle
 10
56.6920473456
 20
270.9996438605
 30
0.0
 40
1.499999999998564
100
AcDbArc
 50
28.1801233612763
 51
91.81987663919661
  0
ARC
  5
D9
330
1F
100
AcDbEntity
  8
0
  6
Continuous
 62
     7
100
AcDbCircle
 10
61.1920473456
 20
270.9996438605
 30
0.0
 40
1.500000000059412
100
AcDbArc
 50
88.18012336080339
 51
151.8198766387238
  0
ARC
  5
DA
330
1F
100
AcDbEntity
  8
0
  6
Continuous
 62
     7
100
AcDbCircle
 10
63.4420473456
 20
274.8967581776
 30
0.0
 40
1.499999999965523
100
AcDbArc
 50
148.1801233622742
 51
-148.1801233590271
  0
ARC
  5
DB
330
1F
100
AcDbEntity
  8
0
  6
Continuous
 62
     7
100
AcDbCircle
 10
55.7810546218
 20
276.7217581776
 30
0.0
 40
0.5999999999412402
100
AcDbArc
 50
88.1801233681967
 51
-148.1801233584126
  0
ARC
  5
DC
330
1F
100
AcDbEntity
  8
0
  6
Continuous
 62
     7
100
AcDbCircle
 10
62.1030400694
 20
276.7217581776
 30
0.0
 40
0.6000000000348372
100
AcDbArc
 50
-31.81987664158778
 51
91.81987664134863
  0
ARC
  5
DD
330
1F
100
AcDbEntity
  8
0
  6
Continuous
 62
     7
100
AcDbCircle
 10
58.9420473456
 20
278.5467581776
 30
0.0
 40
0.5999999999465282
100
AcDbArc
 50
28.18012336398008
 51
151.8198766405296
  0
ARC
  5
DE
330
1F
100
AcDbEntity
  8
0
  6
Continuous
 62
     7
100
AcDbCircle
 10
55.7810546218
 20
273.0717581776
 30
0.0
 40
0.5999999999821248
100
AcDbArc
 50
148.1801233665257
 51
-88.18012336849993
  0
ARC
  5
DF
330
1F
100
AcDbEntity
  8
0
  6
Continuous
 62
     7
100
AcDbCircle
 10
58.9420473456
 20
271.2467581776
 30
0.0
 40
0.6000000000346765
100
AcDbArc
 50
-151.8198766405296
 51
-28.18012336398008
  0
ARC
  5
E0
330
1F
100
AcDbEntity
  8
0
  6
Continuous
 62
     7
100
AcDbCircle
 10
62.1030400694
 20
273.0717581776
 30
0.0
 40
0.6000000000443534
100
AcDbArc
 50
-91.81987664104541
 51
31.81987663347466
  0
ARC
  5
E1
330
1F
100
AcDbEntity
  8
0
  6
Continuous
 62
     7
100
AcDbCircle
 10
59.7845894493
 20
245.1746827319
 30
0.0
 40
0.5000000000343907
100
AcDbArc
 50
147.6354876047735
 51
-102.6354876127948
  0
ARC
  5
E2
330
1F
100
AcDbEntity
  8
0
  6
Continuous
 62
     7
100
AcDbCircle
 10
60.9368435255
 20
243.8915543575
 30
0.0
 40
0.5000000000290293
100
AcDbArc
 50
12.63548761028646
 51
77.36451238971159
  0
ARC
  5
E3
330
1F
100
AcDbEntity
  8
0
  6
Continuous
 62
     7
100
AcDbCircle
 10
62.2199718999
 20
242.7393002813
 30
0.0
 40
0.4999999999314564
100
AcDbArc
 50
-167.364512387207
 51
-57.63548760477551
  0
ARC
  5
E4
330
1F
100
AcDbEntity
  8
0
  6
Continuous
 62
     7
100
AcDbCircle
 10
59.6920473456
 20
246.8967581776
 30
0.0
 40
0.5000000000343695
100
AcDbArc
 50
-32.36451239522424
 51
32.36451238554636
  0
ARC
  5
E5
330
1F
100
AcDbEntity
  8
0
  6
Continuous
 62
     7
100
AcDbCircle
 10
62.2199718999
 20
251.0542160739
 30
0.0
 40
0.5000000000343793
100
AcDbArc
 50
57.63548760477551
 51
167.3645123872038
  0
ARC
  5
E6
330
1F
100
AcDbEntity
  8
0
  6
Continuous
 62
     7
100
AcDbCircle
 10
60.9368435255
 20
249.9019619976
 30
0.0
 40
0.5000000000290463
100
AcDbArc
 50
-77.36451238971232
 51
-12.63548761028964
  0
ARC
  5
E7
330
1F
100
AcDbEntity
  8
0
  6
Continuous
 62
     7
100
AcDbCircle
 10
59.7845894493
 20
248.6188336232
 30
0.0
 40
0.5000000000290463
100
AcDbArc
 50
102.6354876102877
 51
-147.6354876144541
  0
ARC
  5
E8
330
1F
100
AcDbEntity
  8
0
  6
Continuous
 62
     7
100
AcDbCircle
 10
63.9420473456
 20
120.8967581776
 30
0.0
 40
12.0
100
AcDbArc
 50
-90.0
 51
0.0
  0
ARC
  5
E9
330
1F
100
AcDbEntity
  8
0
  6
Continuous
 62
     7
100
AcDbCircle
 10
66.6920473456
 20
121.7938724946
 30
0.0
 40
1.499999999959461
100
AcDbArc
 50
-91.8198766393182
 51
-28.1801233612763
  0
ARC
  5
EA
330
1F
100
AcDbEntity
  8
0
  6
Continuous
 62
     7
100
AcDbCircle
 10
71.1920473456
 20
121.7938724946
 30
0.0
 40
1.499999999998564
100
AcDbArc
 50
-151.8198766387237
 51
-88.18012336068236
  0
ARC
  5
EB
330
1F
100
AcDbEntity
  8
0
  6
Continuous
 62
     7
100
AcDbCircle
 10
64.4420473456
 20
117.8967581776
 30
0.0
 40
1.500000000018279
100
AcDbArc
 50
-31.81987664097332
 51
31.81987663772714
  0
ARC
  5
EC
330
1F
100
AcDbEntity
  8
0
  6
Continuous
 62
     7
100
AcDbCircle
 10
66.6920473456
 20
113.9996438605
 30
0.0
 40
1.499999999998564
100
AcDbArc
 50
28.1801233612763
 51
91.81987663919686
  0
ARC
  5
ED
330
1F
100
AcDbEntity
  8
0
  6
Continuous
 62
     7
100
AcDbCircle
 10
71.1920473456
 20
113.9996438605
 30
0.0
 40
1.500000000059426
100
AcDbArc
 50
88.18012336080369
 51
151.8198766387237
  0
ARC
  5
EE
330
1F
100
AcDbEntity
  8
0
  6
Continuous
 62
     7
100
AcDbCircle
 10
73.4420473456
 20
117.8967581776
 30
0.0
 40
1.499999999965546
100
AcDbArc
 50
148.1801233622729
 51
-148.1801233590267
  0
ARC
  5
EF
330
1F
100
AcDbEntity
  8
0
  6
Continuous
 62
     7
100
AcDbCircle
 10
65.7810546218
 20
119.7217581776
 30
0.0
 40
0.5999999999412691
100
AcDbArc
 50
88.18012336819544
 51
-148.1801233584107
  0
ARC
  5
F0
330
1F
100
AcDbEntity
  8
0
  6
Continuous
 62
     7
100
AcDbCircle
 10
72.1030400694
 20
119.7217581776
 30
0.0
 40
0.6000000000348508
100
AcDbArc
 50
-31.81987664158857
 51
91.81987664134786
  0
ARC
  5
F1
330
1F
100
AcDbEntity
  8
0
  6
Continuous
 62
     7
100
AcDbCircle
 10
68.9420473456
 20
121.5467581776
 30
0.0
 40
0.5999999999465416
100
AcDbArc
 50
28.18012336398247
 51
151.8198766405272
  0
ARC
  5
F2
330
1F
100
AcDbEntity
  8
0
  6
Continuous
 62
     7
100
AcDbCircle
 10
65.7810546218
 20
116.0717581776
 30
0.0
 40
0.5999999999821127
100
AcDbArc
 50
148.180123366525
 51
-88.1801233684987
  0
ARC
  5
F3
330
1F
100
AcDbEntity
  8
0
  6
Continuous
 62
     7
100
AcDbCircle
 10
68.9420473456
 20
114.2467581776
 30
0.0
 40
0.6000000000346899
100
AcDbArc
 50
-151.8198766405272
 51
-28.18012336398247
  0
ARC
  5
F4
330
1F
100
AcDbEntity
  8
0
  6
Continuous
 62
     7
100
AcDbCircle
 10
72.1030400694
 20
116.0717581776
 30
0.0
 40
0.6000000000443958
100
AcDbArc
 50
-91.81987664104459
 51
31.8198766334743
  0
ARC
  5
F5
330
1F
100
AcDbEntity
  8
0
  6
Continuous
 62
     7
100
AcDbCircle
 10
65.6641227912
 20
146.7393002813
 30
0.0
 40
0.4999999999808518
100
AcDbArc
 50
-122.3645123855459
 51
-12.63548761028646
  0
ARC
  5
F6
330
1F
100
AcDbEntity
  8
0
  6
Continuous
 62
     7
100
AcDbCircle
 10
66.9472511656
 20
147.8915543575
 30
0.0
 40
0.5000000000290186
100
AcDbArc
 50
102.6354876102884
 51
167.3645123897136
  0
ARC
  5
F7
330
1F
100
AcDbEntity
  8
0
  6
Continuous
 62
     7
100
AcDbCircle
 10
68.0995052419
 20
149.1746827319
 30
0.0
 40
0.4999999999314526
100
AcDbArc
 50
-77.36451238720524
 51
32.36451239522655
  0
ARC
  5
F8
330
1F
100
AcDbEntity
  8
0
  6
Continuous
 62
     7
100
AcDbCircle
 10
63.9420473456
 20
146.6467581776
 30
0.0
 40
0.4999999999808518
100
AcDbArc
 50
57.63548761445409
 51
122.3645123952252
  0
ARC
  5
F9
330
1F
100
AcDbEntity
  8
0
  6
Continuous
 62
     7
100
AcDbCircle
 10
68.1920473456
 20
150.8967581776
 30
0.0
 40
0.4999999999808518
100
AcDbArc
 50
147.6354876144541
 51
-147.6354876047762
  0
ARC
  5
FA
330
1F
100
AcDbEntity
  8
0
  6
Continuous
 62
     7
100
AcDbCircle
 10
68.0995052419
 20
152.6188336232
 30
0.0
 40
0.4999999999808518
100
AcDbArc
 50
-32.36451238554591
 51
77.36451238971232
  0
ARC
  5
FB
330
1F
100
AcDbEntity
  8
0
  6
Continuous
 62
     7
100
AcDbCircle
 10
66.9472511656
 20
153.9019619976
 30
0.0
 40
0.5000000000290356
100
AcDbArc
 50
-167.3645123897104
 51
-102.6354876102877
  0
ARC
  5
FC
330
1F
100
AcDbEntity
  8
0
  6
Continuous
 62
     7
100
AcDbCircle
 10
65.6641227912
 20
155.0542160739
 30
0.0
 40
0.5000000000290356
100
AcDbArc
 50
12.63548761028964
 51
122.3645123855459
  0
ARC
  5
FD
330
1F
100
AcDbEntity
  8
0
  6
Continuous
 62
     7
100
AcDbCircle
 10
63.9420473456
 20
155.1467581776
 30
0.0
 40
0.500000000034383
100
AcDbArc
 50
-122.3645123952252
 51
-57.63548761445409
  0
ARC
  5
FE
330
1F
100
AcDbEntity
  8
0
  6
Continuous
 62
     7
100
AcDbCircle
 10
63.9420473456
 20
276.8967581776
 30
0.0
 40
12.0
100
AcDbArc
 50
90.0
 51
180.0
  0
ARC
  5
FF
330
1F
100
AcDbEntity
  8
0
  6
Continuous
 62
     7
100
AcDbCircle
 10
66.6920473456
 20
283.7938724946
 30
0.0
 40
1.499999999959475
100
AcDbArc
 50
-91.81987663931817
 51
-28.1801233612763
  0
ARC
  5
100
330
1F
100
AcDbEntity
  8
0
  6
Continuous
 62
     7
100
AcDbCircle
 10
71.1920473456
 20
283.7938724946
 30
0.0
 40
1.499999999998564
100
AcDbArc
 50
-151.8198766387237
 51
-88.18012336068239
  0
ARC
  5
101
330
1F
100
AcDbEntity
  8
0
  6
Continuous
 62
     7
100
AcDbCircle
 10
64.4420473456
 20
279.8967581776
 30
0.0
 40
1.500000000018272
100
AcDbArc
 50
-31.81987664097286
 51
31.81987663772576
  0
ARC
  5
102
330
1F
100
AcDbEntity
  8
0
  6
Continuous
 62
     7
100
AcDbCircle
 10
66.6920473456
 20
275.9996438605
 30
0.0
 40
1.499999999998564
100
AcDbArc
 50
28.1801233612763
 51
91.81987663919688
  0
ARC
  5
103
330
1F
100
AcDbEntity
  8
0
  6
Continuous
 62
     7
100
AcDbCircle
 10
71.1920473456
 20
275.9996438605
 30
0.0
 40
1.500000000059412
100
AcDbArc
 50
88.18012336080366
 51
151.8198766387237
  0
ARC
  5
104
330
1F
100
AcDbEntity
  8
0
  6
Continuous
 62
     7
100
AcDbCircle
 10
73.4420473456
 20
279.8967581776
 30
0.0
 40
1.499999999965523
100
AcDbArc
 50
148.1801233622742
 51
-148.1801233590271
  0
ARC
  5
105
330
1F
100
AcDbEntity
  8
0
  6
Continuous
 62
     7
100
AcDbCircle
 10
65.7810546218
 20
281.7217581776
 30
0.0
 40
0.5999999999412406
100
AcDbArc
 50
88.18012336819535
 51
-148.1801233584119
  0
ARC
  5
106
330
1F
100
AcDbEntity
  8
0
  6
Continuous
 62
     7
100
AcDbCircle
 10
72.1030400694
 20
281.7217581776
 30
0.0
 40
0.6000000000348433
100
AcDbArc
 50
-31.81987664158742
 51
91.81987664134796
  0
ARC
  5
107
330
1F
100
AcDbEntity
  8
0
  6
Continuous
 62
     7
100
AcDbCircle
 10
68.9420473456
 20
283.5467581776
 30
0.0
 40
0.5999999999465282
100
AcDbArc
 50
28.18012336398008
 51
151.8198766405296
  0
ARC
  5
108
330
1F
100
AcDbEntity
  8
0
  6
Continuous
 62
     7
100
AcDbCircle
 10
65.7810546218
 20
278.0717581776
 30
0.0
 40
0.5999999999821127
100
AcDbArc
 50
148.180123366525
 51
-88.18012336849857
  0
ARC
  5
109
330
1F
100
AcDbEntity
  8
0
  6
Continuous
 62
     7
100
AcDbCircle
 10
68.9420473456
 20
276.2467581776
 30
0.0
 40
0.6000000000346765
100
AcDbArc
 50
-151.8198766405296
 51
-28.18012336398008
  0
ARC
  5
10A
330
1F
100
AcDbEntity
  8
0
  6
Continuous
 62
     7
100
AcDbCircle
 10
72.1030400694
 20
278.0717581776
 30
0.0
 40
0.6000000000443532
100
AcDbArc
 50
-91.81987664104471
 51
31.8198766334743
  0
ARC
  5
10B
330
1F
100
AcDbEntity
  8
0
  6
Continuous
 62
     7
100
AcDbCircle
 10
65.6641227912
 20
242.7393002813
 30
0.0
 40
0.4999999999808518
100
AcDbArc
 50
-122.3645123855459
 51
-12.63548761028646
  0
ARC
  5
10C
330
1F
100
AcDbEntity
  8
0
  6
Continuous
 62
     7
100
AcDbCircle
 10
66.9472511656
 20
243.8915543575
 30
0.0
 40
0.5000000000290186
100
AcDbArc
 50
102.6354876102884
 51
167.3645123897136
  0
ARC
  5
10D
330
1F
100
AcDbEntity
  8
0
  6
Continuous
 62
     7
100
AcDbCircle
 10
68.0995052419
 20
245.1746827319
 30
0.0
 40
0.4999999999314526
100
AcDbArc
 50
-77.36451238720524
 51
32.36451239522655
  0
ARC
  5
10E
330
1F
100
AcDbEntity
  8
0
  6
Continuous
 62
     7
100
AcDbCircle
 10
63.9420473456
 20
242.6467581776
 30
0.0
 40
0.4999999999808518
100
AcDbArc
 50
57.63548761445409
 51
122.3645123952252
  0
ARC
  5
10F
330
1F
100
AcDbEntity
  8
0
  6
Continuous
 62
     7
100
AcDbCircle
 10
68.1920473456
 20
246.8967581776
 30
0.0
 40
0.4999999999808518
100
AcDbArc
 50
147.6354876144541
 51
-147.6354876047762
  0
ARC
  5
110
330
1F
100
AcDbEntity
  8
0
  6
Continuous
 62
     7
100
AcDbCircle
 10
68.0995052419
 20
248.6188336232
 30
0.0
 40
0.4999999999808518
100
AcDbArc
 50
-32.36451238554591
 51
77.36451238971232
  0
ARC
  5
111
330
1F
100
AcDbEntity
  8
0
  6
Continuous
 62
     7
100
AcDbCircle
 10
66.9472511656
 20
249.9019619976
 30
0.0
 40
0.5000000000290356
100
AcDbArc
 50
-167.3645123897104
 51
-102.6354876102877
  0
ARC
  5
112
330
1F
100
AcDbEntity
  8
0
  6
Continuous
 62
     7
100
AcDbCircle
 10
65.6641227912
 20
251.0542160739
 30
0.0
 40
0.5000000000290356
100
AcDbArc
 50
12.63548761028964
 51
122.3645123855459
  0
ARC
  5
113
330
1F
100
AcDbEntity
  8
0
  6
Continuous
 62
     7
100
AcDbCircle
 10
63.9420473456
 20
251.1467581776
 30
0.0
 40
0.500000000034383
100
AcDbArc
 50
-122.3645123952252
 51
-57.63548761445409
  0
ARC
  5
114
330
1F
100
AcDbEntity
  8
0
  6
Continuous
 62
     7
100
AcDbCircle
 10
63.9420473456
 20
276.8967581776
 30
0.0
 40
12.0
100
AcDbArc
 50
0.0
 51
90.0
  0
ARC
  5
115
330
1F
100
AcDbEntity
  8
0
  6
Continuous
 62
     7
100
AcDbCircle
 10
63.9420473456
 20
120.8967581776
 30
0.0
 40
12.0
100
AcDbArc
 50
180.0
 51
-90.0
  0
CIRCLE
  5
116
330
1F
100
AcDbEntity
  8
A_ACHSEN
  6
Continuous
 62
     7
100
AcDbCircle
 10
58.9420473456
 20
122.8967581776
 30
0.0
 40
5.25
  0
CIRCLE
  5
117
330
1F
100
AcDbEntity
  8
A_ACHSEN
  6
Continuous
 62
     7
100
AcDbCircle
 10
60.9420473456
 20
170.8967581776
 30
0.0
 40
5.25
  0
CIRCLE
  5
118
330
1F
100
AcDbEntity
  8
A_ACHSEN
  6
Continuous
 62
     7
100
AcDbCircle
 10
58.9420473456
 20
274.8967581776
 30
0.0
 40
5.25
  0
CIRCLE
  5
119
330
1F
100
AcDbEntity
  8
A_ACHSEN
  6
Continuous
 62
     7
100
AcDbCircle
 10
60.9420473456
 20
226.8967581776
 30
0.0
 40
5.25
  0
CIRCLE
  5
11A
330
1F
100
AcDbEntity
  8
A_ACHSEN
  6
Continuous
 62
     7
100
AcDbCircle
 10
60.9420473456
 20
198.8967581776
 30
0.0
 40
5.25
  0
CIRCLE
  5
11B
330
1F
100
AcDbEntity
  8
A_ACHSEN
  6
Continuous
 62
     7
100
AcDbCircle
 10
63.9420473456
 20
150.8967581776
 30
0.0
 40
6.149999999999991
  0
CIRCLE
  5
11C
330
1F
100
AcDbEntity
  8
A_ACHSEN
  6
Continuous
 62
     7
100
AcDbCircle
 10
68.9420473456
 20
117.8967581776
 30
0.0
 40
5.25
  0
CIRCLE
  5
11D
330
1F
100
AcDbEntity
  8
A_ACHSEN
  6
Continuous
 62
     7
100
AcDbCircle
 10
63.9420473456
 20
139.8967581776
 30
0.0
 40
4.049999999999997
  0
CIRCLE
  5
11E
330
1F
100
AcDbEntity
  8
A_ACHSEN
  6
Continuous
 62
     7
100
AcDbCircle
 10
63.9420473456
 20
246.8967581776
 30
0.0
 40
6.149999999999991
  0
CIRCLE
  5
11F
330
1F
100
AcDbEntity
  8
A_ACHSEN
  6
Continuous
 62
     7
100
AcDbCircle
 10
68.9420473456
 20
279.8967581776
 30
0.0
 40
5.25
  0
CIRCLE
  5
120
330
1F
100
AcDbEntity
  8
A_ACHSEN
  6
Continuous
 62
     7
100
AcDbCircle
 10
63.9420473456
 20
257.8967581776
 30
0.0
 40
4.049999999999997
  0
DIMENSION
  5
12C
330
1F
100
AcDbEntity
  8
1
100
AcDbDimension
  2
*D1
 10
34.2727105436156
 20
258.8967581776
 30
0.0
 11
30.5227105436156
 21
196.42965999102
 31
0.0
 70
    32
  1
<>
 71
     5
 42
-1.0
 53
90.0
  3
ME10_DIM_10
100
AcDbAlignedDimension
 13
46.9420473456
 23
138.8967581776
 33
0.0
 14
46.9420473456
 24
258.8967581776
 34
0.0
 50
90.0
100
AcDbRotatedDimension
  0
DIMENSION
  5
137
330
1F
100
AcDbEntity
  8
1
100
AcDbDimension
  2
*D2
 10
90.2367300625565
 20
288.8967581776
 30
0.0
 11
86.4867300625565
 21
198.72920339581
 31
0.0
 70
    32
  1
<>
 71
     5
 42
-1.0
 53
90.0
  3
ME10_DIM_11
100
AcDbAlignedDimension
 13
63.9420473456
 23
108.8967581776
 33
0.0
 14
63.9420473456
 24
288.8967581776
 34
0.0
 50
90.0
100
AcDbRotatedDimension
  0
DIMENSION
  5
142
330
1F
100
AcDbEntity
  8
1
100
AcDbDimension
  2
*D3
 10
51.9420473456
 20
98.358707652549
 30
0.0
 11
63.9420473456
 21
102.108707652549
 31
0.0
 70
    32
  1
<>
 71
     5
 42
-1.0
 53
0.00013888888889
  3
ME10_DIM_12
100
AcDbAlignedDimension
 13
75.9420473456
 23
120.8967581776
 33
0.0
 14
51.9420473456
 24
120.8967581776
 34
0.0
100
AcDbRotatedDimension
  0
DIMENSION
  5
14D
330
1F
100
AcDbEntity
  8
1
100
AcDbDimension
  2
*D4
 10
46.9420473456
 20
88.6652358281036
 30
0.0
 11
61.7446389170863
 21
92.4152358281036
 31
0.0
 70
    32
  1
<>
 71
     5
 42
-1.0
 53
0.00013888888889
  3
ME10_DIM_13
100
AcDbAlignedDimension
 13
75.9420473456
 23
120.8967581776
 33
0.0
 14
46.9420473456
 24
138.8967581776
 34
0.0
100
AcDbRotatedDimension
  0
ENDSEC
  0
SECTION
  2
OBJECTS
  0
DICTIONARY
  5
C
330
0
100
AcDbDictionary
281
     1
  3
ACAD_GROUP
350
D
  3
ACAD_LAYOUT
350
1A
  3
ACAD_MLINESTYLE
350
17
  3
ACAD_PLOTSETTINGS
350
19
  3
ACAD_PLOTSTYLENAME
350
E
  0
DICTIONARY
  5
D
102
{ACAD_REACTORS
330
C
102
}
330
C
100
AcDbDictionary
281
     1
  0
DICTIONARY
  5
1A
102
{ACAD_REACTORS
330
C
102
}
330
C
100
AcDbDictionary
281
     1
  3
Layout1
350
1E
  3
Layout2
350
26
  3
Model
350
22
  0
DICTIONARY
  5
17
102
{ACAD_REACTORS
330
C
102
}
330
C
100
AcDbDictionary
281
     1
  3
Standard
350
18
  0
DICTIONARY
  5
19
102
{ACAD_REACTORS
330
C
102
}
330
C
100
AcDbDictionary
281
     1
  0
ACDBDICTIONARYWDFLT
  5
E
102
{ACAD_REACTORS
330
C
102
}
330
C
100
AcDbDictionary
281
     1
  3
Normal
350
F
100
AcDbDictionaryWithDefault
340
F
  0
LAYOUT
  5
1E
102
{ACAD_REACTORS
330
1A
102
}
330
1A
100
AcDbPlotSettings
  1

  2

  4

  6

 40
0.0
 41
0.0
 42
0.0
 43
0.0
 44
0.0
 45
0.0
 46
0.0
 47
0.0
 48
0.0
 49
0.0
140
0.0
141
0.0
142
1.0
143
1.0
 70
   688
 72
     0
 73
     0
 74
     5
  7

 75
    16
 76
     0
 77
     2
 78
   300
147
1.0
148
0.0
149
0.0
100
AcDbLayout
  1
Layout1
 70
     1
 71
     1
 10
0.0
 20
0.0
 11
0.0
 21
0.0
 12
0.0
 22
0.0
 32
0.0
 14
0.0
 24
0.0
 34
0.0
 15
0.0
 25
0.0
 35
0.0
146
0.0
 13
0.0
 23
0.0
 33
0.0
 16
1.0
 26
0.0
 36
0.0
 17
0.0
 27
1.0
 37
0.0
 76
     0
330
1B
  0
LAYOUT
  5
26
102
{ACAD_REACTORS
330
1A
102
}
330
1A
100
AcDbPlotSettings
  1

  2

  4

  6

 40
0.0
 41
0.0
 42
0.0
 43
0.0
 44
0.0
 45
0.0
 46
0.0
 47
0.0
 48
0.0
 49
0.0
140
0.0
141
0.0
142
1.0
143
1.0
 70
   688
 72
     0
 73
     0
 74
     5
  7

 75
    16
 76
     0
 77
     2
 78
   300
147
1.0
148
0.0
149
0.0
100
AcDbLayout
  1
Layout2
 70
     1
 71
     2
 10
0.0
 20
0.0
 11
0.0
 21
0.0
 12
0.0
 22
0.0
 32
0.0
 14
0.0
 24
0.0
 34
0.0
 15
0.0
 25
0.0
 35
0.0
146
0.0
 13
0.0
 23
0.0
 33
0.0
 16
1.0
 26
0.0
 36
0.0
 17
0.0
 27
1.0
 37
0.0
 76
     0
330
23
  0
LAYOUT
  5
22
102
{ACAD_REACTORS
330
1A
102
}
330
1A
100
AcDbPlotSettings
  1

  2

  4

  6

 40
0.0
 41
0.0
 42
0.0
 43
0.0
 44
0.0
 45
0.0
 46
0.0
 47
0.0
 48
0.0
 49
0.0
140
0.0
141
0.0
142
1.0
143
1.0
 70
  1712
 72
     0
 73
     0
 74
     0
  7

 75
     0
 76
     0
 77
     2
 78
   300
147
1.0
148
0.0
149
0.0
100
AcDbLayout
  1
Model
 70
     1
 71
     0
 10
0.0
 20
0.0
 11
0.0
 21
0.0
 12
0.0
 22
0.0
 32
0.0
 14
28.7727105436156
 24
86.6652358281036
 34
0.0
 15
92.2367300625565
 25
288.8967581776
 35
0.0
146
0.0
 13
0.0
 23
0.0
 33
0.0
 16
1.0
 26
0.0
 36
0.0
 17
0.0
 27
1.0
 37
0.0
 76
     0
330
1F
  0
MLINESTYLE
  5
18
102
{ACAD_REACTORS
330
17
102
}
330
17
100
AcDbMlineStyle
  2
Standard
 70
     0
  3

 62
   256
 51
90.0
 52
90.0
 71
     2
 49
0.5
 62
   256
  6
BYLAYER
 49
-0.5
 62
   256
  6
BYLAYER
  0
ACDBPLACEHOLDER
  5
F
102
{ACAD_REACTORS
330
E
102
}
330
E
  0
ENDSEC
  0
EOF
