999
DXF file: d:\tmp\workingDir\0000043597\v_1999_klemmschutz_v01_01.dxf
999
Pro/ENGINEER 2013430 by Parametric Technology Corporation
  0
SECTION
  2
HEADER
  9
$ACADVER
  1
AC1014
  9
$DWGCODEPAGE
  3
ANSI_1252
  9
$EXTMAX
 10
100.0
 20
240.0
 30
0.0
  9
$EXTMIN
 10
0.0
 20
0.0
 30
0.0
  9
$LIMMIN
 10
0.0
 20
0.0
  9
$LIMMAX
 10
100.0
 20
240.0
  9
$VIEWCTR
 10
50.0
 20
120.0
  9
$VIEWSIZE
 40
240.0
  9
$CLAYER
  8
0
  9
$LTSCALE
 40
15.6444444444
  9
$CELTYPE
  6
BYLAYER
  9
$DIMSCALE
 40
1.0
  9
$DIMASZ
 40
3.5
  9
$DIMEXO
 40
0.0
  9
$DIMDLI
 40
10.8088888889
  9
$DIMEXE
 40
2.0
  9
$DIMCEN
 40
2.56
  9
$DIMLFAC
 40
1.0
  9
$DIMBLK
  1
_ARROW_FILLED
  9
$DIMTXT
 40
3.5
  9
$DIMTOL
 70
1
  9
$DIMLIM
 70
0
  9
$DIMTFAC
 40
1.0
  9
$DIMTP
 40
0.01
  9
$DIMTM
 40
0.01
  9
$DIMGAP
 40
0.625
  9
$PDMODE
 70
0
  9
$PDSIZE
 40
0.04
  9
$HANDSEED
  5
2DA
  9
$TILEMODE
 70
1
  9
$MEASUREMENT
 70
1
  0
ENDSEC
  0
SECTION
  2
CLASSES
  0
ENDSEC
  0
SECTION
  2
TABLES
  0
TABLE
  2
VPORT
  5
8
100
AcDbSymbolTable
 70
2
  0
VPORT
  5
1F4
100
AcDbSymbolTableRecord
100
AcDbViewportTableRecord
  2
*ACTIVE
 70
0
 10
0.0
 20
0.0
 11
1.0
 21
1.0
 12
50.0
 22
120.0
 13
0.0
 23
0.0
 14
1.0
 24
1.0
 15
0.0
 25
0.0
 16
0.0
 26
0.0
 36
1.0
 17
0.0
 27
0.0
 37
0.0
 40
240.0
 41
0.4166666667
 42
50.0
 43
0.0
 44
0.0
 50
0.0
 51
0.0
 71
0
 72
100
 73
1
 74
1
 75
0
 76
0
 77
0
 78
0
  0
ENDTAB
  0
TABLE
  2
LTYPE
  5
5
100
AcDbSymbolTable
 70
6
  0
LTYPE
  5
14
100
AcDbSymbolTableRecord
100
AcDbLinetypeTableRecord
  2
BYBLOCK
 70
0
  3

 72
65
 73
0
 40
0.0
  0
LTYPE
  5
15
100
AcDbSymbolTableRecord
100
AcDbLinetypeTableRecord
  2
BYLAYER
 70
0
  3

 72
65
 73
0
 40
0.0
  0
LTYPE
  5
16
100
AcDbSymbolTableRecord
100
AcDbLinetypeTableRecord
  2
CONTINUOUS
 70
64
  3
Solid line
 72
65
 73
0
 40
0.0
  0
LTYPE
  5
1F5
100
AcDbSymbolTableRecord
100
AcDbLinetypeTableRecord
  2
CENTER
 70
64
  3
____ _ ____ _ ____ _ ____ _ ____ _ ____ _ ____
 72
65
 73
4
 40
0.6
 49
0.375
 74
0
 49
-0.075
 74
0
 49
0.075
 74
0
 49
-0.075
 74
0
  0
LTYPE
  5
1F6
100
AcDbSymbolTableRecord
100
AcDbLinetypeTableRecord
  2
HIDDEN
 70
64
  3
- - - - - - - - - - - - - - - - - - - -
 72
65
 73
2
 40
0.2
 49
0.1
 74
0
 49
-0.1
 74
0
  0
LTYPE
  5
1F7
100
AcDbSymbolTableRecord
100
AcDbLinetypeTableRecord
  2
PHANTOM
 70
64
  3
_____ _ _ _____ _ _ _____ _ _ _____
 72
65
 73
6
 40
0.8
 49
0.45
 74
0
 49
-0.05
 74
0
 49
0.1
 74
0
 49
-0.05
 74
0
 49
0.1
 74
0
 49
-0.05
 74
0
  0
LTYPE
  5
1F8
100
AcDbSymbolTableRecord
100
AcDbLinetypeTableRecord
  2
DOT
 70
64
  3
. . . . . . . . . . . . . . . . . . . .
 72
65
 73
2
 40
0.2
 49
0.1
 74
0
 49
-0.1
 74
0
  0
LTYPE
  5
1F9
100
AcDbSymbolTableRecord
100
AcDbLinetypeTableRecord
  2
DASHED
 70
64
  3
- - - - - - - - - - - - - - - - - - - -
 72
65
 73
2
 40
0.2
 49
0.1
 74
0
 49
-0.1
 74
0
  0
ENDTAB
  0
TABLE
  2
LAYER
  5
2
100
AcDbSymbolTable
 70
36
  0
LAYER
  5
10
100
AcDbSymbolTableRecord
100
AcDbLayerTableRecord
  2
0
 70
0
 62
7
  6
CONTINUOUS
  0
LAYER
  5
1FA
100
AcDbSymbolTableRecord
100
AcDbLayerTableRecord
  2
DEFAULT_1
 70
0
 62
7
  6
CENTER
  0
LAYER
  5
1FB
100
AcDbSymbolTableRecord
100
AcDbLayerTableRecord
  2
DEFAULT_2
 70
0
 62
8
  6
HIDDEN
  0
LAYER
  5
1FC
100
AcDbSymbolTableRecord
100
AcDbLayerTableRecord
  2
DEFAULT_3
 70
0
 62
7
  6
PHANTOM
  0
LAYER
  5
1FD
100
AcDbSymbolTableRecord
100
AcDbLayerTableRecord
  2
A_ACHSEN
 70
0
 62
7
  6
CONTINUOUS
  0
LAYER
  5
1FE
100
AcDbSymbolTableRecord
100
AcDbLayerTableRecord
  2
A_BASISEBENEN
 70
0
 62
7
  6
CONTINUOUS
  0
LAYER
  5
1FF
100
AcDbSymbolTableRecord
100
AcDbLayerTableRecord
  2
A_BEMASSUNGEN
 70
0
 62
7
  6
CONTINUOUS
  0
LAYER
  5
200
100
AcDbSymbolTableRecord
100
AcDbLayerTableRecord
  2
A_BOHRUNGEN
 70
0
 62
7
  6
CONTINUOUS
  0
LAYER
  5
201
100
AcDbSymbolTableRecord
100
AcDbLayerTableRecord
  2
A_EBENEN
 70
0
 62
7
  6
CONTINUOUS
  0
LAYER
  5
202
100
AcDbSymbolTableRecord
100
AcDbLayerTableRecord
  2
A_FASEN
 70
0
 62
7
  6
CONTINUOUS
  0
LAYER
  5
203
100
AcDbSymbolTableRecord
100
AcDbLayerTableRecord
  2
A_FLAECHEN
 70
0
 62
7
  6
CONTINUOUS
  0
LAYER
  5
204
100
AcDbSymbolTableRecord
100
AcDbLayerTableRecord
  2
A_FL_VERBAENDE
 70
0
 62
7
  6
CONTINUOUS
  0
LAYER
  5
205
100
AcDbSymbolTableRecord
100
AcDbLayerTableRecord
  2
A_KURVEN
 70
0
 62
7
  6
CONTINUOUS
  0
LAYER
  5
206
100
AcDbSymbolTableRecord
100
AcDbLayerTableRecord
  2
A_NOTIZEN_SYMB
 70
0
 62
7
  6
CONTINUOUS
  0
LAYER
  5
207
100
AcDbSymbolTableRecord
100
AcDbLayerTableRecord
  2
A_RUNDUNGEN
 70
0
 62
7
  6
CONTINUOUS
  0
LAYER
  5
208
100
AcDbSymbolTableRecord
100
AcDbLayerTableRecord
  2
BASISEBENEN
 70
0
 62
7
  6
CONTINUOUS
  0
LAYER
  5
209
100
AcDbSymbolTableRecord
100
AcDbLayerTableRecord
  2
SCHRAUBENANSICHT_MONTIERT
 70
0
 62
7
  6
CONTINUOUS
  0
LAYER
  5
20A
100
AcDbSymbolTableRecord
100
AcDbLayerTableRecord
  2
VORDERANS_PACK_MONTIERT
 70
0
 62
7
  6
CONTINUOUS
  0
LAYER
  5
20B
100
AcDbSymbolTableRecord
100
AcDbLayerTableRecord
  2
XSEC_DATUMS
 70
0
 62
7
  6
CONTINUOUS
  0
ENDTAB
  0
TABLE
  2
STYLE
  5
3
100
AcDbSymbolTable
 70
1
  0
STYLE
  5
11
100
AcDbSymbolTableRecord
100
AcDbTextStyleTableRecord
  2
STANDARD
 70
0
 40
0.0
 41
1.0
 50
0.0
 71
0
 42
0.2
  3
txt
  4

  0
STYLE
  5
20C
100
AcDbSymbolTableRecord
100
AcDbTextStyleTableRecord
  2
TEXTSTYLE_1
 70
0
 40
0.0
 41
0.8
 50
0.0
 71
0
 42
0.2
  3
gdt
  4

  0
ENDTAB
  0
TABLE
  2
VIEW
  5
6
100
AcDbSymbolTable
 70
0
  0
ENDTAB
  0
TABLE
  2
UCS
  5
7
100
AcDbSymbolTable
 70
0
  0
ENDTAB
  0
TABLE
  2
APPID
  5
9
100
AcDbSymbolTable
 70
1
  0
APPID
  5
20D
100
AcDbSymbolTableRecord
100
AcDbRegAppTableRecord
  2
ACAD
 70
0
  0
ENDTAB
  0
TABLE
  2
BLOCK_RECORD
  5
1
100
AcDbSymbolTable
 70
0
  0
BLOCK_RECORD
  5
1F
100
AcDbSymbolTableRecord
100
AcDbBlockTableRecord
  2
*MODEL_SPACE
  0
BLOCK_RECORD
  5
1B
100
AcDbSymbolTableRecord
100
AcDbBlockTableRecord
  2
*PAPER_SPACE
  0
BLOCK_RECORD
  5
20E
100
AcDbSymbolTableRecord
100
AcDbBlockTableRecord
  2
_ARROW_FILLED
  0
BLOCK_RECORD
  5
20F
100
AcDbSymbolTableRecord
100
AcDbBlockTableRecord
  2
*D0
  0
BLOCK_RECORD
  5
210
100
AcDbSymbolTableRecord
100
AcDbBlockTableRecord
  2
*D1
  0
BLOCK_RECORD
  5
211
100
AcDbSymbolTableRecord
100
AcDbBlockTableRecord
  2
*D2
  0
BLOCK_RECORD
  5
212
100
AcDbSymbolTableRecord
100
AcDbBlockTableRecord
  2
*D3
  0
ENDTAB
  0
TABLE
  2
DIMSTYLE
  5
A
100
AcDbSymbolTable
 70
1
  0
DIMSTYLE
105
213
100
AcDbSymbolTableRecord
100
AcDbDimStyleTableRecord
  2
STANDARD
 70
0
  3

  4

  5
_ARROW_FILLED
  6
_ARROW_FILLED
  7
_ARROW_FILLED
 40
1.0
 41
3.5
 42
0.0
 43
0.38
 44
2.0
 45
0.0
 46
0.0
 47
0.01
 48
0.01
140
3.5
141
0.09
142
0.0
143
25.4
144
1.0
145
0.0
146
1.0
147
0.625
 71
1.0
 72
0.0
 73
0
 74
0
 75
0
 76
0
 77
1
 78
8
170
0
171
2
172
0
173
0
174
0
175
0
176
0
177
0
178
5
270
2
271
2
272
2
273
2
274
2
275
0
280
0
281
0
282
0
283
1
284
8
285
0
286
0
287
3
288
0
340
11
  0
DIMSTYLE
105
214
100
AcDbSymbolTableRecord
100
AcDbDimStyleTableRecord
  2
DIMSTYLE_1
 70
0
  3

  4

  5
_ARROW_FILLED
  6
_ARROW_FILLED
  7
_ARROW_FILLED
 40
1.0
 41
3.5
 42
0.0
 43
0.38
 44
2.0
 45
0.0
 46
0.0
 47
0.2
 48
0.2
140
3.5
141
0.09
142
0.0
143
25.4
144
1.0
145
0.0
146
1.0
147
0.875
 71
0.0
 72
0.0
 73
0
 74
0
 75
0
 76
0
 77
1
 78
8
170
0
171
2
172
0
173
0
174
0
175
0
176
0
177
0
178
5
270
2
271
4
272
4
273
2
274
2
275
0
280
0
281
0
282
0
283
1
284
8
285
0
286
0
287
3
288
0
340
11
  0
DIMSTYLE
105
215
100
AcDbSymbolTableRecord
100
AcDbDimStyleTableRecord
  2
DIMSTYLE_2
 70
0
  3

  4

  5
_ARROW_FILLED
  6
_ARROW_FILLED
  7
_ARROW_FILLED
 40
1.0
 41
3.5
 42
0.0
 43
0.38
 44
2.0
 45
0.0
 46
0.0
 47
0.3
 48
0.3
140
3.5
141
0.09
142
0.0
143
25.4
144
1.0
145
0.0
146
1.0
147
0.875
 71
0.0
 72
0.0
 73
0
 74
0
 75
0
 76
0
 77
1
 78
8
170
0
171
2
172
0
173
0
174
0
175
0
176
0
177
0
178
5
270
2
271
2
272
2
273
2
274
2
275
0
280
0
281
0
282
0
283
1
284
8
285
0
286
0
287
3
288
0
340
11
  0
DIMSTYLE
105
216
100
AcDbSymbolTableRecord
100
AcDbDimStyleTableRecord
  2
DIMSTYLE_3
 70
0
  3

  4

  5
_ARROW_FILLED
  6
_ARROW_FILLED
  7
_ARROW_FILLED
 40
1.0
 41
3.5
 42
0.0
 43
0.38
 44
2.0
 45
0.0
 46
0.0
 47
0.3
 48
0.3
140
3.5
141
0.09
142
0.0
143
25.4
144
1.0
145
0.0
146
1.0
147
0.875
 71
0.0
 72
0.0
 73
0
 74
0
 75
0
 76
0
 77
1
 78
8
170
0
171
2
172
0
173
0
174
0
175
0
176
0
177
0
178
5
270
2
271
4
272
4
273
2
274
2
275
0
280
0
281
0
282
0
283
1
284
8
285
0
286
0
287
3
288
0
340
11
  0
DIMSTYLE
105
217
100
AcDbSymbolTableRecord
100
AcDbDimStyleTableRecord
  2
DIMSTYLE_4
 70
0
  3

  4

  5
_ARROW_FILLED
  6
_ARROW_FILLED
  7
_ARROW_FILLED
 40
1.0
 41
3.5
 42
0.0
 43
0.38
 44
2.0
 45
0.0
 46
0.0
 47
0.5
 48
0.5
140
3.5
141
0.09
142
0.0
143
25.4
144
1.0
145
0.0
146
1.0
147
0.875
 71
0.0
 72
0.0
 73
0
 74
0
 75
0
 76
0
 77
1
 78
8
170
0
171
2
172
0
173
0
174
0
175
0
176
0
177
0
178
5
270
2
271
4
272
4
273
2
274
2
275
0
280
0
281
0
282
0
283
1
284
8
285
0
286
0
287
3
288
0
340
11
  0
ENDTAB
  0
ENDSEC
  0
SECTION
  2
BLOCKS
  0
BLOCK
  5
20
100
AcDbEntity
  8
0
100
AcDbBlockBegin
  2
*MODEL_SPACE
 70
0
 10
0.0
 20
0.0
 30
0.0
  3
*MODEL_SPACE
  1

  0
ENDBLK
  5
21
100
AcDbEntity
  8
0
100
AcDbBlockEnd
  0
BLOCK
  5
1C
100
AcDbEntity
  8
0
100
AcDbBlockBegin
  2
*PAPER_SPACE
 70
0
 10
0.0
 20
0.0
 30
0.0
  3
*PAPER_SPACE
  1

  0
ENDBLK
  5
1D
100
AcDbEntity
  8
0
100
AcDbBlockEnd
  0
BLOCK
  5
218
100
AcDbEntity
  8
0
100
AcDbBlockBegin
  2
_ARROW_FILLED
 70
64
 10
0.0
 20
0.0
  3
_ARROW_FILLED
  1

  0
SOLID
  5
219
100
AcDbEntity
  8
0
  6
BYBLOCK
 62
0
100
AcDbTrace
 10
0.0
 20
0.0
 11
-1.0
 21
0.0940374286
 12
-1.0
 22
-0.0940374286
 13
-1.0
 23
-0.0940374286
  0
ENDBLK
  5
21A
100
AcDbEntity
  8
0
  6
BYBLOCK
 62
0
100
AcDbBlockEnd
  0
BLOCK
  5
21B
100
AcDbEntity
  8
A_BEMASSUNGEN
100
AcDbBlockBegin
 62
2
  6
CONTINUOUS
  2
*D0
 70
65
 10
0.0
 20
0.0
  3
*D0
  1

  0
MTEXT
  5
21C
100
AcDbEntity
  8
A_BEMASSUNGEN
100
AcDbMText
 62
5
  6
CONTINUOUS
  7
STANDARD
 71
2
 72
1
 10
46.9451039862
 20
208.9185757548
 30
0.0
 11
1.0
 21
0.0
 31
0.0
  1
10
 40
3.5
 41
7.125
  0
LINE
  5
21D
100
AcDbEntity
  8
A_BEMASSUNGEN
100
AcDbLine
 62
2
  6
CONTINUOUS
 10
41.9451039862
 20
193.2838393871
 11
41.9451039862
 21
206.5435757548
  0
LINE
  5
21E
100
AcDbEntity
  8
A_BEMASSUNGEN
100
AcDbLine
 62
2
  6
CONTINUOUS
 10
51.9451039862
 20
193.2838393871
 11
51.9451039862
 21
206.5435757548
  0
LINE
  5
21F
100
AcDbEntity
  8
A_BEMASSUNGEN
100
AcDbLine
 62
2
  6
CONTINUOUS
 10
41.9451039862
 20
204.5435757548
 11
46.9451039862
 21
204.5435757548
  0
LINE
  5
220
100
AcDbEntity
  8
A_BEMASSUNGEN
100
AcDbLine
 62
2
  6
CONTINUOUS
 10
51.9451039862
 20
204.5435757548
 11
46.9451039862
 21
204.5435757548
  0
INSERT
  5
221
100
AcDbEntity
  8
A_BEMASSUNGEN
100
AcDbBlockReference
 62
2
  6
CONTINUOUS
  2
_ARROW_FILLED
 10
41.9451039862
 20
204.5435757548
 41
3.5
 42
3.5
 43
3.5
 50
180.0
  0
INSERT
  5
222
100
AcDbEntity
  8
A_BEMASSUNGEN
100
AcDbBlockReference
 62
2
  6
CONTINUOUS
  2
_ARROW_FILLED
 10
51.9451039862
 20
204.5435757548
 41
3.5
 42
3.5
 43
3.5
  0
ENDBLK
  5
223
100
AcDbEntity
  8
0
  6
BYBLOCK
 62
0
100
AcDbBlockEnd
  0
BLOCK
  5
224
100
AcDbEntity
  8
A_BEMASSUNGEN
100
AcDbBlockBegin
 62
2
  6
CONTINUOUS
  2
*D1
 70
65
 10
0.0
 20
0.0
  3
*D1
  1

  0
MTEXT
  5
225
100
AcDbEntity
  8
A_BEMASSUNGEN
100
AcDbMText
 62
5
  6
CONTINUOUS
  7
STANDARD
 71
2
 72
1
 10
46.9762685677
 20
107.714653582
 30
0.0
 11
0.9999991433
 21
-0.0013089966
 31
0.0
  1
54
 40
3.5
 41
7.875
  0
LINE
  5
226
100
AcDbEntity
  8
A_BEMASSUNGEN
100
AcDbLine
 62
2
  6
CONTINUOUS
 10
19.9442886885
 20
83.9066806333
 11
19.9723906683
 21
105.3749995609
  0
LINE
  5
227
100
AcDbEntity
  8
A_BEMASSUNGEN
100
AcDbLine
 62
2
  6
CONTINUOUS
 10
73.9713107404
 20
103.304313386
 11
46.9705417077
 21
103.3396573302
  0
LINE
  5
228
100
AcDbEntity
  8
A_BEMASSUNGEN
100
AcDbLine
 62
2
  6
CONTINUOUS
 10
19.9697726751
 20
103.3750012744
 11
46.9705417077
 21
103.3396573302
  0
INSERT
  5
229
100
AcDbEntity
  8
A_BEMASSUNGEN
100
AcDbBlockReference
 62
2
  6
CONTINUOUS
  2
_ARROW_FILLED
 10
73.9713107404
 20
103.304313386
 41
3.5
 42
3.5
 43
3.5
 50
359.925
  0
INSERT
  5
22A
100
AcDbEntity
  8
A_BEMASSUNGEN
100
AcDbBlockReference
 62
2
  6
CONTINUOUS
  2
_ARROW_FILLED
 10
19.9697726751
 20
103.3750012744
 41
3.5
 42
3.5
 43
3.5
 50
179.925
  0
ENDBLK
  5
22B
100
AcDbEntity
  8
0
  6
BYBLOCK
 62
0
100
AcDbBlockEnd
  0
BLOCK
  5
22C
100
AcDbEntity
  8
A_BEMASSUNGEN
100
AcDbBlockBegin
 62
2
  6
CONTINUOUS
  2
*D2
 70
65
 10
0.0
 20
0.0
  3
*D2
  1

  0
MTEXT
  5
22D
100
AcDbEntity
  8
A_BEMASSUNGEN
100
AcDbMText
 62
5
  6
CONTINUOUS
  7
STANDARD
 71
2
 72
1
 10
3.5524700364
 20
120.7838393871
 30
0.0
 11
0.0
 21
1.0
 31
0.0
  1
75
 40
3.5
 41
7.875
  0
LINE
  5
22E
100
AcDbEntity
  8
A_BEMASSUNGEN
100
AcDbLine
 62
2
  6
CONTINUOUS
 10
59.9798332353
 20
158.2838393871
 11
5.9274700364
 21
158.2838393871
  0
LINE
  5
22F
100
AcDbEntity
  8
A_BEMASSUNGEN
100
AcDbLine
 62
2
  6
CONTINUOUS
 10
59.906940198
 20
83.2838393871
 11
5.9274700364
 21
83.2838393871
  0
LINE
  5
230
100
AcDbEntity
  8
A_BEMASSUNGEN
100
AcDbLine
 62
2
  6
CONTINUOUS
 10
7.9274700364
 20
158.2838393871
 11
7.9274700364
 21
120.7838393871
  0
LINE
  5
231
100
AcDbEntity
  8
A_BEMASSUNGEN
100
AcDbLine
 62
2
  6
CONTINUOUS
 10
7.9274700364
 20
83.2838393871
 11
7.9274700364
 21
120.7838393871
  0
INSERT
  5
232
100
AcDbEntity
  8
A_BEMASSUNGEN
100
AcDbBlockReference
 62
2
  6
CONTINUOUS
  2
_ARROW_FILLED
 10
7.9274700364
 20
158.2838393871
 41
3.5
 42
3.5
 43
3.5
 50
90.0
  0
INSERT
  5
233
100
AcDbEntity
  8
A_BEMASSUNGEN
100
AcDbBlockReference
 62
2
  6
CONTINUOUS
  2
_ARROW_FILLED
 10
7.9274700364
 20
83.2838393871
 41
3.5
 42
3.5
 43
3.5
 50
270.0
  0
ENDBLK
  5
234
100
AcDbEntity
  8
0
  6
BYBLOCK
 62
0
100
AcDbBlockEnd
  0
BLOCK
  5
235
100
AcDbEntity
  8
A_BEMASSUNGEN
100
AcDbBlockBegin
 62
2
  6
CONTINUOUS
  2
*D3
 70
65
 10
0.0
 20
0.0
  3
*D3
  1

  0
MTEXT
  5
236
100
AcDbEntity
  8
A_BEMASSUNGEN
100
AcDbMText
 62
5
  6
CONTINUOUS
  7
STANDARD
 71
2
 72
1
 10
84.52590931
 20
120.7838393871
 30
0.0
 11
0.0
 21
1.0
 31
0.0
  1
200
 40
3.5
 41
12.375
  0
LINE
  5
237
100
AcDbEntity
  8
A_BEMASSUNGEN
100
AcDbLine
 62
2
  6
CONTINUOUS
 10
72.7366453371
 20
220.7838393871
 11
90.90090931
 21
220.7838393871
  0
LINE
  5
238
100
AcDbEntity
  8
A_BEMASSUNGEN
100
AcDbLine
 62
2
  6
CONTINUOUS
 10
72.7366453371
 20
20.7838393871
 11
90.90090931
 21
20.7838393871
  0
LINE
  5
239
100
AcDbEntity
  8
A_BEMASSUNGEN
100
AcDbLine
 62
2
  6
CONTINUOUS
 10
88.90090931
 20
220.7838393871
 11
88.90090931
 21
120.7838393871
  0
LINE
  5
23A
100
AcDbEntity
  8
A_BEMASSUNGEN
100
AcDbLine
 62
2
  6
CONTINUOUS
 10
88.90090931
 20
20.7838393871
 11
88.90090931
 21
120.7838393871
  0
INSERT
  5
23B
100
AcDbEntity
  8
A_BEMASSUNGEN
100
AcDbBlockReference
 62
2
  6
CONTINUOUS
  2
_ARROW_FILLED
 10
88.90090931
 20
220.7838393871
 41
3.5
 42
3.5
 43
3.5
 50
90.0
  0
INSERT
  5
23C
100
AcDbEntity
  8
A_BEMASSUNGEN
100
AcDbBlockReference
 62
2
  6
CONTINUOUS
  2
_ARROW_FILLED
 10
88.90090931
 20
20.7838393871
 41
3.5
 42
3.5
 43
3.5
 50
270.0
  0
ENDBLK
  5
23D
100
AcDbEntity
  8
0
  6
BYBLOCK
 62
0
100
AcDbBlockEnd
  0
ENDSEC
  0
SECTION
  2
ENTITIES
  0
DIMENSION
  5
23E
100
AcDbEntity
  8
A_BEMASSUNGEN
100
AcDbDimension
 62
2
  6
CONTINUOUS
  2
*D0
 10
51.9451039862
 20
204.5435757548
 11
46.9451039862
 21
204.5435757548
 70
160
  3
DIMSTYLE_1
100
AcDbAlignedDimension
 13
41.9451039862
 23
193.2838393871
 14
51.9451039862
 24
193.2838393871
100
AcDbRotatedDimension
  0
DIMENSION
  5
23F
100
AcDbEntity
  8
A_BEMASSUNGEN
100
AcDbDimension
 62
2
  6
CONTINUOUS
  2
*D1
 10
19.9697726751
 20
103.3750012744
 11
46.9705417077
 21
103.3396573302
 70
160
  3
DIMSTYLE_2
100
AcDbAlignedDimension
 13
73.945919284
 23
83.9066806333
 14
19.9442886885
 24
83.9066806333
 50
179.925
100
AcDbRotatedDimension
  0
DIMENSION
  5
240
100
AcDbEntity
  8
A_BEMASSUNGEN
100
AcDbDimension
 62
2
  6
CONTINUOUS
  2
*D2
 10
7.9274700364
 20
83.2838393871
 11
7.9274700364
 21
120.7838393871
 70
160
  3
DIMSTYLE_3
100
AcDbAlignedDimension
 13
59.9798332353
 23
158.2838393871
 14
59.906940198
 24
83.2838393871
 50
270.0
100
AcDbRotatedDimension
  0
DIMENSION
  5
241
100
AcDbEntity
  8
A_BEMASSUNGEN
100
AcDbDimension
 62
2
  6
CONTINUOUS
  2
*D3
 10
88.90090931
 20
20.7838393871
 11
88.90090931
 21
120.7838393871
 70
160
  3
DIMSTYLE_4
100
AcDbAlignedDimension
 13
72.7366453371
 23
220.7838393871
 14
72.7366453371
 24
20.7838393871
 50
270.0
100
AcDbRotatedDimension
  0
LINE
  5
242
100
AcDbEntity
  8
0
100
AcDbLine
 62
3
  6
CONTINUOUS
 10
73.2366453371
 20
20.7838393871
 11
65.3366453371
 21
20.7838393871
  0
LINE
  5
243
100
AcDbEntity
  8
0
100
AcDbLine
 62
7
  6
CONTINUOUS
 10
65.3366453371
 20
20.7838393871
 11
64.3366453371
 21
20.7838393871
  0
LINE
  5
244
100
AcDbEntity
  8
0
100
AcDbLine
 62
7
  6
CONTINUOUS
 10
73.2366453371
 20
20.7838393871
 11
76.2366453371
 21
20.7838393871
  0
LINE
  5
245
100
AcDbEntity
  8
0
100
AcDbLine
 62
3
  6
CONTINUOUS
 10
73.2366453371
 20
37.9776216044
 11
72.7366453371
 21
37.9776216044
  0
LINE
  5
246
100
AcDbEntity
  8
A_ACHSEN
100
AcDbLine
 62
3
  6
CONTINUOUS
 10
72.7366453371
 20
37.9776216044
 11
72.0345741757
 21
37.9776216044
  0
LINE
  5
247
100
AcDbEntity
  8
A_ACHSEN
100
AcDbLine
 62
7
  6
CONTINUOUS
 10
72.1467096451
 20
39.2838393871
 11
72.7366453371
 21
39.2838393871
  0
LINE
  5
248
100
AcDbEntity
  8
0
100
AcDbLine
 62
7
  6
CONTINUOUS
 10
72.7366453371
 20
39.2838393871
 11
73.5866453371
 21
39.2838393871
  0
LINE
  5
249
100
AcDbEntity
  8
A_ACHSEN
100
AcDbLine
 62
7
  6
CENTER
 10
69.0366453371
 20
39.7838393871
 11
62.5366453371
 21
39.7838393871
  0
LINE
  5
24A
100
AcDbEntity
  8
A_ACHSEN
100
AcDbLine
 62
7
  6
CENTER
 10
69.0366453371
 20
39.7838393871
 11
75.5366453371
 21
39.7838393871
  0
LINE
  5
24B
100
AcDbEntity
  8
A_ACHSEN
100
AcDbLine
 62
7
  6
CONTINUOUS
 10
72.1467096451
 20
40.2838393871
 11
72.7366453371
 21
40.2838393871
  0
LINE
  5
24C
100
AcDbEntity
  8
0
100
AcDbLine
 62
7
  6
CONTINUOUS
 10
72.7366453371
 20
40.2838393871
 11
73.5866453371
 21
40.2838393871
  0
LINE
  5
24D
100
AcDbEntity
  8
0
100
AcDbLine
 62
3
  6
CONTINUOUS
 10
73.2366453371
 20
41.7838393871
 11
72.7366453371
 21
41.7838393871
  0
LINE
  5
24E
100
AcDbEntity
  8
A_ACHSEN
100
AcDbLine
 62
3
  6
CONTINUOUS
 10
72.7366453371
 20
41.7838393871
 11
71.9089266603
 21
41.7838393871
  0
LINE
  5
24F
100
AcDbEntity
  8
A_FASEN
100
AcDbLine
 62
7
  6
CONTINUOUS
 10
43.4455722053
 20
46.7838393871
 11
50.4446357671
 21
46.7838393871
  0
LINE
  5
250
100
AcDbEntity
  8
A_FASEN
100
AcDbLine
 62
7
  6
CONTINUOUS
 10
41.9451039862
 20
48.2838393871
 11
51.9451039862
 21
48.2838393871
  0
LINE
  5
251
100
AcDbEntity
  8
A_FASEN
100
AcDbLine
 62
7
  6
CONTINUOUS
 10
41.9451039862
 20
193.2838393871
 11
43.4451039862
 21
194.7838393871
  0
LINE
  5
252
100
AcDbEntity
  8
A_FASEN
100
AcDbLine
 62
7
  6
CONTINUOUS
 10
43.4451039862
 20
46.7838393871
 11
41.9451039862
 21
48.2838393871
  0
LINE
  5
253
100
AcDbEntity
  8
0
100
AcDbLine
 62
3
  6
CONTINUOUS
 10
73.2366453371
 20
72.7838393871
 11
72.7366453371
 21
72.7838393871
  0
LINE
  5
254
100
AcDbEntity
  8
A_ACHSEN
100
AcDbLine
 62
3
  6
CONTINUOUS
 10
72.7366453371
 20
72.7838393871
 11
71.9089266603
 21
72.7838393871
  0
LINE
  5
255
100
AcDbEntity
  8
A_FASEN
100
AcDbLine
 62
7
  6
CONTINUOUS
 10
20.2590374339
 20
158.1958325359
 11
19.9354753838
 21
157.8718466666
  0
LINE
  5
256
100
AcDbEntity
  8
A_ACHSEN
100
AcDbLine
 62
7
  6
CONTINUOUS
 10
72.1467096451
 20
74.2838393871
 11
72.7366453371
 21
74.2838393871
  0
LINE
  5
257
100
AcDbEntity
  8
0
100
AcDbLine
 62
7
  6
CONTINUOUS
 10
72.7366453371
 20
74.2838393871
 11
73.5866453371
 21
74.2838393871
  0
LINE
  5
258
100
AcDbEntity
  8
A_ACHSEN
100
AcDbLine
 62
7
  6
CENTER
 10
69.0366453371
 20
74.7838393871
 11
62.5366453371
 21
74.7838393871
  0
LINE
  5
259
100
AcDbEntity
  8
A_ACHSEN
100
AcDbLine
 62
7
  6
CENTER
 10
69.0366453371
 20
74.7838393871
 11
75.5366453371
 21
74.7838393871
  0
LINE
  5
25A
100
AcDbEntity
  8
A_ACHSEN
100
AcDbLine
 62
7
  6
CONTINUOUS
 10
72.1467096451
 20
75.2838393871
 11
72.7366453371
 21
75.2838393871
  0
LINE
  5
25B
100
AcDbEntity
  8
0
100
AcDbLine
 62
7
  6
CONTINUOUS
 10
72.7366453371
 20
75.2838393871
 11
73.5866453371
 21
75.2838393871
  0
LINE
  5
25C
100
AcDbEntity
  8
0
100
AcDbLine
 62
3
  6
CONTINUOUS
 10
73.2366453371
 20
76.5900571697
 11
72.7366453371
 21
76.5900571697
  0
LINE
  5
25D
100
AcDbEntity
  8
A_ACHSEN
100
AcDbLine
 62
3
  6
CONTINUOUS
 10
72.7366453371
 20
76.5900571697
 11
72.0345741757
 21
76.5900571697
  0
LINE
  5
25E
100
AcDbEntity
  8
A_FASEN
100
AcDbLine
 62
7
  6
CONTINUOUS
 10
20.3559526174
 20
83.3715685581
 11
20.0322952826
 21
83.6948025035
  0
LINE
  5
25F
100
AcDbEntity
  8
A_ACHSEN
100
AcDbLine
 62
7
  6
CONTINUOUS
 10
38.4701196842
 20
82.6838393871
 11
55.4200882882
 21
82.6838393871
  0
LINE
  5
260
100
AcDbEntity
  8
A_RUNDUNGEN
100
AcDbLine
 62
7
  6
CONTINUOUS
 10
73.322280329
 20
83.2838393871
 11
20.5679623457
 21
83.2838393871
  0
LINE
  5
261
100
AcDbEntity
  8
0
100
AcDbLine
 62
7
  6
CONTINUOUS
 10
19.8477464698
 20
157.6594608188
 11
19.9442886885
 21
83.9066806335
  0
LINE
  5
262
100
AcDbEntity
  8
A_ACHSEN
100
AcDbLine
 62
7
  6
CONTINUOUS
 10
38.4701039862
 20
158.8838393871
 11
38.4701039862
 21
158.2838393871
  0
LINE
  5
263
100
AcDbEntity
  8
A_ACHSEN
100
AcDbLine
 62
7
  6
CONTINUOUS
 10
38.4701039862
 20
82.6838393871
 11
38.4701039862
 21
83.2838393871
  0
LINE
  5
264
100
AcDbEntity
  8
A_ACHSEN
100
AcDbLine
 62
7
  6
CONTINUOUS
 10
41.9451039862
 20
48.2838393871
 11
41.9451039862
 21
82.6838393871
  0
LINE
  5
265
100
AcDbEntity
  8
A_ACHSEN
100
AcDbLine
 62
7
  6
CONTINUOUS
 10
41.9451039862
 20
158.8838393871
 11
41.9451039862
 21
193.2838393871
  0
LINE
  5
266
100
AcDbEntity
  8
A_ACHSEN
100
AcDbLine
 62
7
  6
CENTER
 10
46.9451039862
 20
199.4998196595
 11
46.9451039862
 21
111.5700963988
  0
LINE
  5
267
100
AcDbEntity
  8
A_ACHSEN
100
AcDbLine
 62
7
  6
CENTER
 10
46.9451039862
 20
99.7155936065
 11
46.9451039862
 21
40.9636108059
  0
LINE
  5
268
100
AcDbEntity
  8
A_ACHSEN
100
AcDbLine
 62
7
  6
CONTINUOUS
 10
51.9451039862
 20
48.2838393871
 11
51.9451039862
 21
82.6838393871
  0
LINE
  5
269
100
AcDbEntity
  8
A_ACHSEN
100
AcDbLine
 62
7
  6
CONTINUOUS
 10
51.9451039862
 20
158.8838393871
 11
51.9451039862
 21
193.2838393871
  0
LINE
  5
26A
100
AcDbEntity
  8
A_ACHSEN
100
AcDbLine
 62
7
  6
CONTINUOUS
 10
55.4201039862
 20
158.8838393871
 11
55.4201039862
 21
158.2838393871
  0
LINE
  5
26B
100
AcDbEntity
  8
A_ACHSEN
100
AcDbLine
 62
7
  6
CONTINUOUS
 10
55.4201039862
 20
82.6838393871
 11
55.4201039862
 21
83.2838393871
  0
LINE
  5
26C
100
AcDbEntity
  8
0
100
AcDbLine
 62
7
  6
CONTINUOUS
 10
73.2366453371
 20
199.7838393871
 11
73.5866453371
 21
201.2838393871
  0
LINE
  5
26D
100
AcDbEntity
  8
0
100
AcDbLine
 62
7
  6
CONTINUOUS
 10
73.5866453371
 20
40.2838393871
 11
73.2366453371
 21
41.7838393871
  0
LINE
  5
26E
100
AcDbEntity
  8
0
100
AcDbLine
 62
7
  6
CONTINUOUS
 10
73.2366453371
 20
164.9776216044
 11
73.5866453371
 21
166.2838393871
  0
LINE
  5
26F
100
AcDbEntity
  8
0
100
AcDbLine
 62
7
  6
CONTINUOUS
 10
73.5866453371
 20
75.2838393871
 11
73.2366453371
 21
76.5900571697
  0
LINE
  5
270
100
AcDbEntity
  8
0
100
AcDbLine
 62
7
  6
CONTINUOUS
 10
64.3366453371
 20
220.7838393871
 11
64.3366453371
 21
158.2838393871
  0
LINE
  5
271
100
AcDbEntity
  8
0
100
AcDbLine
 62
7
  6
CONTINUOUS
 10
64.3366453371
 20
20.7838393871
 11
64.3366453371
 21
83.2838393871
  0
LINE
  5
272
100
AcDbEntity
  8
0
100
AcDbLine
 62
3
  6
CONTINUOUS
 10
65.3366453371
 20
220.7838393871
 11
65.3366453371
 21
158.2838393871
  0
LINE
  5
273
100
AcDbEntity
  8
0
100
AcDbLine
 62
3
  6
CONTINUOUS
 10
65.3366453371
 20
20.7838393871
 11
65.3366453371
 21
83.2838393871
  0
LINE
  5
274
100
AcDbEntity
  8
A_ACHSEN
100
AcDbLine
 62
7
  6
CENTER
 10
69.0366453371
 20
201.7838393871
 11
69.0366453371
 21
195.2838393871
  0
LINE
  5
275
100
AcDbEntity
  8
A_ACHSEN
100
AcDbLine
 62
7
  6
CENTER
 10
69.0366453371
 20
166.7838393871
 11
69.0366453371
 21
160.2838393871
  0
LINE
  5
276
100
AcDbEntity
  8
A_ACHSEN
100
AcDbLine
 62
7
  6
CENTER
 10
69.0366453371
 20
74.7838393871
 11
69.0366453371
 21
68.2838393871
  0
LINE
  5
277
100
AcDbEntity
  8
A_ACHSEN
100
AcDbLine
 62
7
  6
CENTER
 10
69.0366453371
 20
39.7838393871
 11
69.0366453371
 21
33.2838393871
  0
LINE
  5
278
100
AcDbEntity
  8
A_ACHSEN
100
AcDbLine
 62
7
  6
CENTER
 10
69.0366453371
 20
39.7838393871
 11
69.0366453371
 21
46.2838393871
  0
LINE
  5
279
100
AcDbEntity
  8
A_ACHSEN
100
AcDbLine
 62
7
  6
CENTER
 10
69.0366453371
 20
74.7838393871
 11
69.0366453371
 21
81.2838393871
  0
LINE
  5
27A
100
AcDbEntity
  8
A_ACHSEN
100
AcDbLine
 62
7
  6
CENTER
 10
69.0366453371
 20
166.7838393871
 11
69.0366453371
 21
173.2838393871
  0
LINE
  5
27B
100
AcDbEntity
  8
A_ACHSEN
100
AcDbLine
 62
7
  6
CENTER
 10
69.0366453371
 20
201.7838393871
 11
69.0366453371
 21
208.2838393871
  0
LINE
  5
27C
100
AcDbEntity
  8
0
100
AcDbLine
 62
3
  6
CONTINUOUS
 10
73.2366453371
 20
164.9776216044
 11
73.2366453371
 21
158.4338393871
  0
LINE
  5
27D
100
AcDbEntity
  8
0
100
AcDbLine
 62
3
  6
CONTINUOUS
 10
73.2366453371
 20
83.1338393871
 11
73.2366453371
 21
76.5900571697
  0
LINE
  5
27E
100
AcDbEntity
  8
0
100
AcDbLine
 62
3
  6
CONTINUOUS
 10
73.2366453371
 20
20.7838393871
 11
73.2366453371
 21
37.9776216044
  0
LINE
  5
27F
100
AcDbEntity
  8
0
100
AcDbLine
 62
3
  6
CONTINUOUS
 10
73.2366453371
 20
41.7838393871
 11
73.2366453371
 21
72.7838393871
  0
LINE
  5
280
100
AcDbEntity
  8
0
100
AcDbLine
 62
3
  6
CONTINUOUS
 10
73.2366453371
 20
168.7838393871
 11
73.2366453371
 21
199.7838393871
  0
LINE
  5
281
100
AcDbEntity
  8
0
100
AcDbLine
 62
3
  6
CONTINUOUS
 10
73.2366453371
 20
203.5900571697
 11
73.2366453371
 21
220.7838393871
  0
LINE
  5
282
100
AcDbEntity
  8
0
100
AcDbLine
 62
7
  6
CONTINUOUS
 10
73.5866453371
 20
39.2838393871
 11
73.5866453371
 21
40.2838393871
  0
LINE
  5
283
100
AcDbEntity
  8
0
100
AcDbLine
 62
7
  6
CONTINUOUS
 10
73.5866453371
 20
74.2838393871
 11
73.5866453371
 21
75.2838393871
  0
LINE
  5
284
100
AcDbEntity
  8
0
100
AcDbLine
 62
7
  6
CONTINUOUS
 10
73.5866453371
 20
166.2838393871
 11
73.5866453371
 21
167.2838393871
  0
LINE
  5
285
100
AcDbEntity
  8
0
100
AcDbLine
 62
7
  6
CONTINUOUS
 10
73.5866453371
 20
201.2838393871
 11
73.5866453371
 21
202.2838393871
  0
LINE
  5
286
100
AcDbEntity
  8
0
100
AcDbLine
 62
7
  6
CONTINUOUS
 10
75.2366453371
 20
220.7838393871
 11
75.2366453371
 21
20.7838393871
  0
LINE
  5
287
100
AcDbEntity
  8
0
100
AcDbLine
 62
7
  6
CONTINUOUS
 10
76.2366453371
 20
220.7838393871
 11
76.2366453371
 21
20.7838393871
  0
LINE
  5
288
100
AcDbEntity
  8
0
100
AcDbLine
 62
7
  6
CONTINUOUS
 10
74.0424615026
 20
157.6594608188
 11
73.945919284
 21
83.9066806335
  0
LINE
  5
289
100
AcDbEntity
  8
0
100
AcDbLine
 62
7
  6
CONTINUOUS
 10
73.2366453371
 20
72.7838393871
 11
73.5866453371
 21
74.2838393871
  0
LINE
  5
28A
100
AcDbEntity
  8
0
100
AcDbLine
 62
7
  6
CONTINUOUS
 10
73.5866453371
 20
167.2838393871
 11
73.2366453371
 21
168.7838393871
  0
LINE
  5
28B
100
AcDbEntity
  8
A_RUNDUNGEN
100
AcDbLine
 62
7
  6
CONTINUOUS
 10
20.4713085963
 20
158.2838393871
 11
73.4188258278
 21
158.2838393871
  0
LINE
  5
28C
100
AcDbEntity
  8
A_ACHSEN
100
AcDbLine
 62
7
  6
CONTINUOUS
 10
38.4701196842
 20
158.8838393871
 11
55.4200882882
 21
158.8838393871
  0
LINE
  5
28D
100
AcDbEntity
  8
0
100
AcDbLine
 62
7
  6
CONTINUOUS
 10
73.2366453371
 20
37.9776216044
 11
73.5866453371
 21
39.2838393871
  0
LINE
  5
28E
100
AcDbEntity
  8
A_FASEN
100
AcDbLine
 62
7
  6
CONTINUOUS
 10
73.534255355
 20
83.3715685581
 11
73.8579126898
 21
83.6948025035
  0
LINE
  5
28F
100
AcDbEntity
  8
0
100
AcDbLine
 62
3
  6
CONTINUOUS
 10
73.2366453371
 20
164.9776216044
 11
72.7366453371
 21
164.9776216044
  0
LINE
  5
290
100
AcDbEntity
  8
A_ACHSEN
100
AcDbLine
 62
3
  6
CONTINUOUS
 10
72.7366453371
 20
164.9776216044
 11
72.0345741757
 21
164.9776216044
  0
LINE
  5
291
100
AcDbEntity
  8
A_ACHSEN
100
AcDbLine
 62
7
  6
CONTINUOUS
 10
72.1467096451
 20
166.2838393871
 11
72.7366453371
 21
166.2838393871
  0
LINE
  5
292
100
AcDbEntity
  8
0
100
AcDbLine
 62
7
  6
CONTINUOUS
 10
72.7366453371
 20
166.2838393871
 11
73.5866453371
 21
166.2838393871
  0
LINE
  5
293
100
AcDbEntity
  8
A_ACHSEN
100
AcDbLine
 62
7
  6
CENTER
 10
69.0366453371
 20
166.7838393871
 11
62.5366453371
 21
166.7838393871
  0
LINE
  5
294
100
AcDbEntity
  8
A_ACHSEN
100
AcDbLine
 62
7
  6
CENTER
 10
69.0366453371
 20
166.7838393871
 11
75.5366453371
 21
166.7838393871
  0
LINE
  5
295
100
AcDbEntity
  8
A_ACHSEN
100
AcDbLine
 62
7
  6
CONTINUOUS
 10
72.1467096451
 20
167.2838393871
 11
72.7366453371
 21
167.2838393871
  0
LINE
  5
296
100
AcDbEntity
  8
0
100
AcDbLine
 62
7
  6
CONTINUOUS
 10
72.7366453371
 20
167.2838393871
 11
73.5866453371
 21
167.2838393871
  0
LINE
  5
297
100
AcDbEntity
  8
0
100
AcDbLine
 62
3
  6
CONTINUOUS
 10
73.2366453371
 20
168.7838393871
 11
72.7366453371
 21
168.7838393871
  0
LINE
  5
298
100
AcDbEntity
  8
A_ACHSEN
100
AcDbLine
 62
3
  6
CONTINUOUS
 10
72.7366453371
 20
168.7838393871
 11
71.9089266603
 21
168.7838393871
  0
LINE
  5
299
100
AcDbEntity
  8
A_FASEN
100
AcDbLine
 62
7
  6
CONTINUOUS
 10
73.6311705385
 20
158.1958325359
 11
73.9547325886
 21
157.8718466666
  0
LINE
  5
29A
100
AcDbEntity
  8
0
100
AcDbLine
 62
7
  6
CONTINUOUS
 10
73.5866453371
 20
202.2838393871
 11
73.2366453371
 21
203.5900571697
  0
LINE
  5
29B
100
AcDbEntity
  8
A_FASEN
100
AcDbLine
 62
7
  6
CONTINUOUS
 10
50.4451039862
 20
46.7838393871
 11
51.9451039862
 21
48.2838393871
  0
LINE
  5
29C
100
AcDbEntity
  8
A_FASEN
100
AcDbLine
 62
7
  6
CONTINUOUS
 10
51.9451039862
 20
193.2838393871
 11
50.4451039862
 21
194.7838393871
  0
LINE
  5
29D
100
AcDbEntity
  8
A_FASEN
100
AcDbLine
 62
7
  6
CONTINUOUS
 10
41.9451039862
 20
193.2838393871
 11
51.9451039862
 21
193.2838393871
  0
LINE
  5
29E
100
AcDbEntity
  8
A_FASEN
100
AcDbLine
 62
7
  6
CONTINUOUS
 10
43.4455722053
 20
194.7838393871
 11
50.4446357671
 21
194.7838393871
  0
LINE
  5
29F
100
AcDbEntity
  8
0
100
AcDbLine
 62
3
  6
CONTINUOUS
 10
73.2366453371
 20
199.7838393871
 11
72.7366453371
 21
199.7838393871
  0
LINE
  5
2A0
100
AcDbEntity
  8
A_ACHSEN
100
AcDbLine
 62
3
  6
CONTINUOUS
 10
72.7366453371
 20
199.7838393871
 11
71.9089266603
 21
199.7838393871
  0
LINE
  5
2A1
100
AcDbEntity
  8
A_ACHSEN
100
AcDbLine
 62
7
  6
CONTINUOUS
 10
72.1467096451
 20
201.2838393871
 11
72.7366453371
 21
201.2838393871
  0
LINE
  5
2A2
100
AcDbEntity
  8
0
100
AcDbLine
 62
7
  6
CONTINUOUS
 10
72.7366453371
 20
201.2838393871
 11
73.5866453371
 21
201.2838393871
  0
LINE
  5
2A3
100
AcDbEntity
  8
A_ACHSEN
100
AcDbLine
 62
7
  6
CENTER
 10
69.0366453371
 20
201.7838393871
 11
62.5366453371
 21
201.7838393871
  0
LINE
  5
2A4
100
AcDbEntity
  8
A_ACHSEN
100
AcDbLine
 62
7
  6
CENTER
 10
69.0366453371
 20
201.7838393871
 11
75.5366453371
 21
201.7838393871
  0
LINE
  5
2A5
100
AcDbEntity
  8
A_ACHSEN
100
AcDbLine
 62
7
  6
CONTINUOUS
 10
72.1467096451
 20
202.2838393871
 11
72.7366453371
 21
202.2838393871
  0
LINE
  5
2A6
100
AcDbEntity
  8
0
100
AcDbLine
 62
7
  6
CONTINUOUS
 10
72.7366453371
 20
202.2838393871
 11
73.5866453371
 21
202.2838393871
  0
LINE
  5
2A7
100
AcDbEntity
  8
0
100
AcDbLine
 62
3
  6
CONTINUOUS
 10
73.2366453371
 20
203.5900571697
 11
72.7366453371
 21
203.5900571697
  0
LINE
  5
2A8
100
AcDbEntity
  8
A_ACHSEN
100
AcDbLine
 62
3
  6
CONTINUOUS
 10
72.7366453371
 20
203.5900571697
 11
72.0345741757
 21
203.5900571697
  0
LINE
  5
2A9
100
AcDbEntity
  8
0
100
AcDbLine
 62
3
  6
CONTINUOUS
 10
73.2366453371
 20
220.7838393871
 11
65.3366453371
 21
220.7838393871
  0
LINE
  5
2AA
100
AcDbEntity
  8
0
100
AcDbLine
 62
7
  6
CONTINUOUS
 10
65.3366453371
 20
220.7838393871
 11
64.3366453371
 21
220.7838393871
  0
LINE
  5
2AB
100
AcDbEntity
  8
0
100
AcDbLine
 62
7
  6
CONTINUOUS
 10
73.2366453371
 20
220.7838393871
 11
76.2366453371
 21
220.7838393871
  0
ARC
  5
2AC
100
AcDbEntity
  8
A_RUNDUNGEN
100
AcDbCircle
 62
7
  6
CONTINUOUS
 10
20.5679457663
 20
83.5838393871
 40
0.3
100
AcDbArc
 50
225.0374999999
 51
270.0
  0
ARC
  5
2AD
100
AcDbEntity
  8
A_RUNDUNGEN
100
AcDbCircle
 62
7
  6
CONTINUOUS
 10
20.2442884314
 20
83.9070733325
 40
0.3
100
AcDbArc
 50
180.075
 51
225.0374999999
  0
ARC
  5
2AE
100
AcDbEntity
  8
A_RUNDUNGEN
100
AcDbCircle
 62
7
  6
CONTINUOUS
 10
20.4713082629
 20
157.9838393871
 40
0.3
100
AcDbArc
 50
90.0
 51
135.0375
  0
ARC
  5
2AF
100
AcDbEntity
  8
A_RUNDUNGEN
100
AcDbCircle
 62
7
  6
CONTINUOUS
 10
20.1477462128
 20
157.6598535178
 40
0.3
100
AcDbArc
 50
135.0375
 51
180.075
  0
ARC
  5
2B0
100
AcDbEntity
  8
0
100
AcDbCircle
 62
7
  6
CONTINUOUS
 10
64.7519331939
 20
83.7865442924
 40
8.5097804817
100
AcDbArc
 50
355.6010614287
 51
356.6128830835
  0
ARC
  5
2B1
100
AcDbEntity
  8
0
100
AcDbCircle
 62
7
  6
CONTINUOUS
 10
64.7835433701
 20
65.7832393114
 40
8.4781019882
100
AcDbArc
 50
0.0040553655
 51
4.401140958
  0
ARC
  5
2B2
100
AcDbEntity
  8
0
100
AcDbCircle
 62
7
  6
CONTINUOUS
 10
64.7835433701
 20
65.7844394627
 40
8.4781019882
100
AcDbArc
 50
355.598859042
 51
359.9959446345
  0
ARC
  5
2B3
100
AcDbEntity
  8
0
100
AcDbCircle
 62
7
  6
CONTINUOUS
 10
64.7835433701
 20
47.7832393114
 40
8.4781019882
100
AcDbArc
 50
0.0040553655
 51
4.401140958
  0
ARC
  5
2B4
100
AcDbEntity
  8
0
100
AcDbCircle
 62
7
  6
CONTINUOUS
 10
64.7835433701
 20
47.7844394627
 40
8.4781019882
100
AcDbArc
 50
355.598859042
 51
359.9959446345
  0
ARC
  5
2B5
100
AcDbEntity
  8
0
100
AcDbCircle
 62
7
  6
CONTINUOUS
 10
64.7835433701
 20
29.7832393114
 40
8.4781019882
100
AcDbArc
 50
0.0040553655
 51
4.401140958
  0
ARC
  5
2B6
100
AcDbEntity
  8
0
100
AcDbCircle
 62
7
  6
CONTINUOUS
 10
64.7835433701
 20
29.7844394627
 40
8.4781019882
100
AcDbArc
 50
355.598859042
 51
359.9959446345
  0
ARC
  5
2B7
100
AcDbEntity
  8
A_ACHSEN
100
AcDbCircle
 62
3
  6
CONTINUOUS
 10
69.0366453371
 20
74.7838393871
 40
3.5
100
AcDbArc
 50
31.068481953
 51
325.150095421
  0
ARC
  5
2B8
100
AcDbEntity
  8
A_ACHSEN
100
AcDbCircle
 62
3
  6
CONTINUOUS
 10
69.0366453371
 20
39.7838393871
 40
3.5
100
AcDbArc
 50
34.849904579
 51
328.931518047
  0
ARC
  5
2B9
100
AcDbEntity
  8
A_ACHSEN
100
AcDbCircle
 62
7
  6
CONTINUOUS
 10
69.0366453371
 20
39.7838393871
 40
3.15
100
AcDbArc
 50
350.8668022163
 51
9.1331977837
  0
ARC
  5
2BA
100
AcDbEntity
  8
A_ACHSEN
100
AcDbCircle
 62
7
  6
CONTINUOUS
 10
69.0366453371
 20
74.7838393871
 40
3.15
100
AcDbArc
 50
350.8668022163
 51
9.1331977837
  0
CIRCLE
  5
2BB
100
AcDbEntity
  8
A_ACHSEN
100
AcDbCircle
 62
7
  6
CONTINUOUS
 10
69.0366453371
 20
74.7838393871
 40
2.25
  0
CIRCLE
  5
2BC
100
AcDbEntity
  8
A_ACHSEN
100
AcDbCircle
 62
7
  6
CONTINUOUS
 10
69.0366453371
 20
39.7838393871
 40
2.25
  0
ARC
  5
2BD
100
AcDbEntity
  8
A_RUNDUNGEN
100
AcDbCircle
 62
7
  6
CONTINUOUS
 10
73.3222622061
 20
83.5838393871
 40
0.3
100
AcDbArc
 50
270.0
 51
314.9625000001
  0
ARC
  5
2BE
100
AcDbEntity
  8
A_RUNDUNGEN
100
AcDbCircle
 62
7
  6
CONTINUOUS
 10
73.645919541
 20
83.9070733325
 40
0.3
100
AcDbArc
 50
314.9625
 51
359.925
  0
ARC
  5
2BF
100
AcDbEntity
  8
0
100
AcDbCircle
 62
7
  6
CONTINUOUS
 10
64.7519331577
 20
157.7811344769
 40
8.5097805181
100
AcDbArc
 50
3.387116701
 51
4.3989385854
  0
ARC
  5
2C0
100
AcDbEntity
  8
0
100
AcDbCircle
 62
7
  6
CONTINUOUS
 10
64.7835433701
 20
175.7832393114
 40
8.4781019882
100
AcDbArc
 50
0.0040553655
 51
4.401140958
  0
ARC
  5
2C1
100
AcDbEntity
  8
0
100
AcDbCircle
 62
7
  6
CONTINUOUS
 10
64.7835433701
 20
175.7844394627
 40
8.4781019882
100
AcDbArc
 50
355.598859042
 51
359.9959446345
  0
ARC
  5
2C2
100
AcDbEntity
  8
0
100
AcDbCircle
 62
7
  6
CONTINUOUS
 10
64.7835433701
 20
193.7832393114
 40
8.4781019882
100
AcDbArc
 50
0.0040553655
 51
4.401140958
  0
ARC
  5
2C3
100
AcDbEntity
  8
0
100
AcDbCircle
 62
7
  6
CONTINUOUS
 10
64.7835433701
 20
193.7844394627
 40
8.4781019882
100
AcDbArc
 50
355.598859042
 51
359.9959446345
  0
ARC
  5
2C4
100
AcDbEntity
  8
0
100
AcDbCircle
 62
7
  6
CONTINUOUS
 10
64.7835433701
 20
211.7832393114
 40
8.4781019882
100
AcDbArc
 50
0.0040553655
 51
4.401140958
  0
ARC
  5
2C5
100
AcDbEntity
  8
0
100
AcDbCircle
 62
7
  6
CONTINUOUS
 10
64.7835433701
 20
211.7844394627
 40
8.4781019882
100
AcDbArc
 50
355.598859042
 51
359.9959446345
  0
ARC
  5
2C6
100
AcDbEntity
  8
A_ACHSEN
100
AcDbCircle
 62
3
  6
CONTINUOUS
 10
69.0366453371
 20
166.7838393871
 40
3.5
100
AcDbArc
 50
34.849904579
 51
328.931518047
  0
ARC
  5
2C7
100
AcDbEntity
  8
A_ACHSEN
100
AcDbCircle
 62
3
  6
CONTINUOUS
 10
69.0366453371
 20
201.7838393871
 40
3.5
100
AcDbArc
 50
31.068481953
 51
325.150095421
  0
ARC
  5
2C8
100
AcDbEntity
  8
A_ACHSEN
100
AcDbCircle
 62
7
  6
CONTINUOUS
 10
69.0366453371
 20
201.7838393871
 40
3.15
100
AcDbArc
 50
350.8668022163
 51
9.1331977837
  0
ARC
  5
2C9
100
AcDbEntity
  8
A_ACHSEN
100
AcDbCircle
 62
7
  6
CONTINUOUS
 10
69.0366453371
 20
166.7838393871
 40
3.15
100
AcDbArc
 50
350.8668022163
 51
9.1331977837
  0
CIRCLE
  5
2CA
100
AcDbEntity
  8
A_ACHSEN
100
AcDbCircle
 62
7
  6
CONTINUOUS
 10
69.0366453371
 20
166.7838393871
 40
2.25
  0
CIRCLE
  5
2CB
100
AcDbEntity
  8
A_ACHSEN
100
AcDbCircle
 62
7
  6
CONTINUOUS
 10
69.0366453371
 20
201.7838393871
 40
2.25
  0
ARC
  5
2CC
100
AcDbEntity
  8
A_RUNDUNGEN
100
AcDbCircle
 62
7
  6
CONTINUOUS
 10
73.4188997095
 20
157.9838393871
 40
0.3
100
AcDbArc
 50
44.9625
 51
90.0
  0
ARC
  5
2CD
100
AcDbEntity
  8
A_RUNDUNGEN
100
AcDbCircle
 62
7
  6
CONTINUOUS
 10
73.7424617596
 20
157.6598535178
 40
0.3
100
AcDbArc
 50
359.925
 51
44.9625
  0
ELLIPSE
  5
2CE
100
AcDbEntity
  8
A_ACHSEN
100
AcDbEllipse
 62
7
  6
CONTINUOUS
 10
69.0366453371
 20
74.0353082472
 30
0.0
 11
0.0
 21
3.2079905993
 31
0.0
 40
0.9723968097
 41
-1.9715472626
 42
-1.493246091
  0
ELLIPSE
  5
2CF
100
AcDbEntity
  8
A_ACHSEN
100
AcDbEllipse
 62
7
  6
CONTINUOUS
 10
69.0366453371
 20
202.6544909264
 30
0.0
 11
0.0
 21
3.2493157806
 31
0.0
 40
0.963433044
 41
-1.6851158127
 42
-1.278734704
  0
ELLIPSE
  5
2D0
100
AcDbEntity
  8
A_ACHSEN
100
AcDbEllipse
 62
7
  6
CONTINUOUS
 10
69.0366453371
 20
201.0353082472
 30
0.0
 11
-0.0
 21
3.2079905993
 31
0.0
 40
0.9723968097
 41
-1.9715472626
 42
-1.493246091
  0
ELLIPSE
  5
2D1
100
AcDbEntity
  8
A_ACHSEN
100
AcDbEllipse
 62
7
  6
CONTINUOUS
 10
69.0366453371
 20
40.5323705269
 30
0.0
 11
0.0
 21
3.2079905993
 31
0.0
 40
0.9723968097
 41
-1.6483465626
 42
-1.170045391
  0
ELLIPSE
  5
2D2
100
AcDbEntity
  8
A_ACHSEN
100
AcDbEllipse
 62
7
  6
CONTINUOUS
 10
69.0366453371
 20
38.9131878477
 30
0.0
 11
0.0
 21
3.2493157806
 31
0.0
 40
0.963433044
 41
-1.8628579496
 42
-1.4564768409
  0
ELLIPSE
  5
2D3
100
AcDbEntity
  8
A_ACHSEN
100
AcDbEllipse
 62
7
  6
CONTINUOUS
 10
69.0366453371
 20
167.5323705269
 30
0.0
 11
0.0
 21
3.2079905993
 31
0.0
 40
0.9723968097
 41
-1.6483465626
 42
-1.170045391
  0
ELLIPSE
  5
2D4
100
AcDbEntity
  8
A_ACHSEN
100
AcDbEllipse
 62
7
  6
CONTINUOUS
 10
69.0366453371
 20
165.9131878477
 30
0.0
 11
-0.0
 21
3.2493157806
 31
0.0
 40
0.963433044
 41
-1.8628579496
 42
-1.4564768409
  0
ELLIPSE
  5
2D5
100
AcDbEntity
  8
A_ACHSEN
100
AcDbEllipse
 62
7
  6
CONTINUOUS
 10
69.0366453371
 20
75.6544909264
 30
0.0
 11
0.0
 21
3.2493157806
 31
0.0
 40
0.963433044
 41
-1.6851158127
 42
-1.278734704
  0
ENDSEC
  0
SECTION
  2
OBJECTS
  0
DICTIONARY
  5
2D6
100
AcDbDictionary
  3
ACAD_GROUP
350
2D7
  3
ACAD_MLINESTYLE
350
2D8
  0
DICTIONARY
  5
2D7
102
{ACAD_REACTORS
330
2D6
102
}
100
AcDbDictionary
  0
DICTIONARY
  5
2D8
102
{ACAD_REACTORS
330
2D6
102
}
100
AcDbDictionary
  3
STANDARD
350
2D9
  0
MLINESTYLE
  5
2D9
102
{ACAD_REACTORS
330
2D8
102
}
100
AcDbMlineStyle
  2
STANDARD
 70
0
  3

 62
256
 51
90.0
 52
90.0
 71
2
 49
0.5
 62
256
  6
BYLAYER
 49
-0.5
 62
256
  6
BYLAYER
  0
ENDSEC
  0
EOF
