  0
SECTION
  2
HEADER
  9
$ACADVER
  1
AC1018
  9
$ACADMAINTVER
 70
     0
  9
$DWGCODEPAGE
  3
ANSI_1252
  9
$INSBASE
 10
0.0
 20
0.0
 30
0.0
  9
$EXTMIN
 10
-39.1950143738548
 20
-21.24442348515061
 30
0.0
  9
$EXTMAX
 10
29.0123976443399
 20
60.985700672888
 30
0.0
  9
$LIMMIN
 10
0.0
 20
0.0
  9
$LIMMAX
 10
12.0
 20
9.0
  9
$ORTHOMODE
 70
     0
  9
$REGENMODE
 70
     1
  9
$FILLMODE
 70
     1
  9
$QTEXTMODE
 70
     0
  9
$MIRRTEXT
 70
     1
  9
$LTSCALE
 40
1.0
  9
$ATTMODE
 70
     1
  9
$TEXTSIZE
 40
0.2
  9
$TRACEWID
 40
0.05
  9
$TEXTSTYLE
  7
Standard
  9
$CLAYER
  8
0
  9
$CELTYPE
  6
ByLayer
  9
$CECOLOR
 62
   256
  9
$CELTSCALE
 40
1.0
  9
$DISPSILH
 70
     0
  9
$DIMSCALE
 40
1.0
  9
$DIMASZ
 40
0.18
  9
$DIMEXO
 40
0.0625
  9
$DIMDLI
 40
0.38
  9
$DIMRND
 40
0.0
  9
$DIMDLE
 40
0.0
  9
$DIMEXE
 40
0.18
  9
$DIMTP
 40
0.0
  9
$DIMTM
 40
0.0
  9
$DIMTXT
 40
0.18
  9
$DIMCEN
 40
0.09
  9
$DIMTSZ
 40
0.0
  9
$DIMTOL
 70
     0
  9
$DIMLIM
 70
     0
  9
$DIMTIH
 70
     1
  9
$DIMTOH
 70
     1
  9
$DIMSE1
 70
     0
  9
$DIMSE2
 70
     0
  9
$DIMTAD
 70
     0
  9
$DIMZIN
 70
     0
  9
$DIMBLK
  1

  9
$DIMASO
 70
     1
  9
$DIMSHO
 70
     1
  9
$DIMPOST
  1

  9
$DIMAPOST
  1

  9
$DIMALT
 70
     0
  9
$DIMALTD
 70
     2
  9
$DIMALTF
 40
25.4
  9
$DIMLFAC
 40
1.0
  9
$DIMTOFL
 70
     0
  9
$DIMTVP
 40
0.0
  9
$DIMTIX
 70
     0
  9
$DIMSOXD
 70
     0
  9
$DIMSAH
 70
     0
  9
$DIMBLK1
  1

  9
$DIMBLK2
  1

  9
$DIMSTYLE
  2
Standard
  9
$DIMCLRD
 70
     0
  9
$DIMCLRE
 70
     0
  9
$DIMCLRT
 70
     0
  9
$DIMTFAC
 40
1.0
  9
$DIMGAP
 40
0.09
  9
$DIMJUST
 70
     0
  9
$DIMSD1
 70
     0
  9
$DIMSD2
 70
     0
  9
$DIMTOLJ
 70
     1
  9
$DIMTZIN
 70
     0
  9
$DIMALTZ
 70
     0
  9
$DIMALTTZ
 70
     0
  9
$DIMUPT
 70
     0
  9
$DIMDEC
 70
     4
  9
$DIMTDEC
 70
     4
  9
$DIMALTU
 70
     2
  9
$DIMALTTD
 70
     2
  9
$DIMTXSTY
  7
Standard
  9
$DIMAUNIT
 70
     0
  9
$DIMADEC
 70
     0
  9
$DIMALTRND
 40
0.0
  9
$DIMAZIN
 70
     0
  9
$DIMDSEP
 70
    46
  9
$DIMATFIT
 70
     3
  9
$DIMFRAC
 70
     0
  9
$DIMLDRBLK
  1

  9
$DIMLUNIT
 70
     2
  9
$DIMLWD
 70
    -2
  9
$DIMLWE
 70
    -2
  9
$DIMTMOVE
 70
     0
  9
$LUNITS
 70
     2
  9
$LUPREC
 70
     4
  9
$SKETCHINC
 40
0.1
  9
$FILLETRAD
 40
0.5
  9
$AUNITS
 70
     0
  9
$AUPREC
 70
     0
  9
$MENU
  1
.
  9
$ELEVATION
 40
0.0
  9
$PELEVATION
 40
0.0
  9
$THICKNESS
 40
0.0
  9
$LIMCHECK
 70
     0
  9
$CHAMFERA
 40
0.5
  9
$CHAMFERB
 40
0.5
  9
$CHAMFERC
 40
1.0
  9
$CHAMFERD
 40
0.0
  9
$SKPOLY
 70
     0
  9
$TDCREATE
 40
2454428.417412546
  9
$TDUCREATE
 40
2454428.375745879
  9
$TDUPDATE
 40
2454428.417412558
  9
$TDUUPDATE
 40
2454428.375745891
  9
$TDINDWG
 40
0.0000000116
  9
$TDUSRTIMER
 40
0.0000000116
  9
$USRTIMER
 70
     1
  9
$ANGBASE
 50
0.0
  9
$ANGDIR
 70
     0
  9
$PDMODE
 70
     0
  9
$PDSIZE
 40
0.0
  9
$PLINEWID
 40
0.0
  9
$SPLFRAME
 70
     0
  9
$SPLINETYPE
 70
     6
  9
$SPLINESEGS
 70
     8
  9
$HANDSEED
  5
13B
  9
$SURFTAB1
 70
     6
  9
$SURFTAB2
 70
     6
  9
$SURFTYPE
 70
     6
  9
$SURFU
 70
     6
  9
$SURFV
 70
     6
  9
$UCSBASE
  2

  9
$UCSNAME
  2

  9
$UCSORG
 10
0.0
 20
0.0
 30
0.0
  9
$UCSXDIR
 10
1.0
 20
0.0
 30
0.0
  9
$UCSYDIR
 10
0.0
 20
1.0
 30
0.0
  9
$UCSORTHOREF
  2

  9
$UCSORTHOVIEW
 70
     0
  9
$UCSORGTOP
 10
0.0
 20
0.0
 30
0.0
  9
$UCSORGBOTTOM
 10
0.0
 20
0.0
 30
0.0
  9
$UCSORGLEFT
 10
0.0
 20
0.0
 30
0.0
  9
$UCSORGRIGHT
 10
0.0
 20
0.0
 30
0.0
  9
$UCSORGFRONT
 10
0.0
 20
0.0
 30
0.0
  9
$UCSORGBACK
 10
0.0
 20
0.0
 30
0.0
  9
$PUCSBASE
  2

  9
$PUCSNAME
  2

  9
$PUCSORG
 10
0.0
 20
0.0
 30
0.0
  9
$PUCSXDIR
 10
1.0
 20
0.0
 30
0.0
  9
$PUCSYDIR
 10
0.0
 20
1.0
 30
0.0
  9
$PUCSORTHOREF
  2

  9
$PUCSORTHOVIEW
 70
     0
  9
$PUCSORGTOP
 10
0.0
 20
0.0
 30
0.0
  9
$PUCSORGBOTTOM
 10
0.0
 20
0.0
 30
0.0
  9
$PUCSORGLEFT
 10
0.0
 20
0.0
 30
0.0
  9
$PUCSORGRIGHT
 10
0.0
 20
0.0
 30
0.0
  9
$PUCSORGFRONT
 10
0.0
 20
0.0
 30
0.0
  9
$PUCSORGBACK
 10
0.0
 20
0.0
 30
0.0
  9
$USERI1
 70
     0
  9
$USERI2
 70
     0
  9
$USERI3
 70
     0
  9
$USERI4
 70
     0
  9
$USERI5
 70
     0
  9
$USERR1
 40
14.5
  9
$USERR2
 40
0.0
  9
$USERR3
 40
0.0
  9
$USERR4
 40
0.0
  9
$USERR5
 40
0.0
  9
$WORLDVIEW
 70
     1
  9
$SHADEDGE
 70
     3
  9
$SHADEDIF
 70
    70
  9
$TILEMODE
 70
     1
  9
$MAXACTVP
 70
    64
  9
$PINSBASE
 10
0.0
 20
0.0
 30
0.0
  9
$PLIMCHECK
 70
     0
  9
$PEXTMIN
 10
1.00000000000000E+20
 20
1.00000000000000E+20
 30
1.00000000000000E+20
  9
$PEXTMAX
 10
-1.00000000000000E+20
 20
-1.00000000000000E+20
 30
-1.00000000000000E+20
  9
$PLIMMIN
 10
0.0
 20
0.0
  9
$PLIMMAX
 10
12.0
 20
9.0
  9
$UNITMODE
 70
     0
  9
$VISRETAIN
 70
     1
  9
$PLINEGEN
 70
     0
  9
$PSLTSCALE
 70
     1
  9
$TREEDEPTH
 70
  3020
  9
$CMLSTYLE
  2
Standard
  9
$CMLJUST
 70
     0
  9
$CMLSCALE
 40
1.0
  9
$PROXYGRAPHICS
 70
     1
  9
$MEASUREMENT
 70
     1
  9
$CELWEIGHT
370
    -1
  9
$ENDCAPS
280
     0
  9
$JOINSTYLE
280
     0
  9
$LWDISPLAY
290
     0
  9
$INSUNITS
 70
     1
  9
$HYPERLINKBASE
  1

  9
$STYLESHEET
  1

  9
$XEDIT
290
     1
  9
$CEPSNTYPE
380
     0
  9
$PSTYLEMODE
290
     1
  9
$FINGERPRINTGUID
  2
{A6FDAAFB-3B9F-47A0-B135-7C093F31AF25}
  9
$VERSIONGUID
  2
{FAEB1C32-E019-11D5-929B-00C0DF256EC4}
  9
$EXTNAMES
290
     1
  9
$PSVPSCALE
 40
0.0
  9
$OLESTARTUP
290
     0
  9
$SORTENTS
280
   127
  9
$INDEXCTL
280
     0
  9
$HIDETEXT
280
     1
  9
$XCLIPFRAME
290
     0
  9
$HALOGAP
280
     0
  9
$OBSCOLOR
 70
   257
  9
$OBSLTYPE
280
     0
  9
$INTERSECTIONDISPLAY
280
     0
  9
$INTERSECTIONCOLOR
 70
   257
  9
$DIMASSOC
280
     2
  9
$PROJECTNAME
  1

  0
ENDSEC
  0
SECTION
  2
CLASSES
  0
CLASS
  1
ACDBDICTIONARYWDFLT
  2
AcDbDictionaryWithDefault
  3
ObjectDBX Classes
 90
        0
 91
        3
280
     0
281
     0
  0
CLASS
  1

  2
exOdDbSpline
  3

 90
        0
 91
        3
280
     0
281
     1
  0
ENDSEC
  0
SECTION
  2
TABLES
  0
TABLE
  2
VPORT
  5
8
330
0
100
AcDbSymbolTable
 70
     1
  0
VPORT
  5
29
330
8
100
AcDbSymbolTableRecord
100
AcDbViewportTableRecord
  2
*Active
 70
     0
 10
0.0
 20
0.0
 11
1.0
 21
1.0
 12
-5.09130836475745
 22
19.8706385938687
 13
0.0
 23
0.0
 14
0.5
 24
0.5
 15
0.5
 25
0.5
 16
0.0
 26
0.0
 36
1.0
 17
0.0
 27
0.0
 37
0.0
 40
90.45313657384247
 41
1.60267857142857
 42
50.0
 43
0.0
 44
0.0
 50
0.0
 51
0.0
 71
     0
 72
   100
 73
     1
 74
     3
 75
     0
 76
     0
 77
     0
 78
     0
281
     0
 65
     1
110
0.0
120
0.0
130
0.0
111
1.0
121
0.0
131
0.0
112
0.0
122
1.0
132
0.0
 79
     0
146
0.0
  0
ENDTAB
  0
TABLE
  2
LTYPE
  5
5
330
0
100
AcDbSymbolTable
 70
     8
  0
LTYPE
  5
14
330
5
100
AcDbSymbolTableRecord
100
AcDbLinetypeTableRecord
  2
ByBlock
 70
     0
  3

 72
    65
 73
     0
 40
0.0
  0
LTYPE
  5
15
330
5
100
AcDbSymbolTableRecord
100
AcDbLinetypeTableRecord
  2
ByLayer
 70
     0
  3

 72
    65
 73
     0
 40
0.0
  0
LTYPE
  5
16
330
5
100
AcDbSymbolTableRecord
100
AcDbLinetypeTableRecord
  2
Continuous
 70
     0
  3
Solid line
 72
    65
 73
     0
 40
0.0
  0
LTYPE
  5
2A
330
5
100
AcDbSymbolTableRecord
100
AcDbLinetypeTableRecord
  2
DASHED
 70
     0
  3
Dashed
 72
    65
 73
     2
 40
15.0
 49
7.0
 74
     0
 49
-8.0
 74
     0
  0
LTYPE
  5
2B
330
5
100
AcDbSymbolTableRecord
100
AcDbLinetypeTableRecord
  2
DOTTED
 70
     0
  3
Dotted
 72
    65
 73
     2
 40
1.0
 49
0.0
 74
     0
 49
-1.0
 74
     0
  0
LTYPE
  5
2C
330
5
100
AcDbSymbolTableRecord
100
AcDbLinetypeTableRecord
  2
DOT_CENTER
 70
     0
  3
Dot_Center
 72
    65
 73
     4
 40
14.0
 49
12.0
 74
     0
 49
-1.0
 74
     0
 49
0.0
 74
     0
 49
-1.0
 74
     0
  0
LTYPE
  5
2D
330
5
100
AcDbSymbolTableRecord
100
AcDbLinetypeTableRecord
  2
LONG_DASHED
 70
     0
  3
Long_Dashed
 72
    65
 73
     2
 40
15.0
 49
10.0
 74
     0
 49
-5.0
 74
     0
  0
LTYPE
  5
2E
330
5
100
AcDbSymbolTableRecord
100
AcDbLinetypeTableRecord
  2
DASH_CENTER
 70
     0
  3
Dash_Center
 72
    65
 73
     4
 40
14.0
 49
11.0
 74
     0
 49
-1.0
 74
     0
 49
1.0
 74
     0
 49
-1.0
 74
     0
  0
LTYPE
  5
2F
330
5
100
AcDbSymbolTableRecord
100
AcDbLinetypeTableRecord
  2
PHANTOM
 70
     0
  3
Phantom
 72
    65
 73
     6
 40
13.0
 49
10.0
 74
     0
 49
-1.0
 74
     0
 49
0.0
 74
     0
 49
-1.0
 74
     0
 49
0.0
 74
     0
 49
-1.0
 74
     0
  0
LTYPE
  5
30
330
5
100
AcDbSymbolTableRecord
100
AcDbLinetypeTableRecord
  2
CENTER_DASH_DASH
 70
     0
  3
Center_Dash_Dash
 72
    65
 73
     6
 40
14.0
 49
9.0
 74
     0
 49
-1.0
 74
     0
 49
1.0
 74
     0
 49
-1.0
 74
     0
 49
1.0
 74
     0
 49
-1.0
 74
     0
  0
ENDTAB
  0
TABLE
  2
LAYER
  5
2
330
0
100
AcDbSymbolTable
 70
     2
  0
LAYER
  5
10
330
2
100
AcDbSymbolTableRecord
100
AcDbLayerTableRecord
  2
0
 70
     0
 62
     7
  6
Continuous
370
    -3
390
F
  0
LAYER
  5
31
330
2
100
AcDbSymbolTableRecord
100
AcDbLayerTableRecord
  2
1
 70
     0
 62
     7
  6
Continuous
370
    -3
390
F
  0
ENDTAB
  0
TABLE
  2
STYLE
  5
3
330
0
100
AcDbSymbolTable
 70
     2
  0
STYLE
  5
11
330
3
100
AcDbSymbolTableRecord
100
AcDbTextStyleTableRecord
  2
Standard
 70
     0
 40
0.0
 41
1.0
 50
0.0
 71
     0
 42
0.2
  3
txt
  4

  0
STYLE
  5
EE
330
3
100
AcDbSymbolTableRecord
100
AcDbTextStyleTableRecord
  2
CONVERTER_11
 70
     0
 40
0.0
 41
0.9
 50
0.0
 71
     0
 42
0.2
  3
txt.shx
  4

  0
ENDTAB
  0
TABLE
  2
VIEW
  5
6
330
0
100
AcDbSymbolTable
 70
     0
  0
ENDTAB
  0
TABLE
  2
UCS
  5
7
330
0
100
AcDbSymbolTable
 70
     0
  0
ENDTAB
  0
TABLE
  2
APPID
  5
9
330
0
100
AcDbSymbolTable
 70
     1
  0
APPID
  5
12
330
9
100
AcDbSymbolTableRecord
100
AcDbRegAppTableRecord
  2
ACAD
 70
     0
  0
ENDTAB
  0
TABLE
  2
DIMSTYLE
  5
A
330
0
100
AcDbSymbolTable
 70
     8
100
AcDbDimStyleTable
  0
DIMSTYLE
105
27
330
A
100
AcDbSymbolTableRecord
100
AcDbDimStyleTableRecord
  2
Standard
 70
     0
340
11
  0
DIMSTYLE
105
F2
102
{ACAD_REACTORS
330
F3
102
}
330
A
100
AcDbSymbolTableRecord
100
AcDbDimStyleTableRecord
  2
ME10_DIM_10
 70
     0
 41
3.5
 42
0.0
 44
2.0
 73
     0
 74
     0
 77
     1
 78
     8
140
3.5
147
2.0
172
     1
173
     1
176
     2
177
     2
178
     2
271
     2
340
EE
  0
DIMSTYLE
105
FF
102
{ACAD_REACTORS
330
100
102
}
330
A
100
AcDbSymbolTableRecord
100
AcDbDimStyleTableRecord
  2
ME10_DIM_11
 70
     0
  3
ø<>
 41
3.5
 42
0.0
 44
2.0
 73
     0
 74
     0
 77
     1
 78
     8
140
3.5
147
2.0
172
     1
173
     1
176
     2
177
     2
178
     2
271
     2
340
EE
  0
DIMSTYLE
105
10B
102
{ACAD_REACTORS
330
10C
102
}
330
A
100
AcDbSymbolTableRecord
100
AcDbDimStyleTableRecord
  2
ME10_DIM_12
 70
     0
 41
3.5
 42
0.0
 44
2.0
 73
     0
 74
     0
 77
     1
 78
     8
140
3.5
147
2.0
172
     1
173
     1
176
     2
177
     2
178
     2
271
     2
340
EE
  0
DIMSTYLE
105
116
102
{ACAD_REACTORS
330
117
102
}
330
A
100
AcDbSymbolTableRecord
100
AcDbDimStyleTableRecord
  2
ME10_DIM_13
 70
     0
 41
3.5
 42
0.0
 44
2.0
 73
     0
 74
     0
 77
     1
 78
     8
140
3.5
147
2.0
172
     1
173
     1
176
     2
177
     2
178
     2
271
     2
340
EE
  0
DIMSTYLE
105
121
102
{ACAD_REACTORS
330
122
102
}
330
A
100
AcDbSymbolTableRecord
100
AcDbDimStyleTableRecord
  2
ME10_DIM_14
 70
     0
 41
3.5
 42
0.0
 44
2.0
 73
     0
 74
     0
 77
     1
 78
     8
140
3.5
147
2.0
172
     1
173
     1
176
     2
177
     2
178
     2
271
     2
340
EE
  0
DIMSTYLE
105
12C
102
{ACAD_REACTORS
330
12D
102
}
330
A
100
AcDbSymbolTableRecord
100
AcDbDimStyleTableRecord
  2
ME10_DIM_15
 70
     0
 41
3.5
 42
0.0
 44
2.0
 73
     0
 74
     0
 77
     1
 78
     8
140
3.5
147
2.0
172
     1
173
     1
176
     2
177
     2
178
     2
271
     2
340
EE
  0
DIMSTYLE
105
139
102
{ACAD_REACTORS
330
13A
102
}
330
A
100
AcDbSymbolTableRecord
100
AcDbDimStyleTableRecord
  2
ME10_DIM_16
 70
     0
 41
3.5
 42
0.0
 44
2.0
 73
     0
 74
     0
 77
     1
 78
     8
140
3.5
147
2.0
172
     1
173
     1
176
     2
177
     2
178
     2
271
     2
340
EE
  0
ENDTAB
  0
TABLE
  2
BLOCK_RECORD
  5
1
330
0
100
AcDbSymbolTable
 70
     8
  0
BLOCK_RECORD
  5
1F
330
1
100
AcDbSymbolTableRecord
100
AcDbBlockTableRecord
  2
*Model_Space
340
22
  0
BLOCK_RECORD
  5
1B
330
1
100
AcDbSymbolTableRecord
100
AcDbBlockTableRecord
  2
*Paper_Space
340
1E
  0
BLOCK_RECORD
  5
23
330
1
100
AcDbSymbolTableRecord
100
AcDbBlockTableRecord
  2
*Paper_Space0
340
26
  0
BLOCK_RECORD
  5
E8
330
1
100
AcDbSymbolTableRecord
100
AcDbBlockTableRecord
  2
*D1
340
0
  0
BLOCK_RECORD
  5
F4
330
1
100
AcDbSymbolTableRecord
100
AcDbBlockTableRecord
  2
*D2
340
0
  0
BLOCK_RECORD
  5
101
330
1
100
AcDbSymbolTableRecord
100
AcDbBlockTableRecord
  2
*D3
340
0
  0
BLOCK_RECORD
  5
10D
330
1
100
AcDbSymbolTableRecord
100
AcDbBlockTableRecord
  2
*D4
340
0
  0
BLOCK_RECORD
  5
118
330
1
100
AcDbSymbolTableRecord
100
AcDbBlockTableRecord
  2
*D5
340
0
  0
BLOCK_RECORD
  5
123
330
1
100
AcDbSymbolTableRecord
100
AcDbBlockTableRecord
  2
*D6
340
0
  0
BLOCK_RECORD
  5
12E
330
1
100
AcDbSymbolTableRecord
100
AcDbBlockTableRecord
  2
*D7
340
0
  0
ENDTAB
  0
ENDSEC
  0
SECTION
  2
BLOCKS
  0
BLOCK
  5
20
330
1F
100
AcDbEntity
  8
0
100
AcDbBlockBegin
  2
*Model_Space
 70
     0
 71
     0
 10
0.0
 20
0.0
 30
0.0
  3
*Model_Space
  1

  0
ENDBLK
  5
21
330
1F
100
AcDbEntity
  8
0
100
AcDbBlockEnd
  0
BLOCK
  5
1C
330
1B
100
AcDbEntity
 67
     1
  8
0
100
AcDbBlockBegin
  2
*Paper_Space
 70
     0
 71
     0
 10
0.0
 20
0.0
 30
0.0
  3
*Paper_Space
  1

  0
ENDBLK
  5
1D
330
1B
100
AcDbEntity
 67
     1
  8
0
100
AcDbBlockEnd
  0
BLOCK
  5
24
330
23
100
AcDbEntity
  8
0
100
AcDbBlockBegin
  2
*Paper_Space0
 70
     0
 71
     0
 10
0.0
 20
0.0
 30
0.0
  3
*Paper_Space0
  1

  0
ENDBLK
  5
25
330
23
100
AcDbEntity
  8
0
100
AcDbBlockEnd
  0
BLOCK
  5
F0
330
E8
100
AcDbEntity
  8
0
100
AcDbBlockBegin
  2
*D1
 70
     1
 71
     0
 10
0.0
 20
0.0
 30
0.0
  3
*D1
  1

  0
LINE
  5
E9
330
E8
100
AcDbEntity
  8
1
  6
Continuous
 62
     2
100
AcDbLine
 10
-22.0417772253402
 20
55.485700672888
 30
0.0
 11
5.20822277465979
 21
55.485700672888
 31
0.0
  0
LINE
  5
EA
330
E8
100
AcDbEntity
  8
1
  6
Continuous
 62
     2
100
AcDbLine
 10
5.20822277465979
 20
33.1079099001722
 30
0.0
 11
5.20822277465979
 21
57.485700672888
 31
0.0
  0
LINE
  5
EB
330
E8
100
AcDbEntity
  8
1
  6
Continuous
 62
     2
100
AcDbLine
 10
-22.0417772253402
 20
7.1079099001722
 30
0.0
 11
-22.0417772253402
 21
57.485700672888
 31
0.0
  0
SOLID
  5
EC
330
E8
100
AcDbEntity
  8
1
 62
     2
100
AcDbTrace
 10
-18.5417772253402
 20
55.94648441444389
 30
0.0
 11
-18.5417772253402
 21
55.02491693133211
 31
0.0
 12
-22.0417772253402
 22
55.485700672888
 32
0.0
 13
-22.0417772253402
 23
55.485700672888
 33
0.0
  0
SOLID
  5
ED
330
E8
100
AcDbEntity
  8
1
 62
     2
100
AcDbTrace
 10
1.70822277465979
 20
55.02491693133211
 30
0.0
 11
1.70822277465979
 21
55.94648441444389
 31
0.0
 12
5.20822277465979
 22
55.485700672888
 32
0.0
 13
5.20822277465979
 23
55.485700672888
 33
0.0
  0
MTEXT
  5
EF
330
E8
100
AcDbEntity
  8
1
 62
     2
100
AcDbMText
 10
-15.00236384785774
 20
57.485700672888
 30
0.0
 40
3.5
 41
0.0
 71
     7
 72
     1
  1
27.25
  7
CONVERTER_11
 11
0.9999999999970621
 21
2.424068405545307E-6
 31
0.0
 73
     1
 44
0.60024009603842
  0
ENDBLK
  5
F1
330
E8
100
AcDbEntity
  8
0
100
AcDbBlockEnd
  0
BLOCK
  5
FD
330
F4
100
AcDbEntity
  8
0
100
AcDbBlockBegin
  2
*D2
 70
     1
 71
     0
 10
0.0
 20
0.0
 30
0.0
  3
*D2
  1

  0
LINE
  5
F5
330
F4
100
AcDbEntity
  8
1
  6
Continuous
 62
     2
100
AcDbLine
 10
16.78896314062793
 20
16.26560860281919
 30
0.0
 11
16.78896314062793
 21
8.1079099001722
 31
0.0
  0
LINE
  5
F6
330
F4
100
AcDbEntity
  8
1
  6
Continuous
 62
     2
100
AcDbLine
 10
16.78896314062793
 20
8.1079099001722
 30
0.0
 11
16.78896314062793
 21
1.1079099001722
 31
0.0
  0
LINE
  5
F7
330
F4
100
AcDbEntity
  8
1
  6
Continuous
 62
     2
100
AcDbLine
 10
16.78896314062793
 20
1.1079099001722
 30
0.0
 11
16.78896314062793
 21
-5.8920900998278
 31
0.0
  0
LINE
  5
F8
330
F4
100
AcDbEntity
  8
1
  6
Continuous
 62
     2
100
AcDbLine
 10
6.70822277465978
 20
1.1079099001722
 30
0.0
 11
18.78896314062793
 21
1.1079099001722
 31
0.0
  0
LINE
  5
F9
330
F4
100
AcDbEntity
  8
1
  6
Continuous
 62
     2
100
AcDbLine
 10
5.20822277465978
 20
8.1079099001722
 30
0.0
 11
18.78896314062793
 21
8.1079099001722
 31
0.0
  0
SOLID
  5
FA
330
F4
100
AcDbEntity
  8
1
 62
     2
100
AcDbTrace
 10
16.32817939907204
 20
11.6079099001722
 30
0.0
 11
17.24974688218381
 21
11.6079099001722
 31
0.0
 12
16.78896314062793
 22
8.1079099001722
 32
0.0
 13
16.78896314062793
 23
8.1079099001722
 33
0.0
  0
SOLID
  5
FB
330
F4
100
AcDbEntity
  8
1
 62
     2
100
AcDbTrace
 10
17.24974688218381
 20
-2.3920900998278
 30
0.0
 11
16.32817939907204
 21
-2.3920900998278
 31
0.0
 12
16.78896314062793
 22
1.1079099001722
 32
0.0
 13
16.78896314062793
 23
1.1079099001722
 33
0.0
  0
MTEXT
  5
FC
330
F4
100
AcDbEntity
  8
1
 62
     2
100
AcDbMText
 10
14.78896314062793
 20
11.29560860281919
 30
0.0
 40
3.5
 41
0.0
 71
     7
 72
     1
  1
\C2;ø\C2;7
  7
CONVERTER_11
 11
0.0
 21
1.0
 31
0.0
 73
     1
 44
0.60024009603842
  0
ENDBLK
  5
FE
330
F4
100
AcDbEntity
  8
0
100
AcDbBlockEnd
  0
BLOCK
  5
109
330
101
100
AcDbEntity
  8
0
100
AcDbBlockBegin
  2
*D3
 70
     1
 71
     0
 10
0.0
 20
0.0
 30
0.0
  3
*D3
  1

  0
LINE
  5
102
330
101
100
AcDbEntity
  8
1
  6
Continuous
 62
     2
100
AcDbLine
 10
27.0123976443399
 20
-8.89209009982775
 30
0.0
 11
27.0123976443399
 21
4.6079099001722
 31
0.0
  0
LINE
  5
103
330
101
100
AcDbEntity
  8
1
  6
Continuous
 62
     2
100
AcDbLine
 10
19.0177961306052
 20
4.6079099001722
 30
0.0
 11
29.0123976443399
 21
4.6079099001722
 31
0.0
  0
LINE
  5
104
330
101
100
AcDbEntity
  8
1
  6
Continuous
 62
     2
100
AcDbLine
 10
7.94071619560988
 20
4.6079099001722
 30
0.0
 11
15.3808995887257
 21
4.6079099001722
 31
0.0
  0
LINE
  5
105
330
101
100
AcDbEntity
  8
1
  6
Continuous
 62
     2
100
AcDbLine
 10
5.20822277465979
 20
-8.8920900998278
 30
0.0
 11
29.0123976443399
 21
-8.8920900998278
 31
0.0
  0
SOLID
  5
106
330
101
100
AcDbEntity
  8
1
 62
     2
100
AcDbTrace
 10
26.55161390278401
 20
-5.39209009982775
 30
0.0
 11
27.47318138589578
 21
-5.39209009982775
 31
0.0
 12
27.0123976443399
 22
-8.89209009982775
 32
0.0
 13
27.0123976443399
 23
-8.89209009982775
 33
0.0
  0
SOLID
  5
107
330
101
100
AcDbEntity
  8
1
 62
     2
100
AcDbTrace
 10
27.47318138589578
 20
1.1079099001722
 30
0.0
 11
26.55161390278401
 21
1.1079099001722
 31
0.0
 12
27.0123976443399
 22
4.6079099001722
 32
0.0
 13
27.0123976443399
 23
4.6079099001722
 33
0.0
  0
MTEXT
  5
108
330
101
100
AcDbEntity
  8
1
 62
     2
100
AcDbMText
 10
25.0123976443399
 20
-5.95602350180111
 30
0.0
 40
3.5
 41
0.0
 71
     7
 72
     1
  1
13.5
  7
CONVERTER_11
 11
0.0
 21
1.0
 31
0.0
 73
     1
 44
0.60024009603842
  0
ENDBLK
  5
10A
330
101
100
AcDbEntity
  8
0
100
AcDbBlockEnd
  0
BLOCK
  5
114
330
10D
100
AcDbEntity
  8
0
100
AcDbBlockBegin
  2
*D4
 70
     1
 71
     0
 10
0.0
 20
0.0
 30
0.0
  3
*D4
  1

  0
LINE
  5
10E
330
10D
100
AcDbEntity
  8
1
  6
Continuous
 62
     2
100
AcDbLine
 10
-33.6950143738548
 20
-7.3920900998278
 30
0.0
 11
-33.6950143738548
 21
19.80790990017222
 31
0.0
  0
LINE
  5
10F
330
10D
100
AcDbEntity
  8
1
  6
Continuous
 62
     2
100
AcDbLine
 10
-21.2917772253402
 20
-7.3920900998278
 30
0.0
 11
-35.6950143738548
 21
-7.3920900998278
 31
0.0
  0
LINE
  5
110
330
10D
100
AcDbEntity
  8
1
  6
Continuous
 62
     2
100
AcDbLine
 10
-12.54177722534022
 20
19.80790990017222
 30
0.0
 11
-35.6950143738548
 21
19.80790990017222
 31
0.0
  0
SOLID
  5
111
330
10D
100
AcDbEntity
  8
1
 62
     2
100
AcDbTrace
 10
-34.15579811541068
 20
-3.8920900998278
 30
0.0
 11
-33.23423063229891
 21
-3.8920900998278
 31
0.0
 12
-33.6950143738548
 22
-7.3920900998278
 32
0.0
 13
-33.6950143738548
 23
-7.3920900998278
 33
0.0
  0
SOLID
  5
112
330
10D
100
AcDbEntity
  8
1
 62
     2
100
AcDbTrace
 10
-33.23423063229891
 20
16.30790990017222
 30
0.0
 11
-34.15579811541068
 21
16.30790990017222
 31
0.0
 12
-33.6950143738548
 22
19.80790990017222
 32
0.0
 13
-33.6950143738548
 23
19.80790990017222
 33
0.0
  0
MTEXT
  5
113
330
10D
100
AcDbEntity
  8
1
 62
     2
100
AcDbMText
 10
-35.6950143738548
 20
1.29910255511937
 30
0.0
 40
3.5
 41
0.0
 71
     7
 72
     1
  1
27.2
  7
CONVERTER_11
 11
0.0
 21
1.0
 31
0.0
 73
     1
 44
0.60024009603842
  0
ENDBLK
  5
115
330
10D
100
AcDbEntity
  8
0
100
AcDbBlockEnd
  0
BLOCK
  5
11F
330
118
100
AcDbEntity
  8
0
100
AcDbBlockBegin
  2
*D5
 70
     1
 71
     0
 10
0.0
 20
0.0
 30
0.0
  3
*D5
  1

  0
LINE
  5
119
330
118
100
AcDbEntity
  8
1
  6
Continuous
 62
     2
100
AcDbLine
 10
-15.04177722534022
 20
44.4909035518334
 30
0.0
 11
5.20822277465978
 21
44.4909035518334
 31
0.0
  0
LINE
  5
11A
330
118
100
AcDbEntity
  8
1
  6
Continuous
 62
     2
100
AcDbLine
 10
5.20822277465978
 20
33.1079099001722
 30
0.0
 11
5.20822277465978
 21
46.4909035518334
 31
0.0
  0
LINE
  5
11B
330
118
100
AcDbEntity
  8
1
  6
Continuous
 62
     2
100
AcDbLine
 10
-15.04177722534022
 20
17.30790990017223
 30
0.0
 11
-15.04177722534022
 21
46.4909035518334
 31
0.0
  0
SOLID
  5
11C
330
118
100
AcDbEntity
  8
1
 62
     2
100
AcDbTrace
 10
-11.54177722534022
 20
44.95168729338928
 30
0.0
 11
-11.54177722534022
 21
44.03011981027751
 31
0.0
 12
-15.04177722534022
 22
44.4909035518334
 32
0.0
 13
-15.04177722534022
 23
44.4909035518334
 33
0.0
  0
SOLID
  5
11D
330
118
100
AcDbEntity
  8
1
 62
     2
100
AcDbTrace
 10
1.70822277465978
 20
44.03011981027751
 30
0.0
 11
1.70822277465978
 21
44.95168729338928
 31
0.0
 12
5.20822277465978
 22
44.4909035518334
 32
0.0
 13
5.20822277465978
 23
44.4909035518334
 33
0.0
  0
MTEXT
  5
11E
330
118
100
AcDbEntity
  8
1
 62
     2
100
AcDbMText
 10
-11.25751095097812
 20
46.4909035518334
 30
0.0
 40
3.5
 41
0.0
 71
     7
 72
     1
  1
20.25
  7
CONVERTER_11
 11
0.9999999999970621
 21
2.424068405545307E-6
 31
0.0
 73
     1
 44
0.60024009603842
  0
ENDBLK
  5
120
330
118
100
AcDbEntity
  8
0
100
AcDbBlockEnd
  0
BLOCK
  5
12A
330
123
100
AcDbEntity
  8
0
100
AcDbBlockBegin
  2
*D6
 70
     1
 71
     0
 10
0.0
 20
0.0
 30
0.0
  3
*D6
  1

  0
LINE
  5
124
330
123
100
AcDbEntity
  8
1
  6
Continuous
 62
     2
100
AcDbLine
 10
6.70822277465978
 20
-19.24442348515061
 30
0.0
 11
-9.29177722534022
 21
-19.24442348515061
 31
0.0
  0
LINE
  5
125
330
123
100
AcDbEntity
  8
1
  6
Continuous
 62
     2
100
AcDbLine
 10
-9.29177722534022
 20
-8.89209009982776
 30
0.0
 11
-9.29177722534022
 21
-21.24442348515061
 31
0.0
  0
LINE
  5
126
330
123
100
AcDbEntity
  8
1
  6
Continuous
 62
     2
100
AcDbLine
 10
6.70822277465978
 20
-7.39209009982776
 30
0.0
 11
6.70822277465978
 21
-21.24442348515061
 31
0.0
  0
SOLID
  5
127
330
123
100
AcDbEntity
  8
1
 62
     2
100
AcDbTrace
 10
3.20822277465978
 20
-19.7052072267065
 30
0.0
 11
3.20822277465978
 21
-18.78363974359473
 31
0.0
 12
6.70822277465978
 22
-19.24442348515061
 32
0.0
 13
6.70822277465978
 23
-19.24442348515061
 33
0.0
  0
SOLID
  5
128
330
123
100
AcDbEntity
  8
1
 62
     2
100
AcDbTrace
 10
-5.79177722534022
 20
-18.78363974359473
 30
0.0
 11
-5.79177722534022
 21
-19.7052072267065
 31
0.0
 12
-9.29177722534022
 22
-19.24442348515061
 32
0.0
 13
-9.29177722534022
 23
-19.24442348515061
 33
0.0
  0
MTEXT
  5
129
330
123
100
AcDbEntity
  8
1
 62
     2
100
AcDbMText
 10
-4.31572507457402
 20
-17.24442348515061
 30
0.0
 40
3.5
 41
0.0
 71
     7
 72
     1
  1
16
  7
CONVERTER_11
 11
0.9999999999970621
 21
2.424068405545307E-6
 31
0.0
 73
     1
 44
0.60024009603842
  0
ENDBLK
  5
12B
330
123
100
AcDbEntity
  8
0
100
AcDbBlockEnd
  0
BLOCK
  5
137
330
12E
100
AcDbEntity
  8
0
100
AcDbBlockBegin
  2
*D7
 70
     1
 71
     0
 10
0.0
 20
0.0
 30
0.0
  3
*D7
  1

  0
LINE
  5
12F
330
12E
100
AcDbEntity
  8
1
  6
Continuous
 62
     2
100
AcDbLine
 10
-2.29177722534022
 20
-19.24442348515061
 30
0.0
 11
-9.29177722534022
 21
-19.24442348515061
 31
0.0
  0
LINE
  5
130
330
12E
100
AcDbEntity
  8
1
  6
Continuous
 62
     2
100
AcDbLine
 10
-9.29177722534022
 20
-19.24442348515061
 30
0.0
 11
-13.29177722534022
 21
-19.24442348515061
 31
0.0
  0
LINE
  5
131
330
12E
100
AcDbEntity
  8
1
  6
Continuous
 62
     2
100
AcDbLine
 10
-13.29177722534022
 20
-19.24442348515061
 30
0.0
 11
-20.29177722534022
 21
-19.24442348515061
 31
0.0
  0
LINE
  5
132
330
12E
100
AcDbEntity
  8
1
  6
Continuous
 62
     2
100
AcDbLine
 10
-13.29177722534022
 20
-7.39209009982776
 30
0.0
 11
-13.29177722534022
 21
-21.24442348515061
 31
0.0
  0
LINE
  5
133
330
12E
100
AcDbEntity
  8
1
  6
Continuous
 62
     2
100
AcDbLine
 10
-9.29177722534022
 20
-8.89209009982776
 30
0.0
 11
-9.29177722534022
 21
-21.24442348515061
 31
0.0
  0
SOLID
  5
134
330
12E
100
AcDbEntity
  8
1
 62
     2
100
AcDbTrace
 10
-5.79177722534022
 20
-18.78363974359473
 30
0.0
 11
-5.79177722534022
 21
-19.7052072267065
 31
0.0
 12
-9.29177722534022
 22
-19.24442348515061
 32
0.0
 13
-9.29177722534022
 23
-19.24442348515061
 33
0.0
  0
SOLID
  5
135
330
12E
100
AcDbEntity
  8
1
 62
     2
100
AcDbTrace
 10
-16.79177722534022
 20
-19.7052072267065
 30
0.0
 11
-16.79177722534022
 21
-18.78363974359473
 31
0.0
 12
-13.29177722534022
 22
-19.24442348515061
 32
0.0
 13
-13.29177722534022
 23
-19.24442348515061
 33
0.0
  0
MTEXT
  5
136
330
12E
100
AcDbEntity
  8
1
 62
     2
100
AcDbMText
 10
-12.34177722534022
 20
-17.24442348515061
 30
0.0
 40
3.5
 41
0.0
 71
     7
 72
     1
  1
4
  7
CONVERTER_11
 11
0.9999999999970621
 21
2.424068405545307E-6
 31
0.0
 73
     1
 44
0.60024009603842
  0
ENDBLK
  5
138
330
12E
100
AcDbEntity
  8
0
100
AcDbBlockEnd
  0
ENDSEC
  0
SECTION
  2
ENTITIES
  0
LINE
  5
32
330
1F
100
AcDbEntity
  8
1
  6
Continuous
 62
     7
100
AcDbLine
 10
-13.0417772253402
 20
-7.3920900998278
 30
0.0
 11
-13.0417772253402
 21
-2.8920900998278
 31
0.0
  0
LINE
  5
33
330
1F
100
AcDbEntity
  8
1
  6
Continuous
 62
     7
100
AcDbLine
 10
-13.04177722534022
 20
17.30790990017223
 30
0.0
 11
-13.04177722534022
 21
16.80790990017223
 31
0.0
  0
LINE
  5
34
330
1F
100
AcDbEntity
  8
1
  6
Continuous
 62
     7
100
AcDbLine
 10
-15.0417772253402
 20
-7.3920900998278
 30
0.0
 11
-13.29177722534022
 21
-7.3920900998278
 31
0.0
  0
LINE
  5
35
330
1F
100
AcDbEntity
  8
1
  6
Continuous
 62
     7
100
AcDbLine
 10
-15.04177722534022
 20
17.30790990017223
 30
0.0
 11
-15.0417772253402
 21
12.1079099001722
 31
0.0
  0
LINE
  5
36
330
1F
100
AcDbEntity
  8
1
  6
Continuous
 62
     7
100
AcDbLine
 10
5.20822277465978
 20
-5.3920900998278
 30
0.0
 11
5.20822277465978
 21
1.1079099001722
 31
0.0
  0
LINE
  5
37
330
1F
100
AcDbEntity
  8
1
  6
Continuous
 62
     7
100
AcDbLine
 10
-15.6759907877133
 20
-2.25787653745471
 30
0.0
 11
-15.0417772253402
 21
-2.8920900998278
 31
0.0
  0
LINE
  5
38
330
1F
100
AcDbEntity
  8
1
  6
Continuous
 62
     7
100
AcDbLine
 10
-15.0417772253402
 20
-2.8920900998278
 30
0.0
 11
-15.0417772253402
 21
-7.3920900998278
 31
0.0
  0
LINE
  5
39
330
1F
100
AcDbEntity
  8
1
  6
Continuous
 62
     7
100
AcDbLine
 10
-13.62756366296711
 20
-1.4778765374547
 30
0.0
 11
-14.68177722534022
 21
-0.4236629750816
 31
0.0
  0
LINE
  5
3A
330
1F
100
AcDbEntity
  8
1
  6
Continuous
 62
     7
100
AcDbLine
 10
-15.67599078771329
 20
11.47369633779911
 30
0.0
 11
-15.0417772253402
 21
12.1079099001722
 31
0.0
  0
LINE
  5
3B
330
1F
100
AcDbEntity
  8
1
  6
Continuous
 62
     7
100
AcDbLine
 10
-13.72784458567159
 20
10.68164322586996
 30
0.0
 11
-14.68177722534022
 21
9.85038569551486
 31
0.0
  0
LINE
  5
3C
330
1F
100
AcDbEntity
  8
1
  6
Continuous
 62
     7
100
AcDbLine
 10
-14.68177722534022
 20
9.28290990017219
 30
0.0
 11
-14.68177722534022
 21
9.85038569551486
 31
0.0
  0
LINE
  5
3D
330
1F
100
AcDbEntity
  8
1
  6
Continuous
 62
     7
100
AcDbLine
 10
-14.68177722534022
 20
-0.06709009982781
 30
0.0
 11
-14.68177722534022
 21
-0.4236629750816
 31
0.0
  0
LINE
  5
3E
330
1F
100
AcDbEntity
  8
1
  6
Continuous
 62
     7
100
AcDbLine
 10
-10.0417772253402
 20
9.6079099001722
 30
0.0
 11
-4.5417772253402
 21
9.6079099001722
 31
0.0
  0
LINE
  5
3F
330
1F
100
AcDbEntity
  8
1
  6
Continuous
 62
     7
100
AcDbLine
 10
-4.0417772253402
 20
9.6079099001722
 30
0.0
 11
-4.0417772253402
 21
-0.3920900998278
 31
0.0
  0
LINE
  5
40
330
1F
100
AcDbEntity
  8
1
  6
DASHED
 62
     2
100
AcDbLine
 10
-4.0417772253402
 20
1.90790990017219
 30
0.0
 11
-7.5417772253402
 21
1.90790990017219
 31
0.0
  0
LINE
  5
41
330
1F
100
AcDbEntity
  8
1
  6
DASHED
 62
     2
100
AcDbLine
 10
-7.5417772253402
 20
1.90790990017219
 30
0.0
 11
-9.10062295215219
 21
4.6079099001722
 31
0.0
  0
LINE
  5
42
330
1F
100
AcDbEntity
  8
1
  6
DASHED
 62
     2
100
AcDbLine
 10
-9.10062295215219
 20
4.6079099001722
 30
0.0
 11
-7.5417772253402
 21
7.30790990017219
 31
0.0
  0
LINE
  5
43
330
1F
100
AcDbEntity
  8
1
  6
DASHED
 62
     2
100
AcDbLine
 10
-7.5417772253402
 20
7.30790990017219
 30
0.0
 11
-4.0417772253402
 21
7.30790990017219
 31
0.0
  0
LINE
  5
44
330
1F
100
AcDbEntity
  8
1
  6
DASHED
 62
     2
100
AcDbLine
 10
-7.5417772253402
 20
1.90790990017219
 30
0.0
 11
-7.5417772253402
 21
7.30790990017219
 31
0.0
  0
LINE
  5
45
330
1F
100
AcDbEntity
  8
1
  6
DASHED
 62
     2
100
AcDbLine
 10
-4.0417772253402
 20
6.30790990017219
 30
0.0
 11
-7.5417772253402
 21
6.30790990017219
 31
0.0
  0
LINE
  5
46
330
1F
100
AcDbEntity
  8
1
  6
DASHED
 62
     2
100
AcDbLine
 10
-4.0417772253402
 20
2.90790990017219
 30
0.0
 11
-7.5417772253402
 21
2.90790990017219
 31
0.0
  0
LINE
  5
47
330
1F
100
AcDbEntity
  8
1
  6
Continuous
 62
     7
100
AcDbLine
 10
-4.0417772253402
 20
-0.3920900998278
 30
0.0
 11
-4.79177722534023
 21
-0.3920900998278
 31
0.0
  0
LINE
  5
48
330
1F
100
AcDbEntity
  8
1
  6
Continuous
 62
     2
100
AcDbLine
 10
-22.0417772253402
 20
7.1079099001722
 30
0.0
 11
-10.0417772253402
 21
7.1079099001722
 31
0.0
  0
LINE
  5
49
330
1F
100
AcDbEntity
  8
1
  6
Continuous
 62
     2
100
AcDbLine
 10
-22.0417772253402
 20
2.1079099001722
 30
0.0
 11
-10.0417772253402
 21
2.1079099001722
 31
0.0
  0
LINE
  5
4A
330
1F
100
AcDbEntity
  8
1
  6
Continuous
 62
     7
100
AcDbLine
 10
-21.5417772253402
 20
7.6079099001722
 30
0.0
 11
-22.0417772253402
 21
7.1079099001722
 31
0.0
  0
LINE
  5
4B
330
1F
100
AcDbEntity
  8
1
  6
Continuous
 62
     7
100
AcDbLine
 10
-10.0417772253402
 20
7.6079099001722
 30
0.0
 11
-13.0417772253402
 21
7.6079099001722
 31
0.0
  0
LINE
  5
4C
330
1F
100
AcDbEntity
  8
1
  6
Continuous
 62
     7
100
AcDbLine
 10
-21.5417772253402
 20
7.6079099001722
 30
0.0
 11
-21.5417772253402
 21
1.6079099001722
 31
0.0
  0
LINE
  5
4D
330
1F
100
AcDbEntity
  8
1
  6
Continuous
 62
     7
100
AcDbLine
 10
-22.0417772253402
 20
7.1079099001722
 30
0.0
 11
-22.0417772253402
 21
2.1079099001722
 31
0.0
  0
LINE
  5
4E
330
1F
100
AcDbEntity
  8
1
  6
Continuous
 62
     7
100
AcDbLine
 10
-22.0417772253402
 20
2.1079099001722
 30
0.0
 11
-21.5417772253402
 21
1.6079099001722
 31
0.0
  0
LINE
  5
4F
330
1F
100
AcDbEntity
  8
1
  6
Continuous
 62
     7
100
AcDbLine
 10
-21.5417772253402
 20
1.6079099001722
 30
0.0
 11
-18.2417772253402
 21
1.6079099001722
 31
0.0
  0
LINE
  5
50
330
1F
100
AcDbEntity
  8
1
  6
Continuous
 62
     7
100
AcDbLine
 10
-10.0417772253402
 20
9.6079099001722
 30
0.0
 11
-10.0417772253402
 21
-0.3920900998278
 31
0.0
  0
LINE
  5
51
330
1F
100
AcDbEntity
  8
1
  6
DOT_CENTER
 62
     2
100
AcDbLine
 10
-9.10062295215219
 20
4.6079099001722
 30
0.0
 11
-22.84844581574821
 21
4.6079099001722
 31
0.0
  0
LINE
  5
52
330
1F
100
AcDbEntity
  8
1
  6
Continuous
 62
     7
100
AcDbLine
 10
-14.68177722534022
 20
9.28290990017219
 30
0.0
 11
-13.0417772253402
 21
9.28290990017219
 31
0.0
  0
LINE
  5
53
330
1F
100
AcDbEntity
  8
1
  6
Continuous
 62
     7
100
AcDbLine
 10
-14.68177722534022
 20
8.98290990017217
 30
0.0
 11
-14.68177722534022
 21
9.28290990017219
 31
0.0
  0
LINE
  5
54
330
1F
100
AcDbEntity
  8
1
  6
Continuous
 62
     7
100
AcDbLine
 10
-16.2617772253402
 20
8.98290990017217
 30
0.0
 11
-14.68177722534022
 21
8.98290990017217
 31
0.0
  0
LINE
  5
55
330
1F
100
AcDbEntity
  8
1
  6
Continuous
 62
     7
100
AcDbLine
 10
-16.26177722534019
 20
10.78468234639085
 30
0.0
 11
-16.26177722534019
 21
10.05948277542603
 31
0.0
  0
LINE
  5
56
330
1F
100
AcDbEntity
  8
1
  6
Continuous
 62
     7
100
AcDbLine
 10
-16.26177722534019
 20
10.78468234639085
 30
0.0
 11
-18.2417772253402
 21
10.95790990017217
 31
0.0
  0
LINE
  5
57
330
1F
100
AcDbEntity
  8
1
  6
Continuous
 62
     7
100
AcDbLine
 10
-18.2417772253402
 20
7.6079099001722
 30
0.0
 11
-18.2417772253402
 21
10.95790990017217
 31
0.0
  0
LINE
  5
58
330
1F
100
AcDbEntity
  8
1
  6
Continuous
 62
     7
100
AcDbLine
 10
-18.2417772253402
 20
1.6079099001722
 30
0.0
 11
-18.2417772253402
 21
-1.74209009982782
 31
0.0
  0
LINE
  5
59
330
1F
100
AcDbEntity
  8
1
  6
Continuous
 62
     7
100
AcDbLine
 10
-18.2417772253402
 20
-1.74209009982782
 30
0.0
 11
-16.2617772253402
 21
-1.5688625460465
 31
0.0
  0
LINE
  5
5A
330
1F
100
AcDbEntity
  8
1
  6
Continuous
 62
     7
100
AcDbLine
 10
-16.2617772253402
 20
0.23290990017217
 30
0.0
 11
-16.2617772253402
 21
-0.84366297508161
 31
0.0
  0
LINE
  5
5B
330
1F
100
AcDbEntity
  8
1
  6
Continuous
 62
     7
100
AcDbLine
 10
-14.68177722534022
 20
0.23290990017217
 30
0.0
 11
-16.2617772253402
 21
0.23290990017217
 31
0.0
  0
LINE
  5
5C
330
1F
100
AcDbEntity
  8
1
  6
Continuous
 62
     7
100
AcDbLine
 10
-14.68177722534022
 20
-0.06709009982781
 30
0.0
 11
-14.68177722534022
 21
0.23290990017217
 31
0.0
  0
LINE
  5
5D
330
1F
100
AcDbEntity
  8
1
  6
Continuous
 62
     7
100
AcDbLine
 10
-13.0417772253402
 20
-0.06709009982781
 30
0.0
 11
-14.68177722534022
 21
-0.06709009982781
 31
0.0
  0
LINE
  5
5E
330
1F
100
AcDbEntity
  8
1
  6
DOT_CENTER
 62
     2
100
AcDbLine
 10
7.94071619560988
 20
4.6079099001722
 30
0.0
 11
-9.10062295215219
 21
4.6079099001722
 31
0.0
  0
LINE
  5
5F
330
1F
100
AcDbEntity
  8
1
  6
Continuous
 62
     7
100
AcDbLine
 10
-16.26177722534019
 20
10.05948277542603
 30
0.0
 11
-16.2617772253402
 21
8.98290990017217
 31
0.0
  0
LINE
  5
60
330
1F
100
AcDbEntity
  8
1
  6
Continuous
 62
     7
100
AcDbLine
 10
-16.2617772253402
 20
-0.84366297508161
 30
0.0
 11
-16.2617772253402
 21
-1.5688625460465
 31
0.0
  0
LINE
  5
61
330
1F
100
AcDbEntity
  8
1
  6
Continuous
 62
     7
100
AcDbLine
 10
-13.0417772253402
 20
7.6079099001722
 30
0.0
 11
-13.0417772253402
 21
8.35790990017219
 31
0.0
  0
LINE
  5
62
330
1F
100
AcDbEntity
  8
1
  6
Continuous
 62
     7
100
AcDbLine
 10
-10.0417772253402
 20
-0.3920900998278
 30
0.0
 11
-10.0417772253402
 21
-1.89209009982781
 31
0.0
  0
LINE
  5
63
330
1F
100
AcDbEntity
  8
1
  6
Continuous
 62
     7
100
AcDbLine
 10
-10.0417772253402
 20
9.6079099001722
 30
0.0
 11
-10.0417772253402
 21
8.35790990017219
 31
0.0
  0
LINE
  5
64
330
1F
100
AcDbEntity
  8
1
  6
Continuous
 62
     7
100
AcDbLine
 10
-13.0417772253402
 20
-7.3920900998278
 30
0.0
 11
-13.0417772253402
 21
-1.89209009982781
 31
0.0
  0
LINE
  5
65
330
1F
100
AcDbEntity
  8
1
  6
Continuous
 62
     7
100
AcDbLine
 10
-5.0417772253402
 20
13.60790990017219
 30
0.0
 11
-5.0417772253402
 21
10.60790990017219
 31
0.0
  0
LINE
  5
66
330
1F
100
AcDbEntity
  8
1
  6
Continuous
 62
     7
100
AcDbLine
 10
-4.5417772253402
 20
9.6079099001722
 30
0.0
 11
-4.5417772253402
 21
10.10790990017219
 31
0.0
  0
LINE
  5
67
330
1F
100
AcDbEntity
  8
1
  6
Continuous
 62
     7
100
AcDbLine
 10
-10.0417772253402
 20
-1.89209009982781
 30
0.0
 11
-10.0417772253402
 21
-7.3920900998278
 31
0.0
  0
LINE
  5
68
330
1F
100
AcDbEntity
  8
1
  6
Continuous
 62
     7
100
AcDbLine
 10
-13.0417772253402
 20
-1.89209009982781
 30
0.0
 11
-13.0417772253402
 21
-0.06709009982781
 31
0.0
  0
LINE
  5
69
330
1F
100
AcDbEntity
  8
1
  6
Continuous
 62
     7
100
AcDbLine
 10
-10.0417772253402
 20
-1.89209009982781
 30
0.0
 11
-13.0417772253402
 21
-1.89209009982781
 31
0.0
  0
LINE
  5
6A
330
1F
100
AcDbEntity
  8
1
  6
Continuous
 62
     7
100
AcDbLine
 10
-10.0417772253402
 20
8.35790990017219
 30
0.0
 11
-10.0417772253402
 21
-0.3920900998278
 31
0.0
  0
LINE
  5
6B
330
1F
100
AcDbEntity
  8
1
  6
Continuous
 62
     7
100
AcDbLine
 10
-13.0417772253402
 20
8.35790990017219
 30
0.0
 11
-13.0417772253402
 21
9.28290990017219
 31
0.0
  0
LINE
  5
6C
330
1F
100
AcDbEntity
  8
1
  6
Continuous
 62
     7
100
AcDbLine
 10
-10.0417772253402
 20
8.35790990017219
 30
0.0
 11
-13.0417772253402
 21
8.35790990017219
 31
0.0
  0
LINE
  5
6D
330
1F
100
AcDbEntity
  8
1
  6
Continuous
 62
     7
100
AcDbLine
 10
-10.0417772253402
 20
10.10790990017219
 30
0.0
 11
-10.0417772253402
 21
9.6079099001722
 31
0.0
  0
LINE
  5
6E
330
1F
100
AcDbEntity
  8
1
  6
Continuous
 62
     7
100
AcDbLine
 10
-13.0417772253402
 20
-8.8920900998278
 30
0.0
 11
-13.0417772253402
 21
-7.3920900998278
 31
0.0
  0
LINE
  5
6F
330
1F
100
AcDbEntity
  8
1
  6
Continuous
 62
     7
100
AcDbLine
 10
-9.5417772253402
 20
13.60790990017219
 30
0.0
 11
-5.0417772253402
 21
13.60790990017219
 31
0.0
  0
LINE
  5
70
330
1F
100
AcDbEntity
  8
1
  6
Continuous
 62
     7
100
AcDbLine
 10
-1.5417772253402
 20
10.10790990017219
 30
0.0
 11
-1.5417772253402
 21
1.60790990017219
 31
0.0
  0
LINE
  5
71
330
1F
100
AcDbEntity
  8
1
  6
Continuous
 62
     7
100
AcDbLine
 10
-1.5417772253402
 20
1.60790990017219
 30
0.0
 11
-3.7417772253402
 21
1.60790990017219
 31
0.0
  0
LINE
  5
72
330
1F
100
AcDbEntity
  8
1
  6
Continuous
 62
     7
100
AcDbLine
 10
-3.7417772253402
 20
1.60790990017219
 30
0.0
 11
-3.7417772253402
 21
7.60790990017219
 31
0.0
  0
LINE
  5
73
330
1F
100
AcDbEntity
  8
1
  6
Continuous
 62
     7
100
AcDbLine
 10
-3.7417772253402
 20
7.60790990017219
 30
0.0
 11
-4.0417772253402
 21
7.60790990017219
 31
0.0
  0
LINE
  5
74
330
1F
100
AcDbEntity
  8
1
  6
Continuous
 62
     7
100
AcDbLine
 10
-5.0417772253402
 20
10.60790990017219
 30
0.0
 11
-9.5417772253402
 21
10.60790990017219
 31
0.0
  0
LINE
  5
75
330
1F
100
AcDbEntity
  8
1
  6
Continuous
 62
     7
100
AcDbLine
 10
-13.0417772253402
 20
9.28290990017219
 30
0.0
 11
-13.0417772253402
 21
10.10790990017219
 31
0.0
  0
LINE
  5
76
330
1F
100
AcDbEntity
  8
1
  6
Continuous
 62
     7
100
AcDbLine
 10
-13.0417772253402
 20
-0.06709009982781
 30
0.0
 11
-13.0417772253402
 21
1.6079099001722
 31
0.0
  0
LINE
  5
77
330
1F
100
AcDbEntity
  8
1
  6
Continuous
 62
     7
100
AcDbLine
 10
-13.0417772253402
 20
1.6079099001722
 30
0.0
 11
-10.0417772253402
 21
1.6079099001722
 31
0.0
  0
LINE
  5
78
330
1F
100
AcDbEntity
  8
1
  6
Continuous
 62
     7
100
AcDbLine
 10
-13.0417772253402
 20
7.6079099001722
 30
0.0
 11
-18.2417772253402
 21
7.6079099001722
 31
0.0
  0
LINE
  5
79
330
1F
100
AcDbEntity
  8
1
  6
Continuous
 62
     7
100
AcDbLine
 10
-4.5417772253402
 20
9.6079099001722
 30
0.0
 11
-4.0417772253402
 21
9.6079099001722
 31
0.0
  0
LINE
  5
7A
330
1F
100
AcDbEntity
  8
1
  6
Continuous
 62
     7
100
AcDbLine
 10
-10.0417772253402
 20
-7.3920900998278
 30
0.0
 11
-9.29177722534022
 21
-7.3920900998278
 31
0.0
  0
LINE
  5
7B
330
1F
100
AcDbEntity
  8
1
  6
Continuous
 62
     7
100
AcDbLine
 10
-10.0417772253402
 20
-7.3920900998278
 30
0.0
 11
-10.0417772253402
 21
-8.8920900998278
 31
0.0
  0
LINE
  5
7C
330
1F
100
AcDbEntity
  8
1
  6
Continuous
 62
     7
100
AcDbLine
 10
-18.2417772253402
 20
7.6079099001722
 30
0.0
 11
-21.5417772253402
 21
7.6079099001722
 31
0.0
  0
LINE
  5
7D
330
1F
100
AcDbEntity
  8
1
  6
Continuous
 62
     7
100
AcDbLine
 10
-18.2417772253402
 20
1.6079099001722
 30
0.0
 11
-13.0417772253402
 21
1.6079099001722
 31
0.0
  0
LINE
  5
7E
330
1F
100
AcDbEntity
  8
1
  6
Continuous
 62
     7
100
AcDbLine
 10
5.20822277465978
 20
-5.3920900998278
 30
0.0
 11
5.20822277465978
 21
-7.3920900998278
 31
0.0
  0
LINE
  5
7F
330
1F
100
AcDbEntity
  8
1
  6
Continuous
 62
     7
100
AcDbLine
 10
3.20822277465978
 20
-7.3920900998278
 30
0.0
 11
5.20822277465978
 21
-7.3920900998278
 31
0.0
  0
LINE
  5
80
330
1F
100
AcDbEntity
  8
1
  6
Continuous
 62
     7
100
AcDbLine
 10
-15.39177721964792
 20
-7.3920900998278
 30
0.0
 11
-15.39177722534017
 21
-7.3920900998278
 31
0.0
  0
LINE
  5
81
330
1F
100
AcDbEntity
  8
1
  6
Continuous
 62
     7
100
AcDbLine
 10
5.20822277465978
 20
33.1079099001722
 30
0.0
 11
5.20822277465978
 21
17.60790990017219
 31
0.0
  0
LINE
  5
82
330
1F
100
AcDbEntity
  8
1
  6
Continuous
 62
     7
100
AcDbLine
 10
-21.7917772253402
 20
1.10790990017223
 30
0.0
 11
-23.2917772253402
 21
1.10790990017223
 31
0.0
  0
LINE
  5
83
330
1F
100
AcDbEntity
  8
1
  6
Continuous
 62
     7
100
AcDbLine
 10
-23.2917772253402
 20
1.10790990017223
 30
0.0
 11
-23.2917772253402
 21
-7.3920900998278
 31
0.0
  0
LINE
  5
84
330
1F
100
AcDbEntity
  8
1
  6
Continuous
 62
     7
100
AcDbLine
 10
-21.7917772253402
 20
1.10790990017223
 30
0.0
 11
-21.7917772253402
 21
-6.8920900998278
 31
0.0
  0
LINE
  5
85
330
1F
100
AcDbEntity
  8
1
  6
Continuous
 62
     7
100
AcDbLine
 10
-21.2917772253402
 20
-7.3920900998278
 30
0.0
 11
-15.0417772253402
 21
-7.3920900998278
 31
0.0
  0
LINE
  5
86
330
1F
100
AcDbEntity
  8
1
  6
Continuous
 62
     7
100
AcDbLine
 10
-13.29177722534022
 20
-8.8920900998278
 30
0.0
 11
-21.7917772253402
 21
-8.8920900998278
 31
0.0
  0
LINE
  5
87
330
1F
100
AcDbEntity
  8
1
  6
Continuous
 62
     7
100
AcDbLine
 10
-9.29177722534022
 20
-7.3920900998278
 30
0.0
 11
-9.29177722534022
 21
-8.8920900998278
 31
0.0
  0
LINE
  5
88
330
1F
100
AcDbEntity
  8
1
  6
Continuous
 62
     7
100
AcDbLine
 10
5.20822277465978
 20
-8.8920900998278
 30
0.0
 11
-9.29177722534022
 21
-8.8920900998278
 31
0.0
  0
LINE
  5
89
330
1F
100
AcDbEntity
  8
1
  6
Continuous
 62
     7
100
AcDbLine
 10
6.70822277465978
 20
-7.3920900998278
 30
0.0
 11
6.70822277465978
 21
1.1079099001722
 31
0.0
  0
LINE
  5
8A
330
1F
100
AcDbEntity
  8
1
  6
Continuous
 62
     7
100
AcDbLine
 10
17.90963702663903
 20
20.11495311081755
 30
0.0
 11
18.75338471539773
 21
20.1079099001722
 31
0.0
  0
LINE
  5
8B
330
1F
100
AcDbEntity
  8
1
  6
Continuous
 62
     7
100
AcDbLine
 10
17.90965760219502
 20
21.60793656984065
 30
0.0
 11
18.75338471539773
 21
21.6079099001722
 31
0.0
  0
LINE
  5
8C
330
1F
100
AcDbEntity
  8
1
  6
Continuous
 62
     7
100
AcDbLine
 10
15.50180877033632
 20
23.28041855027216
 30
0.0
 11
17.32787241007982
 21
29.79862297229393
 31
0.0
  0
LINE
  5
8D
330
1F
100
AcDbEntity
  8
1
  6
Continuous
 62
     7
100
AcDbLine
 10
7.20822277465978
 20
33.6079099001722
 30
0.0
 11
9.70822277465978
 21
33.6079099001722
 31
0.0
  0
LINE
  5
8E
330
1F
100
AcDbEntity
  8
1
  6
Continuous
 62
     7
100
AcDbLine
 10
6.70822277465978
 20
35.1079099001722
 30
0.0
 11
17.73574662519287
 21
35.1079099001722
 31
0.0
  0
LINE
  5
8F
330
1F
100
AcDbEntity
  8
1
  6
Continuous
 62
     7
100
AcDbLine
 10
19.66759827777083
 20
32.59027180996716
 30
0.0
 11
16.93961303027892
 21
22.87833419762789
 31
0.0
  0
LINE
  5
90
330
1F
100
AcDbEntity
  8
1
  6
Continuous
 62
     7
100
AcDbLine
 10
19.75338471539773
 20
22.6079099001722
 30
0.0
 11
19.75338471539773
 21
43.89941273621548
 31
0.0
  0
LINE
  5
91
330
1F
100
AcDbEntity
  8
1
  6
Continuous
 62
     7
100
AcDbLine
 10
21.25338471539773
 20
22.6079099001722
 30
0.0
 11
21.25338471539773
 21
43.89941273621548
 31
0.0
  0
LINE
  5
92
330
1F
100
AcDbEntity
  8
1
  6
Continuous
 62
     7
100
AcDbLine
 10
5.20822277465978
 20
33.6079099001722
 30
0.0
 11
5.20822277465978
 21
33.1079099001722
 31
0.0
  0
LINE
  5
93
330
1F
100
AcDbEntity
  8
1
  6
Continuous
 62
     7
100
AcDbLine
 10
5.20822277465978
 20
8.1079099001722
 30
0.0
 11
6.70822277465978
 21
8.1079099001722
 31
0.0
  0
LINE
  5
94
330
1F
100
AcDbEntity
  8
1
  6
Continuous
 62
     7
100
AcDbLine
 10
6.70822277465978
 20
8.1079099001722
 30
0.0
 11
6.70822277465978
 21
20.1079099001722
 31
0.0
  0
LINE
  5
95
330
1F
100
AcDbEntity
  8
1
  6
Continuous
 62
     7
100
AcDbLine
 10
5.20822277465978
 20
1.1079099001722
 30
0.0
 11
6.70822277465978
 21
1.1079099001722
 31
0.0
  0
LINE
  5
96
330
1F
100
AcDbEntity
  8
1
  6
Continuous
 62
     7
100
AcDbLine
 10
6.70822277465978
 20
1.1079099001722
 30
0.0
 11
6.70822277465978
 21
8.1079099001722
 31
0.0
  0
LINE
  5
97
330
1F
100
AcDbEntity
  8
1
  6
Continuous
 62
     7
100
AcDbLine
 10
5.20822277465978
 20
8.1079099001722
 30
0.0
 11
5.20822277465978
 21
17.60790990017219
 31
0.0
  0
LINE
  5
98
330
1F
100
AcDbEntity
  8
1
  6
Continuous
 62
     7
100
AcDbLine
 10
5.20822277465978
 20
1.1079099001722
 30
0.0
 11
5.20822277465978
 21
8.1079099001722
 31
0.0
  0
LINE
  5
99
330
1F
100
AcDbEntity
  8
1
  6
Continuous
 62
     7
100
AcDbLine
 10
-9.29177722534022
 20
-7.3920900998278
 30
0.0
 11
3.20822277465978
 21
-7.3920900998278
 31
0.0
  0
LINE
  5
9A
330
1F
100
AcDbEntity
  8
1
  6
Continuous
 62
     7
100
AcDbLine
 10
-15.39177722534017
 20
-7.3920900998278
 30
0.0
 11
-15.39177721964792
 21
-7.3920900998278
 31
0.0
  0
LINE
  5
9B
330
1F
100
AcDbEntity
  8
1
  6
Continuous
 62
     7
100
AcDbLine
 10
-13.29177722534022
 20
-7.3920900998278
 30
0.0
 11
-13.29177722534022
 21
-8.8920900998278
 31
0.0
  0
LINE
  5
9C
330
1F
100
AcDbEntity
  8
1
  6
Continuous
 62
     7
100
AcDbLine
 10
-13.29177722534022
 20
-7.3920900998278
 30
0.0
 11
-13.0417772253402
 21
-7.3920900998278
 31
0.0
  0
LINE
  5
9D
330
1F
100
AcDbEntity
  8
1
  6
Continuous
 62
     7
100
AcDbLine
 10
-13.29177722534022
 20
-8.8920900998278
 30
0.0
 11
-13.0417772253402
 21
-8.8920900998278
 31
0.0
  0
LINE
  5
9E
330
1F
100
AcDbEntity
  8
1
  6
Continuous
 62
     7
100
AcDbLine
 10
-13.0417772253402
 20
-8.8920900998278
 30
0.0
 11
-10.0417772253402
 21
-8.8920900998278
 31
0.0
  0
LINE
  5
9F
330
1F
100
AcDbEntity
  8
1
  6
Continuous
 62
     7
100
AcDbLine
 10
-10.0417772253402
 20
-8.8920900998278
 30
0.0
 11
-9.29177722534022
 21
-8.8920900998278
 31
0.0
  0
LINE
  5
A0
330
1F
100
AcDbEntity
  8
1
  6
Continuous
 62
     7
100
AcDbLine
 10
-9.04177722534022
 20
19.80790990017222
 30
0.0
 11
-5.54177722534022
 21
20.80790990017222
 31
0.0
  0
LINE
  5
A1
330
1F
100
AcDbEntity
  8
1
  6
Continuous
 62
     7
100
AcDbLine
 10
-9.04177722534022
 20
19.80790990017222
 30
0.0
 11
-12.54177722534022
 21
19.80790990017222
 31
0.0
  0
LINE
  5
A2
330
1F
100
AcDbEntity
  8
1
  6
Continuous
 62
     7
100
AcDbLine
 10
-5.54177722534022
 20
20.80790990017222
 30
0.0
 11
-5.28177330072306
 21
19.80790990017223
 31
0.0
  0
LINE
  5
A3
330
1F
100
AcDbEntity
  8
1
  6
Continuous
 62
     7
100
AcDbLine
 10
-5.04177722534022
 20
18.88486200489058
 30
0.0
 11
-8.76166733605973
 21
17.80790990017223
 31
0.0
  0
LINE
  5
A4
330
1F
100
AcDbEntity
  8
1
  6
Continuous
 62
     7
100
AcDbLine
 10
-8.76166733605973
 20
17.80790990017223
 30
0.0
 11
-12.54177722534022
 21
17.80790990017223
 31
0.0
  0
LINE
  5
A5
330
1F
100
AcDbEntity
  8
1
  6
Continuous
 62
     7
100
AcDbLine
 10
3.20822277465978
 20
21.60790990017222
 30
0.0
 11
3.20822277465978
 21
19.80790990017223
 31
0.0
  0
LINE
  5
A6
330
1F
100
AcDbEntity
  8
1
  6
Continuous
 62
     7
100
AcDbLine
 10
5.20822277465978
 20
21.60790990017222
 30
0.0
 11
3.20822277465978
 21
21.60790990017222
 31
0.0
  0
LINE
  5
A7
330
1F
100
AcDbEntity
  8
1
  6
Continuous
 62
     7
100
AcDbLine
 10
4.20822277465978
 20
19.80790990017223
 30
0.0
 11
3.20822277465978
 21
19.80790990017223
 31
0.0
  0
LINE
  5
A8
330
1F
100
AcDbEntity
  8
1
  6
Continuous
 62
     7
100
AcDbLine
 10
4.20822277465978
 20
18.30790990017223
 30
0.0
 11
4.20822277465978
 21
19.80790990017223
 31
0.0
  0
LINE
  5
A9
330
1F
100
AcDbEntity
  8
1
  6
Continuous
 62
     7
100
AcDbLine
 10
5.20822277465978
 20
19.80790990017223
 30
0.0
 11
4.20822277465978
 21
19.80790990017223
 31
0.0
  0
LINE
  5
AA
330
1F
100
AcDbEntity
  8
1
  6
Continuous
 62
     7
100
AcDbLine
 10
-4.79177722534023
 20
18.30790990017223
 30
0.0
 11
4.20822277465978
 21
18.30790990017223
 31
0.0
  0
LINE
  5
AB
330
1F
100
AcDbEntity
  8
1
  6
Continuous
 62
     7
100
AcDbLine
 10
4.20822277465978
 20
16.80790990017223
 30
0.0
 11
-9.99177722534022
 21
16.80790990017223
 31
0.0
  0
LINE
  5
AC
330
1F
100
AcDbEntity
  8
1
  6
Continuous
 62
     7
100
AcDbLine
 10
4.20822277465978
 20
-4.39209009982781
 30
0.0
 11
4.20822277465978
 21
16.80790990017223
 31
0.0
  0
LINE
  5
AD
330
1F
100
AcDbEntity
  8
1
  6
Continuous
 62
     7
100
AcDbLine
 10
4.20822277465978
 20
14.30790990017223
 30
0.0
 11
-2.79177722534023
 21
16.80790990017223
 31
0.0
  0
LINE
  5
AE
330
1F
100
AcDbEntity
  8
1
  6
Continuous
 62
     7
100
AcDbLine
 10
-4.79177722534023
 20
-6.3920900998278
 30
0.0
 11
-4.79177722534023
 21
-0.3920900998278
 31
0.0
  0
LINE
  5
AF
330
1F
100
AcDbEntity
  8
1
  6
Continuous
 62
     7
100
AcDbLine
 10
-9.99177722534022
 20
16.80790990017223
 30
0.0
 11
-9.59886663045092
 21
13.60790990017219
 31
0.0
  0
LINE
  5
B0
330
1F
100
AcDbEntity
  8
1
  6
Continuous
 62
     7
100
AcDbLine
 10
-8.76166733605973
 20
17.80790990017223
 30
0.0
 11
-4.79177722534023
 21
17.80790990017223
 31
0.0
  0
LINE
  5
B1
330
1F
100
AcDbEntity
  8
1
  6
Continuous
 62
     7
100
AcDbLine
 10
-4.79177722534023
 20
18.30790990017223
 30
0.0
 11
-4.79177722534023
 21
19.80790990017223
 31
0.0
  0
LINE
  5
B2
330
1F
100
AcDbEntity
  8
1
  6
Continuous
 62
     7
100
AcDbLine
 10
-5.28177330072306
 20
19.80790990017223
 30
0.0
 11
-5.04177722534022
 21
18.88486200489058
 31
0.0
  0
LINE
  5
B3
330
1F
100
AcDbEntity
  8
1
  6
Continuous
 62
     7
100
AcDbLine
 10
-4.79177722534023
 20
17.80790990017223
 30
0.0
 11
-4.79177722534023
 21
18.30790990017223
 31
0.0
  0
LINE
  5
B4
330
1F
100
AcDbEntity
  8
1
  6
Continuous
 62
     7
100
AcDbLine
 10
3.20822277465978
 20
19.80790990017223
 30
0.0
 11
-5.28177330072306
 21
19.80790990017223
 31
0.0
  0
LINE
  5
B5
330
1F
100
AcDbEntity
  8
1
  6
Continuous
 62
     7
100
AcDbLine
 10
2.20822277465978
 20
-6.3920900998278
 30
0.0
 11
-9.99177722534022
 21
-6.3920900998278
 31
0.0
  0
LINE
  5
B6
330
1F
100
AcDbEntity
  8
1
  6
Continuous
 62
     7
100
AcDbLine
 10
-9.99177722534022
 20
16.80790990017223
 30
0.0
 11
-12.79177722534023
 21
16.80790990017223
 31
0.0
  0
LINE
  5
B7
330
1F
100
AcDbEntity
  8
1
  6
Continuous
 62
     7
100
AcDbLine
 10
-12.79177722534023
 20
16.80790990017223
 30
0.0
 11
-13.04177722534022
 21
16.80790990017223
 31
0.0
  0
LINE
  5
B8
330
1F
100
AcDbEntity
  8
1
  6
Continuous
 62
     7
100
AcDbLine
 10
-12.79177722534023
 20
16.80790990017223
 30
0.0
 11
-12.79177722534023
 21
17.74092260206444
 31
0.0
  0
LINE
  5
B9
330
1F
100
AcDbEntity
  8
1
  6
Continuous
 62
     7
100
AcDbLine
 10
-4.79177722534023
 20
-0.3920900998278
 30
0.0
 11
-10.0417772253402
 21
-0.3920900998278
 31
0.0
  0
LINE
  5
BA
330
1F
100
AcDbEntity
  8
1
  6
Continuous
 62
     7
100
AcDbLine
 10
-13.04177722534022
 20
16.80790990017223
 30
0.0
 11
-13.0417772253402
 21
12.18948307758284
 31
0.0
  0
LINE
  5
BB
330
1F
100
AcDbEntity
  8
1
  6
Continuous
 62
     7
100
AcDbLine
 10
9.70822277465978
 20
33.6079099001722
 30
0.0
 11
14.43909158274705
 21
33.6079099001722
 31
0.0
  0
LINE
  5
BC
330
1F
100
AcDbEntity
  8
1
  6
Continuous
 62
     7
100
AcDbLine
 10
6.70822277465978
 20
30.6079099001722
 30
0.0
 11
6.70822277465978
 21
33.1079099001722
 31
0.0
  0
LINE
  5
BD
330
1F
100
AcDbEntity
  8
1
  6
Continuous
 62
     7
100
AcDbLine
 10
6.70822277465978
 20
20.1079099001722
 30
0.0
 11
6.70822277465978
 21
30.6079099001722
 31
0.0
  0
LINE
  5
BE
330
1F
100
AcDbEntity
  8
1
  6
Continuous
 62
     7
100
AcDbLine
 10
14.43909158274705
 20
33.6079099001722
 30
0.0
 11
17.73574662519287
 21
33.6079099001722
 31
0.0
  0
LINE
  5
BF
330
1F
100
AcDbEntity
  8
1
  6
Continuous
 62
     7
100
AcDbLine
 10
17.32787241007982
 20
29.79862297229393
 30
0.0
 11
18.21870953833736
 21
32.97850037762093
 31
0.0
  0
LINE
  5
C0
330
1F
100
AcDbEntity
  8
1
  6
Continuous
 62
     7
100
AcDbLine
 10
9.70822277465978
 20
17.1079099001722
 30
0.0
 11
15.08512934351668
 21
17.1079099001722
 31
0.0
  0
LINE
  5
C1
330
1F
100
AcDbEntity
  8
1
  6
Continuous
 62
     7
100
AcDbLine
 10
7.70822277465978
 20
20.1079099001722
 30
0.0
 11
7.70822277465978
 21
30.6079099001722
 31
0.0
  0
LINE
  5
C2
330
1F
100
AcDbEntity
  8
1
  6
Continuous
 62
     7
100
AcDbLine
 10
9.70822277465978
 20
32.60790990017222
 30
0.0
 11
14.43909158274705
 21
32.6079099001722
 31
0.0
  0
LINE
  5
C3
330
1F
100
AcDbEntity
  8
1
  6
Continuous
 62
     7
100
AcDbLine
 10
14.53888182789207
 20
23.55018085956492
 30
0.0
 11
16.36494546763556
 21
30.06838528158669
 31
0.0
  0
LINE
  5
C4
330
1F
100
AcDbEntity
  8
1
  6
Continuous
 62
     7
100
AcDbLine
 10
9.70822277465978
 20
18.1079099001722
 30
0.0
 11
15.08512934351668
 21
18.1079099001722
 31
0.0
  0
ARC
  5
C5
330
1F
100
AcDbEntity
  8
1
  6
Continuous
 62
     7
100
AcDbCircle
 10
-14.2617772253402
 20
-0.84366297508161
 30
0.0
 40
2.0
100
AcDbArc
 50
180.0
 51
-135.0000000000001
  0
ARC
  5
C6
330
1F
100
AcDbEntity
  8
1
  6
Continuous
 62
     7
100
AcDbCircle
 10
-14.26177722534019
 20
10.05948277542602
 30
0.0
 40
2.000000000000001
100
AcDbArc
 50
135.0000000000002
 51
179.9999999999997
  0
ARC
  5
C7
330
1F
100
AcDbEntity
  8
1
  6
Continuous
 62
     7
100
AcDbCircle
 10
17.90235427243352
 20
22.6079099001722
 30
0.0
 40
0.9999999999998928
100
AcDbArc
 50
164.3104834256019
 51
-89.58154630826017
  0
ARC
  5
C8
330
1F
100
AcDbEntity
  8
1
  6
Continuous
 62
     7
100
AcDbCircle
 10
17.90235427243352
 20
22.6079099001722
 30
0.0
 40
2.492967427003065
100
AcDbArc
 50
-128.8313325026445
 51
-89.8326204874579
  0
ARC
  5
C9
330
1F
100
AcDbEntity
  8
1
  6
Continuous
 62
     7
100
AcDbCircle
 10
9.70822277465978
 20
30.60790990017222
 30
0.0
 40
2.999999999999982
100
AcDbArc
 50
90.0
 51
-179.9999999999996
  0
ARC
  5
CA
330
1F
100
AcDbEntity
  8
1
  6
Continuous
 62
     7
100
AcDbCircle
 10
9.70822277465978
 20
20.1079099001722
 30
0.0
 40
3.000000000000001
100
AcDbArc
 50
180.0
 51
-90.0
  0
ARC
  5
CB
330
1F
100
AcDbEntity
  8
1
  6
Continuous
 62
     7
100
AcDbCircle
 10
14.43909158274705
 20
30.6079099001722
 30
0.0
 40
3.000000000000008
100
AcDbArc
 50
-15.65012336363144
 51
90.0
  0
ARC
  5
CC
330
1F
100
AcDbEntity
  8
1
  6
Continuous
 62
     7
100
AcDbCircle
 10
15.08512934351668
 20
19.1079099001722
 30
0.0
 40
2.0
100
AcDbArc
 50
-90.0
 51
51.16866749735531
  0
ARC
  5
CD
330
1F
100
AcDbEntity
  8
1
  6
Continuous
 62
     7
100
AcDbCircle
 10
17.90235427243352
 20
22.6079099001722
 30
0.0
 40
2.492967427003083
100
AcDbArc
 50
164.3498766363688
 51
-128.8313325026445
  0
ARC
  5
CE
330
1F
100
AcDbEntity
  8
1
  6
Continuous
 62
     7
100
AcDbCircle
 10
9.70822277465978
 20
20.1079099001722
 30
0.0
 40
2.000000000000001
100
AcDbArc
 50
180.0
 51
-90.0
  0
ARC
  5
CF
330
1F
100
AcDbEntity
  8
1
  6
Continuous
 62
     7
100
AcDbCircle
 10
9.70822277465978
 20
30.60790990017222
 30
0.0
 40
1.999999999999996
100
AcDbArc
 50
90.0
 51
-179.9999999999994
  0
ARC
  5
D0
330
1F
100
AcDbEntity
  8
1
  6
Continuous
 62
     7
100
AcDbCircle
 10
14.43909158274705
 20
30.6079099001722
 30
0.0
 40
2.000000000000002
100
AcDbArc
 50
-15.65012336363139
 51
90.0
  0
ARC
  5
D1
330
1F
100
AcDbEntity
  8
1
  6
Continuous
 62
     7
100
AcDbCircle
 10
17.90235427243352
 20
22.6079099001722
 30
0.0
 40
3.492967427003081
100
AcDbArc
 50
164.3498766363686
 51
-128.8313325026446
  0
ARC
  5
D2
330
1F
100
AcDbEntity
  8
1
  6
Continuous
 62
     7
100
AcDbCircle
 10
15.08512934351668
 20
19.1079099001722
 30
0.0
 40
1.0
100
AcDbArc
 50
-90.0
 51
51.1686674973555
  0
SPLINE
  5
D3
330
1F
100
AcDbEntity
  8
1
  6
Continuous
 62
     7
100
AcDbSpline
210
0.0
220
0.0
230
1.0
 70
     8
 71
     3
 72
    21
 73
    17
 74
    15
 42
0.0000000001
 43
0.0000000001
 44
0.00000001
 40
0.0
 40
0.0
 40
0.0
 40
0.0
 40
0.2055941652648746
 40
0.3664905725465333
 40
0.528249306045953
 40
0.6720983026135848
 40
0.7797807341074396
 40
0.8857064111210098
 40
0.9882327233805316
 40
1.109598171382092
 40
1.203206969204865
 40
1.293002544244279
 40
1.416894134578876
 40
1.532052433088419
 40
1.636514903006321
 40
1.759431153385605
 40
1.759431153385605
 40
1.759431153385605
 40
1.759431153385605
 10
19.75338471539773
 20
43.89941273621548
 30
0.0
 10
19.80581377592657
 20
43.85583253766038
 30
0.0
 10
19.89927341465969
 20
43.77814681199996
 30
0.0
 10
20.09909483530856
 20
43.74567469188923
 30
0.0
 10
20.19700034938784
 20
43.87568022046769
 30
0.0
 10
20.32648357831966
 20
43.97055514697209
 30
0.0
 10
20.43400010515828
 20
43.89984243844629
 30
0.0
 10
20.53354594229359
 20
43.84145667915656
 30
0.0
 10
20.63615740292072
 20
43.91547877566293
 30
0.0
 10
20.69524634104841
 20
43.99135745012359
 30
0.0
 10
20.78348550236111
 20
44.07497260436924
 30
0.0
 10
20.88114810258809
 20
44.00155473114592
 30
0.0
 10
20.94109324493929
 20
43.91938756273122
 30
0.0
 10
21.02826255656016
 20
43.82969228385367
 30
0.0
 10
21.15200979084772
 20
43.84227340308773
 30
0.0
 10
21.21781290691842
 20
43.87936291202396
 30
0.0
 10
21.25338471539773
 20
43.89941273621548
 30
0.0
 11
19.75338471539773
 21
43.89941273621548
 31
0.0
 11
19.92488785699845
 21
43.7860300514173
 31
0.0
 11
20.08525733729267
 21
43.7730191457491
 31
0.0
 11
20.20961449713964
 21
43.87646567617972
 31
0.0
 11
20.33678478812977
 21
43.94369848738823
 31
0.0
 11
20.43529406702436
 21
43.90020793641337
 31
0.0
 11
20.53441349950067
 21
43.86285037819074
 31
0.0
 11
20.6244270986045
 21
43.91193394654016
 31
0.0
 11
20.70749819677835
 21
44.00041425291853
 31
0.0
 11
20.78594095033777
 21
44.05149596631814
 31
0.0
 11
20.86519813834467
 21
44.00928763247401
 31
0.0
 11
20.94727419004793
 21
43.91648327970735
 31
0.0
 11
21.03746840117362
 21
43.84488413170244
 31
0.0
 11
21.14189394925921
 21
43.84766127562595
 31
0.0
 11
21.25338471539773
 21
43.89941273621548
 31
0.0
  0
ARC
  5
D4
330
1F
100
AcDbEntity
  8
1
  6
Continuous
 62
     7
100
AcDbCircle
 10
-15.0417772253402
 20
12.18948307758284
 30
0.0
 40
2.00000000000001
100
AcDbArc
 50
-48.93108456428361
 51
0.0
  0
ARC
  5
D5
330
1F
100
AcDbEntity
  8
1
  6
Continuous
 62
     7
100
AcDbCircle
 10
-15.0417772253402
 20
-2.8920900998278
 30
0.0
 40
2.0
100
AcDbArc
 50
0.0
 51
45.00000000000008
  0
ARC
  5
D6
330
1F
100
AcDbEntity
  8
1
  6
Continuous
 62
     7
100
AcDbCircle
 10
-5.0417772253402
 20
10.10790990017219
 30
0.0
 40
0.5
100
AcDbArc
 50
0.0
 51
90.0
  0
ARC
  5
D7
330
1F
100
AcDbEntity
  8
1
  6
Continuous
 62
     7
100
AcDbCircle
 10
-9.5417772253402
 20
10.10790990017219
 30
0.0
 40
0.5
100
AcDbArc
 50
90.0
 51
180.0
  0
ARC
  5
D8
330
1F
100
AcDbEntity
  8
1
  6
Continuous
 62
     7
100
AcDbCircle
 10
-9.5417772253402
 20
10.10790990017219
 30
0.0
 40
3.5
100
AcDbArc
 50
90.0
 51
180.0
  0
ARC
  5
D9
330
1F
100
AcDbEntity
  8
1
  6
Continuous
 62
     7
100
AcDbCircle
 10
-5.0417772253402
 20
10.10790990017219
 30
0.0
 40
3.499999999999999
100
AcDbArc
 50
0.0
 51
90.0
  0
ARC
  5
DA
330
1F
100
AcDbEntity
  8
1
  6
Continuous
 62
     7
100
AcDbCircle
 10
-21.2917772253402
 20
-6.8920900998278
 30
0.0
 40
0.5
100
AcDbArc
 50
180.0
 51
-90.0
  0
ARC
  5
DB
330
1F
100
AcDbEntity
  8
1
  6
Continuous
 62
     7
100
AcDbCircle
 10
-21.7917772253402
 20
-7.3920900998278
 30
0.0
 40
1.5
100
AcDbArc
 50
180.0
 51
-90.0
  0
ARC
  5
DC
330
1F
100
AcDbEntity
  8
1
  6
Continuous
 62
     7
100
AcDbCircle
 10
5.20822277465978
 20
-7.3920900998278
 30
0.0
 40
1.5
100
AcDbArc
 50
-90.0
 51
0.0
  0
ARC
  5
DD
330
1F
100
AcDbEntity
  8
1
  6
Continuous
 62
     7
100
AcDbCircle
 10
7.20822277465978
 20
33.1079099001722
 30
0.0
 40
0.5
100
AcDbArc
 50
90.0
 51
180.0
  0
ARC
  5
DE
330
1F
100
AcDbEntity
  8
1
  6
Continuous
 62
     7
100
AcDbCircle
 10
17.73574662519287
 20
33.1079099001722
 30
0.0
 40
1.999999999999827
100
AcDbArc
 50
-15.00000000000127
 51
90.0
  0
ARC
  5
DF
330
1F
100
AcDbEntity
  8
1
  6
Continuous
 62
     7
100
AcDbCircle
 10
18.75338471539773
 20
22.6079099001722
 30
0.0
 40
1.0
100
AcDbArc
 50
-90.0
 51
0.0
  0
ARC
  5
E0
330
1F
100
AcDbEntity
  8
1
  6
Continuous
 62
     7
100
AcDbCircle
 10
17.73574662519287
 20
33.1079099001722
 30
0.0
 40
0.4999999999999603
100
AcDbArc
 50
-15.00000000000243
 51
90.0
  0
ARC
  5
E1
330
1F
100
AcDbEntity
  8
1
  6
Continuous
 62
     7
100
AcDbCircle
 10
18.75338471539773
 20
22.6079099001722
 30
0.0
 40
2.5
100
AcDbArc
 50
-90.0
 51
0.0
  0
ARC
  5
E2
330
1F
100
AcDbEntity
  8
1
  6
Continuous
 62
     7
100
AcDbCircle
 10
6.70822277465978
 20
33.6079099001722
 30
0.0
 40
1.5
100
AcDbArc
 50
90.0
 51
180.0
  0
ARC
  5
E3
330
1F
100
AcDbEntity
  8
1
  6
Continuous
 62
     7
100
AcDbCircle
 10
-12.54177722534022
 20
17.30790990017223
 30
0.0
 40
0.4999999999999962
100
AcDbArc
 50
120.0000000000014
 51
180.0
  0
ARC
  5
E4
330
1F
100
AcDbEntity
  8
1
  6
Continuous
 62
     7
100
AcDbCircle
 10
-12.54177722534022
 20
17.30790990017223
 30
0.0
 40
2.499999999999989
100
AcDbArc
 50
90.0
 51
180.0
  0
ARC
  5
E5
330
1F
100
AcDbEntity
  8
1
  6
Continuous
 62
     7
100
AcDbCircle
 10
2.20822277465978
 20
-4.39209009982781
 30
0.0
 40
1.999999999999986
100
AcDbArc
 50
-90.0
 51
0.0
  0
ARC
  5
E6
330
1F
100
AcDbEntity
  8
1
  6
Continuous
 62
     7
100
AcDbCircle
 10
2.20822277465978
 20
-4.39209009982781
 30
0.0
 40
2.999999999999986
100
AcDbArc
 50
-90.0
 51
0.0
  0
ARC
  5
E7
330
1F
100
AcDbEntity
  8
1
  6
Continuous
 62
     7
100
AcDbCircle
 10
-12.54177722534022
 20
17.30790990017223
 30
0.0
 40
0.5
100
AcDbArc
 50
90.0
 51
120.0000000000014
  0
DIMENSION
  5
F3
330
1F
100
AcDbEntity
  8
1
100
AcDbDimension
  2
*D1
 10
-22.0417772253402
 20
55.485700672888
 30
0.0
 11
-8.65861384785774
 21
59.235700672888
 31
0.0
 70
    32
  1
<>
 71
     5
 42
-1.0
 53
0.00013888888889
  3
ME10_DIM_10
100
AcDbAlignedDimension
 13
5.20822277465978
 23
33.1079099001722
 33
0.0
 14
-22.0417772253402
 24
7.1079099001722
 34
0.0
100
AcDbRotatedDimension
  0
DIMENSION
  5
100
330
1F
100
AcDbEntity
  8
1
100
AcDbDimension
  2
*D2
 10
16.78896314062793
 20
8.1079099001722
 30
0.0
 11
13.03896314062793
 21
13.11560860281919
 31
0.0
 70
    32
  1
<>
 71
     5
 42
-1.0
 53
90.0
  3
ME10_DIM_11
100
AcDbAlignedDimension
 13
6.70822277465978
 23
1.1079099001722
 33
0.0
 14
5.20822277465978
 24
8.1079099001722
 34
0.0
 50
90.0
100
AcDbRotatedDimension
  0
DIMENSION
  5
10C
330
1F
100
AcDbEntity
  8
1
100
AcDbDimension
  2
*D3
 10
27.0123976443399
 20
-8.89209009982775
 30
0.0
 11
23.2623976443399
 21
-1.71227350180111
 31
0.0
 70
    32
  1
<>
 71
     5
 42
-1.0
 53
90.0
  3
ME10_DIM_12
100
AcDbAlignedDimension
 13
7.94071619560988
 23
4.6079099001722
 33
0.0
 14
5.20822277465978
 24
-8.8920900998278
 34
0.0
 50
90.0
100
AcDbRotatedDimension
  0
DIMENSION
  5
117
330
1F
100
AcDbEntity
  8
1
100
AcDbDimension
  2
*D4
 10
-33.6950143738548
 20
-7.3920900998278
 30
0.0
 11
-37.4450143738548
 21
6.06785255511937
 31
0.0
 70
    32
  1
<>
 71
     5
 42
-1.0
 53
90.0
  3
ME10_DIM_13
100
AcDbAlignedDimension
 13
-12.54177722534022
 23
19.80790990017222
 33
0.0
 14
-21.2917772253402
 24
-7.3920900998278
 34
0.0
 50
90.0
100
AcDbRotatedDimension
  0
DIMENSION
  5
122
330
1F
100
AcDbEntity
  8
1
100
AcDbDimension
  2
*D5
 10
-15.04177722534022
 20
44.4909035518334
 30
0.0
 11
-4.91376095097812
 21
48.2409035518334
 31
0.0
 70
    32
  1
<>
 71
     5
 42
-1.0
 53
0.00013888888889
  3
ME10_DIM_14
100
AcDbAlignedDimension
 13
5.20822277465978
 23
33.1079099001722
 33
0.0
 14
-15.04177722534022
 24
17.30790990017223
 34
0.0
100
AcDbRotatedDimension
  0
DIMENSION
  5
12D
330
1F
100
AcDbEntity
  8
1
100
AcDbDimension
  2
*D6
 10
6.70822277465978
 20
-19.24442348515061
 30
0.0
 11
-2.21572507457402
 21
-15.49442348515061
 31
0.0
 70
    32
  1
<>
 71
     5
 42
-1.0
 53
0.00013888888889
  3
ME10_DIM_15
100
AcDbAlignedDimension
 13
-9.29177722534022
 23
-8.8920900998278
 33
0.0
 14
6.70822277465978
 24
-7.3920900998278
 34
0.0
100
AcDbRotatedDimension
  0
DIMENSION
  5
13A
330
1F
100
AcDbEntity
  8
1
100
AcDbDimension
  2
*D7
 10
-9.29177722534022
 20
-19.24442348515061
 30
0.0
 11
-11.29177722534022
 21
-15.49442348515061
 31
0.0
 70
    32
  1
<>
 71
     5
 42
-1.0
 53
0.00013888888889
  3
ME10_DIM_16
100
AcDbAlignedDimension
 13
-13.29177722534022
 23
-7.3920900998278
 33
0.0
 14
-9.29177722534022
 24
-8.8920900998278
 34
0.0
100
AcDbRotatedDimension
  0
ENDSEC
  0
SECTION
  2
OBJECTS
  0
DICTIONARY
  5
C
330
0
100
AcDbDictionary
281
     1
  3
ACAD_GROUP
350
D
  3
ACAD_LAYOUT
350
1A
  3
ACAD_MLINESTYLE
350
17
  3
ACAD_PLOTSETTINGS
350
19
  3
ACAD_PLOTSTYLENAME
350
E
  0
DICTIONARY
  5
D
102
{ACAD_REACTORS
330
C
102
}
330
C
100
AcDbDictionary
281
     1
  0
DICTIONARY
  5
1A
102
{ACAD_REACTORS
330
C
102
}
330
C
100
AcDbDictionary
281
     1
  3
Layout1
350
1E
  3
Layout2
350
26
  3
Model
350
22
  0
DICTIONARY
  5
17
102
{ACAD_REACTORS
330
C
102
}
330
C
100
AcDbDictionary
281
     1
  3
Standard
350
18
  0
DICTIONARY
  5
19
102
{ACAD_REACTORS
330
C
102
}
330
C
100
AcDbDictionary
281
     1
  0
ACDBDICTIONARYWDFLT
  5
E
102
{ACAD_REACTORS
330
C
102
}
330
C
100
AcDbDictionary
281
     1
  3
Normal
350
F
100
AcDbDictionaryWithDefault
340
F
  0
LAYOUT
  5
1E
102
{ACAD_REACTORS
330
1A
102
}
330
1A
100
AcDbPlotSettings
  1

  2

  4

  6

 40
0.0
 41
0.0
 42
0.0
 43
0.0
 44
0.0
 45
0.0
 46
0.0
 47
0.0
 48
0.0
 49
0.0
140
0.0
141
0.0
142
1.0
143
1.0
 70
   688
 72
     0
 73
     0
 74
     5
  7

 75
    16
 76
     0
 77
     2
 78
   300
147
1.0
148
0.0
149
0.0
100
AcDbLayout
  1
Layout1
 70
     1
 71
     1
 10
0.0
 20
0.0
 11
0.0
 21
0.0
 12
0.0
 22
0.0
 32
0.0
 14
0.0
 24
0.0
 34
0.0
 15
0.0
 25
0.0
 35
0.0
146
0.0
 13
0.0
 23
0.0
 33
0.0
 16
1.0
 26
0.0
 36
0.0
 17
0.0
 27
1.0
 37
0.0
 76
     0
330
1B
  0
LAYOUT
  5
26
102
{ACAD_REACTORS
330
1A
102
}
330
1A
100
AcDbPlotSettings
  1

  2

  4

  6

 40
0.0
 41
0.0
 42
0.0
 43
0.0
 44
0.0
 45
0.0
 46
0.0
 47
0.0
 48
0.0
 49
0.0
140
0.0
141
0.0
142
1.0
143
1.0
 70
   688
 72
     0
 73
     0
 74
     5
  7

 75
    16
 76
     0
 77
     2
 78
   300
147
1.0
148
0.0
149
0.0
100
AcDbLayout
  1
Layout2
 70
     1
 71
     2
 10
0.0
 20
0.0
 11
0.0
 21
0.0
 12
0.0
 22
0.0
 32
0.0
 14
0.0
 24
0.0
 34
0.0
 15
0.0
 25
0.0
 35
0.0
146
0.0
 13
0.0
 23
0.0
 33
0.0
 16
1.0
 26
0.0
 36
0.0
 17
0.0
 27
1.0
 37
0.0
 76
     0
330
23
  0
LAYOUT
  5
22
102
{ACAD_REACTORS
330
1A
102
}
330
1A
100
AcDbPlotSettings
  1

  2

  4

  6

 40
0.0
 41
0.0
 42
0.0
 43
0.0
 44
0.0
 45
0.0
 46
0.0
 47
0.0
 48
0.0
 49
0.0
140
0.0
141
0.0
142
1.0
143
1.0
 70
  1712
 72
     0
 73
     0
 74
     0
  7

 75
     0
 76
     0
 77
     2
 78
   300
147
1.0
148
0.0
149
0.0
100
AcDbLayout
  1
Model
 70
     1
 71
     0
 10
0.0
 20
0.0
 11
0.0
 21
0.0
 12
0.0
 22
0.0
 32
0.0
 14
-39.1950143738548
 24
-21.24442348515061
 34
0.0
 15
29.0123976443399
 25
60.985700672888
 35
0.0
146
0.0
 13
0.0
 23
0.0
 33
0.0
 16
1.0
 26
0.0
 36
0.0
 17
0.0
 27
1.0
 37
0.0
 76
     0
330
1F
  0
MLINESTYLE
  5
18
102
{ACAD_REACTORS
330
17
102
}
330
17
100
AcDbMlineStyle
  2
Standard
 70
     0
  3

 62
   256
 51
90.0
 52
90.0
 71
     2
 49
0.5
 62
   256
  6
BYLAYER
 49
-0.5
 62
   256
  6
BYLAYER
  0
ACDBPLACEHOLDER
  5
F
102
{ACAD_REACTORS
330
E
102
}
330
E
  0
ENDSEC
  0
EOF
