  0
SECTION
  2
HEADER
  9
$ACADVER
  1
AC1018
  9
$ACADMAINTVER
 70
     0
  9
$DWGCODEPAGE
  3
ANSI_1252
  9
$INSBASE
 10
0.0
 20
0.0
 30
0.0
  9
$EXTMIN
 10
-38.1619957307568
 20
-18.164489511855
 30
0.0
  9
$EXTMAX
 10
29.16639434300469
 20
59.63911208619479
 30
0.0
  9
$LIMMIN
 10
0.0
 20
0.0
  9
$LIMMAX
 10
12.0
 20
9.0
  9
$ORTHOMODE
 70
     0
  9
$REGENMODE
 70
     1
  9
$FILLMODE
 70
     1
  9
$QTEXTMODE
 70
     0
  9
$MIRRTEXT
 70
     1
  9
$LTSCALE
 40
1.0
  9
$ATTMODE
 70
     1
  9
$TEXTSIZE
 40
0.2
  9
$TRACEWID
 40
0.05
  9
$TEXTSTYLE
  7
Standard
  9
$CLAYER
  8
0
  9
$CELTYPE
  6
ByLayer
  9
$CECOLOR
 62
   256
  9
$CELTSCALE
 40
1.0
  9
$DISPSILH
 70
     0
  9
$DIMSCALE
 40
1.0
  9
$DIMASZ
 40
0.18
  9
$DIMEXO
 40
0.0625
  9
$DIMDLI
 40
0.38
  9
$DIMRND
 40
0.0
  9
$DIMDLE
 40
0.0
  9
$DIMEXE
 40
0.18
  9
$DIMTP
 40
0.0
  9
$DIMTM
 40
0.0
  9
$DIMTXT
 40
0.18
  9
$DIMCEN
 40
0.09
  9
$DIMTSZ
 40
0.0
  9
$DIMTOL
 70
     0
  9
$DIMLIM
 70
     0
  9
$DIMTIH
 70
     1
  9
$DIMTOH
 70
     1
  9
$DIMSE1
 70
     0
  9
$DIMSE2
 70
     0
  9
$DIMTAD
 70
     0
  9
$DIMZIN
 70
     0
  9
$DIMBLK
  1

  9
$DIMASO
 70
     1
  9
$DIMSHO
 70
     1
  9
$DIMPOST
  1

  9
$DIMAPOST
  1

  9
$DIMALT
 70
     0
  9
$DIMALTD
 70
     2
  9
$DIMALTF
 40
25.4
  9
$DIMLFAC
 40
1.0
  9
$DIMTOFL
 70
     0
  9
$DIMTVP
 40
0.0
  9
$DIMTIX
 70
     0
  9
$DIMSOXD
 70
     0
  9
$DIMSAH
 70
     0
  9
$DIMBLK1
  1

  9
$DIMBLK2
  1

  9
$DIMSTYLE
  2
Standard
  9
$DIMCLRD
 70
     0
  9
$DIMCLRE
 70
     0
  9
$DIMCLRT
 70
     0
  9
$DIMTFAC
 40
1.0
  9
$DIMGAP
 40
0.09
  9
$DIMJUST
 70
     0
  9
$DIMSD1
 70
     0
  9
$DIMSD2
 70
     0
  9
$DIMTOLJ
 70
     1
  9
$DIMTZIN
 70
     0
  9
$DIMALTZ
 70
     0
  9
$DIMALTTZ
 70
     0
  9
$DIMUPT
 70
     0
  9
$DIMDEC
 70
     4
  9
$DIMTDEC
 70
     4
  9
$DIMALTU
 70
     2
  9
$DIMALTTD
 70
     2
  9
$DIMTXSTY
  7
Standard
  9
$DIMAUNIT
 70
     0
  9
$DIMADEC
 70
     0
  9
$DIMALTRND
 40
0.0
  9
$DIMAZIN
 70
     0
  9
$DIMDSEP
 70
    46
  9
$DIMATFIT
 70
     3
  9
$DIMFRAC
 70
     0
  9
$DIMLDRBLK
  1

  9
$DIMLUNIT
 70
     2
  9
$DIMLWD
 70
    -2
  9
$DIMLWE
 70
    -2
  9
$DIMTMOVE
 70
     0
  9
$LUNITS
 70
     2
  9
$LUPREC
 70
     4
  9
$SKETCHINC
 40
0.1
  9
$FILLETRAD
 40
0.5
  9
$AUNITS
 70
     0
  9
$AUPREC
 70
     0
  9
$MENU
  1
.
  9
$ELEVATION
 40
0.0
  9
$PELEVATION
 40
0.0
  9
$THICKNESS
 40
0.0
  9
$LIMCHECK
 70
     0
  9
$CHAMFERA
 40
0.5
  9
$CHAMFERB
 40
0.5
  9
$CHAMFERC
 40
1.0
  9
$CHAMFERD
 40
0.0
  9
$SKPOLY
 70
     0
  9
$TDCREATE
 40
2454428.417960324
  9
$TDUCREATE
 40
2454428.376293657
  9
$TDUPDATE
 40
2454428.417960336
  9
$TDUUPDATE
 40
2454428.376293669
  9
$TDINDWG
 40
0.0000000116
  9
$TDUSRTIMER
 40
0.0000000116
  9
$USRTIMER
 70
     1
  9
$ANGBASE
 50
0.0
  9
$ANGDIR
 70
     0
  9
$PDMODE
 70
     0
  9
$PDSIZE
 40
0.0
  9
$PLINEWID
 40
0.0
  9
$SPLFRAME
 70
     0
  9
$SPLINETYPE
 70
     6
  9
$SPLINESEGS
 70
     8
  9
$HANDSEED
  5
13B
  9
$SURFTAB1
 70
     6
  9
$SURFTAB2
 70
     6
  9
$SURFTYPE
 70
     6
  9
$SURFU
 70
     6
  9
$SURFV
 70
     6
  9
$UCSBASE
  2

  9
$UCSNAME
  2

  9
$UCSORG
 10
0.0
 20
0.0
 30
0.0
  9
$UCSXDIR
 10
1.0
 20
0.0
 30
0.0
  9
$UCSYDIR
 10
0.0
 20
1.0
 30
0.0
  9
$UCSORTHOREF
  2

  9
$UCSORTHOVIEW
 70
     0
  9
$UCSORGTOP
 10
0.0
 20
0.0
 30
0.0
  9
$UCSORGBOTTOM
 10
0.0
 20
0.0
 30
0.0
  9
$UCSORGLEFT
 10
0.0
 20
0.0
 30
0.0
  9
$UCSORGRIGHT
 10
0.0
 20
0.0
 30
0.0
  9
$UCSORGFRONT
 10
0.0
 20
0.0
 30
0.0
  9
$UCSORGBACK
 10
0.0
 20
0.0
 30
0.0
  9
$PUCSBASE
  2

  9
$PUCSNAME
  2

  9
$PUCSORG
 10
0.0
 20
0.0
 30
0.0
  9
$PUCSXDIR
 10
1.0
 20
0.0
 30
0.0
  9
$PUCSYDIR
 10
0.0
 20
1.0
 30
0.0
  9
$PUCSORTHOREF
  2

  9
$PUCSORTHOVIEW
 70
     0
  9
$PUCSORGTOP
 10
0.0
 20
0.0
 30
0.0
  9
$PUCSORGBOTTOM
 10
0.0
 20
0.0
 30
0.0
  9
$PUCSORGLEFT
 10
0.0
 20
0.0
 30
0.0
  9
$PUCSORGRIGHT
 10
0.0
 20
0.0
 30
0.0
  9
$PUCSORGFRONT
 10
0.0
 20
0.0
 30
0.0
  9
$PUCSORGBACK
 10
0.0
 20
0.0
 30
0.0
  9
$USERI1
 70
     0
  9
$USERI2
 70
     0
  9
$USERI3
 70
     0
  9
$USERI4
 70
     0
  9
$USERI5
 70
     0
  9
$USERR1
 40
14.5
  9
$USERR2
 40
0.0
  9
$USERR3
 40
0.0
  9
$USERR4
 40
0.0
  9
$USERR5
 40
0.0
  9
$WORLDVIEW
 70
     1
  9
$SHADEDGE
 70
     3
  9
$SHADEDIF
 70
    70
  9
$TILEMODE
 70
     1
  9
$MAXACTVP
 70
    64
  9
$PINSBASE
 10
0.0
 20
0.0
 30
0.0
  9
$PLIMCHECK
 70
     0
  9
$PEXTMIN
 10
1.00000000000000E+20
 20
1.00000000000000E+20
 30
1.00000000000000E+20
  9
$PEXTMAX
 10
-1.00000000000000E+20
 20
-1.00000000000000E+20
 30
-1.00000000000000E+20
  9
$PLIMMIN
 10
0.0
 20
0.0
  9
$PLIMMAX
 10
12.0
 20
9.0
  9
$UNITMODE
 70
     0
  9
$VISRETAIN
 70
     1
  9
$PLINEGEN
 70
     0
  9
$PSLTSCALE
 70
     1
  9
$TREEDEPTH
 70
  3020
  9
$CMLSTYLE
  2
Standard
  9
$CMLJUST
 70
     0
  9
$CMLSCALE
 40
1.0
  9
$PROXYGRAPHICS
 70
     1
  9
$MEASUREMENT
 70
     1
  9
$CELWEIGHT
370
    -1
  9
$ENDCAPS
280
     0
  9
$JOINSTYLE
280
     0
  9
$LWDISPLAY
290
     0
  9
$INSUNITS
 70
     1
  9
$HYPERLINKBASE
  1

  9
$STYLESHEET
  1

  9
$XEDIT
290
     1
  9
$CEPSNTYPE
380
     0
  9
$PSTYLEMODE
290
     1
  9
$FINGERPRINTGUID
  2
{FF6B6C8D-2D47-4E35-BEF0-8D86E3BBBDD1}
  9
$VERSIONGUID
  2
{FAEB1C32-E019-11D5-929B-00C0DF256EC4}
  9
$EXTNAMES
290
     1
  9
$PSVPSCALE
 40
0.0
  9
$OLESTARTUP
290
     0
  9
$SORTENTS
280
   127
  9
$INDEXCTL
280
     0
  9
$HIDETEXT
280
     1
  9
$XCLIPFRAME
290
     0
  9
$HALOGAP
280
     0
  9
$OBSCOLOR
 70
   257
  9
$OBSLTYPE
280
     0
  9
$INTERSECTIONDISPLAY
280
     0
  9
$INTERSECTIONCOLOR
 70
   257
  9
$DIMASSOC
280
     2
  9
$PROJECTNAME
  1

  0
ENDSEC
  0
SECTION
  2
CLASSES
  0
CLASS
  1
ACDBDICTIONARYWDFLT
  2
AcDbDictionaryWithDefault
  3
ObjectDBX Classes
 90
        0
 91
        3
280
     0
281
     0
  0
CLASS
  1

  2
exOdDbSpline
  3

 90
        0
 91
        3
280
     0
281
     1
  0
ENDSEC
  0
SECTION
  2
TABLES
  0
TABLE
  2
VPORT
  5
8
330
0
100
AcDbSymbolTable
 70
     1
  0
VPORT
  5
29
330
8
100
AcDbSymbolTableRecord
100
AcDbViewportTableRecord
  2
*Active
 70
     0
 10
0.0
 20
0.0
 11
1.0
 21
1.0
 12
-4.49780069387606
 22
20.7373112871699
 13
0.0
 23
0.0
 14
0.5
 24
0.5
 15
0.5
 25
0.5
 16
0.0
 26
0.0
 36
1.0
 17
0.0
 27
0.0
 37
0.0
 40
85.58396175785478
 41
1.60267857142857
 42
50.0
 43
0.0
 44
0.0
 50
0.0
 51
0.0
 71
     0
 72
   100
 73
     1
 74
     3
 75
     0
 76
     0
 77
     0
 78
     0
281
     0
 65
     1
110
0.0
120
0.0
130
0.0
111
1.0
121
0.0
131
0.0
112
0.0
122
1.0
132
0.0
 79
     0
146
0.0
  0
ENDTAB
  0
TABLE
  2
LTYPE
  5
5
330
0
100
AcDbSymbolTable
 70
     8
  0
LTYPE
  5
14
330
5
100
AcDbSymbolTableRecord
100
AcDbLinetypeTableRecord
  2
ByBlock
 70
     0
  3

 72
    65
 73
     0
 40
0.0
  0
LTYPE
  5
15
330
5
100
AcDbSymbolTableRecord
100
AcDbLinetypeTableRecord
  2
ByLayer
 70
     0
  3

 72
    65
 73
     0
 40
0.0
  0
LTYPE
  5
16
330
5
100
AcDbSymbolTableRecord
100
AcDbLinetypeTableRecord
  2
Continuous
 70
     0
  3
Solid line
 72
    65
 73
     0
 40
0.0
  0
LTYPE
  5
2A
330
5
100
AcDbSymbolTableRecord
100
AcDbLinetypeTableRecord
  2
DASHED
 70
     0
  3
Dashed
 72
    65
 73
     2
 40
15.0
 49
7.0
 74
     0
 49
-8.0
 74
     0
  0
LTYPE
  5
2B
330
5
100
AcDbSymbolTableRecord
100
AcDbLinetypeTableRecord
  2
DOTTED
 70
     0
  3
Dotted
 72
    65
 73
     2
 40
1.0
 49
0.0
 74
     0
 49
-1.0
 74
     0
  0
LTYPE
  5
2C
330
5
100
AcDbSymbolTableRecord
100
AcDbLinetypeTableRecord
  2
DOT_CENTER
 70
     0
  3
Dot_Center
 72
    65
 73
     4
 40
14.0
 49
12.0
 74
     0
 49
-1.0
 74
     0
 49
0.0
 74
     0
 49
-1.0
 74
     0
  0
LTYPE
  5
2D
330
5
100
AcDbSymbolTableRecord
100
AcDbLinetypeTableRecord
  2
LONG_DASHED
 70
     0
  3
Long_Dashed
 72
    65
 73
     2
 40
15.0
 49
10.0
 74
     0
 49
-5.0
 74
     0
  0
LTYPE
  5
2E
330
5
100
AcDbSymbolTableRecord
100
AcDbLinetypeTableRecord
  2
DASH_CENTER
 70
     0
  3
Dash_Center
 72
    65
 73
     4
 40
14.0
 49
11.0
 74
     0
 49
-1.0
 74
     0
 49
1.0
 74
     0
 49
-1.0
 74
     0
  0
LTYPE
  5
2F
330
5
100
AcDbSymbolTableRecord
100
AcDbLinetypeTableRecord
  2
PHANTOM
 70
     0
  3
Phantom
 72
    65
 73
     6
 40
13.0
 49
10.0
 74
     0
 49
-1.0
 74
     0
 49
0.0
 74
     0
 49
-1.0
 74
     0
 49
0.0
 74
     0
 49
-1.0
 74
     0
  0
LTYPE
  5
30
330
5
100
AcDbSymbolTableRecord
100
AcDbLinetypeTableRecord
  2
CENTER_DASH_DASH
 70
     0
  3
Center_Dash_Dash
 72
    65
 73
     6
 40
14.0
 49
9.0
 74
     0
 49
-1.0
 74
     0
 49
1.0
 74
     0
 49
-1.0
 74
     0
 49
1.0
 74
     0
 49
-1.0
 74
     0
  0
ENDTAB
  0
TABLE
  2
LAYER
  5
2
330
0
100
AcDbSymbolTable
 70
     2
  0
LAYER
  5
10
330
2
100
AcDbSymbolTableRecord
100
AcDbLayerTableRecord
  2
0
 70
     0
 62
     7
  6
Continuous
370
    -3
390
F
  0
LAYER
  5
31
330
2
100
AcDbSymbolTableRecord
100
AcDbLayerTableRecord
  2
1
 70
     0
 62
     7
  6
Continuous
370
    -3
390
F
  0
ENDTAB
  0
TABLE
  2
STYLE
  5
3
330
0
100
AcDbSymbolTable
 70
     2
  0
STYLE
  5
11
330
3
100
AcDbSymbolTableRecord
100
AcDbTextStyleTableRecord
  2
Standard
 70
     0
 40
0.0
 41
1.0
 50
0.0
 71
     0
 42
0.2
  3
txt
  4

  0
STYLE
  5
EE
330
3
100
AcDbSymbolTableRecord
100
AcDbTextStyleTableRecord
  2
CONVERTER_11
 70
     0
 40
0.0
 41
0.9
 50
0.0
 71
     0
 42
0.2
  3
txt.shx
  4

  0
ENDTAB
  0
TABLE
  2
VIEW
  5
6
330
0
100
AcDbSymbolTable
 70
     0
  0
ENDTAB
  0
TABLE
  2
UCS
  5
7
330
0
100
AcDbSymbolTable
 70
     0
  0
ENDTAB
  0
TABLE
  2
APPID
  5
9
330
0
100
AcDbSymbolTable
 70
     1
  0
APPID
  5
12
330
9
100
AcDbSymbolTableRecord
100
AcDbRegAppTableRecord
  2
ACAD
 70
     0
  0
ENDTAB
  0
TABLE
  2
DIMSTYLE
  5
A
330
0
100
AcDbSymbolTable
 70
     8
100
AcDbDimStyleTable
  0
DIMSTYLE
105
27
330
A
100
AcDbSymbolTableRecord
100
AcDbDimStyleTableRecord
  2
Standard
 70
     0
340
11
  0
DIMSTYLE
105
F2
102
{ACAD_REACTORS
330
F3
102
}
330
A
100
AcDbSymbolTableRecord
100
AcDbDimStyleTableRecord
  2
ME10_DIM_10
 70
     0
 41
3.5
 42
0.0
 44
2.0
 73
     0
 74
     0
 77
     1
 78
     8
140
3.5
147
2.0
172
     1
173
     1
176
     2
177
     2
178
     2
271
     2
340
EE
  0
DIMSTYLE
105
FF
102
{ACAD_REACTORS
330
100
102
}
330
A
100
AcDbSymbolTableRecord
100
AcDbDimStyleTableRecord
  2
ME10_DIM_11
 70
     0
  3
ø<>
 41
3.5
 42
0.0
 44
2.0
 73
     0
 74
     0
 77
     1
 78
     8
140
3.5
147
2.0
172
     1
173
     1
176
     2
177
     2
178
     2
271
     2
340
EE
  0
DIMSTYLE
105
10B
102
{ACAD_REACTORS
330
10C
102
}
330
A
100
AcDbSymbolTableRecord
100
AcDbDimStyleTableRecord
  2
ME10_DIM_12
 70
     0
 41
3.5
 42
0.0
 44
2.0
 73
     0
 74
     0
 77
     1
 78
     8
140
3.5
147
2.0
172
     1
173
     1
176
     2
177
     2
178
     2
271
     2
340
EE
  0
DIMSTYLE
105
116
102
{ACAD_REACTORS
330
117
102
}
330
A
100
AcDbSymbolTableRecord
100
AcDbDimStyleTableRecord
  2
ME10_DIM_13
 70
     0
 41
3.5
 42
0.0
 44
2.0
 73
     0
 74
     0
 77
     1
 78
     8
140
3.5
147
2.0
172
     1
173
     1
176
     2
177
     2
178
     2
271
     2
340
EE
  0
DIMSTYLE
105
121
102
{ACAD_REACTORS
330
122
102
}
330
A
100
AcDbSymbolTableRecord
100
AcDbDimStyleTableRecord
  2
ME10_DIM_14
 70
     0
 41
3.5
 42
0.0
 44
2.0
 73
     0
 74
     0
 77
     1
 78
     8
140
3.5
147
2.0
172
     1
173
     1
176
     2
177
     2
178
     2
271
     2
340
EE
  0
DIMSTYLE
105
12C
102
{ACAD_REACTORS
330
12D
102
}
330
A
100
AcDbSymbolTableRecord
100
AcDbDimStyleTableRecord
  2
ME10_DIM_15
 70
     0
 41
3.5
 42
0.0
 44
2.0
 73
     0
 74
     0
 77
     1
 78
     8
140
3.5
147
2.0
172
     1
173
     1
176
     2
177
     2
178
     2
271
     2
340
EE
  0
DIMSTYLE
105
139
102
{ACAD_REACTORS
330
13A
102
}
330
A
100
AcDbSymbolTableRecord
100
AcDbDimStyleTableRecord
  2
ME10_DIM_16
 70
     0
 41
3.5
 42
0.0
 44
2.0
 73
     0
 74
     0
 77
     1
 78
     8
140
3.5
147
2.0
172
     1
173
     1
176
     2
177
     2
178
     2
271
     2
340
EE
  0
ENDTAB
  0
TABLE
  2
BLOCK_RECORD
  5
1
330
0
100
AcDbSymbolTable
 70
     8
  0
BLOCK_RECORD
  5
1F
330
1
100
AcDbSymbolTableRecord
100
AcDbBlockTableRecord
  2
*Model_Space
340
22
  0
BLOCK_RECORD
  5
1B
330
1
100
AcDbSymbolTableRecord
100
AcDbBlockTableRecord
  2
*Paper_Space
340
1E
  0
BLOCK_RECORD
  5
23
330
1
100
AcDbSymbolTableRecord
100
AcDbBlockTableRecord
  2
*Paper_Space0
340
26
  0
BLOCK_RECORD
  5
E8
330
1
100
AcDbSymbolTableRecord
100
AcDbBlockTableRecord
  2
*D1
340
0
  0
BLOCK_RECORD
  5
F4
330
1
100
AcDbSymbolTableRecord
100
AcDbBlockTableRecord
  2
*D2
340
0
  0
BLOCK_RECORD
  5
101
330
1
100
AcDbSymbolTableRecord
100
AcDbBlockTableRecord
  2
*D3
340
0
  0
BLOCK_RECORD
  5
10D
330
1
100
AcDbSymbolTableRecord
100
AcDbBlockTableRecord
  2
*D4
340
0
  0
BLOCK_RECORD
  5
118
330
1
100
AcDbSymbolTableRecord
100
AcDbBlockTableRecord
  2
*D5
340
0
  0
BLOCK_RECORD
  5
123
330
1
100
AcDbSymbolTableRecord
100
AcDbBlockTableRecord
  2
*D6
340
0
  0
BLOCK_RECORD
  5
12E
330
1
100
AcDbSymbolTableRecord
100
AcDbBlockTableRecord
  2
*D7
340
0
  0
ENDTAB
  0
ENDSEC
  0
SECTION
  2
BLOCKS
  0
BLOCK
  5
20
330
1F
100
AcDbEntity
  8
0
100
AcDbBlockBegin
  2
*Model_Space
 70
     0
 71
     0
 10
0.0
 20
0.0
 30
0.0
  3
*Model_Space
  1

  0
ENDBLK
  5
21
330
1F
100
AcDbEntity
  8
0
100
AcDbBlockEnd
  0
BLOCK
  5
1C
330
1B
100
AcDbEntity
 67
     1
  8
0
100
AcDbBlockBegin
  2
*Paper_Space
 70
     0
 71
     0
 10
0.0
 20
0.0
 30
0.0
  3
*Paper_Space
  1

  0
ENDBLK
  5
1D
330
1B
100
AcDbEntity
 67
     1
  8
0
100
AcDbBlockEnd
  0
BLOCK
  5
24
330
23
100
AcDbEntity
  8
0
100
AcDbBlockBegin
  2
*Paper_Space0
 70
     0
 71
     0
 10
0.0
 20
0.0
 30
0.0
  3
*Paper_Space0
  1

  0
ENDBLK
  5
25
330
23
100
AcDbEntity
  8
0
100
AcDbBlockEnd
  0
BLOCK
  5
F0
330
E8
100
AcDbEntity
  8
0
100
AcDbBlockBegin
  2
*D1
 70
     1
 71
     0
 10
0.0
 20
0.0
 30
0.0
  3
*D1
  1

  0
LINE
  5
E9
330
E8
100
AcDbEntity
  8
1
  6
Continuous
 62
     2
100
AcDbLine
 10
-21.88778052667541
 20
45.8462714788685
 30
0.0
 11
5.36221947332457
 21
45.8462714788685
 31
0.0
  0
LINE
  5
EA
330
E8
100
AcDbEntity
  8
1
  6
Continuous
 62
     2
100
AcDbLine
 10
5.36221947332457
 20
48.68784387346782
 30
0.0
 11
5.36221947332457
 21
43.8462714788685
 31
0.0
  0
LINE
  5
EB
330
E8
100
AcDbEntity
  8
1
  6
Continuous
 62
     2
100
AcDbLine
 10
-21.88778052667541
 20
10.18784387346781
 30
0.0
 11
-21.88778052667541
 21
47.8462714788685
 31
0.0
  0
SOLID
  5
EC
330
E8
100
AcDbEntity
  8
1
 62
     2
100
AcDbTrace
 10
-18.38778052667541
 20
46.30705522042439
 30
0.0
 11
-18.38778052667541
 21
45.38548773731262
 31
0.0
 12
-21.88778052667541
 22
45.8462714788685
 32
0.0
 13
-21.88778052667541
 23
45.8462714788685
 33
0.0
  0
SOLID
  5
ED
330
E8
100
AcDbEntity
  8
1
 62
     2
100
AcDbTrace
 10
1.86221947332457
 20
45.38548773731262
 30
0.0
 11
1.86221947332457
 21
46.30705522042439
 31
0.0
 12
5.36221947332457
 22
45.8462714788685
 32
0.0
 13
5.36221947332457
 23
45.8462714788685
 33
0.0
  0
MTEXT
  5
EF
330
E8
100
AcDbEntity
  8
1
 62
     2
100
AcDbMText
 10
-13.89425640721441
 20
47.8462714788685
 30
0.0
 40
3.5
 41
0.0
 71
     7
 72
     1
  1
27.25
  7
CONVERTER_11
 11
0.9999999999970621
 21
2.424068405545307E-6
 31
0.0
 73
     1
 44
0.60024009603842
  0
ENDBLK
  5
F1
330
E8
100
AcDbEntity
  8
0
100
AcDbBlockEnd
  0
BLOCK
  5
FD
330
F4
100
AcDbEntity
  8
0
100
AcDbBlockBegin
  2
*D2
 70
     1
 71
     0
 10
0.0
 20
0.0
 30
0.0
  3
*D2
  1

  0
LINE
  5
F5
330
F4
100
AcDbEntity
  8
1
  6
Continuous
 62
     2
100
AcDbLine
 10
16.94295983929272
 20
20.3455425761148
 30
0.0
 11
16.94295983929272
 21
11.18784387346781
 31
0.0
  0
LINE
  5
F6
330
F4
100
AcDbEntity
  8
1
  6
Continuous
 62
     2
100
AcDbLine
 10
16.94295983929272
 20
11.18784387346781
 30
0.0
 11
16.94295983929272
 21
4.18784387346781
 31
0.0
  0
LINE
  5
F7
330
F4
100
AcDbEntity
  8
1
  6
Continuous
 62
     2
100
AcDbLine
 10
16.94295983929272
 20
4.18784387346781
 30
0.0
 11
16.94295983929272
 21
-2.81215612653219
 31
0.0
  0
LINE
  5
F8
330
F4
100
AcDbEntity
  8
1
  6
Continuous
 62
     2
100
AcDbLine
 10
6.86221947332457
 20
4.18784387346782
 30
0.0
 11
18.94295983929272
 21
4.18784387346782
 31
0.0
  0
LINE
  5
F9
330
F4
100
AcDbEntity
  8
1
  6
Continuous
 62
     2
100
AcDbLine
 10
5.36221947332457
 20
11.18784387346781
 30
0.0
 11
18.94295983929272
 21
11.18784387346781
 31
0.0
  0
SOLID
  5
FA
330
F4
100
AcDbEntity
  8
1
 62
     2
100
AcDbTrace
 10
16.48217609773683
 20
14.68784387346781
 30
0.0
 11
17.40374358084861
 21
14.68784387346781
 31
0.0
 12
16.94295983929272
 22
11.18784387346781
 32
0.0
 13
16.94295983929272
 23
11.18784387346781
 33
0.0
  0
SOLID
  5
FB
330
F4
100
AcDbEntity
  8
1
 62
     2
100
AcDbTrace
 10
17.4037435808486
 20
0.68784387346781
 30
0.0
 11
16.48217609773683
 21
0.68784387346781
 31
0.0
 12
16.94295983929272
 22
4.18784387346781
 32
0.0
 13
16.94295983929272
 23
4.18784387346781
 33
0.0
  0
MTEXT
  5
FC
330
F4
100
AcDbEntity
  8
1
 62
     2
100
AcDbMText
 10
14.94295983929272
 20
15.3755425761148
 30
0.0
 40
3.5
 41
0.0
 71
     7
 72
     1
  1
\C2;ø\C2;7
  7
CONVERTER_11
 11
0.0
 21
1.0
 31
0.0
 73
     1
 44
0.60024009603842
  0
ENDBLK
  5
FE
330
F4
100
AcDbEntity
  8
0
100
AcDbBlockEnd
  0
BLOCK
  5
109
330
101
100
AcDbEntity
  8
0
100
AcDbBlockBegin
  2
*D3
 70
     1
 71
     0
 10
0.0
 20
0.0
 30
0.0
  3
*D3
  1

  0
LINE
  5
102
330
101
100
AcDbEntity
  8
1
  6
Continuous
 62
     2
100
AcDbLine
 10
27.16639434300469
 20
-5.81215612653214
 30
0.0
 11
27.16639434300469
 21
7.68784387346781
 31
0.0
  0
LINE
  5
103
330
101
100
AcDbEntity
  8
1
  6
Continuous
 62
     2
100
AcDbLine
 10
18.1599938877141
 20
7.68784387346781
 30
0.0
 11
29.16639434300469
 21
7.68784387346781
 31
0.0
  0
LINE
  5
104
330
101
100
AcDbEntity
  8
1
  6
Continuous
 62
     2
100
AcDbLine
 10
8.09471289427467
 20
7.68784387346781
 30
0.0
 11
14.3845948540672
 21
7.68784387346781
 31
0.0
  0
LINE
  5
105
330
101
100
AcDbEntity
  8
1
  6
Continuous
 62
     2
100
AcDbLine
 10
5.36221947332457
 20
-5.81215612653219
 30
0.0
 11
29.16639434300469
 21
-5.81215612653219
 31
0.0
  0
SOLID
  5
106
330
101
100
AcDbEntity
  8
1
 62
     2
100
AcDbTrace
 10
26.7056106014488
 20
-2.31215612653214
 30
0.0
 11
27.62717808456058
 21
-2.31215612653214
 31
0.0
 12
27.16639434300469
 22
-5.81215612653214
 32
0.0
 13
27.16639434300469
 23
-5.81215612653214
 33
0.0
  0
SOLID
  5
107
330
101
100
AcDbEntity
  8
1
 62
     2
100
AcDbTrace
 10
27.62717808456057
 20
4.18784387346781
 30
0.0
 11
26.7056106014488
 21
4.18784387346781
 31
0.0
 12
27.16639434300469
 22
7.68784387346781
 32
0.0
 13
27.16639434300469
 23
7.68784387346781
 33
0.0
  0
MTEXT
  5
108
330
101
100
AcDbEntity
  8
1
 62
     2
100
AcDbMText
 10
25.16639434300469
 20
-1.8760895285055
 30
0.0
 40
3.5
 41
0.0
 71
     7
 72
     1
  1
13.5
  7
CONVERTER_11
 11
0.0
 21
1.0
 31
0.0
 73
     1
 44
0.60024009603842
  0
ENDBLK
  5
10A
330
101
100
AcDbEntity
  8
0
100
AcDbBlockEnd
  0
BLOCK
  5
114
330
10D
100
AcDbEntity
  8
0
100
AcDbBlockBegin
  2
*D4
 70
     1
 71
     0
 10
0.0
 20
0.0
 30
0.0
  3
*D4
  1

  0
LINE
  5
10E
330
10D
100
AcDbEntity
  8
1
  6
Continuous
 62
     2
100
AcDbLine
 10
-32.6619957307568
 20
-4.31215612653219
 30
0.0
 11
-32.6619957307568
 21
22.88784387346783
 31
0.0
  0
LINE
  5
10F
330
10D
100
AcDbEntity
  8
1
  6
Continuous
 62
     2
100
AcDbLine
 10
-21.13778052667541
 20
-4.31215612653219
 30
0.0
 11
-34.6619957307568
 21
-4.31215612653219
 31
0.0
  0
LINE
  5
110
330
10D
100
AcDbEntity
  8
1
  6
Continuous
 62
     2
100
AcDbLine
 10
-12.38778052667543
 20
22.88784387346783
 30
0.0
 11
-34.6619957307568
 21
22.88784387346783
 31
0.0
  0
SOLID
  5
111
330
10D
100
AcDbEntity
  8
1
 62
     2
100
AcDbTrace
 10
-33.12277947231269
 20
-0.81215612653219
 30
0.0
 11
-32.20121198920091
 21
-0.81215612653219
 31
0.0
 12
-32.6619957307568
 22
-4.31215612653219
 32
0.0
 13
-32.6619957307568
 23
-4.31215612653219
 33
0.0
  0
SOLID
  5
112
330
10D
100
AcDbEntity
  8
1
 62
     2
100
AcDbTrace
 10
-32.20121198920091
 20
19.38784387346783
 30
0.0
 11
-33.12277947231269
 21
19.38784387346783
 31
0.0
 12
-32.6619957307568
 22
22.88784387346783
 32
0.0
 13
-32.6619957307568
 23
22.88784387346783
 33
0.0
  0
MTEXT
  5
113
330
10D
100
AcDbEntity
  8
1
 62
     2
100
AcDbMText
 10
-34.6619957307568
 20
4.17913755216551
 30
0.0
 40
3.5
 41
0.0
 71
     7
 72
     1
  1
27.2
  7
CONVERTER_11
 11
0.0
 21
1.0
 31
0.0
 73
     1
 44
0.60024009603842
  0
ENDBLK
  5
115
330
10D
100
AcDbEntity
  8
0
100
AcDbBlockEnd
  0
BLOCK
  5
11F
330
118
100
AcDbEntity
  8
0
100
AcDbBlockBegin
  2
*D5
 70
     1
 71
     0
 10
0.0
 20
0.0
 30
0.0
  3
*D5
  1

  0
LINE
  5
119
330
118
100
AcDbEntity
  8
1
  6
Continuous
 62
     2
100
AcDbLine
 10
-14.88778052667543
 20
37.3317304852386
 30
0.0
 11
5.36221947332457
 21
37.3317304852386
 31
0.0
  0
LINE
  5
11A
330
118
100
AcDbEntity
  8
1
  6
Continuous
 62
     2
100
AcDbLine
 10
-14.88778052667543
 20
20.38784387346784
 30
0.0
 11
-14.88778052667543
 21
39.3317304852386
 31
0.0
  0
LINE
  5
11B
330
118
100
AcDbEntity
  8
1
  6
Continuous
 62
     2
100
AcDbLine
 10
5.36221947332457
 20
48.68784387346782
 30
0.0
 11
5.36221947332457
 21
35.3317304852386
 31
0.0
  0
SOLID
  5
11C
330
118
100
AcDbEntity
  8
1
 62
     2
100
AcDbTrace
 10
-11.38778052667543
 20
37.79251422679449
 30
0.0
 11
-11.38778052667543
 21
36.87094674368272
 31
0.0
 12
-14.88778052667543
 22
37.3317304852386
 32
0.0
 13
-14.88778052667543
 23
37.3317304852386
 33
0.0
  0
SOLID
  5
11D
330
118
100
AcDbEntity
  8
1
 62
     2
100
AcDbTrace
 10
1.86221947332457
 20
36.87094674368272
 30
0.0
 11
1.86221947332457
 21
37.79251422679449
 31
0.0
 12
5.36221947332457
 22
37.3317304852386
 32
0.0
 13
5.36221947332457
 23
37.3317304852386
 33
0.0
  0
MTEXT
  5
11E
330
118
100
AcDbEntity
  8
1
 62
     2
100
AcDbMText
 10
-10.77492109736507
 20
39.3317304852386
 30
0.0
 40
3.5
 41
0.0
 71
     7
 72
     1
  1
20.25
  7
CONVERTER_11
 11
0.9999999999970621
 21
2.424068405545307E-6
 31
0.0
 73
     1
 44
0.60024009603842
  0
ENDBLK
  5
120
330
118
100
AcDbEntity
  8
0
100
AcDbBlockEnd
  0
BLOCK
  5
12A
330
123
100
AcDbEntity
  8
0
100
AcDbBlockBegin
  2
*D6
 70
     1
 71
     0
 10
0.0
 20
0.0
 30
0.0
  3
*D6
  1

  0
LINE
  5
124
330
123
100
AcDbEntity
  8
1
  6
Continuous
 62
     2
100
AcDbLine
 10
6.86221947332457
 20
-16.164489511855
 30
0.0
 11
-9.13778052667543
 21
-16.164489511855
 31
0.0
  0
LINE
  5
125
330
123
100
AcDbEntity
  8
1
  6
Continuous
 62
     2
100
AcDbLine
 10
-9.13778052667543
 20
-5.81215612653215
 30
0.0
 11
-9.13778052667543
 21
-18.164489511855
 31
0.0
  0
LINE
  5
126
330
123
100
AcDbEntity
  8
1
  6
Continuous
 62
     2
100
AcDbLine
 10
6.86221947332457
 20
-4.31215612653215
 30
0.0
 11
6.86221947332457
 21
-18.164489511855
 31
0.0
  0
SOLID
  5
127
330
123
100
AcDbEntity
  8
1
 62
     2
100
AcDbTrace
 10
3.36221947332457
 20
-16.62527325341089
 30
0.0
 11
3.36221947332457
 21
-15.70370577029912
 31
0.0
 12
6.86221947332457
 22
-16.164489511855
 32
0.0
 13
6.86221947332457
 23
-16.164489511855
 33
0.0
  0
SOLID
  5
128
330
123
100
AcDbEntity
  8
1
 62
     2
100
AcDbTrace
 10
-5.63778052667543
 20
-15.70370577029912
 30
0.0
 11
-5.63778052667543
 21
-16.62527325341089
 31
0.0
 12
-9.13778052667543
 22
-16.164489511855
 32
0.0
 13
-9.13778052667543
 23
-16.164489511855
 33
0.0
  0
MTEXT
  5
129
330
123
100
AcDbEntity
  8
1
 62
     2
100
AcDbMText
 10
-4.16172837590923
 20
-14.164489511855
 30
0.0
 40
3.5
 41
0.0
 71
     7
 72
     1
  1
16
  7
CONVERTER_11
 11
0.9999999999970621
 21
2.424068405545307E-6
 31
0.0
 73
     1
 44
0.60024009603842
  0
ENDBLK
  5
12B
330
123
100
AcDbEntity
  8
0
100
AcDbBlockEnd
  0
BLOCK
  5
137
330
12E
100
AcDbEntity
  8
0
100
AcDbBlockBegin
  2
*D7
 70
     1
 71
     0
 10
0.0
 20
0.0
 30
0.0
  3
*D7
  1

  0
LINE
  5
12F
330
12E
100
AcDbEntity
  8
1
  6
Continuous
 62
     2
100
AcDbLine
 10
-2.13778052667543
 20
-16.164489511855
 30
0.0
 11
-9.13778052667543
 21
-16.164489511855
 31
0.0
  0
LINE
  5
130
330
12E
100
AcDbEntity
  8
1
  6
Continuous
 62
     2
100
AcDbLine
 10
-9.13778052667543
 20
-16.164489511855
 30
0.0
 11
-13.13778052667543
 21
-16.164489511855
 31
0.0
  0
LINE
  5
131
330
12E
100
AcDbEntity
  8
1
  6
Continuous
 62
     2
100
AcDbLine
 10
-13.13778052667543
 20
-16.164489511855
 30
0.0
 11
-20.13778052667543
 21
-16.164489511855
 31
0.0
  0
LINE
  5
132
330
12E
100
AcDbEntity
  8
1
  6
Continuous
 62
     2
100
AcDbLine
 10
-13.13778052667543
 20
-4.31215612653215
 30
0.0
 11
-13.13778052667543
 21
-18.164489511855
 31
0.0
  0
LINE
  5
133
330
12E
100
AcDbEntity
  8
1
  6
Continuous
 62
     2
100
AcDbLine
 10
-9.13778052667543
 20
-5.81215612653215
 30
0.0
 11
-9.13778052667543
 21
-18.164489511855
 31
0.0
  0
SOLID
  5
134
330
12E
100
AcDbEntity
  8
1
 62
     2
100
AcDbTrace
 10
-5.63778052667543
 20
-15.70370577029912
 30
0.0
 11
-5.63778052667543
 21
-16.62527325341089
 31
0.0
 12
-9.13778052667543
 22
-16.164489511855
 32
0.0
 13
-9.13778052667543
 23
-16.164489511855
 33
0.0
  0
SOLID
  5
135
330
12E
100
AcDbEntity
  8
1
 62
     2
100
AcDbTrace
 10
-16.63778052667543
 20
-16.62527325341089
 30
0.0
 11
-16.63778052667543
 21
-15.70370577029912
 31
0.0
 12
-13.13778052667543
 22
-16.164489511855
 32
0.0
 13
-13.13778052667543
 23
-16.164489511855
 33
0.0
  0
MTEXT
  5
136
330
12E
100
AcDbEntity
  8
1
 62
     2
100
AcDbMText
 10
-12.18778052667543
 20
-14.164489511855
 30
0.0
 40
3.5
 41
0.0
 71
     7
 72
     1
  1
4
  7
CONVERTER_11
 11
0.9999999999970621
 21
2.424068405545307E-6
 31
0.0
 73
     1
 44
0.60024009603842
  0
ENDBLK
  5
138
330
12E
100
AcDbEntity
  8
0
100
AcDbBlockEnd
  0
ENDSEC
  0
SECTION
  2
ENTITIES
  0
LINE
  5
32
330
1F
100
AcDbEntity
  8
1
  6
Continuous
 62
     7
100
AcDbLine
 10
-12.88778052667541
 20
-4.31215612653219
 30
0.0
 11
-12.88778052667541
 21
0.18784387346781
 31
0.0
  0
LINE
  5
33
330
1F
100
AcDbEntity
  8
1
  6
Continuous
 62
     7
100
AcDbLine
 10
-12.88778052667543
 20
20.38784387346784
 30
0.0
 11
-12.88778052667543
 21
19.88784387346784
 31
0.0
  0
LINE
  5
34
330
1F
100
AcDbEntity
  8
1
  6
Continuous
 62
     7
100
AcDbLine
 10
-14.88778052667541
 20
-4.31215612653219
 30
0.0
 11
-13.13778052667543
 21
-4.31215612653219
 31
0.0
  0
LINE
  5
35
330
1F
100
AcDbEntity
  8
1
  6
Continuous
 62
     7
100
AcDbLine
 10
-14.88778052667543
 20
20.38784387346784
 30
0.0
 11
-14.88778052667541
 21
15.18784387346781
 31
0.0
  0
LINE
  5
36
330
1F
100
AcDbEntity
  8
1
  6
Continuous
 62
     7
100
AcDbLine
 10
5.36221947332457
 20
-2.31215612653219
 30
0.0
 11
5.36221947332457
 21
4.18784387346781
 31
0.0
  0
LINE
  5
37
330
1F
100
AcDbEntity
  8
1
  6
Continuous
 62
     7
100
AcDbLine
 10
-15.52199408904851
 20
0.8220574358409
 30
0.0
 11
-14.88778052667541
 21
0.18784387346781
 31
0.0
  0
LINE
  5
38
330
1F
100
AcDbEntity
  8
1
  6
Continuous
 62
     7
100
AcDbLine
 10
-14.88778052667541
 20
0.18784387346781
 30
0.0
 11
-14.88778052667541
 21
-4.31215612653219
 31
0.0
  0
LINE
  5
39
330
1F
100
AcDbEntity
  8
1
  6
Continuous
 62
     7
100
AcDbLine
 10
-13.47356696430232
 20
1.6020574358409
 30
0.0
 11
-14.52778052667543
 21
2.65627099821401
 31
0.0
  0
LINE
  5
3A
330
1F
100
AcDbEntity
  8
1
  6
Continuous
 62
     7
100
AcDbLine
 10
-15.5219940890485
 20
14.55363031109472
 30
0.0
 11
-14.88778052667541
 21
15.18784387346781
 31
0.0
  0
LINE
  5
3B
330
1F
100
AcDbEntity
  8
1
  6
Continuous
 62
     7
100
AcDbLine
 10
-13.5738478870068
 20
13.76157719916557
 30
0.0
 11
-14.52778052667543
 21
12.93031966881047
 31
0.0
  0
LINE
  5
3C
330
1F
100
AcDbEntity
  8
1
  6
Continuous
 62
     7
100
AcDbLine
 10
-14.52778052667543
 20
12.3628438734678
 30
0.0
 11
-14.52778052667543
 21
12.93031966881047
 31
0.0
  0
LINE
  5
3D
330
1F
100
AcDbEntity
  8
1
  6
Continuous
 62
     7
100
AcDbLine
 10
-14.52778052667543
 20
3.0128438734678
 30
0.0
 11
-14.52778052667543
 21
2.65627099821401
 31
0.0
  0
LINE
  5
3E
330
1F
100
AcDbEntity
  8
1
  6
Continuous
 62
     7
100
AcDbLine
 10
-9.88778052667541
 20
12.68784387346781
 30
0.0
 11
-4.38778052667541
 21
12.68784387346781
 31
0.0
  0
LINE
  5
3F
330
1F
100
AcDbEntity
  8
1
  6
Continuous
 62
     7
100
AcDbLine
 10
-3.88778052667541
 20
12.68784387346781
 30
0.0
 11
-3.88778052667541
 21
2.68784387346781
 31
0.0
  0
LINE
  5
40
330
1F
100
AcDbEntity
  8
1
  6
DASHED
 62
     2
100
AcDbLine
 10
-3.88778052667541
 20
4.9878438734678
 30
0.0
 11
-7.38778052667541
 21
4.9878438734678
 31
0.0
  0
LINE
  5
41
330
1F
100
AcDbEntity
  8
1
  6
DASHED
 62
     2
100
AcDbLine
 10
-7.38778052667541
 20
4.9878438734678
 30
0.0
 11
-8.9466262534874
 21
7.68784387346781
 31
0.0
  0
LINE
  5
42
330
1F
100
AcDbEntity
  8
1
  6
DASHED
 62
     2
100
AcDbLine
 10
-8.9466262534874
 20
7.68784387346781
 30
0.0
 11
-7.38778052667541
 21
10.3878438734678
 31
0.0
  0
LINE
  5
43
330
1F
100
AcDbEntity
  8
1
  6
DASHED
 62
     2
100
AcDbLine
 10
-7.38778052667541
 20
10.3878438734678
 30
0.0
 11
-3.88778052667541
 21
10.3878438734678
 31
0.0
  0
LINE
  5
44
330
1F
100
AcDbEntity
  8
1
  6
DASHED
 62
     2
100
AcDbLine
 10
-7.38778052667541
 20
4.9878438734678
 30
0.0
 11
-7.38778052667541
 21
10.3878438734678
 31
0.0
  0
LINE
  5
45
330
1F
100
AcDbEntity
  8
1
  6
DASHED
 62
     2
100
AcDbLine
 10
-3.88778052667541
 20
9.3878438734678
 30
0.0
 11
-7.38778052667541
 21
9.3878438734678
 31
0.0
  0
LINE
  5
46
330
1F
100
AcDbEntity
  8
1
  6
DASHED
 62
     2
100
AcDbLine
 10
-3.88778052667541
 20
5.9878438734678
 30
0.0
 11
-7.38778052667541
 21
5.9878438734678
 31
0.0
  0
LINE
  5
47
330
1F
100
AcDbEntity
  8
1
  6
Continuous
 62
     7
100
AcDbLine
 10
-3.88778052667541
 20
2.68784387346781
 30
0.0
 11
-4.63778052667544
 21
2.68784387346781
 31
0.0
  0
LINE
  5
48
330
1F
100
AcDbEntity
  8
1
  6
Continuous
 62
     2
100
AcDbLine
 10
-21.88778052667541
 20
10.18784387346781
 30
0.0
 11
-9.88778052667541
 21
10.18784387346781
 31
0.0
  0
LINE
  5
49
330
1F
100
AcDbEntity
  8
1
  6
Continuous
 62
     2
100
AcDbLine
 10
-21.88778052667541
 20
5.18784387346781
 30
0.0
 11
-9.88778052667541
 21
5.18784387346781
 31
0.0
  0
LINE
  5
4A
330
1F
100
AcDbEntity
  8
1
  6
Continuous
 62
     7
100
AcDbLine
 10
-21.38778052667541
 20
10.68784387346781
 30
0.0
 11
-21.88778052667541
 21
10.18784387346781
 31
0.0
  0
LINE
  5
4B
330
1F
100
AcDbEntity
  8
1
  6
Continuous
 62
     7
100
AcDbLine
 10
-9.88778052667541
 20
10.68784387346781
 30
0.0
 11
-12.88778052667541
 21
10.68784387346781
 31
0.0
  0
LINE
  5
4C
330
1F
100
AcDbEntity
  8
1
  6
Continuous
 62
     7
100
AcDbLine
 10
-21.38778052667541
 20
10.68784387346781
 30
0.0
 11
-21.38778052667541
 21
4.68784387346781
 31
0.0
  0
LINE
  5
4D
330
1F
100
AcDbEntity
  8
1
  6
Continuous
 62
     7
100
AcDbLine
 10
-21.88778052667541
 20
10.18784387346781
 30
0.0
 11
-21.88778052667541
 21
5.18784387346781
 31
0.0
  0
LINE
  5
4E
330
1F
100
AcDbEntity
  8
1
  6
Continuous
 62
     7
100
AcDbLine
 10
-21.88778052667541
 20
5.18784387346781
 30
0.0
 11
-21.38778052667541
 21
4.68784387346781
 31
0.0
  0
LINE
  5
4F
330
1F
100
AcDbEntity
  8
1
  6
Continuous
 62
     7
100
AcDbLine
 10
-21.38778052667541
 20
4.68784387346781
 30
0.0
 11
-18.08778052667541
 21
4.68784387346781
 31
0.0
  0
LINE
  5
50
330
1F
100
AcDbEntity
  8
1
  6
Continuous
 62
     7
100
AcDbLine
 10
-9.88778052667541
 20
12.68784387346781
 30
0.0
 11
-9.88778052667541
 21
2.68784387346781
 31
0.0
  0
LINE
  5
51
330
1F
100
AcDbEntity
  8
1
  6
DOT_CENTER
 62
     2
100
AcDbLine
 10
-8.9466262534874
 20
7.68784387346781
 30
0.0
 11
-22.69444911708342
 21
7.68784387346781
 31
0.0
  0
LINE
  5
52
330
1F
100
AcDbEntity
  8
1
  6
Continuous
 62
     7
100
AcDbLine
 10
-14.52778052667543
 20
12.3628438734678
 30
0.0
 11
-12.88778052667541
 21
12.3628438734678
 31
0.0
  0
LINE
  5
53
330
1F
100
AcDbEntity
  8
1
  6
Continuous
 62
     7
100
AcDbLine
 10
-14.52778052667543
 20
12.06284387346778
 30
0.0
 11
-14.52778052667543
 21
12.3628438734678
 31
0.0
  0
LINE
  5
54
330
1F
100
AcDbEntity
  8
1
  6
Continuous
 62
     7
100
AcDbLine
 10
-16.10778052667541
 20
12.06284387346778
 30
0.0
 11
-14.52778052667543
 21
12.06284387346778
 31
0.0
  0
LINE
  5
55
330
1F
100
AcDbEntity
  8
1
  6
Continuous
 62
     7
100
AcDbLine
 10
-16.1077805266754
 20
13.86461631968646
 30
0.0
 11
-16.1077805266754
 21
13.13941674872164
 31
0.0
  0
LINE
  5
56
330
1F
100
AcDbEntity
  8
1
  6
Continuous
 62
     7
100
AcDbLine
 10
-16.1077805266754
 20
13.86461631968646
 30
0.0
 11
-18.08778052667541
 21
14.03784387346778
 31
0.0
  0
LINE
  5
57
330
1F
100
AcDbEntity
  8
1
  6
Continuous
 62
     7
100
AcDbLine
 10
-18.08778052667541
 20
10.68784387346781
 30
0.0
 11
-18.08778052667541
 21
14.03784387346778
 31
0.0
  0
LINE
  5
58
330
1F
100
AcDbEntity
  8
1
  6
Continuous
 62
     7
100
AcDbLine
 10
-18.08778052667541
 20
4.68784387346781
 30
0.0
 11
-18.08778052667541
 21
1.33784387346779
 31
0.0
  0
LINE
  5
59
330
1F
100
AcDbEntity
  8
1
  6
Continuous
 62
     7
100
AcDbLine
 10
-18.08778052667541
 20
1.33784387346779
 30
0.0
 11
-16.10778052667541
 21
1.51107142724911
 31
0.0
  0
LINE
  5
5A
330
1F
100
AcDbEntity
  8
1
  6
Continuous
 62
     7
100
AcDbLine
 10
-16.10778052667541
 20
3.31284387346778
 30
0.0
 11
-16.10778052667541
 21
2.236270998214
 31
0.0
  0
LINE
  5
5B
330
1F
100
AcDbEntity
  8
1
  6
Continuous
 62
     7
100
AcDbLine
 10
-14.52778052667543
 20
3.31284387346778
 30
0.0
 11
-16.10778052667541
 21
3.31284387346778
 31
0.0
  0
LINE
  5
5C
330
1F
100
AcDbEntity
  8
1
  6
Continuous
 62
     7
100
AcDbLine
 10
-14.52778052667543
 20
3.0128438734678
 30
0.0
 11
-14.52778052667543
 21
3.31284387346778
 31
0.0
  0
LINE
  5
5D
330
1F
100
AcDbEntity
  8
1
  6
Continuous
 62
     7
100
AcDbLine
 10
-12.88778052667541
 20
3.0128438734678
 30
0.0
 11
-14.52778052667543
 21
3.0128438734678
 31
0.0
  0
LINE
  5
5E
330
1F
100
AcDbEntity
  8
1
  6
DOT_CENTER
 62
     2
100
AcDbLine
 10
8.09471289427467
 20
7.68784387346781
 30
0.0
 11
-8.9466262534874
 21
7.68784387346781
 31
0.0
  0
LINE
  5
5F
330
1F
100
AcDbEntity
  8
1
  6
Continuous
 62
     7
100
AcDbLine
 10
-16.1077805266754
 20
13.13941674872164
 30
0.0
 11
-16.10778052667541
 21
12.06284387346778
 31
0.0
  0
LINE
  5
60
330
1F
100
AcDbEntity
  8
1
  6
Continuous
 62
     7
100
AcDbLine
 10
-16.10778052667541
 20
2.236270998214
 30
0.0
 11
-16.10778052667541
 21
1.51107142724911
 31
0.0
  0
LINE
  5
61
330
1F
100
AcDbEntity
  8
1
  6
Continuous
 62
     7
100
AcDbLine
 10
-12.88778052667541
 20
10.68784387346781
 30
0.0
 11
-12.88778052667541
 21
11.4378438734678
 31
0.0
  0
LINE
  5
62
330
1F
100
AcDbEntity
  8
1
  6
Continuous
 62
     7
100
AcDbLine
 10
-9.88778052667541
 20
2.68784387346781
 30
0.0
 11
-9.88778052667541
 21
1.1878438734678
 31
0.0
  0
LINE
  5
63
330
1F
100
AcDbEntity
  8
1
  6
Continuous
 62
     7
100
AcDbLine
 10
-9.88778052667541
 20
12.68784387346781
 30
0.0
 11
-9.88778052667541
 21
11.4378438734678
 31
0.0
  0
LINE
  5
64
330
1F
100
AcDbEntity
  8
1
  6
Continuous
 62
     7
100
AcDbLine
 10
-12.88778052667541
 20
-4.31215612653219
 30
0.0
 11
-12.88778052667541
 21
1.1878438734678
 31
0.0
  0
LINE
  5
65
330
1F
100
AcDbEntity
  8
1
  6
Continuous
 62
     7
100
AcDbLine
 10
-4.88778052667541
 20
16.6878438734678
 30
0.0
 11
-4.88778052667541
 21
13.6878438734678
 31
0.0
  0
LINE
  5
66
330
1F
100
AcDbEntity
  8
1
  6
Continuous
 62
     7
100
AcDbLine
 10
-4.38778052667541
 20
12.68784387346781
 30
0.0
 11
-4.38778052667541
 21
13.1878438734678
 31
0.0
  0
LINE
  5
67
330
1F
100
AcDbEntity
  8
1
  6
Continuous
 62
     7
100
AcDbLine
 10
-9.88778052667541
 20
1.1878438734678
 30
0.0
 11
-9.88778052667541
 21
-4.31215612653219
 31
0.0
  0
LINE
  5
68
330
1F
100
AcDbEntity
  8
1
  6
Continuous
 62
     7
100
AcDbLine
 10
-12.88778052667541
 20
1.1878438734678
 30
0.0
 11
-12.88778052667541
 21
3.0128438734678
 31
0.0
  0
LINE
  5
69
330
1F
100
AcDbEntity
  8
1
  6
Continuous
 62
     7
100
AcDbLine
 10
-9.88778052667541
 20
1.1878438734678
 30
0.0
 11
-12.88778052667541
 21
1.1878438734678
 31
0.0
  0
LINE
  5
6A
330
1F
100
AcDbEntity
  8
1
  6
Continuous
 62
     7
100
AcDbLine
 10
-9.88778052667541
 20
11.4378438734678
 30
0.0
 11
-9.88778052667541
 21
2.68784387346781
 31
0.0
  0
LINE
  5
6B
330
1F
100
AcDbEntity
  8
1
  6
Continuous
 62
     7
100
AcDbLine
 10
-12.88778052667541
 20
11.4378438734678
 30
0.0
 11
-12.88778052667541
 21
12.3628438734678
 31
0.0
  0
LINE
  5
6C
330
1F
100
AcDbEntity
  8
1
  6
Continuous
 62
     7
100
AcDbLine
 10
-9.88778052667541
 20
11.4378438734678
 30
0.0
 11
-12.88778052667541
 21
11.4378438734678
 31
0.0
  0
LINE
  5
6D
330
1F
100
AcDbEntity
  8
1
  6
Continuous
 62
     7
100
AcDbLine
 10
-9.88778052667541
 20
13.1878438734678
 30
0.0
 11
-9.88778052667541
 21
12.68784387346781
 31
0.0
  0
LINE
  5
6E
330
1F
100
AcDbEntity
  8
1
  6
Continuous
 62
     7
100
AcDbLine
 10
-12.88778052667541
 20
-5.81215612653219
 30
0.0
 11
-12.88778052667541
 21
-4.31215612653219
 31
0.0
  0
LINE
  5
6F
330
1F
100
AcDbEntity
  8
1
  6
Continuous
 62
     7
100
AcDbLine
 10
-9.38778052667541
 20
16.6878438734678
 30
0.0
 11
-4.88778052667541
 21
16.6878438734678
 31
0.0
  0
LINE
  5
70
330
1F
100
AcDbEntity
  8
1
  6
Continuous
 62
     7
100
AcDbLine
 10
-1.38778052667541
 20
13.1878438734678
 30
0.0
 11
-1.38778052667541
 21
4.6878438734678
 31
0.0
  0
LINE
  5
71
330
1F
100
AcDbEntity
  8
1
  6
Continuous
 62
     7
100
AcDbLine
 10
-1.38778052667541
 20
4.6878438734678
 30
0.0
 11
-3.58778052667541
 21
4.6878438734678
 31
0.0
  0
LINE
  5
72
330
1F
100
AcDbEntity
  8
1
  6
Continuous
 62
     7
100
AcDbLine
 10
-3.58778052667541
 20
4.6878438734678
 30
0.0
 11
-3.58778052667541
 21
10.6878438734678
 31
0.0
  0
LINE
  5
73
330
1F
100
AcDbEntity
  8
1
  6
Continuous
 62
     7
100
AcDbLine
 10
-3.58778052667541
 20
10.6878438734678
 30
0.0
 11
-3.88778052667541
 21
10.6878438734678
 31
0.0
  0
LINE
  5
74
330
1F
100
AcDbEntity
  8
1
  6
Continuous
 62
     7
100
AcDbLine
 10
-4.88778052667541
 20
13.6878438734678
 30
0.0
 11
-9.38778052667541
 21
13.6878438734678
 31
0.0
  0
LINE
  5
75
330
1F
100
AcDbEntity
  8
1
  6
Continuous
 62
     7
100
AcDbLine
 10
-12.88778052667541
 20
12.3628438734678
 30
0.0
 11
-12.88778052667541
 21
13.1878438734678
 31
0.0
  0
LINE
  5
76
330
1F
100
AcDbEntity
  8
1
  6
Continuous
 62
     7
100
AcDbLine
 10
-12.88778052667541
 20
3.0128438734678
 30
0.0
 11
-12.88778052667541
 21
4.68784387346781
 31
0.0
  0
LINE
  5
77
330
1F
100
AcDbEntity
  8
1
  6
Continuous
 62
     7
100
AcDbLine
 10
-12.88778052667541
 20
4.68784387346781
 30
0.0
 11
-9.88778052667541
 21
4.68784387346781
 31
0.0
  0
LINE
  5
78
330
1F
100
AcDbEntity
  8
1
  6
Continuous
 62
     7
100
AcDbLine
 10
-12.88778052667541
 20
10.68784387346781
 30
0.0
 11
-18.08778052667541
 21
10.68784387346781
 31
0.0
  0
LINE
  5
79
330
1F
100
AcDbEntity
  8
1
  6
Continuous
 62
     7
100
AcDbLine
 10
-4.38778052667541
 20
12.68784387346781
 30
0.0
 11
-3.88778052667541
 21
12.68784387346781
 31
0.0
  0
LINE
  5
7A
330
1F
100
AcDbEntity
  8
1
  6
Continuous
 62
     7
100
AcDbLine
 10
-9.88778052667541
 20
-4.31215612653219
 30
0.0
 11
-9.13778052667543
 21
-4.31215612653219
 31
0.0
  0
LINE
  5
7B
330
1F
100
AcDbEntity
  8
1
  6
Continuous
 62
     7
100
AcDbLine
 10
-9.88778052667541
 20
-4.31215612653219
 30
0.0
 11
-9.88778052667541
 21
-5.81215612653219
 31
0.0
  0
LINE
  5
7C
330
1F
100
AcDbEntity
  8
1
  6
Continuous
 62
     7
100
AcDbLine
 10
-18.08778052667541
 20
10.68784387346781
 30
0.0
 11
-21.38778052667541
 21
10.68784387346781
 31
0.0
  0
LINE
  5
7D
330
1F
100
AcDbEntity
  8
1
  6
Continuous
 62
     7
100
AcDbLine
 10
-18.08778052667541
 20
4.68784387346781
 30
0.0
 11
-12.88778052667541
 21
4.68784387346781
 31
0.0
  0
LINE
  5
7E
330
1F
100
AcDbEntity
  8
1
  6
Continuous
 62
     7
100
AcDbLine
 10
5.36221947332457
 20
-2.31215612653219
 30
0.0
 11
5.36221947332457
 21
-4.31215612653219
 31
0.0
  0
LINE
  5
7F
330
1F
100
AcDbEntity
  8
1
  6
Continuous
 62
     7
100
AcDbLine
 10
3.36221947332457
 20
-4.31215612653219
 30
0.0
 11
5.36221947332457
 21
-4.31215612653219
 31
0.0
  0
LINE
  5
80
330
1F
100
AcDbEntity
  8
1
  6
Continuous
 62
     7
100
AcDbLine
 10
-15.23778052098313
 20
-4.31215612653219
 30
0.0
 11
-15.23778052667538
 21
-4.31215612653219
 31
0.0
  0
LINE
  5
81
330
1F
100
AcDbEntity
  8
1
  6
Continuous
 62
     7
100
AcDbLine
 10
5.36221947332457
 20
48.68784387346782
 30
0.0
 11
5.36221947332457
 21
20.6878438734678
 31
0.0
  0
LINE
  5
82
330
1F
100
AcDbEntity
  8
1
  6
Continuous
 62
     7
100
AcDbLine
 10
-21.63778052667541
 20
4.18784387346784
 30
0.0
 11
-23.13778052667541
 21
4.18784387346784
 31
0.0
  0
LINE
  5
83
330
1F
100
AcDbEntity
  8
1
  6
Continuous
 62
     7
100
AcDbLine
 10
-23.13778052667541
 20
4.18784387346784
 30
0.0
 11
-23.13778052667541
 21
-4.31215612653219
 31
0.0
  0
LINE
  5
84
330
1F
100
AcDbEntity
  8
1
  6
Continuous
 62
     7
100
AcDbLine
 10
-21.63778052667541
 20
4.18784387346784
 30
0.0
 11
-21.63778052667541
 21
-3.81215612653219
 31
0.0
  0
LINE
  5
85
330
1F
100
AcDbEntity
  8
1
  6
Continuous
 62
     7
100
AcDbLine
 10
-21.13778052667541
 20
-4.31215612653219
 30
0.0
 11
-14.88778052667541
 21
-4.31215612653219
 31
0.0
  0
LINE
  5
86
330
1F
100
AcDbEntity
  8
1
  6
Continuous
 62
     7
100
AcDbLine
 10
-13.13778052667543
 20
-5.81215612653219
 30
0.0
 11
-21.63778052667541
 21
-5.81215612653219
 31
0.0
  0
LINE
  5
87
330
1F
100
AcDbEntity
  8
1
  6
Continuous
 62
     7
100
AcDbLine
 10
-9.13778052667543
 20
-4.31215612653219
 30
0.0
 11
-9.13778052667543
 21
-5.81215612653219
 31
0.0
  0
LINE
  5
88
330
1F
100
AcDbEntity
  8
1
  6
Continuous
 62
     7
100
AcDbLine
 10
5.36221947332457
 20
-5.81215612653219
 30
0.0
 11
-9.13778052667543
 21
-5.81215612653219
 31
0.0
  0
LINE
  5
89
330
1F
100
AcDbEntity
  8
1
  6
Continuous
 62
     7
100
AcDbLine
 10
6.86221947332457
 20
-4.31215612653219
 30
0.0
 11
6.86221947332457
 21
4.18784387346781
 31
0.0
  0
LINE
  5
8A
330
1F
100
AcDbEntity
  8
1
  6
Continuous
 62
     7
100
AcDbLine
 10
18.06363372530382
 20
35.69488708411318
 30
0.0
 11
18.90738141406252
 21
35.68784387346783
 31
0.0
  0
LINE
  5
8B
330
1F
100
AcDbEntity
  8
1
  6
Continuous
 62
     7
100
AcDbLine
 10
18.06365430085981
 20
37.18787054313627
 30
0.0
 11
18.90738141406252
 21
37.18784387346783
 31
0.0
  0
LINE
  5
8C
330
1F
100
AcDbEntity
  8
1
  6
Continuous
 62
     7
100
AcDbLine
 10
15.65580546900111
 20
38.86035252356778
 30
0.0
 11
17.4818691087446
 21
45.37855694558956
 31
0.0
  0
LINE
  5
8D
330
1F
100
AcDbEntity
  8
1
  6
Continuous
 62
     7
100
AcDbLine
 10
7.36221947332457
 20
49.18784387346782
 30
0.0
 11
9.86221947332457
 21
49.18784387346782
 31
0.0
  0
LINE
  5
8E
330
1F
100
AcDbEntity
  8
1
  6
Continuous
 62
     7
100
AcDbLine
 10
6.86221947332457
 20
50.68784387346782
 30
0.0
 11
17.88974332385766
 21
50.68784387346782
 31
0.0
  0
LINE
  5
8F
330
1F
100
AcDbEntity
  8
1
  6
Continuous
 62
     7
100
AcDbLine
 10
19.82159497643562
 20
48.17020578326279
 30
0.0
 11
17.0936097289437
 21
38.45826817092351
 31
0.0
  0
LINE
  5
90
330
1F
100
AcDbEntity
  8
1
  6
Continuous
 62
     7
100
AcDbLine
 10
19.90738141406252
 20
38.18784387346782
 30
0.0
 11
19.90738141406252
 21
59.47934670951111
 31
0.0
  0
LINE
  5
91
330
1F
100
AcDbEntity
  8
1
  6
Continuous
 62
     7
100
AcDbLine
 10
21.40738141406252
 20
38.18784387346782
 30
0.0
 11
21.40738141406252
 21
59.47934670951111
 31
0.0
  0
LINE
  5
92
330
1F
100
AcDbEntity
  8
1
  6
Continuous
 62
     7
100
AcDbLine
 10
5.36221947332457
 20
49.18784387346782
 30
0.0
 11
5.36221947332457
 21
48.68784387346782
 31
0.0
  0
LINE
  5
93
330
1F
100
AcDbEntity
  8
1
  6
Continuous
 62
     7
100
AcDbLine
 10
5.36221947332457
 20
11.18784387346781
 30
0.0
 11
6.86221947332457
 21
11.18784387346781
 31
0.0
  0
LINE
  5
94
330
1F
100
AcDbEntity
  8
1
  6
Continuous
 62
     7
100
AcDbLine
 10
6.86221947332457
 20
11.18784387346781
 30
0.0
 11
6.86221947332457
 21
35.68784387346783
 31
0.0
  0
LINE
  5
95
330
1F
100
AcDbEntity
  8
1
  6
Continuous
 62
     7
100
AcDbLine
 10
5.36221947332457
 20
4.18784387346781
 30
0.0
 11
6.86221947332457
 21
4.18784387346781
 31
0.0
  0
LINE
  5
96
330
1F
100
AcDbEntity
  8
1
  6
Continuous
 62
     7
100
AcDbLine
 10
6.86221947332457
 20
4.18784387346781
 30
0.0
 11
6.86221947332457
 21
11.18784387346781
 31
0.0
  0
LINE
  5
97
330
1F
100
AcDbEntity
  8
1
  6
Continuous
 62
     7
100
AcDbLine
 10
5.36221947332457
 20
11.18784387346781
 30
0.0
 11
5.36221947332457
 21
20.6878438734678
 31
0.0
  0
LINE
  5
98
330
1F
100
AcDbEntity
  8
1
  6
Continuous
 62
     7
100
AcDbLine
 10
5.36221947332457
 20
4.18784387346781
 30
0.0
 11
5.36221947332457
 21
11.18784387346781
 31
0.0
  0
LINE
  5
99
330
1F
100
AcDbEntity
  8
1
  6
Continuous
 62
     7
100
AcDbLine
 10
-9.13778052667543
 20
-4.31215612653219
 30
0.0
 11
3.36221947332457
 21
-4.31215612653219
 31
0.0
  0
LINE
  5
9A
330
1F
100
AcDbEntity
  8
1
  6
Continuous
 62
     7
100
AcDbLine
 10
-15.23778052667538
 20
-4.31215612653219
 30
0.0
 11
-15.23778052098313
 21
-4.31215612653219
 31
0.0
  0
LINE
  5
9B
330
1F
100
AcDbEntity
  8
1
  6
Continuous
 62
     7
100
AcDbLine
 10
-13.13778052667543
 20
-4.31215612653219
 30
0.0
 11
-13.13778052667543
 21
-5.81215612653219
 31
0.0
  0
LINE
  5
9C
330
1F
100
AcDbEntity
  8
1
  6
Continuous
 62
     7
100
AcDbLine
 10
-13.13778052667543
 20
-4.31215612653219
 30
0.0
 11
-12.88778052667541
 21
-4.31215612653219
 31
0.0
  0
LINE
  5
9D
330
1F
100
AcDbEntity
  8
1
  6
Continuous
 62
     7
100
AcDbLine
 10
-13.13778052667543
 20
-5.81215612653219
 30
0.0
 11
-12.88778052667541
 21
-5.81215612653219
 31
0.0
  0
LINE
  5
9E
330
1F
100
AcDbEntity
  8
1
  6
Continuous
 62
     7
100
AcDbLine
 10
-12.88778052667541
 20
-5.81215612653219
 30
0.0
 11
-9.88778052667541
 21
-5.81215612653219
 31
0.0
  0
LINE
  5
9F
330
1F
100
AcDbEntity
  8
1
  6
Continuous
 62
     7
100
AcDbLine
 10
-9.88778052667541
 20
-5.81215612653219
 30
0.0
 11
-9.13778052667543
 21
-5.81215612653219
 31
0.0
  0
LINE
  5
A0
330
1F
100
AcDbEntity
  8
1
  6
Continuous
 62
     7
100
AcDbLine
 10
-8.88778052667543
 20
22.88784387346783
 30
0.0
 11
-5.38778052667543
 21
23.88784387346783
 31
0.0
  0
LINE
  5
A1
330
1F
100
AcDbEntity
  8
1
  6
Continuous
 62
     7
100
AcDbLine
 10
-8.88778052667543
 20
22.88784387346783
 30
0.0
 11
-12.38778052667543
 21
22.88784387346783
 31
0.0
  0
LINE
  5
A2
330
1F
100
AcDbEntity
  8
1
  6
Continuous
 62
     7
100
AcDbLine
 10
-5.38778052667543
 20
23.88784387346783
 30
0.0
 11
-5.12777660205827
 21
22.88784387346784
 31
0.0
  0
LINE
  5
A3
330
1F
100
AcDbEntity
  8
1
  6
Continuous
 62
     7
100
AcDbLine
 10
-4.88778052667543
 20
21.96479597818619
 30
0.0
 11
-8.60767063739494
 21
20.88784387346784
 31
0.0
  0
LINE
  5
A4
330
1F
100
AcDbEntity
  8
1
  6
Continuous
 62
     7
100
AcDbLine
 10
-8.60767063739494
 20
20.88784387346784
 30
0.0
 11
-12.38778052667543
 21
20.88784387346784
 31
0.0
  0
LINE
  5
A5
330
1F
100
AcDbEntity
  8
1
  6
Continuous
 62
     7
100
AcDbLine
 10
3.36221947332457
 20
24.68784387346783
 30
0.0
 11
3.36221947332457
 21
22.88784387346784
 31
0.0
  0
LINE
  5
A6
330
1F
100
AcDbEntity
  8
1
  6
Continuous
 62
     7
100
AcDbLine
 10
5.36221947332457
 20
24.68784387346783
 30
0.0
 11
3.36221947332457
 21
24.68784387346783
 31
0.0
  0
LINE
  5
A7
330
1F
100
AcDbEntity
  8
1
  6
Continuous
 62
     7
100
AcDbLine
 10
4.36221947332457
 20
22.88784387346784
 30
0.0
 11
3.36221947332457
 21
22.88784387346784
 31
0.0
  0
LINE
  5
A8
330
1F
100
AcDbEntity
  8
1
  6
Continuous
 62
     7
100
AcDbLine
 10
4.36221947332457
 20
21.38784387346784
 30
0.0
 11
4.36221947332457
 21
22.88784387346784
 31
0.0
  0
LINE
  5
A9
330
1F
100
AcDbEntity
  8
1
  6
Continuous
 62
     7
100
AcDbLine
 10
5.36221947332457
 20
22.88784387346784
 30
0.0
 11
4.36221947332457
 21
22.88784387346784
 31
0.0
  0
LINE
  5
AA
330
1F
100
AcDbEntity
  8
1
  6
Continuous
 62
     7
100
AcDbLine
 10
-4.63778052667544
 20
21.38784387346784
 30
0.0
 11
4.36221947332457
 21
21.38784387346784
 31
0.0
  0
LINE
  5
AB
330
1F
100
AcDbEntity
  8
1
  6
Continuous
 62
     7
100
AcDbLine
 10
4.36221947332457
 20
19.88784387346784
 30
0.0
 11
-9.83778052667543
 21
19.88784387346784
 31
0.0
  0
LINE
  5
AC
330
1F
100
AcDbEntity
  8
1
  6
Continuous
 62
     7
100
AcDbLine
 10
4.36221947332457
 20
-1.3121561265322
 30
0.0
 11
4.36221947332457
 21
19.88784387346784
 31
0.0
  0
LINE
  5
AD
330
1F
100
AcDbEntity
  8
1
  6
Continuous
 62
     7
100
AcDbLine
 10
4.36221947332457
 20
17.38784387346784
 30
0.0
 11
-2.63778052667544
 21
19.88784387346784
 31
0.0
  0
LINE
  5
AE
330
1F
100
AcDbEntity
  8
1
  6
Continuous
 62
     7
100
AcDbLine
 10
-4.63778052667544
 20
-3.31215612653219
 30
0.0
 11
-4.63778052667544
 21
2.68784387346781
 31
0.0
  0
LINE
  5
AF
330
1F
100
AcDbEntity
  8
1
  6
Continuous
 62
     7
100
AcDbLine
 10
-9.83778052667543
 20
19.88784387346784
 30
0.0
 11
-9.44486993178613
 21
16.6878438734678
 31
0.0
  0
LINE
  5
B0
330
1F
100
AcDbEntity
  8
1
  6
Continuous
 62
     7
100
AcDbLine
 10
-8.60767063739494
 20
20.88784387346784
 30
0.0
 11
-4.63778052667544
 21
20.88784387346784
 31
0.0
  0
LINE
  5
B1
330
1F
100
AcDbEntity
  8
1
  6
Continuous
 62
     7
100
AcDbLine
 10
-4.63778052667544
 20
21.38784387346784
 30
0.0
 11
-4.63778052667544
 21
22.88784387346784
 31
0.0
  0
LINE
  5
B2
330
1F
100
AcDbEntity
  8
1
  6
Continuous
 62
     7
100
AcDbLine
 10
-5.12777660205827
 20
22.88784387346784
 30
0.0
 11
-4.88778052667543
 21
21.96479597818619
 31
0.0
  0
LINE
  5
B3
330
1F
100
AcDbEntity
  8
1
  6
Continuous
 62
     7
100
AcDbLine
 10
-4.63778052667544
 20
20.88784387346784
 30
0.0
 11
-4.63778052667544
 21
21.38784387346784
 31
0.0
  0
LINE
  5
B4
330
1F
100
AcDbEntity
  8
1
  6
Continuous
 62
     7
100
AcDbLine
 10
3.36221947332457
 20
22.88784387346784
 30
0.0
 11
-5.12777660205827
 21
22.88784387346784
 31
0.0
  0
LINE
  5
B5
330
1F
100
AcDbEntity
  8
1
  6
Continuous
 62
     7
100
AcDbLine
 10
2.36221947332457
 20
-3.31215612653219
 30
0.0
 11
-9.83778052667543
 21
-3.31215612653219
 31
0.0
  0
LINE
  5
B6
330
1F
100
AcDbEntity
  8
1
  6
Continuous
 62
     7
100
AcDbLine
 10
-9.83778052667543
 20
19.88784387346784
 30
0.0
 11
-12.63778052667544
 21
19.88784387346784
 31
0.0
  0
LINE
  5
B7
330
1F
100
AcDbEntity
  8
1
  6
Continuous
 62
     7
100
AcDbLine
 10
-12.63778052667544
 20
19.88784387346784
 30
0.0
 11
-12.88778052667543
 21
19.88784387346784
 31
0.0
  0
LINE
  5
B8
330
1F
100
AcDbEntity
  8
1
  6
Continuous
 62
     7
100
AcDbLine
 10
-12.63778052667544
 20
19.88784387346784
 30
0.0
 11
-12.63778052667544
 21
20.82085657536005
 31
0.0
  0
LINE
  5
B9
330
1F
100
AcDbEntity
  8
1
  6
Continuous
 62
     7
100
AcDbLine
 10
-4.63778052667544
 20
2.68784387346781
 30
0.0
 11
-9.88778052667541
 21
2.68784387346781
 31
0.0
  0
LINE
  5
BA
330
1F
100
AcDbEntity
  8
1
  6
Continuous
 62
     7
100
AcDbLine
 10
-12.88778052667543
 20
19.88784387346784
 30
0.0
 11
-12.88778052667541
 21
15.26941705087845
 31
0.0
  0
LINE
  5
BB
330
1F
100
AcDbEntity
  8
1
  6
Continuous
 62
     7
100
AcDbLine
 10
9.86221947332457
 20
49.18784387346782
 30
0.0
 11
14.59308828141184
 21
49.18784387346782
 31
0.0
  0
LINE
  5
BC
330
1F
100
AcDbEntity
  8
1
  6
Continuous
 62
     7
100
AcDbLine
 10
6.86221947332457
 20
46.18784387346782
 30
0.0
 11
6.86221947332457
 21
48.68784387346783
 31
0.0
  0
LINE
  5
BD
330
1F
100
AcDbEntity
  8
1
  6
Continuous
 62
     7
100
AcDbLine
 10
6.86221947332457
 20
35.68784387346783
 30
0.0
 11
6.86221947332457
 21
46.18784387346782
 31
0.0
  0
LINE
  5
BE
330
1F
100
AcDbEntity
  8
1
  6
Continuous
 62
     7
100
AcDbLine
 10
14.59308828141184
 20
49.18784387346782
 30
0.0
 11
17.88974332385766
 21
49.18784387346782
 31
0.0
  0
LINE
  5
BF
330
1F
100
AcDbEntity
  8
1
  6
Continuous
 62
     7
100
AcDbLine
 10
17.4818691087446
 20
45.37855694558956
 30
0.0
 11
18.37270623700215
 21
48.55843435091655
 31
0.0
  0
LINE
  5
C0
330
1F
100
AcDbEntity
  8
1
  6
Continuous
 62
     7
100
AcDbLine
 10
9.86221947332457
 20
32.68784387346783
 30
0.0
 11
15.23912604218147
 21
32.68784387346783
 31
0.0
  0
LINE
  5
C1
330
1F
100
AcDbEntity
  8
1
  6
Continuous
 62
     7
100
AcDbLine
 10
7.86221947332457
 20
35.68784387346783
 30
0.0
 11
7.86221947332457
 21
46.18784387346782
 31
0.0
  0
LINE
  5
C2
330
1F
100
AcDbEntity
  8
1
  6
Continuous
 62
     7
100
AcDbLine
 10
9.86221947332457
 20
48.18784387346782
 30
0.0
 11
14.59308828141184
 21
48.18784387346782
 31
0.0
  0
LINE
  5
C3
330
1F
100
AcDbEntity
  8
1
  6
Continuous
 62
     7
100
AcDbLine
 10
14.69287852655686
 20
39.13011483286054
 30
0.0
 11
16.51894216630035
 21
45.64831925488231
 31
0.0
  0
LINE
  5
C4
330
1F
100
AcDbEntity
  8
1
  6
Continuous
 62
     7
100
AcDbLine
 10
9.86221947332457
 20
33.68784387346783
 30
0.0
 11
15.23912604218147
 21
33.68784387346783
 31
0.0
  0
ARC
  5
C5
330
1F
100
AcDbEntity
  8
1
  6
Continuous
 62
     7
100
AcDbCircle
 10
-14.10778052667541
 20
2.236270998214
 30
0.0
 40
1.999999999999998
100
AcDbArc
 50
180.0
 51
-135.0000000000001
  0
ARC
  5
C6
330
1F
100
AcDbEntity
  8
1
  6
Continuous
 62
     7
100
AcDbCircle
 10
-14.1077805266754
 20
13.13941674872163
 30
0.0
 40
2.0
100
AcDbArc
 50
135.0000000000002
 51
179.9999999999997
  0
ARC
  5
C7
330
1F
100
AcDbEntity
  8
1
  6
Continuous
 62
     7
100
AcDbCircle
 10
18.05635097109831
 20
38.18784387346782
 30
0.0
 40
0.999999999999903
100
AcDbArc
 50
164.310483425602
 51
-89.58154630826017
  0
ARC
  5
C8
330
1F
100
AcDbEntity
  8
1
  6
Continuous
 62
     7
100
AcDbCircle
 10
18.05635097109831
 20
38.18784387346782
 30
0.0
 40
2.492967427003068
100
AcDbArc
 50
-128.8313325026445
 51
-89.8326204874579
  0
ARC
  5
C9
330
1F
100
AcDbEntity
  8
1
  6
Continuous
 62
     7
100
AcDbCircle
 10
9.86221947332457
 20
46.18784387346782
 30
0.0
 40
3.0
100
AcDbArc
 50
90.0
 51
180.0
  0
ARC
  5
CA
330
1F
100
AcDbEntity
  8
1
  6
Continuous
 62
     7
100
AcDbCircle
 10
9.86221947332457
 20
35.68784387346783
 30
0.0
 40
3.0
100
AcDbArc
 50
180.0
 51
-90.0
  0
ARC
  5
CB
330
1F
100
AcDbEntity
  8
1
  6
Continuous
 62
     7
100
AcDbCircle
 10
14.59308828141184
 20
46.18784387346782
 30
0.0
 40
2.999999999999998
100
AcDbArc
 50
-15.65012336363135
 51
90.0
  0
ARC
  5
CC
330
1F
100
AcDbEntity
  8
1
  6
Continuous
 62
     7
100
AcDbCircle
 10
15.23912604218147
 20
34.68784387346783
 30
0.0
 40
2.0
100
AcDbArc
 50
-90.0
 51
51.16866749735508
  0
ARC
  5
CD
330
1F
100
AcDbEntity
  8
1
  6
Continuous
 62
     7
100
AcDbCircle
 10
18.05635097109831
 20
38.18784387346782
 30
0.0
 40
2.492967427003082
100
AcDbArc
 50
164.3498766363689
 51
-128.8313325026445
  0
ARC
  5
CE
330
1F
100
AcDbEntity
  8
1
  6
Continuous
 62
     7
100
AcDbCircle
 10
9.86221947332457
 20
35.68784387346783
 30
0.0
 40
2.0
100
AcDbArc
 50
180.0
 51
-90.0
  0
ARC
  5
CF
330
1F
100
AcDbEntity
  8
1
  6
Continuous
 62
     7
100
AcDbCircle
 10
9.86221947332457
 20
46.18784387346782
 30
0.0
 40
2.0
100
AcDbArc
 50
90.0
 51
180.0
  0
ARC
  5
D0
330
1F
100
AcDbEntity
  8
1
  6
Continuous
 62
     7
100
AcDbCircle
 10
14.59308828141184
 20
46.18784387346782
 30
0.0
 40
2.000000000000001
100
AcDbArc
 50
-15.6501233636314
 51
90.0
  0
ARC
  5
D1
330
1F
100
AcDbEntity
  8
1
  6
Continuous
 62
     7
100
AcDbCircle
 10
18.05635097109831
 20
38.18784387346782
 30
0.0
 40
3.492967427003081
100
AcDbArc
 50
164.3498766363686
 51
-128.8313325026447
  0
ARC
  5
D2
330
1F
100
AcDbEntity
  8
1
  6
Continuous
 62
     7
100
AcDbCircle
 10
15.23912604218147
 20
34.68784387346783
 30
0.0
 40
1.0
100
AcDbArc
 50
-90.0
 51
51.1686674973555
  0
SPLINE
  5
D3
330
1F
100
AcDbEntity
  8
1
  6
Continuous
 62
     7
100
AcDbSpline
210
0.0
220
0.0
230
1.0
 70
     8
 71
     3
 72
    21
 73
    17
 74
    15
 42
0.0000000001
 43
0.0000000001
 44
0.00000001
 40
0.0
 40
0.0
 40
0.0
 40
0.0
 40
0.2055941652648785
 40
0.3664905725465377
 40
0.5282493060459501
 40
0.6720983026135885
 40
0.7797807341074462
 40
0.8857064111210138
 40
0.988232723380539
 40
1.109598171382099
 40
1.203206969204865
 40
1.293002544244283
 40
1.41689413457888
 40
1.532052433088422
 40
1.636514903006327
 40
1.759431153385611
 40
1.759431153385611
 40
1.759431153385611
 40
1.759431153385611
 10
19.90738141406252
 20
59.47934670951111
 30
0.0
 10
19.95981047459136
 20
59.435766510956
 30
0.0
 10
20.05327011332447
 20
59.35808078529557
 30
0.0
 10
20.25309153397335
 20
59.32560866518487
 30
0.0
 10
20.35099704805263
 20
59.45561419376328
 30
0.0
 10
20.48048027698445
 20
59.55048912026773
 30
0.0
 10
20.58799680382308
 20
59.47977641174191
 30
0.0
 10
20.68754264095838
 20
59.42139065245215
 30
0.0
 10
20.79015410158552
 20
59.49541274895857
 30
0.0
 10
20.84924303971319
 20
59.57129142341918
 30
0.0
 10
20.93748220102589
 20
59.65490657766485
 30
0.0
 10
21.03514480125287
 20
59.58148870444154
 30
0.0
 10
21.09508994360408
 20
59.49932153602683
 30
0.0
 10
21.18225925522496
 20
59.40962625714929
 30
0.0
 10
21.30600648951251
 20
59.42220737638334
 30
0.0
 10
21.37180960558321
 20
59.45929688531958
 30
0.0
 10
21.40738141406252
 20
59.47934670951111
 30
0.0
 11
19.90738141406252
 21
59.47934670951111
 31
0.0
 11
20.07888455566324
 21
59.36596402471292
 31
0.0
 11
20.23925403595746
 21
59.35295311904472
 31
0.0
 11
20.36361119580442
 21
59.45639964947533
 31
0.0
 11
20.49078148679456
 21
59.52363246068385
 31
0.0
 11
20.58929076568915
 21
59.48014190970898
 31
0.0
 11
20.68841019816546
 21
59.44278435148636
 31
0.0
 11
20.77842379726929
 21
59.49186791983578
 31
0.0
 11
20.86149489544314
 21
59.58034822621416
 31
0.0
 11
20.93993764900256
 21
59.63142993961376
 31
0.0
 11
21.01919483700946
 21
59.58922160576962
 31
0.0
 11
21.10127088871272
 21
59.49641725300296
 31
0.0
 11
21.19146509983841
 21
59.42481810499806
 31
0.0
 11
21.29589064792401
 21
59.42759524892158
 31
0.0
 11
21.40738141406252
 21
59.47934670951111
 31
0.0
  0
ARC
  5
D4
330
1F
100
AcDbEntity
  8
1
  6
Continuous
 62
     7
100
AcDbCircle
 10
-14.88778052667541
 20
15.26941705087845
 30
0.0
 40
2.000000000000011
100
AcDbArc
 50
-48.93108456428357
 51
0.0
  0
ARC
  5
D5
330
1F
100
AcDbEntity
  8
1
  6
Continuous
 62
     7
100
AcDbCircle
 10
-14.88778052667541
 20
0.18784387346781
 30
0.0
 40
2.0
100
AcDbArc
 50
0.0
 51
45.00000000000004
  0
ARC
  5
D6
330
1F
100
AcDbEntity
  8
1
  6
Continuous
 62
     7
100
AcDbCircle
 10
-4.88778052667541
 20
13.1878438734678
 30
0.0
 40
0.5
100
AcDbArc
 50
0.0
 51
90.0
  0
ARC
  5
D7
330
1F
100
AcDbEntity
  8
1
  6
Continuous
 62
     7
100
AcDbCircle
 10
-9.38778052667541
 20
13.1878438734678
 30
0.0
 40
0.5
100
AcDbArc
 50
90.0
 51
180.0
  0
ARC
  5
D8
330
1F
100
AcDbEntity
  8
1
  6
Continuous
 62
     7
100
AcDbCircle
 10
-9.38778052667541
 20
13.1878438734678
 30
0.0
 40
3.499999999999998
100
AcDbArc
 50
90.0
 51
180.0
  0
ARC
  5
D9
330
1F
100
AcDbEntity
  8
1
  6
Continuous
 62
     7
100
AcDbCircle
 10
-4.88778052667541
 20
13.1878438734678
 30
0.0
 40
3.499999999999998
100
AcDbArc
 50
0.0
 51
90.0
  0
ARC
  5
DA
330
1F
100
AcDbEntity
  8
1
  6
Continuous
 62
     7
100
AcDbCircle
 10
-21.13778052667541
 20
-3.81215612653219
 30
0.0
 40
0.5
100
AcDbArc
 50
180.0
 51
-90.0
  0
ARC
  5
DB
330
1F
100
AcDbEntity
  8
1
  6
Continuous
 62
     7
100
AcDbCircle
 10
-21.63778052667541
 20
-4.31215612653219
 30
0.0
 40
1.5
100
AcDbArc
 50
180.0
 51
-90.0
  0
ARC
  5
DC
330
1F
100
AcDbEntity
  8
1
  6
Continuous
 62
     7
100
AcDbCircle
 10
5.36221947332457
 20
-4.31215612653219
 30
0.0
 40
1.5
100
AcDbArc
 50
-90.0
 51
0.0
  0
ARC
  5
DD
330
1F
100
AcDbEntity
  8
1
  6
Continuous
 62
     7
100
AcDbCircle
 10
7.36221947332457
 20
48.68784387346782
 30
0.0
 40
0.5
100
AcDbArc
 50
90.0
 51
179.9999999999992
  0
ARC
  5
DE
330
1F
100
AcDbEntity
  8
1
  6
Continuous
 62
     7
100
AcDbCircle
 10
17.88974332385766
 20
48.68784387346782
 30
0.0
 40
1.999999999999825
100
AcDbArc
 50
-15.00000000000108
 51
90.0
  0
ARC
  5
DF
330
1F
100
AcDbEntity
  8
1
  6
Continuous
 62
     7
100
AcDbCircle
 10
18.90738141406252
 20
38.18784387346782
 30
0.0
 40
0.9999999999999929
100
AcDbArc
 50
-90.0
 51
0.0
  0
ARC
  5
E0
330
1F
100
AcDbEntity
  8
1
  6
Continuous
 62
     7
100
AcDbCircle
 10
17.88974332385766
 20
48.68784387346782
 30
0.0
 40
0.4999999999999569
100
AcDbArc
 50
-15.00000000000253
 51
90.0
  0
ARC
  5
E1
330
1F
100
AcDbEntity
  8
1
  6
Continuous
 62
     7
100
AcDbCircle
 10
18.90738141406252
 20
38.18784387346782
 30
0.0
 40
2.499999999999993
100
AcDbArc
 50
-90.0
 51
0.0
  0
ARC
  5
E2
330
1F
100
AcDbEntity
  8
1
  6
Continuous
 62
     7
100
AcDbCircle
 10
6.86221947332457
 20
49.18784387346782
 30
0.0
 40
1.5
100
AcDbArc
 50
90.0
 51
180.0
  0
ARC
  5
E3
330
1F
100
AcDbEntity
  8
1
  6
Continuous
 62
     7
100
AcDbCircle
 10
-12.38778052667543
 20
20.38784387346784
 30
0.0
 40
0.4999999999999971
100
AcDbArc
 50
120.0000000000016
 51
180.0
  0
ARC
  5
E4
330
1F
100
AcDbEntity
  8
1
  6
Continuous
 62
     7
100
AcDbCircle
 10
-12.38778052667543
 20
20.38784387346784
 30
0.0
 40
2.499999999999989
100
AcDbArc
 50
90.0
 51
180.0
  0
ARC
  5
E5
330
1F
100
AcDbEntity
  8
1
  6
Continuous
 62
     7
100
AcDbCircle
 10
2.36221947332457
 20
-1.3121561265322
 30
0.0
 40
1.999999999999985
100
AcDbArc
 50
-90.0
 51
0.0
  0
ARC
  5
E6
330
1F
100
AcDbEntity
  8
1
  6
Continuous
 62
     7
100
AcDbCircle
 10
2.36221947332457
 20
-1.3121561265322
 30
0.0
 40
2.999999999999985
100
AcDbArc
 50
-90.0
 51
0.0
  0
ARC
  5
E7
330
1F
100
AcDbEntity
  8
1
  6
Continuous
 62
     7
100
AcDbCircle
 10
-12.38778052667543
 20
20.38784387346784
 30
0.0
 40
0.5
100
AcDbArc
 50
90.0
 51
120.0000000000016
  0
DIMENSION
  5
F3
330
1F
100
AcDbEntity
  8
1
100
AcDbDimension
  2
*D1
 10
-21.88778052667541
 20
45.8462714788685
 30
0.0
 11
-7.55050640721441
 21
49.5962714788685
 31
0.0
 70
    32
  1
<>
 71
     5
 42
-1.0
 53
0.00013888888889
  3
ME10_DIM_10
100
AcDbAlignedDimension
 13
5.36221947332457
 23
48.68784387346782
 33
0.0
 14
-21.88778052667541
 24
10.18784387346781
 34
0.0
100
AcDbRotatedDimension
  0
DIMENSION
  5
100
330
1F
100
AcDbEntity
  8
1
100
AcDbDimension
  2
*D2
 10
16.94295983929272
 20
11.18784387346781
 30
0.0
 11
13.19295983929272
 21
17.1955425761148
 31
0.0
 70
    32
  1
<>
 71
     5
 42
-1.0
 53
90.0
  3
ME10_DIM_11
100
AcDbAlignedDimension
 13
6.86221947332457
 23
4.18784387346781
 33
0.0
 14
5.36221947332457
 24
11.18784387346781
 34
0.0
 50
90.0
100
AcDbRotatedDimension
  0
DIMENSION
  5
10C
330
1F
100
AcDbEntity
  8
1
100
AcDbDimension
  2
*D3
 10
27.16639434300469
 20
-5.81215612653214
 30
0.0
 11
23.41639434300469
 21
2.3676604714945
 31
0.0
 70
    32
  1
<>
 71
     5
 42
-1.0
 53
90.0
  3
ME10_DIM_12
100
AcDbAlignedDimension
 13
8.09471289427467
 23
7.68784387346781
 33
0.0
 14
5.36221947332457
 24
-5.81215612653219
 34
0.0
 50
90.0
100
AcDbRotatedDimension
  0
DIMENSION
  5
117
330
1F
100
AcDbEntity
  8
1
100
AcDbDimension
  2
*D4
 10
-32.6619957307568
 20
-4.31215612653219
 30
0.0
 11
-36.4119957307568
 21
8.94788755216551
 31
0.0
 70
    32
  1
<>
 71
     5
 42
-1.0
 53
90.0
  3
ME10_DIM_13
100
AcDbAlignedDimension
 13
-12.38778052667543
 23
22.88784387346783
 33
0.0
 14
-21.13778052667541
 24
-4.31215612653219
 34
0.0
 50
90.0
100
AcDbRotatedDimension
  0
DIMENSION
  5
122
330
1F
100
AcDbEntity
  8
1
100
AcDbDimension
  2
*D5
 10
-14.88778052667543
 20
37.3317304852386
 30
0.0
 11
-4.43117109736507
 21
41.0817304852386
 31
0.0
 70
    32
  1
<>
 71
     5
 42
-1.0
 53
0.00013888888889
  3
ME10_DIM_14
100
AcDbAlignedDimension
 13
5.36221947332457
 23
48.68784387346782
 33
0.0
 14
-14.88778052667543
 24
20.38784387346784
 34
0.0
100
AcDbRotatedDimension
  0
DIMENSION
  5
12D
330
1F
100
AcDbEntity
  8
1
100
AcDbDimension
  2
*D6
 10
6.86221947332457
 20
-16.164489511855
 30
0.0
 11
-2.06172837590923
 21
-12.414489511855
 31
0.0
 70
    32
  1
<>
 71
     5
 42
-1.0
 53
0.00013888888889
  3
ME10_DIM_15
100
AcDbAlignedDimension
 13
-9.13778052667543
 23
-5.81215612653219
 33
0.0
 14
6.86221947332457
 24
-4.31215612653219
 34
0.0
100
AcDbRotatedDimension
  0
DIMENSION
  5
13A
330
1F
100
AcDbEntity
  8
1
100
AcDbDimension
  2
*D7
 10
-9.13778052667543
 20
-16.164489511855
 30
0.0
 11
-11.13778052667543
 21
-12.414489511855
 31
0.0
 70
    32
  1
<>
 71
     5
 42
-1.0
 53
0.00013888888889
  3
ME10_DIM_16
100
AcDbAlignedDimension
 13
-13.13778052667543
 23
-4.31215612653219
 33
0.0
 14
-9.13778052667543
 24
-5.81215612653219
 34
0.0
100
AcDbRotatedDimension
  0
ENDSEC
  0
SECTION
  2
OBJECTS
  0
DICTIONARY
  5
C
330
0
100
AcDbDictionary
281
     1
  3
ACAD_GROUP
350
D
  3
ACAD_LAYOUT
350
1A
  3
ACAD_MLINESTYLE
350
17
  3
ACAD_PLOTSETTINGS
350
19
  3
ACAD_PLOTSTYLENAME
350
E
  0
DICTIONARY
  5
D
102
{ACAD_REACTORS
330
C
102
}
330
C
100
AcDbDictionary
281
     1
  0
DICTIONARY
  5
1A
102
{ACAD_REACTORS
330
C
102
}
330
C
100
AcDbDictionary
281
     1
  3
Layout1
350
1E
  3
Layout2
350
26
  3
Model
350
22
  0
DICTIONARY
  5
17
102
{ACAD_REACTORS
330
C
102
}
330
C
100
AcDbDictionary
281
     1
  3
Standard
350
18
  0
DICTIONARY
  5
19
102
{ACAD_REACTORS
330
C
102
}
330
C
100
AcDbDictionary
281
     1
  0
ACDBDICTIONARYWDFLT
  5
E
102
{ACAD_REACTORS
330
C
102
}
330
C
100
AcDbDictionary
281
     1
  3
Normal
350
F
100
AcDbDictionaryWithDefault
340
F
  0
LAYOUT
  5
1E
102
{ACAD_REACTORS
330
1A
102
}
330
1A
100
AcDbPlotSettings
  1

  2

  4

  6

 40
0.0
 41
0.0
 42
0.0
 43
0.0
 44
0.0
 45
0.0
 46
0.0
 47
0.0
 48
0.0
 49
0.0
140
0.0
141
0.0
142
1.0
143
1.0
 70
   688
 72
     0
 73
     0
 74
     5
  7

 75
    16
 76
     0
 77
     2
 78
   300
147
1.0
148
0.0
149
0.0
100
AcDbLayout
  1
Layout1
 70
     1
 71
     1
 10
0.0
 20
0.0
 11
0.0
 21
0.0
 12
0.0
 22
0.0
 32
0.0
 14
0.0
 24
0.0
 34
0.0
 15
0.0
 25
0.0
 35
0.0
146
0.0
 13
0.0
 23
0.0
 33
0.0
 16
1.0
 26
0.0
 36
0.0
 17
0.0
 27
1.0
 37
0.0
 76
     0
330
1B
  0
LAYOUT
  5
26
102
{ACAD_REACTORS
330
1A
102
}
330
1A
100
AcDbPlotSettings
  1

  2

  4

  6

 40
0.0
 41
0.0
 42
0.0
 43
0.0
 44
0.0
 45
0.0
 46
0.0
 47
0.0
 48
0.0
 49
0.0
140
0.0
141
0.0
142
1.0
143
1.0
 70
   688
 72
     0
 73
     0
 74
     5
  7

 75
    16
 76
     0
 77
     2
 78
   300
147
1.0
148
0.0
149
0.0
100
AcDbLayout
  1
Layout2
 70
     1
 71
     2
 10
0.0
 20
0.0
 11
0.0
 21
0.0
 12
0.0
 22
0.0
 32
0.0
 14
0.0
 24
0.0
 34
0.0
 15
0.0
 25
0.0
 35
0.0
146
0.0
 13
0.0
 23
0.0
 33
0.0
 16
1.0
 26
0.0
 36
0.0
 17
0.0
 27
1.0
 37
0.0
 76
     0
330
23
  0
LAYOUT
  5
22
102
{ACAD_REACTORS
330
1A
102
}
330
1A
100
AcDbPlotSettings
  1

  2

  4

  6

 40
0.0
 41
0.0
 42
0.0
 43
0.0
 44
0.0
 45
0.0
 46
0.0
 47
0.0
 48
0.0
 49
0.0
140
0.0
141
0.0
142
1.0
143
1.0
 70
  1712
 72
     0
 73
     0
 74
     0
  7

 75
     0
 76
     0
 77
     2
 78
   300
147
1.0
148
0.0
149
0.0
100
AcDbLayout
  1
Model
 70
     1
 71
     0
 10
0.0
 20
0.0
 11
0.0
 21
0.0
 12
0.0
 22
0.0
 32
0.0
 14
-38.1619957307568
 24
-18.164489511855
 34
0.0
 15
29.16639434300469
 25
59.63911208619479
 35
0.0
146
0.0
 13
0.0
 23
0.0
 33
0.0
 16
1.0
 26
0.0
 36
0.0
 17
0.0
 27
1.0
 37
0.0
 76
     0
330
1F
  0
MLINESTYLE
  5
18
102
{ACAD_REACTORS
330
17
102
}
330
17
100
AcDbMlineStyle
  2
Standard
 70
     0
  3

 62
   256
 51
90.0
 52
90.0
 71
     2
 49
0.5
 62
   256
  6
BYLAYER
 49
-0.5
 62
   256
  6
BYLAYER
  0
ACDBPLACEHOLDER
  5
F
102
{ACAD_REACTORS
330
E
102
}
330
E
  0
ENDSEC
  0
EOF
